osu file format v14

[General]
AudioFilename: audio.mp3
AudioLeadIn: 0
PreviewTime: 47180
Countdown: 0
SampleSet: Soft
StackLeniency: 0.7
Mode: 3
LetterboxInBreaks: 0
SpecialStyle: 0
WidescreenStoryboard: 1

[Editor]
DistanceSpacing: 1.3
BeatDivisor: 4
GridSize: 32
TimelineZoom: 2.000005

[Metadata]
Title:Heart Shaker (Cut Ver.)
TitleUnicode:Heart Shaker (Cut Ver.)
Artist:TWICE
ArtistUnicode:트와이스
Creator:fvrex
Version:Alex's Normal
Source:
Tags:xtrippin hytex temmeh8274 romanianalex kpop k-pop pop jyp entertainment 엔터테인먼트 ent korean once christmas xmas Merry & Happy #twice2 sana jihyo dahyun nayeon jeongyeon chaeyoung momo mina tzuyu 나연 정연 모모 사나 지효 미나 다현 채영 쯔위 하트 셰이커
BeatmapID:3951274
BeatmapSetID:1847110

[Difficulty]
HPDrainRate:7
CircleSize:4
OverallDifficulty:7
ApproachRate:5
SliderMultiplier:1.4
SliderTickRate:1

[Events]
//Background and Video events
0,0,"bg.jpg",0,0
//Break Periods
//Storyboard Layer 0 (Background)
//Storyboard Layer 1 (Fail)
//Storyboard Layer 2 (Pass)
//Storyboard Layer 3 (Foreground)
//Storyboard Layer 4 (Overlay)
//Storyboard Sound Samples
Sample,143712,0,"Cymatics - Snare 3 - B.wav",50
Sample,143894,0,"Cymatics - Snare 3 - B.wav",50
Sample,144443,0,"Cymatics - Snare 3 - B.wav",50
Sample,144992,0,"Cymatics - Snare 3 - B.wav",50
Sample,145175,0,"Cymatics - Snare 3 - B.wav",50
Sample,145907,0,"Cymatics - Snare 3 - B.wav",50

[TimingPoints]
1449,365.853658536585,4,2,1,70,1,0
48278,-100,4,2,1,70,0,1
71692,-100,4,2,1,70,0,0

[HitObjects]
64,192,1449,128,2,1814:0:0:0:0:
448,192,1449,1,0,0:0:0:0:
192,192,1997,1,2,0:0:0:0:
320,192,1997,128,0,2363:0:0:0:0:
64,192,2546,1,2,0:0:0:0:
192,192,2546,128,0,2912:0:0:0:0:
320,192,2912,1,2,0:0:0:0:
448,192,2912,128,0,3278:0:0:0:0:
64,192,3461,1,2,0:0:0:0:
320,192,3461,128,0,3827:0:0:0:0:
64,192,4009,1,8,0:0:0:0:
192,192,4009,1,0,0:0:0:0:
192,192,4192,1,2,0:0:0:0:
320,192,4375,128,2,4558:0:0:0:0:
448,192,4375,1,0,0:0:0:0:
192,192,4558,128,0,4741:0:0:0:0:
320,192,4741,128,0,4924:0:0:0:0:
64,192,4924,128,2,5107:0:0:0:0:
192,192,4924,1,0,0:0:0:0:
320,192,5107,128,0,5290:0:0:0:0:
320,192,5473,1,2,0:0:0:0:
448,192,5473,128,0,5656:0:0:0:0:
192,192,5656,128,0,5839:0:0:0:0:
320,192,5839,128,2,6022:0:0:0:0:
448,192,5839,1,0,0:0:0:0:
64,192,6022,128,0,6205:0:0:0:0:
448,192,6205,128,0,6388:0:0:0:0:
64,192,6388,1,2,0:0:0:0:
192,192,6388,1,0,0:0:0:0:
320,192,6570,128,0,6936:0:0:0:0:
64,192,6936,1,2,0:0:0:0:
192,192,6936,1,0,0:0:0:0:
320,192,7119,1,2,0:0:0:0:
64,192,7302,1,2,0:0:0:0:
448,192,7302,1,0,0:0:0:0:
64,192,7485,1,0,0:0:0:0:
192,192,7668,1,0,0:0:0:0:
320,192,7851,1,2,0:0:0:0:
448,192,7851,1,0,0:0:0:0:
448,192,8034,1,0,0:0:0:0:
320,192,8217,1,0,0:0:0:0:
64,192,8400,1,2,0:0:0:0:
192,192,8400,1,0,0:0:0:0:
320,192,8766,1,2,0:0:0:0:
448,192,8766,1,0,0:0:0:0:
320,192,8948,1,0,0:0:0:0:
448,192,9131,1,0,0:0:0:0:
64,192,9314,1,2,0:0:0:0:
192,192,9314,1,0,0:0:0:0:
192,192,9497,1,0,0:0:0:0:
64,192,9680,1,0,0:0:0:0:
320,192,9863,1,2,0:0:0:0:
448,192,9863,1,0,0:0:0:0:
64,192,10229,1,2,0:0:0:0:
192,192,10229,1,0,0:0:0:0:
320,192,10320,1,0,0:0:0:0:
448,192,10412,1,2,0:0:0:0:
192,192,10503,1,0,0:0:0:0:
320,192,10595,128,0,10778:0:0:0:0:
64,192,10778,128,2,10961:0:0:0:0:
320,192,10961,128,2,11144:0:0:0:0:
448,192,10961,1,0,0:0:0:0:
192,192,11144,1,2,0:0:0:0:
448,192,11327,1,0,0:0:0:0:
320,192,11418,1,0,0:0:0:0:
64,192,11509,1,2,0:0:0:0:
192,192,11601,1,0,0:0:0:0:
320,192,11692,128,2,11875:0:0:0:0:
448,192,11692,1,0,0:0:0:0:
64,192,11875,128,0,12058:0:0:0:0:
448,192,12058,128,0,12241:0:0:0:0:
320,192,12424,128,0,12607:0:0:0:0:
192,192,12607,128,0,12790:0:0:0:0:
320,192,12790,128,0,13156:0:0:0:0:
64,192,13156,1,4,0:0:0:0:
448,192,13156,1,2,0:0:0:0:
320,192,13339,1,0,0:0:0:0:
64,192,13522,1,8,0:0:0:0:
192,192,13522,1,0,0:0:0:0:
320,192,13705,1,2,0:0:0:0:
320,192,13888,128,0,14253:0:0:0:0:
448,192,14070,1,2,0:0:0:0:
64,192,14253,1,8,0:0:0:0:
192,192,14253,1,0,0:0:0:0:
448,192,14436,1,0,0:0:0:0:
192,192,14619,1,2,0:0:0:0:
320,192,14802,1,0,0:0:0:0:
64,192,14985,128,8,15168:0:0:0:0:
192,192,14985,1,0,0:0:0:0:
448,192,15168,1,2,0:0:0:0:
320,192,15351,128,0,15534:0:0:0:0:
192,192,15534,128,2,15717:0:0:0:0:
320,192,15717,1,8,0:0:0:0:
448,192,15717,128,0,16083:0:0:0:0:
192,192,16083,1,2,0:0:0:0:
64,192,16266,1,0,0:0:0:0:
320,192,16448,1,8,0:0:0:0:
448,192,16448,1,0,0:0:0:0:
64,192,16631,1,2,0:0:0:0:
64,192,16814,128,0,17180:0:0:0:0:
192,192,16997,1,2,0:0:0:0:
320,192,17180,1,8,0:0:0:0:
448,192,17180,1,0,0:0:0:0:
192,192,17363,1,0,0:0:0:0:
448,192,17546,1,2,0:0:0:0:
320,192,17729,128,0,17912:0:0:0:0:
64,192,17912,1,8,0:0:0:0:
192,192,17912,128,0,18095:0:0:0:0:
448,192,18095,1,2,0:0:0:0:
64,192,18278,128,0,18461:0:0:0:0:
448,192,18461,128,2,18644:0:0:0:0:
64,192,18644,1,8,0:0:0:0:
192,192,18644,128,0,19009:0:0:0:0:
448,192,19009,128,6,19375:0:0:0:0:
320,192,19192,1,0,0:0:0:0:
64,192,19375,1,8,0:0:0:0:
192,192,19375,1,0,0:0:0:0:
320,192,19558,128,2,19924:0:0:0:0:
192,192,19741,1,0,0:0:0:0:
448,192,19924,1,2,0:0:0:0:
64,192,20107,1,8,0:0:0:0:
192,192,20107,1,0,0:0:0:0:
448,192,20290,1,0,0:0:0:0:
192,192,20473,128,2,20839:0:0:0:0:
64,192,20656,1,0,0:0:0:0:
320,192,20839,1,8,0:0:0:0:
448,192,20839,1,0,0:0:0:0:
64,192,21022,128,2,21388:0:0:0:0:
192,192,21205,1,0,0:0:0:0:
448,192,21388,128,2,21570:0:0:0:0:
64,192,21570,1,8,0:0:0:0:
192,192,21570,128,0,21753:0:0:0:0:
320,192,21753,128,0,21936:0:0:0:0:
448,192,21936,128,2,22302:0:0:0:0:
64,192,22119,1,0,0:0:0:0:
192,192,22302,1,8,0:0:0:0:
320,192,22302,1,0,0:0:0:0:
64,192,22485,128,2,22851:0:0:0:0:
320,192,22668,1,0,0:0:0:0:
192,192,22851,1,2,0:0:0:0:
320,192,23034,128,8,23400:0:0:0:0:
448,192,23034,1,0,0:0:0:0:
64,192,23217,1,0,0:0:0:0:
448,192,23400,1,2,0:0:0:0:
192,192,23583,128,0,23948:0:0:0:0:
320,192,23766,1,8,0:0:0:0:
448,192,23766,1,0,0:0:0:0:
64,192,23948,1,2,0:0:0:0:
320,192,24131,1,0,0:0:0:0:
64,192,24314,1,8,0:0:0:0:
192,192,24314,1,0,0:0:0:0:
320,192,24497,1,8,0:0:0:0:
448,192,24497,1,0,0:0:0:0:
64,192,24680,1,8,0:0:0:0:
192,192,24680,1,0,0:0:0:0:
320,192,24863,1,4,0:0:0:0:
448,192,24863,128,2,25046:0:0:0:0:
64,192,25229,1,8,0:0:0:0:
192,192,25229,1,0,0:0:0:0:
320,192,25412,128,2,25778:0:0:0:0:
192,192,25595,1,0,0:0:0:0:
448,192,25778,1,2,0:0:0:0:
64,192,25961,1,8,0:0:0:0:
192,192,25961,1,0,0:0:0:0:
320,192,26144,1,0,0:0:0:0:
448,192,26327,1,2,0:0:0:0:
192,192,26509,1,0,0:0:0:0:
64,192,26692,1,8,0:0:0:0:
448,192,26692,1,0,0:0:0:0:
320,192,26875,128,2,27058:0:0:0:0:
448,192,27058,1,0,0:0:0:0:
64,192,27241,128,2,27607:0:0:0:0:
320,192,27424,1,8,0:0:0:0:
448,192,27424,1,0,0:0:0:0:
192,192,27607,1,0,0:0:0:0:
448,192,27790,128,2,27973:0:0:0:0:
192,192,27973,128,0,28156:0:0:0:0:
320,192,28156,128,8,28339:0:0:0:0:
448,192,28156,1,0,0:0:0:0:
64,192,28339,128,2,28705:0:0:0:0:
320,192,28522,1,0,0:0:0:0:
448,192,28705,1,2,0:0:0:0:
320,192,28888,1,8,0:0:0:0:
448,192,28888,1,0,0:0:0:0:
192,192,29070,1,0,0:0:0:0:
448,192,29253,1,2,0:0:0:0:
64,192,29436,1,0,0:0:0:0:
192,192,29619,1,8,0:0:0:0:
448,192,29619,1,0,0:0:0:0:
320,192,29802,128,2,29985:0:0:0:0:
448,192,29985,1,0,0:0:0:0:
192,192,30168,128,2,30534:0:0:0:0:
320,192,30351,1,8,0:0:0:0:
448,192,30351,1,0,0:0:0:0:
64,192,30534,1,0,0:0:0:0:
448,192,30717,128,6,31083:0:0:0:0:
320,192,30900,1,0,0:0:0:0:
64,192,31083,1,8,0:0:0:0:
192,192,31083,1,0,0:0:0:0:
320,192,31266,128,2,31631:0:0:0:0:
192,192,31448,1,0,0:0:0:0:
448,192,31631,1,2,0:0:0:0:
64,192,31814,1,8,0:0:0:0:
192,192,31814,1,0,0:0:0:0:
448,192,31997,1,0,0:0:0:0:
192,192,32180,128,2,32546:0:0:0:0:
64,192,32363,1,0,0:0:0:0:
320,192,32546,1,8,0:0:0:0:
448,192,32546,1,0,0:0:0:0:
64,192,32729,128,2,33095:0:0:0:0:
192,192,32912,1,0,0:0:0:0:
448,192,33095,128,2,33278:0:0:0:0:
64,192,33278,1,8,0:0:0:0:
192,192,33278,128,0,33461:0:0:0:0:
320,192,33461,128,0,33644:0:0:0:0:
64,192,33644,1,2,0:0:0:0:
192,192,33735,1,0,0:0:0:0:
448,192,33827,1,0,0:0:0:0:
320,192,33918,1,0,0:0:0:0:
64,192,34009,1,8,0:0:0:0:
192,192,34009,1,0,0:0:0:0:
320,192,34192,1,2,0:0:0:0:
448,192,34284,1,0,0:0:0:0:
192,192,34375,128,0,34558:0:0:0:0:
64,192,34558,128,2,34741:0:0:0:0:
320,192,34741,1,8,0:0:0:0:
448,192,34741,128,0,35107:0:0:0:0:
192,192,34924,1,0,0:0:0:0:
320,192,35107,1,2,0:0:0:0:
64,192,35290,128,0,35473:0:0:0:0:
320,192,35473,128,8,35839:0:0:0:0:
448,192,35473,1,0,0:0:0:0:
192,192,35839,1,0,0:0:0:0:
192,192,36022,128,2,36388:0:0:0:0:
320,192,36205,1,8,0:0:0:0:
448,192,36205,1,0,0:0:0:0:
64,192,36388,128,0,36570:0:0:0:0:
320,192,36570,1,4,0:0:0:0:
448,192,36570,128,2,37119:0:0:0:0:
192,192,36753,128,0,36936:0:0:0:0:
64,192,36936,1,2,0:0:0:0:
320,192,37119,1,0,0:0:0:0:
64,192,37302,1,8,0:0:0:0:
448,192,37302,128,0,37485:0:0:0:0:
192,192,37485,128,0,37668:0:0:0:0:
320,192,37851,128,0,38034:0:0:0:0:
64,192,38034,1,2,0:0:0:0:
192,192,38034,128,0,38217:0:0:0:0:
320,192,38217,128,0,38400:0:0:0:0:
64,192,38400,1,2,0:0:0:0:
192,192,38400,1,0,0:0:0:0:
192,192,38583,1,0,0:0:0:0:
320,192,38766,1,8,0:0:0:0:
448,192,38766,128,0,39497:0:0:0:0:
64,192,38948,1,0,0:0:0:0:
192,192,39131,1,0,0:0:0:0:
320,192,39314,1,0,0:0:0:0:
64,192,39497,128,2,40229:0:0:0:0:
192,192,39497,1,0,0:0:0:0:
320,192,39863,128,2,40046:0:0:0:0:
448,192,39863,1,0,0:0:0:0:
192,192,40046,1,0,0:0:0:0:
320,192,40229,1,8,0:0:0:0:
448,192,40229,128,0,40412:0:0:0:0:
192,192,40412,128,2,40595:0:0:0:0:
192,192,40778,128,0,40961:0:0:0:0:
64,192,40961,128,2,41144:0:0:0:0:
320,192,41144,128,0,41327:0:0:0:0:
192,192,41327,128,2,41509:0:0:0:0:
448,192,41509,128,0,41692:0:0:0:0:
64,192,41692,1,8,0:0:0:0:
192,192,41692,1,0,0:0:0:0:
320,192,41875,1,0,0:0:0:0:
320,192,42058,1,0,0:0:0:0:
448,192,42241,128,0,43156:0:0:0:0:
192,192,42424,1,2,0:0:0:0:
64,192,42424,128,0,42607:0:0:0:0:
320,192,42607,1,0,0:0:0:0:
192,192,42790,1,2,0:0:0:0:
64,192,42790,128,0,42973:0:0:0:0:
320,192,42973,1,0,0:0:0:0:
64,192,43156,1,8,0:0:0:0:
192,192,43156,128,0,43339:0:0:0:0:
448,192,43339,128,0,43522:0:0:0:0:
320,192,43705,1,0,0:0:0:0:
64,192,43888,1,2,0:0:0:0:
192,192,43888,1,0,0:0:0:0:
192,192,44070,1,0,0:0:0:0:
320,192,44253,1,2,0:0:0:0:
448,192,44253,1,0,0:0:0:0:
448,192,44436,1,0,0:0:0:0:
64,192,44619,128,8,44985:0:0:0:0:
320,192,44619,1,0,0:0:0:0:
320,192,45351,1,2,0:0:0:0:
448,192,45351,128,0,45534:0:0:0:0:
192,192,45534,128,0,45717:0:0:0:0:
320,192,45717,1,2,0:0:0:0:
448,192,45717,1,0,0:0:0:0:
64,192,45900,128,0,46083:0:0:0:0:
192,192,46083,1,8,0:0:0:0:
320,192,46083,128,0,46266:0:0:0:0:
64,192,46266,128,2,46448:0:0:0:0:
320,192,46448,128,0,46631:0:0:0:0:
448,192,46631,128,0,46814:0:0:0:0:
64,192,46814,1,0,0:0:0:0:
320,192,47180,128,0,47363:0:0:0:0:
448,192,47546,128,0,47729:0:0:0:0:
192,192,47729,128,0,47912:0:0:0:0:
320,192,48095,128,0,48461:0:0:0:0:
64,192,48278,1,4,0:0:0:0:
192,192,48278,1,2,0:0:0:0:
192,192,48644,1,8,0:0:0:0:
448,192,48644,1,0,0:0:0:0:
320,192,48827,128,2,49009:0:0:0:0:
64,192,49009,128,0,49192:0:0:0:0:
448,192,49192,128,2,49558:0:0:0:0:
64,192,49375,1,8,0:0:0:0:
192,192,49375,1,0,0:0:0:0:
320,192,49558,128,0,49741:0:0:0:0:
64,192,49741,128,2,50107:0:0:0:0:
192,192,49924,1,0,0:0:0:0:
320,192,50107,1,8,0:0:0:0:
448,192,50107,1,0,0:0:0:0:
192,192,50290,1,2,0:0:0:0:
192,192,50473,128,0,50656:0:0:0:0:
320,192,50656,128,2,50839:0:0:0:0:
448,192,50839,1,8,0:0:0:0:
64,192,50839,128,0,51022:0:0:0:0:
192,192,51022,128,0,51205:0:0:0:0:
320,192,51205,128,2,51570:0:0:0:0:
64,192,51570,1,8,0:0:0:0:
448,192,51570,1,0,0:0:0:0:
192,192,51753,128,2,51936:0:0:0:0:
320,192,51936,1,0,0:0:0:0:
448,192,52119,128,2,52302:0:0:0:0:
64,192,52302,1,8,0:0:0:0:
192,192,52302,1,0,0:0:0:0:
320,192,52485,128,0,52668:0:0:0:0:
448,192,52668,128,2,53034:0:0:0:0:
192,192,52851,1,0,0:0:0:0:
64,192,53034,1,8,0:0:0:0:
320,192,53034,1,0,0:0:0:0:
448,192,53217,1,2,0:0:0:0:
192,192,53400,1,0,0:0:0:0:
320,192,53583,1,2,0:0:0:0:
320,192,53766,128,8,53948:0:0:0:0:
448,192,53766,1,0,0:0:0:0:
64,192,53948,128,0,54131:0:0:0:0:
320,192,54131,1,4,0:0:0:0:
448,192,54131,128,2,54497:0:0:0:0:
64,192,54497,1,8,0:0:0:0:
192,192,54497,1,0,0:0:0:0:
320,192,54680,1,2,0:0:0:0:
448,192,54680,128,0,55046:0:0:0:0:
192,192,55046,1,2,0:0:0:0:
64,192,55229,128,8,55412:0:0:0:0:
320,192,55229,1,0,0:0:0:0:
448,192,55412,1,0,0:0:0:0:
320,192,55595,128,2,55778:0:0:0:0:
192,192,55778,128,0,55961:0:0:0:0:
320,192,55961,1,8,0:0:0:0:
448,192,55961,128,0,56327:0:0:0:0:
192,192,56144,1,2,0:0:0:0:
64,192,56327,1,0,0:0:0:0:
320,192,56327,1,0,0:0:0:0:
192,192,56509,1,2,0:0:0:0:
192,192,56692,128,8,56875:0:0:0:0:
448,192,56692,1,0,0:0:0:0:
64,192,56875,128,0,57058:0:0:0:0:
320,192,57058,1,2,0:0:0:0:
448,192,57058,128,0,57424:0:0:0:0:
64,192,57424,1,8,0:0:0:0:
192,192,57424,1,0,0:0:0:0:
320,192,57607,1,2,0:0:0:0:
448,192,57607,128,0,57973:0:0:0:0:
64,192,57973,1,2,0:0:0:0:
192,192,58156,1,8,0:0:0:0:
320,192,58156,128,0,58339:0:0:0:0:
192,192,58522,128,2,58888:0:0:0:0:
64,192,58888,1,8,0:0:0:0:
448,192,58888,128,0,59253:0:0:0:0:
192,192,59253,128,0,59436:0:0:0:0:
64,192,59436,128,2,59619:0:0:0:0:
192,192,59619,1,8,0:0:0:0:
448,192,59619,128,0,59802:0:0:0:0:
320,192,59802,128,0,60168:0:0:0:0:
64,192,59985,1,4,0:0:0:0:
192,192,59985,1,2,0:0:0:0:
192,192,60351,1,8,0:0:0:0:
448,192,60351,128,0,60717:0:0:0:0:
64,192,60534,1,2,0:0:0:0:
320,192,60717,128,0,60900:0:0:0:0:
192,192,60900,128,2,61266:0:0:0:0:
320,192,61083,1,8,0:0:0:0:
448,192,61083,1,0,0:0:0:0:
64,192,61266,128,0,61448:0:0:0:0:
448,192,61448,128,2,61814:0:0:0:0:
320,192,61631,1,0,0:0:0:0:
64,192,61814,1,8,0:0:0:0:
192,192,61814,1,0,0:0:0:0:
320,192,61997,128,2,62180:0:0:0:0:
192,192,62180,128,0,62363:0:0:0:0:
448,192,62363,128,2,62546:0:0:0:0:
64,192,62546,128,8,62729:0:0:0:0:
192,192,62546,1,0,0:0:0:0:
320,192,62729,128,0,62912:0:0:0:0:
448,192,62912,128,2,63278:0:0:0:0:
64,192,63278,1,8,0:0:0:0:
320,192,63278,1,0,0:0:0:0:
320,192,63461,128,2,63827:0:0:0:0:
192,192,63644,1,0,0:0:0:0:
448,192,63827,128,2,64192:0:0:0:0:
64,192,64009,1,8,0:0:0:0:
192,192,64009,1,0,0:0:0:0:
320,192,64192,128,0,64558:0:0:0:0:
64,192,64375,1,2,0:0:0:0:
320,192,64741,1,8,0:0:0:0:
448,192,64741,1,0,0:0:0:0:
320,192,65107,128,0,65290:0:0:0:0:
192,192,65290,128,2,65473:0:0:0:0:
320,192,65473,1,8,0:0:0:0:
448,192,65473,1,0,0:0:0:0:
448,192,65656,128,0,65839:0:0:0:0:
64,192,65839,128,4,66205:0:0:0:0:
192,192,65839,1,2,0:0:0:0:
320,192,66205,1,8,0:0:0:0:
448,192,66205,128,0,66388:0:0:0:0:
64,192,66388,1,2,0:0:0:0:
192,192,66388,128,0,66570:0:0:0:0:
320,192,66570,1,0,0:0:0:0:
448,192,66753,128,2,66936:0:0:0:0:
64,192,66936,128,8,67119:0:0:0:0:
192,192,66936,1,0,0:0:0:0:
320,192,67119,128,0,67302:0:0:0:0:
448,192,67302,128,2,67485:0:0:0:0:
192,192,67485,1,0,0:0:0:0:
64,192,67668,1,8,0:0:0:0:
320,192,67668,128,0,68034:0:0:0:0:
448,192,67851,1,2,0:0:0:0:
192,192,68034,1,0,0:0:0:0:
64,192,68217,1,2,0:0:0:0:
448,192,68400,128,8,68583:0:0:0:0:
320,192,68400,1,0,0:0:0:0:
64,192,68583,128,0,68948:0:0:0:0:
320,192,68766,1,2,0:0:0:0:
448,192,68766,1,0,0:0:0:0:
320,192,69131,128,8,69314:0:0:0:0:
448,192,69131,1,0,0:0:0:0:
64,192,69314,128,2,69680:0:0:0:0:
192,192,69680,1,2,0:0:0:0:
320,192,69863,1,8,0:0:0:0:
448,192,69863,128,0,70046:0:0:0:0:
192,192,70046,128,0,70412:0:0:0:0:
448,192,70229,1,2,0:0:0:0:
320,192,70595,128,8,70778:0:0:0:0:
448,192,70595,1,0,0:0:0:0:
64,192,70778,128,2,70961:0:0:0:0:
448,192,70961,128,0,71144:0:0:0:0:
320,192,71144,128,2,71327:0:0:0:0:
64,192,71327,1,8,0:0:0:0:
192,192,71418,1,0,0:0:0:0:
448,192,71509,1,0,0:0:0:0:
320,192,71601,1,0,0:0:0:0:
64,192,71692,128,4,72058:0:0:0:0:
192,192,71692,1,2,0:0:0:0:
320,192,72058,1,8,0:0:0:0:
448,192,72058,1,0,0:0:0:0:
192,192,72241,128,2,72607:0:0:0:0:
320,192,72424,1,0,0:0:0:0:
448,192,72607,1,2,0:0:0:0:
64,192,72790,1,8,0:0:0:0:
320,192,72790,128,0,72973:0:0:0:0:
448,192,73156,128,2,73522:0:0:0:0:
320,192,73339,1,0,0:0:0:0:
64,192,73522,1,8,0:0:0:0:
192,192,73522,128,0,73888:0:0:0:0:
320,192,73888,1,0,0:0:0:0:
448,192,74070,1,2,0:0:0:0:
192,192,74253,128,8,74436:0:0:0:0:
320,192,74253,1,0,0:0:0:0:
448,192,74436,1,0,0:0:0:0:
320,192,74528,1,0,0:0:0:0:
64,192,74619,128,2,74985:0:0:0:0:
192,192,74802,1,0,0:0:0:0:
320,192,74985,1,8,0:0:0:0:
448,192,74985,128,0,75168:0:0:0:0:
64,192,75168,1,2,0:0:0:0:
192,192,75351,128,0,75534:0:0:0:0:
448,192,75534,1,2,0:0:0:0:
64,192,75717,1,8,0:0:0:0:
320,192,75717,128,0,75900:0:0:0:0:
192,192,75900,1,0,0:0:0:0:
448,192,76083,128,2,76448:0:0:0:0:
320,192,76266,1,0,0:0:0:0:
64,192,76448,1,8,0:0:0:0:
192,192,76448,128,0,76631:0:0:0:0:
320,192,76631,1,2,0:0:0:0:
448,192,76814,128,0,76997:0:0:0:0:
192,192,76997,1,2,0:0:0:0:
320,192,77089,1,0,0:0:0:0:
64,192,77180,1,8,0:0:0:0:
448,192,77180,1,0,0:0:0:0:
64,192,77363,1,0,0:0:0:0:
192,192,77455,1,0,0:0:0:0:
448,192,77546,128,6,77912:0:0:0:0:
64,192,77912,1,8,0:0:0:0:
192,192,77912,1,0,0:0:0:0:
320,192,78095,128,2,78461:0:0:0:0:
64,192,78278,1,0,0:0:0:0:
192,192,78461,1,2,0:0:0:0:
64,192,78644,128,8,79009:0:0:0:0:
448,192,78644,1,0,0:0:0:0:
320,192,78827,1,0,0:0:0:0:
448,192,79009,128,2,79375:0:0:0:0:
192,192,79192,1,0,0:0:0:0:
64,192,79375,1,8,0:0:0:0:
320,192,79375,1,0,0:0:0:0:
192,192,79558,128,2,79741:0:0:0:0:
320,192,79741,128,0,79924:0:0:0:0:
64,192,79924,1,2,0:0:0:0:
192,192,80016,1,0,0:0:0:0:
320,192,80107,1,8,0:0:0:0:
448,192,80107,1,0,0:0:0:0:
448,192,80290,1,0,0:0:0:0:
64,192,80381,1,0,0:0:0:0:
320,192,80473,128,2,80839:0:0:0:0:
192,192,80656,1,0,0:0:0:0:
64,192,80839,1,8,0:0:0:0:
448,192,80839,1,0,0:0:0:0:
192,192,81022,128,2,81388:0:0:0:0:
320,192,81205,1,0,0:0:0:0:
448,192,81388,1,2,0:0:0:0:
64,192,81570,128,8,81753:0:0:0:0:
192,192,81570,1,0,0:0:0:0:
448,192,81753,128,0,82302:0:0:0:0:
192,192,81936,1,2,0:0:0:0:
320,192,82119,1,0,0:0:0:0:
64,192,82302,1,8,0:0:0:0:
192,192,82302,1,0,0:0:0:0:
320,192,82485,128,2,82668:0:0:0:0:
64,192,82668,1,0,0:0:0:0:
64,192,82851,128,2,83034:0:0:0:0:
192,192,83034,1,8,0:0:0:0:
448,192,83034,1,0,0:0:0:0:
448,192,83217,128,0,83400:0:0:0:0:
192,192,83400,128,0,83766:0:0:0:0:
