osu file format v14

[General]
AudioFilename: audio.mp3
AudioLeadIn: 0
PreviewTime: -1
Countdown: 0
SampleSet: None
StackLeniency: 0.7
Mode: 0
LetterboxInBreaks: 0
WidescreenStoryboard: 0

[Editor]
Bookmarks: 68204
DistanceSpacing: 0.8
BeatDivisor: 4
GridSize: 4
TimelineZoom: 1

[Metadata]
Title:Heart Shaker
TitleUnicode:Heart Shaker
Artist:TWICE
ArtistUnicode:TWICE
Creator:Ameyy
Version:
Source:
Tags:
BeatmapID:1497784
BeatmapSetID:708453

[Difficulty]
HPDrainRate:7
CircleSize:4
OverallDifficulty:8
ApproachRate:9
SliderMultiplier:1.8
SliderTickRate:1

[Events]
//Background and Video events
0,0,"Konachan.com - 256447 sample.jpg",0,0
//Break Periods
2,69604,71718
//Storyboard Layer 0 (Background)
//Storyboard Layer 1 (Fail)
//Storyboard Layer 2 (Pass)
//Storyboard Layer 3 (Foreground)
//Storyboard Sound Samples

[TimingPoints]
2376,342.857142857143,4,2,0,100,1,0
2376,-125,4,2,0,100,0,0
13347,-100,4,2,0,100,0,0
35290,-142.857142857143,4,2,0,100,0,0
46261,-90.9090909090909,4,2,0,100,0,1
65290,-111.111111111111,4,2,0,100,0,1
66661,-142.857142857143,4,2,0,100,0,1
69404,-142.857142857143,4,2,0,100,0,0
72318,-100,4,2,0,100,0,0

[Colours]
Combo1 : 255,228,147
Combo2 : 255,166,210
Combo3 : 147,196,255
Combo4 : 249,142,158

[HitObjects]
60,248,2376,6,0,P|48:148|88:108,1,144
196,240,2890,2,0,P|128:264|48:240,1,144
251,178,3404,2,0,P|277:234|275:274,1,72
276,351,3747,2,0,B|315:329|315:329|429:340,1,144
379,96,4261,2,0,B|379:151|379:151|390:187|390:187|390:246,1,144
308,61,4776,2,0,P|344:20|390:22,1,72
202,122,5118,6,0,L|105:125,1,72
173,37,5461,1,0,0:0:0:0:
206,202,5633,1,0,0:0:0:0:
380,98,5804,2,0,L|383:184,1,72
206,202,6147,5,0,0:0:0:0:
380,97,6318,1,0,0:0:0:0:
384,291,6490,1,0,0:0:0:0:
278,203,6661,1,0,0:0:0:0:
346,361,6833,2,0,P|402:370|437:354,1,72
449,102,7175,2,0,P|393:93|358:109,1,72
206,203,7518,2,0,L|287:203,1,72
125,140,7861,5,0,0:0:0:0:
152,329,8033,1,0,0:0:0:0:
144,137,8204,1,0,0:0:0:0:
7,335,8376,1,0,0:0:0:0:
164,131,8547,1,0,0:0:0:0:
80,380,8718,1,0,0:0:0:0:
47,68,8890,1,0,0:0:0:0:
177,235,9061,2,0,L|223:239,2,36
30,184,9404,5,0,0:0:0:0:
257,158,9576,1,0,0:0:0:0:
30,201,9747,1,0,0:0:0:0:
43,210,9833,1,0,0:0:0:0:
57,219,9918,1,0,0:0:0:0:
253,37,10090,5,0,0:0:0:0:
177,302,10261,1,0,0:0:0:0:
379,225,10433,1,0,0:0:0:0:
143,112,10604,1,0,0:0:0:0:
156,144,10689,1,0,0:0:0:0:
180,170,10775,1,0,0:0:0:0:
212,187,10861,1,0,0:0:0:0:
246,195,10946,1,0,0:0:0:0:
280,200,11032,1,0,0:0:0:0:
284,235,11118,1,0,0:0:0:0:
297,268,11204,1,0,0:0:0:0:
319,296,11289,1,0,0:0:0:0:
350,313,11375,1,0,0:0:0:0:
385,317,11461,1,0,0:0:0:0:
420,308,11546,1,0,0:0:0:0:
448,287,11632,1,0,0:0:0:0:
467,257,11718,1,0,0:0:0:0:
472,222,11804,1,0,0:0:0:0:
466,187,11889,1,0,0:0:0:0:
449,156,11975,5,4,0:0:0:0:
152,180,13347,6,0,P|141:233|164:288,1,90
293,107,13690,1,0,0:0:0:0:
143,52,13861,2,0,L|41:52,1,90
152,180,14204,1,0,0:0:0:0:
253,17,14375,1,0,0:0:0:0:
318,198,14547,2,0,L|319:315,1,90
288,108,14890,5,0,0:0:0:0:
152,180,15061,1,0,0:0:0:0:
319,289,15233,1,0,0:0:0:0:
387,79,15404,1,0,0:0:0:0:
245,200,15575,1,0,0:0:0:0:
434,261,15747,2,0,P|487:261|535:220,1,90
286,109,16090,5,0,0:0:0:0:
152,180,16261,2,0,L|42:196,1,90
142,72,16604,1,0,0:0:0:0:
152,180,16776,2,0,P|174:246|142:358,1,180
53,73,17290,2,0,P|128:76|179:50,1,90
407,132,17633,6,0,P|332:129|281:155,1,90
367,228,17976,1,0,0:0:0:0:
446,55,18147,1,0,0:0:0:0:
267,62,18318,1,0,0:0:0:0:
473,195,18490,1,0,0:0:0:0:
357,24,18661,1,0,0:0:0:0:
198,11,18833,6,0,P|180:67|283:144,1,180
314,373,19347,2,0,P|334:316|229:240,1,180
224,367,19861,2,0,L|331:374,1,90
260,236,20204,6,0,B|205:235|176:263|176:263|131:228|77:234,1,180
260,236,20718,2,0,P|310:209|434:241,1,180
460,308,21233,1,0,0:0:0:0:
494,177,21404,1,0,0:0:0:0:
358,72,21576,6,0,B|414:82|414:82|497:181,1,180
281,121,22090,2,0,P|195:121|121:58,1,180
281,121,22604,2,0,L|281:312,1,180
281,301,23118,1,0,0:0:0:0:
199,332,23290,2,0,L|97:331,1,90
362,254,23633,2,0,L|464:253,1,90
372,343,23976,1,0,0:0:0:0:
446,139,24147,1,0,0:0:0:0:
372,343,24318,6,0,P|304:372|258:358,1,90
449,251,24661,1,0,0:0:0:0:
198,172,24833,2,0,L|326:181,1,90
114,294,25176,1,0,0:0:0:0:
100,101,25347,1,0,0:0:0:0:
286,177,25518,1,0,0:0:0:0:
77,207,25690,6,0,L|-38:204,1,90
100,101,26033,1,0,0:0:0:0:
286,177,26204,2,0,P|295:246|278:294,1,90
164,55,26547,2,0,B|174:46|174:46|256:54,1,90
331,97,26890,1,0,0:0:0:0:
361,299,27061,6,0,P|316:337|261:334,1,90
202,261,27404,1,0,0:0:0:0:
421,241,27576,2,0,P|443:290|431:341,1,90
280,186,27918,1,0,0:0:0:0:
420,242,28090,5,0,0:0:0:0:
202,261,28261,1,0,0:0:0:0:
294,55,28433,1,0,0:0:0:0:
410,126,28604,1,0,0:0:0:0:
190,116,28776,1,0,0:0:0:0:
474,77,28947,2,0,P|491:126|476:174,1,90
125,168,29290,2,0,P|108:119|123:71,1,90
277,184,29633,5,0,0:0:0:0:
283,197,29804,2,0,P|220:219|121:160,1,180
231,294,30318,2,0,P|153:250|133:130,1,180
318,304,30833,2,0,P|267:306|214:282,1,90
365,237,31176,6,0,P|400:303|332:387,1,180
259,153,31690,2,0,L|452:153,1,180
199,78,32204,1,0,0:0:0:0:
190,213,32376,1,0,0:0:0:0:
370,70,32547,6,0,B|309:61|282:47|282:47|252:64|176:84,1,180
97,148,33061,2,0,B|64:210|130:272|83:343,1,180
261,348,33576,6,0,P|320:349|376:323,1,90
436,208,33918,2,0,P|442:153|418:95,1,90
311,204,34261,1,0,0:0:0:0:
446,329,34433,1,0,0:0:0:0:
186,265,34604,1,0,0:0:0:0:
320,82,34776,1,0,0:0:0:0:
346,336,34947,1,0,0:0:0:0:
223,139,35118,1,0,0:0:0:0:
431,115,35290,6,0,P|372:176|213:122,1,251.999992309571,0|8,0:0|0:0,0:0:0:0:
61,88,36661,2,0,P|112:91|176:41,2,125.999996154785,0|0|8,0:0|0:0|0:0,0:0:0:0:
87,233,38033,2,0,L|107:372,2,125.999996154785,0|0|8,0:0|0:0|0:0,0:0:0:0:
197,215,39404,6,0,P|256:208|282:215,1,62.9999980773926
264,292,39747,2,0,P|317:285|342:270,1,62.9999980773926
344,198,40090,2,0,P|389:200|413:212,1,62.9999980773926,8|0,0:0|0:0,0:0:0:0:
406,287,40433,2,0,P|458:290|485:273,1,62.9999980773926
458,106,40776,6,0,B|383:114|344:56|344:56|294:100|212:72,1,251.999992309571,2|8,0:0|0:0,0:0:0:0:
230,77,42147,2,0,P|192:142|256:81,1,251.999992309571,2|8,0:0|0:0,0:0:0:0:
229,317,43518,6,0,L|257:249,1,62.9999980773926
298,190,43861,1,0,0:0:0:0:
454,73,44033,2,0,P|455:132|442:158,1,62.9999980773926
371,134,44376,1,0,0:0:0:0:
168,79,44547,2,0,L|243:77,1,62.9999980773926
371,134,44890,5,0,0:0:0:0:
329,86,46261,6,0,P|328:168|205:188,1,198.000006042481,4|0,0:0|0:0,0:0:0:0:
179,111,46776,1,0,0:0:0:0:
316,300,46947,2,0,L|216:299,1,99.0000030212403
124,216,47290,1,0,0:0:0:0:
386,248,47461,2,0,P|403:298|377:362,1,99.0000030212403
219,300,47804,6,0,L|148:266,1,49.5000015106202
124,216,47976,1,0,0:0:0:0:
329,86,48147,1,0,0:0:0:0:
299,366,48318,1,0,0:0:0:0:
172,108,48490,1,0,0:0:0:0:
386,248,48661,1,0,0:0:0:0:
174,278,48833,1,0,0:0:0:0:
470,191,49004,6,0,L|471:314,1,99.0000030212403
329,86,49347,1,0,0:0:0:0:
386,248,49518,2,0,L|386:364,1,99.0000030212403
241,234,49861,1,0,0:0:0:0:
328,86,50033,1,0,0:0:0:0:
298,297,50204,2,0,P|232:317|161:215,1,198.000006042481
62,163,50718,6,0,L|86:104,1,49.5000015106202
154,71,50890,1,0,0:0:0:0:
159,227,51061,1,0,0:0:0:0:
328,86,51233,1,0,0:0:0:0:
294,295,51404,1,0,0:0:0:0:
385,248,51576,1,0,0:0:0:0:
305,182,51747,6,0,L|177:164,1,99.0000030212403
413,139,52090,2,0,L|541:121,1,99.0000030212403
385,248,52433,1,0,0:0:0:0:
328,86,52604,1,0,0:0:0:0:
205,168,52776,2,0,P|190:245|206:292,1,99.0000030212403
387,23,53118,6,0,P|323:2|278:19,1,99.0000030212403
112,49,53461,1,0,0:0:0:0:
203,163,53633,1,0,0:0:0:0:
295,9,53804,1,0,0:0:0:0:
385,248,53976,1,0,0:0:0:0:
308,158,54147,1,0,0:0:0:0:
271,338,54318,1,0,0:0:0:0:
385,248,54490,6,0,L|253:252,1,99.0000030212403
94,330,54833,1,0,0:0:0:0:
94,330,55004,2,0,P|82:253|100:212,1,99.0000030212403
308,158,55347,1,0,0:0:0:0:
383,249,55518,2,0,L|387:357,1,99.0000030212403
248,222,55861,5,0,0:0:0:0:
228,187,55947,1,0,0:0:0:0:
223,147,56033,1,0,0:0:0:0:
234,109,56118,1,0,0:0:0:0:
260,79,56204,1,0,0:0:0:0:
296,64,56290,1,0,0:0:0:0:
335,61,56376,1,0,0:0:0:0:
372,73,56461,1,0,0:0:0:0:
394,105,56547,6,0,P|410:164|411:188,1,49.5000015106202
341,231,56718,2,0,P|325:172|324:148,1,49.5000015106202
380,363,56890,2,0,P|371:339|365:315,1,49.5000015106202
433,237,57061,2,0,P|441:260|447:284,1,49.5000015106202
380,364,57233,6,0,L|247:368,1,99.0000030212403,4|0,0:0|0:0,0:0:0:0:
71,225,57576,1,0,0:0:0:0:
71,225,57747,2,0,P|140:231|189:205,1,99.0000030212403
63,89,58090,1,0,0:0:0:0:
45,320,58261,2,0,L|145:318,1,99.0000030212403
258,227,58604,6,0,P|244:175|223:158,1,49.5000015106202
178,134,58776,1,0,0:0:0:0:
254,328,58947,1,0,0:0:0:0:
327,132,59118,1,0,0:0:0:0:
148,319,59290,1,0,0:0:0:0:
366,321,59461,1,0,0:0:0:0:
242,67,59633,1,0,0:0:0:0:
393,219,59804,1,0,0:0:0:0:
173,221,59976,6,0,L|56:224,1,99.0000030212403
319,121,60318,1,0,0:0:0:0:
393,219,60490,2,0,P|399:292|378:348,1,99.0000030212403
280,265,60833,1,0,0:0:0:0:
481,155,61004,1,0,0:0:0:0:
368,56,61176,2,0,P|297:40|244:148,1,198.000006042481
172,223,61690,6,0,L|165:304,1,49.5000015106202
237,344,61861,1,0,0:0:0:0:
237,136,62033,1,0,0:0:0:0:
58,235,62204,1,0,0:0:0:0:
258,244,62376,1,0,0:0:0:0:
125,339,62547,1,0,0:0:0:0:
258,244,62718,6,0,L|386:246,1,99.0000030212403
504,149,63061,2,0,L|376:147,1,99.0000030212403
463,249,63404,1,0,0:0:0:0:
389,63,63576,1,0,0:0:0:0:
356,245,63747,1,0,0:0:0:0:
504,147,63918,1,0,0:0:0:0:
323,17,64090,6,0,P|312:79|332:122,1,99.0000030212403
464,343,64433,2,0,P|475:281|455:238,1,99.0000030212403
257,244,64776,2,0,L|371:245,1,99.0000030212403
462,248,65118,1,0,0:0:0:0:
206,179,65290,6,0,P|174:238|230:321,1,161.999995056153
339,101,65804,1,0,0:0:0:0:
339,101,65976,2,0,B|294:92|264:118|264:118|224:88|184:100,1,161.999995056153
95,58,66490,1,0,0:0:0:0:
119,155,66661,6,0,P|114:231|178:101,1,566.999982696534
119,155,68376,6,0,L|99:240,1,62.9999980773926
202,252,68718,2,0,L|194:329,1,62.9999980773926
315,344,69061,1,0,0:0:0:0:
389,277,69233,1,0,0:0:0:0:
461,207,69404,1,0,0:0:0:0:
184,78,72318,6,0,P|162:145|165:192,1,90
