osu file format v14

[General]
AudioFilename: audio.mp3
AudioLeadIn: 0
PreviewTime: -1
Countdown: 0
SampleSet: Soft
StackLeniency: 0.7
Mode: 0
LetterboxInBreaks: 0
WidescreenStoryboard: 0

[Editor]
Bookmarks: 10353
DistanceSpacing: 1.4
BeatDivisor: 4
GridSize: 16
TimelineZoom: 1.8

[Metadata]
Title:HEART SHAKER(short ver.)
TitleUnicode:HEART SHAKER(short ver.)
Artist:TWICE
ArtistUnicode:TWICE
Creator:Artymis
Version:Heartshaker!
Source:
Tags:TWICE HEART SHAKER (short ver.)
BeatmapID:1504228
BeatmapSetID:711549

[Difficulty]
HPDrainRate:4
CircleSize:4.3
OverallDifficulty:7
ApproachRate:9
SliderMultiplier:1.6
SliderTickRate:1

[Events]
//Background and Video events
0,0,"twice.jpg",0,0
//Break Periods
//Storyboard Layer 0 (Background)
//Storyboard Layer 1 (Fail)
//Storyboard Layer 2 (Pass)
//Storyboard Layer 3 (Foreground)
//Storyboard Layer 4 (Overlay)
//Storyboard Sound Samples

[TimingPoints]
110,365.853658536585,4,2,0,50,1,0
1573,-133.333333333333,4,2,0,100,0,0
2670,-100,4,2,0,100,0,0
11817,-100,4,2,0,100,0,1
17305,-100,4,2,0,100,0,0
17670,-100,4,2,0,100,0,1
17762,-100,4,2,0,100,0,0
18128,-100,4,2,0,100,0,1
18219,-100,4,2,0,100,0,0
20597,-100,4,2,0,100,0,1
20689,-100,4,2,0,100,0,0
21146,-100,4,2,0,100,0,1
21238,-100,4,2,0,100,0,0
23524,-100,4,2,0,100,0,1
29286,-100,4,2,0,100,0,0
29378,-100,4,2,0,100,0,1
30841,-100,4,2,0,100,0,0
30933,-100,4,2,0,100,0,1
33768,-117.647058823529,4,2,0,100,0,1
35231,-100,4,2,0,100,0,0

[HitObjects]
80,80,110,6,0,L|16:144,1,80,8|0,0:0|0:0,0:0:0:0:
224,96,475,2,0,L|288:32,1,80
208,240,841,2,0,L|144:304,1,80,8|0,0:0|0:0,0:0:0:0:
384,176,1207,2,0,L|440:119,1,80,8|0,0:0|0:0,0:0:0:0:
112,176,1573,6,0,B|64:208|64:208|32:336,2,180.000006866455
256,288,2853,5,0,0:0:0:0:
320,128,3036,1,0,0:0:0:0:
176,176,3219,1,0,0:0:0:0:
352,240,3402,1,0,0:0:0:0:
208,128,3585,1,0,0:0:0:0:
336,320,3768,1,0,0:0:0:0:
368,64,3951,1,0,0:0:0:0:
112,240,4134,1,0,0:0:0:0:
112,240,4500,5,0,0:0:0:0:
112,240,4591,1,0,0:0:0:0:
112,240,4683,1,0,0:0:0:0:
256,64,4866,1,0,0:0:0:0:
320,256,5049,1,0,0:0:0:0:
64,176,5231,1,0,0:0:0:0:
384,96,5414,1,0,0:0:0:0:
176,304,5597,1,0,0:0:0:0:
368,112,5781,5,0,0:0:0:0:
416,320,5963,5,0,0:0:0:0:
368,176,6146,1,0,0:0:0:0:
256,288,6329,5,0,0:0:0:0:
304,128,6512,1,0,0:0:0:0:
176,224,6695,5,0,0:0:0:0:
192,80,6878,1,0,0:0:0:0:
80,160,7061,5,0,0:0:0:0:
160,32,7244,1,0,0:0:0:0:
32,80,7427,5,0,0:0:0:0:
80,16,7609,1,8,0:0:0:0:
176,80,7792,5,0,0:0:0:0:
32,112,7975,1,0,0:0:0:0:
64,16,8158,5,0,0:0:0:0:
160,192,8341,1,0,0:0:0:0:
144,64,8524,5,0,0:0:0:0:
64,288,8707,1,0,0:0:0:0:
64,176,8890,5,0,0:0:0:0:
102,164,8981,1,0,0:0:0:0:
141,165,9072,1,0,0:0:0:0:
179,177,9164,1,0,0:0:0:0:
215,195,9255,1,0,0:0:0:0:
251,213,9347,1,0,0:0:0:0:
288,227,9438,1,0,0:0:0:0:
327,235,9530,1,0,0:0:0:0:
367,234,9621,1,0,0:0:0:0:
404,218,9713,1,0,0:0:0:0:
432,192,9805,1,0,0:0:0:0:
444,154,9896,1,0,0:0:0:0:
434,116,9987,1,0,0:0:0:0:
405,89,10079,1,0,0:0:0:0:
366,82,10170,1,0,0:0:0:0:
329,97,10262,1,0,0:0:0:0:
310,133,10353,1,0,0:0:0:0:
64,160,11817,6,0,L|80:240,1,80
249,120,12183,2,0,L|305:60,1,80
144,96,12549,1,0,0:0:0:0:
256,224,12731,1,0,0:0:0:0:
240,16,12914,1,0,0:0:0:0:
96,224,13097,6,0,L|32:320,1,80
272,112,13463,2,0,L|352:112,1,80
80,80,13829,1,0,0:0:0:0:
288,224,14012,1,0,0:0:0:0:
224,16,14195,1,0,0:0:0:0:
151,302,14378,1,0,0:0:0:0:
322,47,14561,1,0,0:0:0:0:
52,140,14744,6,0,P|91:211|72:289,1,160
352,272,15292,2,0,P|304:240|288:192,1,80
176,48,15658,2,0,P|179:93|161:140,1,80
48,272,16024,6,0,L|224:336,1,160
400,64,16573,5,0,0:0:0:0:
408,102,16664,1,0,0:0:0:0:
408,142,16755,1,0,0:0:0:0:
397,181,16847,1,0,0:0:0:0:
378,216,16938,1,0,0:0:0:0:
351,245,17030,1,0,0:0:0:0:
318,267,17121,1,0,0:0:0:0:
281,281,17213,1,0,0:0:0:0:
241,285,17304,1,0,0:0:0:0:
201,280,17396,1,0,0:0:0:0:
164,265,17487,1,0,0:0:0:0:
132,242,17579,1,0,0:0:0:0:
96,208,17670,6,0,P|176:224|240:288,1,160
368,48,18219,6,0,P|336:144|256:176,1,160
144,64,18768,5,0,0:0:0:0:
144,64,18859,1,0,0:0:0:0:
144,64,18951,1,0,0:0:0:0:
240,224,19134,1,0,0:0:0:0:
208,48,19317,1,0,0:0:0:0:
128,272,19500,1,0,0:0:0:0:
288,48,19683,1,0,0:0:0:0:
320,288,19866,1,0,0:0:0:0:
80,128,20049,5,0,0:0:0:0:
118,125,20140,1,0,0:0:0:0:
158,134,20231,1,0,0:0:0:0:
192,154,20323,1,0,0:0:0:0:
220,183,20414,1,0,0:0:0:0:
238,218,20506,1,0,0:0:0:0:
254,249,20597,6,0,P|297:183|282:107,1,160
112,192,21146,6,0,P|60:251|61:329,1,160
112,64,21695,5,0,0:0:0:0:
144,192,21878,1,0,0:0:0:0:
256,80,22061,5,0,0:0:0:0:
208,256,22244,1,0,0:0:0:0:
384,80,22427,5,0,0:0:0:0:
336,288,22609,1,0,0:0:0:0:
432,256,22792,5,0,0:0:0:0:
336,208,22975,5,0,0:0:0:0:
304,208,23067,1,0,0:0:0:0:
266,192,23158,1,0,0:0:0:0:
237,167,23249,1,0,0:0:0:0:
216,132,23341,1,0,0:0:0:0:
208,96,23433,1,0,0:0:0:0:
205,58,23524,6,0,P|305:78|334:137,1,160
115,241,24073,6,0,L|91:160,1,80
293,75,24439,2,0,L|242:153,1,80,0|0,0:3|0:3,0:3:0:0:
354,323,24805,2,0,L|301:251,1,80
96,48,25170,1,0,0:0:0:0:
112,80,25261,1,0,0:0:0:0:
128,112,25353,1,0,0:0:0:0:
382,138,25536,5,0,0:0:0:0:
170,201,25719,1,0,0:0:0:0:
288,64,25902,1,0,0:0:0:0:
320,256,26085,1,0,0:0:0:0:
187,100,26268,1,0,0:0:0:0:
416,240,26451,5,0,0:0:0:0:
430,277,26542,1,0,0:0:0:0:
445,314,26633,1,0,0:0:0:0:
320,208,26817,5,0,0:0:0:0:
299,242,26908,1,0,0:0:0:0:
278,276,26999,1,0,0:0:0:0:
192,144,27183,5,0,0:0:0:0:
192,184,27274,1,0,0:0:0:0:
192,224,27365,1,0,0:0:0:0:
80,128,27549,5,0,0:0:0:0:
224,80,27731,1,0,0:0:0:0:
192,240,27914,1,0,0:0:0:0:
144,80,28097,1,0,0:0:0:0:
272,176,28280,1,0,0:0:0:0:
80,304,28463,1,0,0:0:0:0:
179,52,28646,5,0,0:0:0:0:
235,276,28829,1,0,0:0:0:0:
290,94,29012,1,0,0:0:0:0:
114,156,29195,1,0,0:0:0:0:
384,96,29378,6,0,P|420:60|360:84,1,160
232,140,29927,5,0,0:0:0:0:
87,175,30109,1,0,0:0:0:0:
274,201,30292,1,0,0:0:0:0:
136,80,30475,1,0,0:0:0:0:
193,279,30658,1,0,0:0:0:0:
384,128,30841,6,0,P|432:116|384:160,1,160
200,153,31390,5,0,0:0:0:0:
80,272,31573,1,0,0:0:0:0:
248,212,31756,1,0,0:0:0:0:
144,204,31939,1,0,0:0:0:0:
288,304,32122,1,0,0:0:0:0:
236,104,32305,6,0,P|136:48|80:80,1,160
56,160,32853,1,0,0:0:0:0:
184,191,33036,6,0,P|256:199|320:143,1,160
340,292,33585,1,0,0:0:0:0:
147,110,33768,6,0,B|123:86|91:70|55:114|47:142|63:182|99:222|175:234|191:246|191:246|199:230|279:162|263:106|255:70|203:38|167:66|159:102,1,544.000010375977
360,68,35414,5,0,0:0:0:0:
348,236,35597,1,0,0:0:0:0:
452,108,35780,1,0,0:0:0:0:
296,148,35963,1,0,0:0:0:0:
448,208,36146,1,0,0:0:0:0:
376,144,36329,5,0,0:0:0:0:
376,144,36512,1,0,0:0:0:0:
76,88,36695,6,0,L|124:104,1,40
216,56,36878,2,0,L|172:40,1,40
260,144,37061,6,0,L|308:160,1,40
392,110,37244,2,0,L|352:94,1,40
153,188,37427,6,0,L|201:208,1,40
297,156,37609,2,0,L|253:140,1,40
337,244,37792,6,0,L|385:260,1,40
469,212,37975,2,0,L|429:196,1,40
256,192,38158,5,0,0:0:0:0:
256,192,38524,1,0,0:0:0:0:
256,192,38890,1,0,0:0:0:0:
256,56,39256,5,8,0:0:0:0:
