osu file format v14

[General]
AudioFilename: audio.mp3
AudioLeadIn: 0
PreviewTime: 172096
Countdown: 0
SampleSet: Soft
StackLeniency: 0.7
Mode: 0
LetterboxInBreaks: 0
WidescreenStoryboard: 0

[Editor]
DistanceSpacing: 0.8
BeatDivisor: 3
GridSize: 8
TimelineZoom: 2.6

[Metadata]
Title:HAPPY HAPPY
TitleUnicode:HAPPY HAPPY
Artist:TWICE
ArtistUnicode:TWICE
Creator:Sotarks
Version:YOU YOU YOU!
Source:
Tags:ren reform derandom otaku kowari kujinn japanese jpop j-pop kpop k-pop female vocalist sana jihyo dahyun nayeon jeongyeon chaeyoung momo mina tzuyu 나연 정연 모모 사나 지효 미나 다현 채영 쯔위 once breakthrough jyp entertainment
BeatmapID:2106818
BeatmapSetID:1006690

[Difficulty]
HPDrainRate:5.5
CircleSize:4
OverallDifficulty:8.7
ApproachRate:9.2
SliderMultiplier:1.82
SliderTickRate:1

[Events]
//Background and Video events
0,0,"bg.jpg",0,0
//Break Periods
2,130213,140109
//Storyboard Layer 0 (Background)
//Storyboard Layer 1 (Fail)
//Storyboard Layer 2 (Pass)
//Storyboard Layer 3 (Foreground)
//Storyboard Layer 4 (Overlay)
//Storyboard Sound Samples

[TimingPoints]
680,333.333333333333,4,2,2,42,1,0
680,-138.888888888889,4,2,2,42,0,0
5013,-98.0392156862746,4,2,22,42,0,0
5346,-138.888888888889,4,2,22,42,0,0
5679,-98.0392156862745,4,2,22,42,0,0
6013,-138.888888888889,4,2,22,42,0,0
10013,-138.888888888889,4,2,22,32,0,0
10679,-192.307692307693,4,2,22,32,0,0
11263,-192.307692307693,4,2,22,5,0,0
11346,-121.951219512195,4,2,22,62,0,0
21013,-89.2857142857142,4,2,22,62,0,0
21346,-121.951219512195,4,2,22,62,0,0
21679,-89.2857142857142,4,2,22,62,0,0
22346,-121.951219512195,4,2,22,62,0,0
32679,-161.290322580645,4,2,22,52,0,0
32763,-161.290322580645,4,2,22,42,0,0
38013,-121.951219512195,4,3,22,52,0,0
43346,-98.0392156862744,4,2,22,82,0,0
64679,-98.0392156862744,4,2,22,52,0,0
66013,-121.951219512195,4,2,2,52,0,0
76679,-108.695652173913,4,2,22,52,0,0
87346,-161.290322580645,4,2,22,42,0,0
92679,-121.951219512195,4,3,22,52,0,0
98013,-98.0392156862744,4,2,22,82,0,0
119346,-89.2857142857143,4,2,22,82,0,0
140679,-138.888888888889,4,2,2,52,0,0
155679,-98.0392156862746,4,2,22,52,0,0
156013,-138.888888888889,4,2,22,52,0,0
156346,-98.0392156862745,4,2,22,52,0,0
156679,-138.888888888889,4,2,22,52,0,0
166346,-98.0392156862746,4,2,22,52,0,0
166679,-138.888888888889,4,2,22,52,0,0
167013,-98.0392156862745,4,2,22,52,0,0
167346,-138.888888888889,4,2,22,52,0,0
172179,-192.307692307692,4,2,22,52,0,0
172346,-121.951219512195,4,2,22,52,0,0
172679,-89.2857142857143,4,2,22,82,0,0
194013,-81.9672131147541,4,2,22,82,0,0

[Colours]
Combo1 : 255,249,121
Combo2 : 255,77,17
Combo3 : 255,6,193
Combo4 : 81,255,255

[HitObjects]
130,86,680,6,0,P|184:127|274:119,1,131.040003199219,14|2,0:2|3:2,0:0:0:0:
361,94,1179,2,0,P|337:140|333:170,1,65.5200015996094,2|8,3:2|0:2,0:0:0:0:
291,275,1513,2,0,P|281:243|264:216,1,65.5200015996094,2|0,0:2|3:2,0:0:0:0:
88,184,1846,2,0,P|132:204|168:206,1,65.5200015996094,2|8,0:2|0:2,0:0:0:0:
274,84,2179,2,0,P|242:90|213:106,1,65.5200015996094,2|0,0:2|3:2,0:0:0:0:
177,229,2513,1,2,0:2:0:0:
343,190,2679,2,0,P|283:164|253:165,1,65.5200015996094,10|0,0:2|0:2,0:0:0:0:
268,275,3013,2,0,P|274:322|277:333,3,32.7600007998047,2|0|0|0,3:2|3:2|3:2|3:2,0:0:0:0:
296,329,3346,6,0,P|294:285|317:190,1,131.040003199219,10|2,0:2|3:2,0:0:0:0:
236,75,3846,2,0,P|251:124|254:155,1,65.5200015996094,2|8,3:2|0:2,0:0:0:0:
377,55,4179,2,0,P|366:85|360:118,1,65.5200015996094,2|0,0:2|3:2,0:0:0:0:
254,40,4513,1,2,0:2:0:0:
178,178,4679,6,0,P|133:203|77:203,1,98.2800023994141,8|0,0:2|0:2,0:0:0:0:
87,205,5013,2,0,P|137:239|162:320,1,139.230000849792,2|0,3:2|0:2,0:0:0:0:
162,311,5346,2,0,P|207:336|263:336,1,98.2800023994141,8|0,0:2|0:2,0:0:0:0:
252,338,5679,2,0,P|272:272|327:231,1,139.230000849792,2|0,3:2|0:2,0:0:0:0:
327,231,6013,6,0,P|388:251|418:248,1,65.5200015996094,10|0,0:2|0:2,0:0:0:0:
411,127,6346,1,2,3:2:0:0:
316,64,6513,2,0,P|283:69|254:84,1,65.5200015996094,2|8,3:2|0:2,0:0:0:0:
193,207,6846,1,2,0:2:0:0:
80,145,7013,2,0,P|62:107|62:92,1,32.7600007998047,0|0,3:2|3:2,0:0:0:0:
151,99,7179,2,0,P|165:59|175:48,1,32.7600007998047,2|0,3:2|3:2,0:0:0:0:
110,250,7346,5,8,0:2:0:0:
244,124,7513,2,0,P|283:109|317:115,1,65.5200015996094,2|0,0:2|3:2,0:0:0:0:
361,235,7846,1,2,3:2:0:0:
351,45,8013,2,0,P|312:30|278:36,1,65.5200015996094,10|0,0:2|0:2,0:0:0:0:
281,195,8346,2,0,P|242:210|208:204,1,65.5200015996094,2|0,0:2|0:2,0:0:0:0:
130,108,8679,2,0,L|123:67,3,32.7600007998047,10|0|0|0,0:2|3:2|3:2|3:2,0:0:0:0:
33,149,9013,2,0,L|40:108,3,32.7600007998047,0|0|0|0,3:2|3:2|3:2|3:2,0:0:0:0:
119,211,9346,1,8,0:2:0:0:
34,279,9513,1,2,3:2:0:0:
137,238,9679,1,2,3:2:0:0:
70,283,9846,1,2,0:2:0:0:
144,318,10013,5,2,0:2:0:0:
281,237,10346,1,2,0:2:0:0:
405,344,10679,2,0,B|389:247|444:284|428:180,1,165.619998989136,2|0,0:2|0:2,0:0:0:0:
390,99,11346,5,6,1:2:0:0:
390,99,11679,2,0,P|344:134|285:134,1,99.4933348514812,8|0,0:2|0:2,0:0:0:0:
230,95,12013,1,0,1:2:0:0:
182,241,12235,1,0,0:0:0:0:
182,241,12346,1,8,0:2:0:0:
124,79,12568,1,0,0:0:0:0:
124,79,12679,2,0,P|68:51|20:52,1,99.4933348514812,0|0,1:2|0:2,0:0:0:0:
93,150,13013,2,0,P|149:122|197:123,1,99.4933348514812,8|0,0:2|0:2,0:0:0:0:
258,159,13346,5,2,1:2:0:0:
61,221,13513,1,2,1:2:0:0:
290,328,13679,1,10,0:2:0:0:
202,229,13846,1,2,3:2:0:0:
155,378,14013,5,0,1:2:0:0:
266,290,14235,1,0,0:0:0:0:
266,290,14346,1,8,0:2:0:0:
374,378,14568,1,0,0:0:0:0:
374,378,14679,2,0,P|402:323|401:274,1,99.4933348514812,0|0,1:2|0:2,0:0:0:0:
370,210,15013,1,8,0:2:0:0:
440,83,15235,1,0,0:0:0:0:
440,83,15346,2,0,P|374:117|329:114,1,99.4933348514812,0|0,1:2|0:2,0:0:0:0:
269,155,15679,2,0,P|203:121|158:124,1,99.4933348514812,8|0,0:2|0:2,0:0:0:0:
103,166,16013,5,2,1:2:0:0:
293,50,16179,1,2,1:2:0:0:
362,316,16346,2,0,P|348:230|338:197,1,99.4933348514812,10|0,0:2|0:2,0:0:0:0:
349,175,16679,5,0,1:2:0:0:
349,175,17013,2,0,P|302:216|251:225,1,99.4933348514812,8|0,0:2|0:2,0:0:0:0:
182,167,17346,2,0,P|135:126|84:117,1,99.4933348514812,0|0,1:2|0:2,0:0:0:0:
22,160,17679,1,8,0:2:0:0:
22,160,18013,2,0,P|42:227|43:273,1,99.4933348514812,0|0,1:2|0:2,0:0:0:0:
119,340,18346,2,0,P|124:290|140:243,1,99.4933348514812,8|0,0:2|0:2,0:0:0:0:
182,167,18679,5,2,1:2:0:0:
288,326,18846,1,2,1:2:0:0:
394,109,19013,1,10,0:2:0:0:
277,203,19179,1,2,3:2:0:0:
480,139,19346,6,0,P|461:64|436:32,1,99.4933348514812,0|0,1:2|0:2,0:0:0:0:
369,27,19679,1,8,0:2:0:0:
254,121,19902,1,0,0:0:0:0:
254,121,20013,1,0,1:2:0:0:
156,25,20235,1,0,0:0:0:0:
156,25,20346,1,8,0:2:0:0:
95,166,20568,1,0,0:0:0:0:
95,166,20679,6,0,P|130:232|131:294,1,99.4933348514812,0|0,1:2|0:2,0:0:0:0:
81,347,21013,2,0,P|148:284|239:298,1,135.893334992188,10|0,0:2|0:2,0:0:0:0:
262,320,21346,2,0,P|317:352|373:348,1,99.4933348514812,0|0,1:2|0:2,0:0:0:0:
434,301,21679,2,0,P|422:218|436:141,1,135.893334992188,10|0,0:2|0:2,0:0:0:0:
467,88,22013,5,0,1:2:0:0:
467,88,22346,2,0,P|403:126|350:120,1,99.4933348514812,8|0,0:2|0:2,0:0:0:0:
306,86,22679,1,0,1:2:0:0:
194,198,22902,1,0,0:0:0:0:
194,198,23013,2,0,P|169:129|167:75,1,99.4933348514812,8|0,0:2|0:2,0:0:0:0:
132,30,23346,2,0,P|123:78|104:124,1,99.4933348514812,0|0,1:2|0:2,0:0:0:0:
44,193,23679,2,0,P|52:241|71:287,1,99.4933348514812,8|0,0:2|0:2,0:0:0:0:
131,356,24013,5,2,1:2:0:0:
194,198,24179,1,2,1:2:0:0:
327,367,24346,1,10,0:2:0:0:
399,282,24513,1,2,3:2:0:0:
242,328,24679,5,0,1:2:0:0:
319,54,25013,1,8,0:2:0:0:
194,198,25235,1,0,0:0:0:0:
194,198,25346,2,0,P|136:176|77:179,1,99.4933348514812,0|0,1:2|0:2,0:0:0:0:
30,232,25679,1,8,0:2:0:0:
282,148,25902,1,0,0:0:0:0:
282,148,26013,2,0,P|340:126|399:129,1,99.4933348514812,0|0,1:2|0:2,0:0:0:0:
455,166,26346,2,0,P|436:230|437:283,1,99.4933348514812,8|0,0:2|0:2,0:0:0:0:
388,335,26679,5,2,1:2:0:0:
282,148,26846,1,2,1:2:0:0:
195,341,27013,2,0,P|171:289|165:229,1,99.4933348514812,10|0,0:2|0:2,0:0:0:0:
193,171,27346,5,0,1:2:0:0:
193,171,27679,2,0,P|134:207|81:210,1,99.4933348514812,8|0,0:2|0:2,0:0:0:0:
49,132,28013,2,0,P|97:143|137:172,1,99.4933348514812,0|0,1:2|0:2,0:0:0:0:
132,280,28346,2,0,P|106:237|98:189,1,99.4933348514812,8|0,0:2|0:2,0:0:0:0:
133,104,28679,1,0,1:2:0:0:
218,251,28902,1,0,0:0:0:0:
218,251,29013,2,0,P|268:227|328:231,1,99.4933348514812,8|0,0:2|0:2,0:0:0:0:
384,268,29346,5,2,1:2:0:0:
433,82,29513,1,2,1:2:0:0:
485,308,29679,1,10,0:2:0:0:
414,158,29846,1,2,3:2:0:0:
294,311,30013,6,0,B|225:337|175:327,1,99.4933348514812,0|0,1:2|0:2,0:0:0:0:
147,278,30346,2,0,P|216:304|266:294,1,99.4933348514812,8|0,0:2|0:2,0:0:0:0:
263,213,30679,2,0,P|194:187|144:197,1,99.4933348514812,0|0,1:2|0:2,0:0:0:0:
90,177,31013,2,0,P|139:175|183:152,1,99.4933348514812,8|0,0:2|0:2,0:0:0:0:
233,73,31346,5,0,3:2:0:0:
260,53,31429,1,0,3:2:0:0:
291,42,31512,1,0,3:2:0:0:
325,42,31595,1,0,3:2:0:0:
357,51,31679,1,8,3:2:0:0:
216,97,31846,1,0,3:2:0:0:
378,68,32013,5,0,1:2:0:0:
214,125,32179,1,0,3:2:0:0:
428,184,32346,1,8,3:2:0:0:
307,129,32513,1,0,3:2:0:0:
366,245,32679,6,0,P|373:282|373:308,1,56.4199977616578,6|0,0:2|0:2,0:0:0:0:
288,223,33013,2,0,P|281:260|281:286,1,56.4199977616578,2|0,0:2|0:2,0:0:0:0:
96,191,33346,2,0,P|89:228|89:254,1,56.4199977616578,2|0,0:2|0:2,0:0:0:0:
174,169,33680,2,0,P|181:206|181:232,1,56.4199977616578,2|0,0:2|0:2,0:0:0:0:
339,91,34013,5,2,0:2:0:0:
261,58,34179,1,2,0:2:0:0:
273,132,34346,1,2,0:2:0:0:
329,16,34513,1,2,0:2:0:0:
342,167,34679,2,0,P|336:217|336:248,1,56.4199977616578,2|0,0:2|0:2,0:0:0:0:
407,128,35013,2,0,P|416:180|416:211,1,84.6299966424867,2|0,0:2|0:2,0:0:0:0:
411,254,35346,5,2,0:2:0:0:
335,302,35513,2,0,P|288:293|263:294,1,56.4199977616578,2|0,0:2|0:2,0:0:0:0:
129,256,35846,1,2,0:2:0:0:
202,227,36013,1,2,0:2:0:0:
139,177,36179,2,0,P|144:143|144:112,2,56.4199977616578,2|0|0,0:2|0:2|0:2,0:0:0:0:
291,197,36679,5,2,0:2:0:0:
274,120,36846,1,2,0:2:0:0:
291,197,37013,1,2,0:2:0:0:
274,120,37179,1,2,0:2:0:0:
365,219,37346,2,0,P|357:270|357:290,1,56.4199977616578,2|0,0:2|0:2,0:0:0:0:
210,184,37679,2,0,P|218:235|225:287,1,84.6299966424867,2|0,0:2|0:2,0:0:0:0:
214,302,38013,6,0,P|166:286|126:285,1,74.6200011386109,6|0,1:2|0:2,0:0:0:0:
144,119,38346,2,0,P|192:103|232:102,1,74.6200011386109,0|0,0:2|0:2,0:0:0:0:
341,248,38679,1,8,1:2:0:0:
368,163,38846,1,0,0:2:0:0:
284,179,39013,2,0,P|300:241|304:282,1,74.6200011386109,2|0,0:2|0:2,0:0:0:0:
420,116,39346,2,0,P|409:151|402:188,1,74.6200011386109,2|0,1:2|0:2,0:0:0:0:
244,59,39679,2,0,P|212:41|176:33,1,74.6200011386109,2|0,0:2|0:2,0:0:0:0:
75,195,40013,1,10,1:2:0:0:
151,157,40179,1,0,0:2:0:0:
81,111,40346,2,0,P|44:118|12:137,1,74.6200011386109,2|0,0:2|0:2,0:0:0:0:
150,247,40679,5,0,1:2:0:0:
150,247,40763,1,0,0:2:0:0:
150,247,40846,2,0,P|195:237|220:236,1,37.3100005693054,0|0,0:2|0:2,0:0:0:0:
243,161,41013,1,2,1:2:0:0:
243,161,41097,1,0,0:2:0:0:
243,161,41180,2,0,P|288:171|313:172,1,37.3100005693054,0|0,0:2|0:2,0:0:0:0:
337,290,41346,1,0,1:2:0:0:
337,290,41430,1,0,0:2:0:0:
337,290,41513,2,0,P|382:280|407:279,1,37.3100005693054,0|0,0:2|0:2,0:0:0:0:
344,100,41679,1,2,1:2:0:0:
344,100,41763,1,0,0:2:0:0:
344,100,41846,2,0,P|299:90|274:89,1,37.3100005693054,0|0,0:2|0:2,0:0:0:0:
249,286,42013,5,2,1:2:0:0:
200,62,42179,1,0,1:2:0:0:
361,195,42346,1,0,1:2:0:0:
323,191,42429,1,0,1:2:0:0:
286,188,42512,1,0,1:2:0:0:
249,184,42596,1,0,1:2:0:0:
249,184,43346,6,0,P|177:214|96:209,1,139.230000849792,6|0,1:2|0:2,0:0:0:0:
58,160,43679,2,0,P|37:223|35:257,1,92.8200005665283,10|0,0:2|0:2,0:0:0:0:
217,291,44013,2,0,P|289:261|370:266,1,139.230000849792,2|0,1:2|0:2,0:0:0:0:
408,315,44346,1,10,0:2:0:0:
492,145,44513,2,0,P|428:116|359:115,1,139.230000849792,2|0,1:2|0:2,0:0:0:0:
292,163,44846,1,2,1:2:0:0:
138,79,45013,2,0,P|132:150|123:198,1,92.8200005665283,10|0,0:2|0:2,0:0:0:0:
269,54,45346,1,2,1:2:0:0:
308,243,45513,1,0,1:2:0:0:
159,95,45679,2,0,P|153:166|144:214,1,92.8200005665283,10|0,0:2|0:2,0:0:0:0:
232,334,46013,6,0,P|303:288|392:292,1,139.230000849792,2|0,1:2|0:2,0:0:0:0:
428,320,46346,1,10,0:2:0:0:
302,205,46513,2,0,P|358:239|400:243,1,92.8200005665283,2|0,0:2|1:2,0:0:0:0:
466,121,46846,1,2,1:2:0:0:
213,166,47013,2,0,P|269:132|311:128,1,92.8200005665283,10|0,0:2|1:2,0:0:0:0:
465,217,47346,1,2,0:2:0:0:
358,57,47513,1,0,1:2:0:0:
225,249,47679,2,0,P|180:237|142:210,1,92.8200005665283,10|0,0:2|0:2,0:0:0:0:
279,44,48013,1,2,1:2:0:0:
307,274,48179,1,2,1:2:0:0:
197,88,48346,1,10,0:2:0:0:
175,315,48513,1,2,0:2:0:0:
339,107,48679,6,0,P|399:91|444:101,1,92.8200005665283,0|0,1:2|0:2,0:0:0:0:
225,249,49013,2,0,P|179:252|135:237,1,92.8200005665283,10|0,0:2|0:2,0:0:0:0:
363,185,49346,1,2,1:2:0:0:
232,159,49513,1,2,0:2:0:0:
338,274,49679,1,10,0:2:0:0:
261,86,49846,2,0,P|215:82|171:97,1,92.8200005665283,2|0,1:2|0:2,0:0:0:0:
106,323,50179,1,0,1:2:0:0:
232,159,50346,2,0,P|277:155|321:170,1,92.8200005665283,8|2,0:2|0:2,0:0:0:0:
399,348,50679,1,2,1:2:0:0:
434,118,50846,1,2,1:2:0:0:
309,297,51013,1,10,0:2:0:0:
249,56,51179,1,2,0:2:0:0:
209,319,51346,6,0,P|151:342|109:342,1,92.8200005665283,0|0,1:2|0:2,0:0:0:0:
306,124,51679,2,0,P|351:128|393:148,1,92.8200005665283,10|0,0:2|0:2,0:0:0:0:
166,253,52013,1,0,1:2:0:0:
249,56,52179,1,2,1:2:0:0:
355,258,52346,1,10,0:2:0:0:
122,188,52513,1,2,1:2:0:0:
334,62,52679,2,0,P|356:117|358:163,1,92.8200005665283,2|0,0:2|1:2,0:0:0:0:
166,253,53013,2,0,P|171:207|190:164,1,92.8200005665283,10|0,0:2|0:2,0:0:0:0:
314,332,53346,1,2,1:2:0:0:
115,365,53513,1,0,1:2:0:0:
411,294,53679,2,0,P|328:289|262:238,1,139.230000849792,8|0,0:2|0:2,0:0:0:0:
265,175,54013,6,0,P|271:115|242:35,1,139.230000849792,2|0,1:2|0:2,0:0:0:0:
183,0,54346,2,0,P|163:67|168:118,1,92.8200005665283,10|0,0:2|0:2,0:0:0:0:
105,260,54679,2,0,P|111:200|82:120,1,139.230000849792,2|0,1:2|0:2,0:0:0:0:
19,75,55013,1,10,0:2:0:0:
194,240,55179,2,0,P|251:263|296:255,1,92.8200005665283,2|0,1:2|0:2,0:0:0:0:
369,75,55513,1,2,1:2:0:0:
338,322,55679,2,0,P|296:342|250:342,1,92.8200005665283,10|0,0:2|0:2,0:0:0:0:
263,100,56013,1,2,1:2:0:0:
443,186,56179,1,0,1:2:0:0:
194,240,56346,2,0,P|176:175|181:131,1,92.8200005665283,10|0,0:2|0:2,0:0:0:0:
64,19,56679,6,0,P|64:85|47:181,1,139.230000849792,2|0,1:2|0:2,0:0:0:0:
74,231,57013,1,10,0:2:0:0:
192,50,57179,2,0,P|261:20|295:24,1,92.8200005665283,2|0,0:2|1:2,0:0:0:0:
335,247,57513,1,2,1:2:0:0:
232,120,57679,2,0,P|163:90|129:94,1,92.8200005665283,10|0,0:2|1:2,0:0:0:0:
232,308,58013,2,0,P|277:302|316:278,1,92.8200005665283,2|0,0:2|1:2,0:0:0:0:
333,79,58346,5,10,0:2:0:0:
162,205,58513,1,2,0:2:0:0:
413,255,58679,1,2,1:2:0:0:
232,120,58846,1,2,1:2:0:0:
287,368,59013,1,10,0:2:0:0:
486,195,59179,1,2,0:2:0:0:
191,294,59346,6,0,P|132:285|96:264,1,92.8200005665283,0|0,1:2|0:2,0:0:0:0:
159,68,59679,2,0,P|200:48|246:43,1,92.8200005665283,10|2,0:2|0:2,0:0:0:0:
300,241,60013,1,2,1:2:0:0:
163,181,60179,1,2,0:2:0:0:
329,150,60346,1,10,0:2:0:0:
180,272,60513,2,0,P|121:263|85:242,1,92.8200005665283,2|0,1:2|0:2,0:0:0:0:
189,90,60846,1,0,1:2:0:0:
273,325,61013,2,0,P|332:316|368:295,1,92.8200005665283,10|2,0:2|0:2,0:0:0:0:
352,71,61346,1,2,1:2:0:0:
209,247,61513,1,2,1:2:0:0:
425,91,61679,1,10,0:2:0:0:
163,181,61846,1,2,0:2:0:0:
424,211,62013,6,0,P|444:149|443:112,1,92.8200005665283,0|0,1:2|0:2,0:0:0:0:
255,310,62346,2,0,P|238:266|234:220,1,92.8200005665283,10|0,0:2|0:2,0:0:0:0:
390,347,62679,1,2,1:2:0:0:
313,140,62846,1,2,1:2:0:0:
182,350,63013,1,10,0:2:0:0:
388,232,63179,1,2,1:2:0:0:
142,270,63346,2,0,P|145:223|162:180,1,92.8200005665283,2|0,0:2|1:2,0:0:0:0:
360,316,63679,2,0,P|356:269|339:226,1,92.8200005665283,10|0,0:2|0:2,0:0:0:0:
117,299,64013,1,2,1:2:0:0:
306,207,64179,1,0,1:2:0:0:
93,79,64346,1,8,0:2:0:0:
113,89,64679,6,0,L|114:130,2,23.2050001416321,0|0|0,3:2|3:2|3:2,0:0:0:0:
288,36,65013,2,0,L|287:77,2,23.2050001416321,0|0|0,3:2|3:2|3:2,0:0:0:0:
135,97,65346,2,0,L|133:157,2,46.4100002832642,0|0|0,3:2|3:2|3:2,0:0:0:0:
253,170,65679,1,8,3:3:0:0:
89,233,65846,1,4,3:3:0:0:
314,245,66013,6,0,P|328:193|323:129,1,111.930001707916,2|0,1:2|0:2,0:0:0:0:
372,81,66346,2,0,P|323:57|286:57,1,74.6200011386109,2|0,0:2|0:2,0:0:0:0:
183,214,66679,2,0,P|169:162|174:98,1,111.930001707916,10|0,0:2|0:2,0:0:0:0:
207,41,67013,1,2,0:2:0:0:
253,170,67179,1,0,1:2:0:0:
117,46,67346,2,0,P|120:101|106:155,1,111.930001707916,2|0,0:2|0:2,0:0:0:0:
69,221,67679,1,2,1:2:0:0:
189,120,67846,1,2,0:2:0:0:
238,323,68013,1,10,0:2:0:0:
265,44,68346,1,2,0:2:0:0:
167,274,68679,6,0,P|215:243|296:239,1,111.930001707916,2|0,1:2|0:2,0:0:0:0:
340,268,69013,1,2,0:2:0:0:
417,231,69179,1,0,0:2:0:0:
328,158,69346,1,10,0:2:0:0:
251,195,69512,1,2,0:2:0:0:
405,117,69679,1,2,0:2:0:0:
249,90,69846,1,2,1:2:0:0:
417,231,70013,1,2,0:2:0:0:
417,231,70179,2,0,P|436:174|435:145,1,74.6200011386109,2|0,1:2|1:2,0:0:0:0:
322,43,70513,1,10,0:2:0:0:
181,253,70679,2,0,P|162:196|163:167,1,74.6200011386109,10|0,0:2|0:2,0:0:0:0:
427,268,71013,2,0,P|446:211|445:182,1,74.6200011386109,10|0,1:2|0:2,0:0:0:0:
237,333,71346,5,2,1:2:0:0:
265,195,71513,1,2,0:2:0:0:
296,270,71679,1,2,0:2:0:0:
236,122,71846,1,2,0:2:0:0:
181,253,72013,2,0,P|130:241|64:243,1,111.930001707916,10|0,0:2|0:2,0:0:0:0:
29,230,72346,2,0,P|91:211|125:212,1,74.6200011386109,2|0,0:2|1:2,0:0:0:0:
265,195,72679,5,2,0:2:0:0:
135,138,72846,1,2,0:2:0:0:
300,91,73013,1,2,1:2:0:0:
166,104,73179,1,2,0:2:0:0:
325,19,73346,2,0,P|339:74|346:142,1,111.930001707916,10|0,0:2|0:2,0:0:0:0:
359,177,73679,2,0,P|366:126|377:90,1,74.6200011386109,2|0,1:2|0:2,0:0:0:0:
342,285,74013,5,2,1:2:0:0:
265,195,74179,1,0,0:2:0:0:
238,359,74346,1,2,0:2:0:0:
161,269,74512,1,0,0:2:0:0:
256,280,74679,1,10,0:2:0:0:
157,230,74846,1,2,0:2:0:0:
60,279,75013,1,2,0:2:0:0:
165,314,75179,1,2,1:2:0:0:
46,201,75346,2,0,P|41:158|41:118,1,74.6200011386109,2|0,0:2|1:2,0:0:0:0:
274,245,75679,2,0,P|279:202|279:162,1,74.6200011386109,2|0,1:2|0:2,0:0:0:0:
165,314,76013,2,0,P|160:271|160:231,1,74.6200011386109,10|0,1:2|0:2,0:0:0:0:
441,348,76346,2,0,P|446:305|443:218,1,111.930001707916,10|0,1:2|0:2,0:0:0:0:
396,183,76679,6,0,P|360:127|367:52,1,125.579995784363,2|0,1:2|2:2,0:0:0:0:
430,24,77013,2,0,P|378:0|339:1,1,83.7199971895753,2|0,0:2|0:2,0:0:0:0:
262,152,77346,2,0,P|210:176|171:175,1,83.7199971895753,10|0,0:2|0:2,0:0:0:0:
279,52,77679,1,2,0:2:0:0:
144,251,77846,2,0,B|110:167|174:197|140:69,1,167.439994379151,2|0,1:2|0:2,0:0:0:0:
56,217,78346,2,0,P|52:166|35:122,1,83.7199971895753,2|0,1:2|0:2,0:0:0:0:
199,288,78679,2,0,P|203:237|220:193,1,83.7199971895753,10|0,0:2|0:2,0:0:0:0:
319,97,79013,1,0,0:2:0:0:
357,184,79179,1,0,0:2:0:0:
226,69,79346,6,0,P|160:39|87:66,1,125.579995784363,2|0,1:2|2:2,0:0:0:0:
35,29,79679,2,0,P|38:86|51:122,1,83.7199971895753,2|0,0:2|0:2,0:0:0:0:
226,196,80013,2,0,P|223:253|210:289,1,83.7199971895753,10|0,0:2|0:2,0:0:0:0:
125,126,80346,1,2,0:2:0:0:
294,293,80513,2,0,P|276:223|281:120,1,167.439994379151,2|2,1:2|1:2,0:0:0:0:
153,243,81013,1,2,1:2:0:0:
348,177,81179,1,2,0:2:0:0:
171,321,81346,2,0,P|105:309|77:279,1,83.7199971895753,10|0,0:2|0:2,0:0:0:0:
239,110,81679,2,0,P|258:181|263:250,1,125.579995784363,10|0,0:2|2:2,0:0:0:0:
251,306,82013,5,2,1:2:0:0:
348,177,82179,2,0,P|337:230|332:268,1,83.7199971895753,2|0,0:2|0:2,0:0:0:0:
367,372,82513,1,2,0:2:0:0:
256,172,82679,2,0,P|285:288|288:350,1,167.439994379151,10|0,0:2|0:2,0:0:0:0:
348,177,83179,1,0,1:2:0:0:
185,255,83346,1,2,0:2:0:0:
385,277,83513,2,0,P|329:254|294:255,1,83.7199971895753,2|0,0:2|1:2,0:0:0:0:
173,224,83846,1,2,0:2:0:0:
363,100,84013,2,0,P|321:104|284:123,1,83.7199971895753,10|0,0:2|0:2,0:0:0:0:
158,191,84346,2,0,P|116:186|79:167,1,83.7199971895753,2|0,1:2|0:2,0:0:0:0:
197,4,84679,6,0,P|219:53|226:97,1,83.7199971895753,2|0,1:2|0:2,0:0:0:0:
257,228,85013,2,0,P|238:265|229:306,1,83.7199971895753,2|0,0:2|0:2,0:0:0:0:
377,118,85346,2,0,P|335:122|298:141,1,83.7199971895753,10|0,0:2|0:2,0:0:0:0:
163,162,85679,2,0,P|121:157|84:138,1,83.7199971895753,2|0,0:2|1:2,0:0:0:0:
255,50,86013,5,2,3:2:0:0:
271,74,86096,1,0,3:2:0:0:
281,101,86179,1,0,1:2:0:0:
283,129,86263,1,0,3:0:0:0:
280,157,86346,1,0,1:2:0:0:
219,39,86513,1,0,3:2:0:0:
359,104,86679,1,2,1:2:0:0:
151,183,86846,1,0,3:2:0:0:
255,268,87013,1,8,1:2:0:0:
42,316,87179,1,0,3:2:0:0:
42,316,87263,1,0,3:2:0:0:
42,316,87346,6,0,P|103:303|113:304,1,56.4199977616578,2|0,0:2|0:2,0:0:0:0:
188,333,87679,2,0,P|214:342|242:346,1,56.4199977616578,2|0,0:2|0:2,0:0:0:0:
342,318,88013,2,0,P|315:262|326:205,1,112.839995523316,2|2,0:2|0:2,0:0:0:0:
321,213,88679,2,0,P|342:173|342:146,1,56.4199977616578,2|0,0:2|0:2,0:0:0:0:
348,80,89013,2,0,P|334:36|315:17,1,56.4199977616578,2|0,0:2|0:2,0:0:0:0:
243,4,89346,2,0,P|230:52|227:129,1,112.839995523316,2|2,0:2|0:2,0:0:0:0:
225,114,90013,5,2,0:2:0:0:
147,142,90179,1,0,0:2:0:0:
171,260,90346,1,2,0:2:0:0:
93,232,90512,1,0,0:2:0:0:
242,204,90679,1,2,0:2:0:0:
262,296,90846,1,2,0:2:0:0:
183,345,91013,1,0,0:2:0:0:
171,260,91179,2,0,P|251:230|296:229,1,112.839995523316,2|2,0:2|0:2,0:0:0:0:
367,270,91679,1,0,0:2:0:0:
458,251,91846,1,2,0:2:0:0:
491,167,92013,2,0,P|482:125|468:99,1,56.4199977616578,2|0,0:2|0:2,0:0:0:0:
402,59,92346,2,0,P|391:85|384:163,1,84.6299966424867,2|0,0:2|0:2,0:0:0:0:
383,175,92679,6,0,P|334:157|308:157,1,74.6200011386109,6|0,1:2|0:2,0:0:0:0:
140,67,93013,2,0,P|173:51|210:48,1,74.6200011386109,0|0,0:2|0:2,0:0:0:0:
144,256,93346,1,8,1:2:0:0:
80,195,93513,1,0,0:2:0:0:
165,178,93679,2,0,P|210:201|235:247,1,74.6200011386109,2|0,0:2|0:2,0:0:0:0:
316,358,94013,2,0,P|350:343|375:316,1,74.6200011386109,2|0,1:2|0:2,0:0:0:0:
322,183,94346,2,0,P|287:197|262:224,1,74.6200011386109,2|0,0:2|0:2,0:0:0:0:
453,170,94679,1,10,1:2:0:0:
468,80,94846,1,0,0:2:0:0:
388,113,95013,2,0,P|328:99|299:74,1,74.6200011386109,2|0,0:2|0:2,0:0:0:0:
242,9,95346,5,0,1:2:0:0:
206,0,95429,1,0,0:2:0:0:
171,6,95512,1,0,0:2:0:0:
143,30,95595,1,0,0:0:0:0:
131,65,95679,1,2,1:2:0:0:
119,100,95763,1,0,0:2:0:0:
92,124,95846,1,0,0:2:0:0:
56,132,95929,1,0,0:2:0:0:
20,121,96013,2,0,L|25:71,1,37.3100005693054,0|0,1:2|0:2,0:0:0:0:
221,119,96179,1,0,0:2:0:0:
221,119,96263,1,0,0:2:0:0:
221,119,96346,2,0,L|216:69,1,37.3100005693054,2|0,1:2|0:2,0:0:0:0:
104,207,96513,1,0,0:2:0:0:
101,244,96596,1,0,0:2:0:0:
98,281,96679,5,2,1:2:0:0:
219,146,96846,1,0,1:2:0:0:
281,337,97013,1,0,1:2:0:0:
312,356,97096,1,0,1:2:0:0:
349,360,97179,1,0,1:2:0:0:
384,349,97262,1,0,1:2:0:0:
384,349,98013,6,0,P|412:273|400:176,1,139.230000849792,6|0,1:2|0:2,0:0:0:0:
339,246,98346,2,0,P|327:185|330:147,1,92.8200005665283,10|0,0:2|0:2,0:0:0:0:
408,31,98680,2,0,P|336:1|255:6,1,139.230000849792,2|0,1:2|0:2,0:0:0:0:
212,41,99013,1,10,0:2:0:0:
43,136,99180,2,0,P|107:165|176:166,1,139.230000849792,2|0,1:2|0:2,0:0:0:0:
243,118,99513,1,2,1:2:0:0:
395,256,99680,2,0,P|401:185|410:137,1,92.8200005665283,10|0,0:2|0:2,0:0:0:0:
239,275,100013,1,2,1:2:0:0:
328,105,100180,1,0,1:2:0:0:
416,285,100346,2,0,P|422:214|431:166,1,92.8200005665283,10|0,0:2|0:2,0:0:0:0:
236,117,100680,6,0,P|165:163|76:159,1,139.230000849792,2|0,1:2|0:2,0:0:0:0:
62,110,101013,1,10,0:2:0:0:
161,244,101180,2,0,P|105:210|63:206,1,92.8200005665283,2|0,0:2|1:2,0:0:0:0:
18,254,101513,1,2,1:2:0:0:
236,288,101680,2,0,P|180:322|138:326,1,92.8200005665283,10|0,0:2|1:2,0:0:0:0:
78,205,102013,1,2,0:2:0:0:
131,351,102180,1,0,1:2:0:0:
232,199,102346,2,0,P|277:211|315:238,1,92.8200005665283,10|0,0:2|0:2,0:0:0:0:
161,244,102680,1,2,1:2:0:0:
360,170,102846,1,2,1:2:0:0:
155,168,103013,1,10,0:2:0:0:
381,249,103180,1,2,0:2:0:0:
161,244,103346,6,0,P|101:260|56:250,1,92.8200005665283,0|0,1:2|0:2,0:0:0:0:
360,170,103680,2,0,P|406:167|450:182,1,92.8200005665283,10|0,0:2|0:2,0:0:0:0:
229,144,104013,1,2,1:2:0:0:
303,271,104180,1,2,0:2:0:0:
208,163,104346,1,10,0:2:0:0:
261,342,104513,2,0,P|307:346|351:331,1,92.8200005665283,2|0,1:2|0:2,0:0:0:0:
399,100,104846,1,0,1:2:0:0:
303,271,105013,2,0,P|258:275|214:260,1,92.8200005665283,8|2,0:2|0:2,0:0:0:0:
133,75,105346,1,2,1:2:0:0:
344,195,105513,1,2,1:2:0:0:
91,278,105680,1,10,0:2:0:0:
296,185,105846,1,2,0:2:0:0:
128,113,106013,6,0,P|82:117|40:137,1,92.8200005665283,0|0,1:2|0:2,0:0:0:0:
236,251,106346,2,0,P|277:271|323:275,1,92.8200005665283,10|0,0:2|0:2,0:0:0:0:
228,121,106680,1,0,1:2:0:0:
241,333,106846,1,2,1:2:0:0:
198,154,107013,1,10,0:2:0:0:
353,244,107180,1,2,1:2:0:0:
142,220,107346,2,0,P|120:165|118:119,1,92.8200005665283,2|0,0:2|1:2,0:0:0:0:
334,157,107680,2,0,P|329:203|310:246,1,92.8200005665283,10|0,0:2|0:2,0:0:0:0:
168,74,108013,1,2,1:2:0:0:
340,45,108180,1,0,1:2:0:0:
144,0,108346,2,0,P|221:17|264:99,1,139.230000849792,8|0,0:2|0:2,0:0:0:0:
219,129,108680,6,0,P|203:193|211:271,1,139.230000849792,2|0,1:2|0:2,0:0:0:0:
265,321,109013,2,0,P|285:254|280:203,1,92.8200005665283,10|0,0:2|0:2,0:0:0:0:
256,62,109346,2,0,P|294:108|371:144,1,139.230000849792,2|0,1:2|0:2,0:0:0:0:
432,121,109680,1,10,0:2:0:0:
219,129,109846,2,0,P|162:153|136:190,1,92.8200005665283,2|0,1:2|0:2,0:0:0:0:
316,211,110180,1,2,1:2:0:0:
223,31,110346,2,0,P|266:46|299:79,1,92.8200005665283,10|0,0:2|0:2,0:0:0:0:
254,262,110680,1,2,1:2:0:0:
153,78,110846,1,0,1:2:0:0:
316,211,111013,2,0,P|334:276|329:320,1,92.8200005665283,10|0,0:2|0:2,0:0:0:0:
163,373,111346,6,0,P|163:307|180:211,1,139.230000849792,2|0,1:2|0:2,0:0:0:0:
139,168,111680,1,10,0:2:0:0:
269,341,111846,2,0,P|258:283|257:221,1,92.8200005665283,2|0,0:2|1:2,0:0:0:0:
297,84,112180,1,2,1:2:0:0:
355,373,112346,2,0,P|366:315|367:253,1,92.8200005665283,10|0,0:2|1:2,0:0:0:0:
373,46,112679,2,0,P|376:92|385:137,1,92.8200005665283,2|0,0:2|1:2,0:0:0:0:
269,341,113013,5,10,0:2:0:0:
325,159,113180,1,2,0:2:0:0:
174,271,113346,1,2,1:2:0:0:
120,78,113513,1,2,1:2:0:0:
294,244,113680,1,10,0:2:0:0:
46,319,113846,1,2,0:2:0:0:
237,134,114013,6,0,P|296:143|332:164,1,92.8200005665283,0|0,1:2|0:2,0:0:0:0:
269,341,114346,2,0,P|228:361|182:366,1,92.8200005665283,10|2,0:2|0:2,0:0:0:0:
147,152,114680,1,2,1:2:0:0:
321,263,114846,1,2,0:2:0:0:
130,237,115013,1,10,0:2:0:0:
315,133,115180,2,0,P|273:113|227:108,1,92.8200005665283,2|0,1:2|0:2,0:0:0:0:
122,277,115513,1,0,1:2:0:0:
157,61,115680,2,0,P|198:41|244:36,1,92.8200005665283,10|2,0:2|0:2,0:0:0:0:
288,250,116013,1,2,1:2:0:0:
340,54,116180,1,2,1:2:0:0:
140,198,116346,1,10,0:2:0:0:
381,118,116513,1,2,0:2:0:0:
82,136,116680,6,0,P|62:198|63:235,1,92.8200005665283,0|0,1:2|0:2,0:0:0:0:
293,121,117013,2,0,P|310:165|314:211,1,92.8200005665283,10|0,0:2|0:2,0:0:0:0:
135,79,117346,1,2,1:2:0:0:
184,262,117513,1,2,1:2:0:0:
272,45,117680,1,10,0:2:0:0:
140,198,117846,1,2,1:2:0:0:
368,83,118013,1,10,0:2:0:0:
214,99,118179,1,8,0:2:0:0:
214,99,118263,1,8,0:2:0:0:
214,99,118346,1,10,0:2:0:0:
362,283,118513,1,8,0:2:0:0:
293,121,118679,1,2,1:2:0:0:
206,296,118846,1,0,1:2:0:0:
416,193,119013,2,0,P|345:166|263:170,1,139.230000849792,10|0,1:2|0:0,0:0:0:0:
199,142,119346,6,0,P|133:170|80:174,1,101.920001244141,6|0,1:2|0:2,0:0:0:0:
248,27,119679,1,0,3:2:0:0:
214,261,119846,1,0,1:2:0:0:
348,89,120013,2,0,P|302:66|252:56,1,101.920001244141,8|2,0:2|0:2,0:0:0:0:
329,232,120346,1,2,3:2:0:0:
101,291,120513,1,2,0:0:0:0:
197,111,120679,1,2,0:0:0:0:
294,313,120846,1,8,0:2:0:0:
414,163,121013,2,0,P|368:140|318:130,1,101.920001244141,2|0,1:2|0:2,0:0:0:0:
180,344,121346,1,10,0:2:0:0:
229,134,121513,1,0,1:2:0:0:
376,292,121679,1,2,0:2:0:0:
142,264,121846,1,0,0:2:0:0:
303,80,122013,6,0,P|320:184|330:285,1,203.840002488281,2|0,1:2|3:2,0:0:0:0:
425,124,122513,1,0,1:2:0:0:
265,270,122679,2,0,P|279:206|283:156,1,101.920001244141,10|2,0:2|0:2,0:0:0:0:
411,308,123013,1,2,3:2:0:0:
172,179,123179,1,2,0:0:0:0:
326,337,123346,1,2,0:0:0:0:
303,80,123513,1,8,0:2:0:0:
123,284,123679,2,0,P|134:234|140:183,1,101.920001244141,2|0,1:2|0:2,0:0:0:0:
344,257,124013,1,10,0:2:0:0:
133,147,124179,1,0,1:2:0:0:
338,101,124346,1,2,0:2:0:0:
210,305,124513,1,0,0:2:0:0:
252,62,124679,6,0,P|339:13|454:51,1,203.840002488281,2|0,1:2|3:2,0:0:0:0:
290,198,125179,1,0,1:2:0:0:
168,46,125346,2,0,P|106:17|54:15,1,101.920001244141,8|2,0:2|0:2,0:0:0:0:
196,224,125679,1,2,3:2:0:0:
348,78,125846,1,2,0:0:0:0:
114,118,126013,1,2,0:0:0:0:
264,280,126179,1,8,0:2:0:0:
134,137,126346,2,0,P|113:208|115:252,1,101.920001244141,2|0,1:2|0:2,0:0:0:0:
262,364,126679,1,10,0:2:0:0:
229,152,126846,1,0,1:2:0:0:
184,341,127013,1,2,0:2:0:0:
321,164,127179,1,0,0:2:0:0:
118,267,127346,6,0,B|242:291|184:215|339:247,1,203.840002488281,2|0,1:2|3:2,0:0:0:0:
155,182,127846,1,0,1:2:0:0:
286,328,128013,1,8,0:2:0:0:
331,125,128179,1,2,0:2:0:0:
224,274,128346,1,10,0:2:0:0:
280,64,128513,1,2,0:2:0:0:
348,279,128679,1,2,3:2:0:0:
348,279,128763,1,0,3:2:0:0:
348,279,128846,2,0,P|413:265|420:261,1,50.9600006220703,8|0,3:2|3:2,0:0:0:0:
233,156,129013,1,2,1:2:0:0:
444,94,129179,1,0,3:2:0:0:
247,252,129346,1,10,0:2:0:0:
377,51,129513,1,0,1:2:0:0:
171,216,129679,1,2,3:2:0:0:
358,156,129846,1,0,0:0:0:0:
160,106,130013,1,6,0:2:0:0:
368,268,140679,6,0,P|357:216|350:123,1,131.040003199219,0|0,1:2|0:2,0:0:0:0:
113,297,141346,2,0,P|124:245|131:152,1,131.040003199219,8|0,1:2|0:2,0:0:0:0:
357,290,142013,2,0,P|346:238|339:145,1,131.040003199219,0|0,1:2|0:2,0:0:0:0:
137,46,142679,1,8,1:2:0:0:
238,113,142846,1,0,0:2:0:0:
352,73,143013,1,0,0:2:0:0:
275,35,143179,1,0,0:2:0:0:
199,193,143346,6,0,P|133:163|58:178,1,131.040003199219,0|0,1:2|0:2,0:0:0:0:
169,278,143846,2,0,P|224:272|255:256,1,65.5200015996094,0|8,0:2|1:2,0:0:0:0:
280,197,144179,1,0,0:2:0:0:
280,197,144346,2,0,P|335:203|366:219,1,65.5200015996094,0|0,0:2|0:2,0:0:0:0:
424,283,144679,2,0,P|462:231|451:146,1,131.040003199219,0|0,1:2|0:2,0:0:0:0:
192,49,145346,1,8,1:2:0:0:
270,98,145513,1,0,0:2:0:0:
180,220,145679,1,0,0:2:0:0:
149,141,145846,1,0,0:2:0:0:
297,184,146013,6,0,P|286:251|283:323,1,131.040003199219,0|0,1:2|0:2,0:0:0:0:
373,366,146513,1,0,0:2:0:0:
431,294,146679,2,0,P|419:248|414:212,1,65.5200015996094,8|0,1:2|0:2,0:0:0:0:
322,167,147013,2,0,P|313:198|307:230,1,65.5200015996094,0|0,0:2|0:2,0:0:0:0:
422,123,147346,2,0,P|386:78|299:79,1,131.040003199219,0|0,1:2|0:2,0:0:0:0:
131,308,148013,1,8,1:2:0:0:
81,206,148179,1,0,0:2:0:0:
138,123,148346,1,0,0:2:0:0:
124,220,148513,1,0,0:2:0:0:
89,111,148679,6,0,P|82:62|75:26,1,65.5200015996094,0|0,1:2|0:2,0:0:0:0:
220,152,149013,2,0,P|227:103|234:67,1,65.5200015996094,0|0,0:2|0:2,0:0:0:0:
449,70,149346,2,0,P|456:21|463:-15,1,65.5200015996094,8|0,1:2|0:2,0:0:0:0:
318,111,149680,2,0,P|311:62|304:26,1,65.5200015996094,0|0,0:2|0:2,0:0:0:0:
460,247,150013,2,0,P|407:193|333:199,1,131.040003199219,0|0,1:2|0:2,0:0:0:0:
75,334,150679,2,0,P|64:292|62:252,1,65.5200015996094,8|0,1:2|0:2,0:0:0:0:
167,311,151013,2,0,P|163:343|153:374,1,65.5200015996094,0|0,0:2|0:2,0:0:0:0:
136,227,151346,6,0,P|200:201|283:206,1,131.040003199219,14|2,0:2|3:2,0:0:0:0:
339,115,151846,2,0,P|295:99|263:86,1,65.5200015996094,2|8,3:2|0:2,0:0:0:0:
362,259,152179,2,0,P|318:275|286:288,1,65.5200015996094,2|0,0:2|3:2,0:0:0:0:
411,156,152513,2,0,P|424:118|423:75,1,65.5200015996094,2|8,0:2|0:2,0:0:0:0:
261,200,152846,2,0,P|263:232|275:263,1,65.5200015996094,2|0,0:2|3:2,0:0:0:0:
231,75,153179,1,2,0:2:0:0:
152,180,153346,2,0,P|114:195|78:197,1,65.5200015996094,10|0,0:2|0:2,0:0:0:0:
20,94,153679,1,2,3:2:0:0:
20,94,153846,1,0,3:2:0:0:
30,260,154013,6,0,P|68:275|171:280,1,131.040003199219,10|2,0:2|3:2,0:0:0:0:
246,177,154513,2,0,P|300:160|334:157,1,65.5200015996094,2|8,3:2|0:2,0:0:0:0:
384,292,154846,2,0,P|351:285|321:273,1,65.5200015996094,2|0,0:2|3:2,0:0:0:0:
412,135,155179,1,2,0:2:0:0:
303,242,155346,1,10,0:2:0:0:
303,242,155513,1,0,3:2:0:0:
469,200,155679,2,0,P|459:136|452:38,1,139.230000849792,2|0,3:2|0:2,0:0:0:0:
415,6,156013,2,0,P|410:59|402:99,1,65.5200015996094,8|0,0:2|0:0,0:0:0:0:
281,213,156346,2,0,P|228:200|216:201,1,46.4100002832642,2|0,3:2|3:0,0:0:0:0:
197,89,156513,2,0,P|174:92|152:101,1,46.4100002832642,0|0,3:0|3:0,0:0:0:0:
132,256,156679,6,0,P|44:233|22:178,1,131.040003199219,10|2,0:2|3:2,0:0:0:0:
97,53,157179,2,0,P|109:112|111:138,1,65.5200015996094,2|8,3:2|0:2,0:0:0:0:
221,231,157513,2,0,P|225:198|233:166,1,65.5200015996094,2|2,0:2|3:2,0:0:0:0:
351,36,157846,2,0,P|304:51|271:55,1,65.5200015996094,0|8,0:0|0:2,0:0:0:0:
393,151,158179,1,2,0:2:0:0:
258,129,158346,1,0,3:2:0:0:
367,165,158513,1,2,3:2:0:0:
197,189,158679,2,0,P|182:145|180:98,1,65.5200015996094,10|0,0:2|0:2,0:0:0:0:
320,242,159013,2,0,P|331:211|337:179,1,65.5200015996094,2|0,0:2|0:2,0:0:0:0:
145,287,159346,6,0,B|260:252|217:346|349:342,1,196.560004798828,10|0,0:0|3:0,0:0:0:0:
355,187,160013,2,0,P|349:219|337:249,1,65.5200015996094,8|2,0:0|0:0,0:0:0:0:
272,137,160346,1,2,3:2:0:0:
399,99,160513,1,2,0:0:0:0:
259,218,160679,1,10,0:2:0:0:
413,125,160846,1,0,3:2:0:0:
222,67,161013,1,2,3:2:0:0:
222,67,161346,2,0,P|166:46|86:57,1,131.040003199219,10|0,0:2|0:2,0:0:0:0:
34,165,161846,1,0,0:2:0:0:
34,165,161929,1,0,0:2:0:0:
34,165,162013,6,0,B|119:157|75:207|183:195,1,131.040003199219,10|2,0:2|0:0,0:0:0:0:
279,124,162513,2,0,P|261:176|261:210,1,65.5200015996094,2|8,3:2|0:2,0:0:0:0:
377,236,162846,2,0,P|371:203|358:173,1,65.5200015996094,2|0,0:0|3:2,0:0:0:0:
262,105,163179,2,0,P|244:157|244:191,1,65.5200015996094,2|8,0:0|0:2,0:0:0:0:
363,79,163513,1,2,3:2:0:0:
290,244,163679,1,0,3:2:0:0:
177,124,163846,1,2,0:0:0:0:
342,157,164013,1,10,0:2:0:0:
191,278,164179,1,0,0:0:0:0:
262,105,164346,1,2,3:2:0:0:
356,289,164513,1,2,3:2:0:0:
404,94,164679,6,0,P|352:65|266:84,1,131.040003199219,10|2,0:2|0:0,0:0:0:0:
178,191,165179,2,0,P|136:210|102:212,1,65.5200015996094,2|8,3:2|0:2,0:0:0:0:
201,83,165513,2,0,P|233:89|261:104,1,65.5200015996094,2|0,0:0|3:2,0:0:0:0:
290,207,165846,1,2,0:0:0:0:
125,120,166013,1,8,0:2:0:0:
125,120,166179,1,0,3:2:0:0:
330,17,166346,2,0,P|345:86|351:168,1,139.230000849792,2|0,3:2|0:0,0:0:0:0:
391,189,166679,2,0,P|379:135|376:101,1,65.5200015996094,8|0,0:2|0:0,0:0:0:0:
271,304,167013,2,0,P|224:320|190:319,1,46.4100002832642,2|0,3:2|0:0,0:0:0:0:
197,152,167179,2,0,P|150:136|116:137,1,46.4100002832642,0|0,3:2|3:2,0:0:0:0:
85,265,167346,6,0,P|199:239|238:235,1,131.040003199219,10|2,0:2|0:0,0:0:0:0:
288,150,167846,2,0,P|343:178|365:183,1,65.5200015996094,2|8,3:2|0:2,0:0:0:0:
443,78,168179,2,0,P|459:121|471:143,1,65.5200015996094,2|0,0:0|3:2,0:0:0:0:
418,308,168513,2,0,P|430:262|431:218,1,65.5200015996094,2|8,0:0|0:2,0:0:0:0:
292,338,168846,2,0,P|282:306|278:274,1,65.5200015996094,2|0,3:2|3:2,0:0:0:0:
326,147,169179,1,0,0:0:0:0:
180,266,169346,2,0,P|149:193|171:136,2,131.040003199219,8|2|2,0:2|0:0|0:0,0:0:0:0:
322,73,172179,6,0,L|330:114,1,23.6599998555908,2|0,0:2|0:2,0:0:0:0:
382,178,172346,2,0,P|349:142|266:157,1,111.930001707916,2|0,0:2|0:2,0:0:0:0:
229,204,172679,6,0,P|152:261|73:244,1,152.880001866211,6|0,1:2|0:2,0:0:0:0:
34,199,173013,2,0,P|96:209|145:252,1,101.920001244141,10|0,0:2|0:2,0:0:0:0:
227,325,173346,2,0,P|304:382|383:365,1,152.880001866211,2|0,1:2|0:2,0:0:0:0:
422,320,173679,1,10,0:2:0:0:
291,149,173846,2,0,P|267:225|266:254,1,101.920001244141,2|0,1:2|0:0,0:0:0:0:
203,90,174179,1,2,1:2:0:0:
391,182,174346,2,0,P|384:131|365:84,1,101.920001244141,10|0,0:2|0:2,0:0:0:0:
185,183,174679,1,2,1:2:0:0:
331,60,174846,1,0,1:2:0:0:
214,267,175013,2,0,P|148:252|110:221,1,101.920001244141,10|0,0:2|0:2,0:0:0:0:
349,107,175346,6,0,P|367:154|374:204,1,101.920001244141,2|0,1:2|0:0,0:0:0:0:
297,351,175679,1,10,0:2:0:0:
210,85,175846,1,2,0:2:0:0:
329,269,176013,1,0,1:2:0:0:
167,158,176179,1,2,1:2:0:0:
411,244,176346,1,10,0:2:0:0:
162,322,176513,1,0,1:2:0:0:
342,186,176679,1,2,0:2:0:0:
131,146,176846,1,0,1:2:0:0:
234,368,177013,2,0,P|249:294|245:255,1,101.920001244141,10|0,0:2|0:2,0:0:0:0:
166,38,177346,5,2,1:2:0:0:
320,163,177513,1,2,1:2:0:0:
143,290,177679,1,10,0:2:0:0:
222,142,177846,1,2,0:2:0:0:
344,321,178013,6,0,P|408:331|464:301,1,101.920001244141,0|0,1:2|0:2,0:0:0:0:
234,183,178346,2,0,P|185:169|136:180,1,101.920001244141,10|0,0:2|0:2,0:0:0:0:
378,243,178679,1,2,1:2:0:0:
182,260,178846,1,2,0:2:0:0:
320,163,179013,1,10,0:2:0:0:
154,81,179179,2,0,P|136:148|137:190,1,101.920001244141,2|0,1:2|0:2,0:0:0:0:
234,337,179513,1,0,1:2:0:0:
345,140,179679,5,8,0:2:0:0:
146,259,179846,1,2,0:2:0:0:
366,169,180013,1,2,1:2:0:0:
123,100,180179,1,2,1:2:0:0:
266,298,180346,1,10,0:2:0:0:
218,43,180513,1,2,0:2:0:0:
127,288,180679,6,0,P|69:279|27:247,1,101.920001244141,0|0,1:2|0:2,0:0:0:0:
252,106,181013,2,0,P|302:111|344:139,1,101.920001244141,10|0,0:2|0:2,0:0:0:0:
246,328,181346,1,0,1:2:0:0:
162,106,181513,1,2,1:2:0:0:
371,245,181679,1,10,0:2:0:0:
104,195,181846,1,2,1:2:0:0:
362,95,182013,1,2,0:2:0:0:
135,209,182179,1,0,1:2:0:0:
325,354,182346,2,0,P|334:285|332:242,1,101.920001244141,10|0,0:2|0:2,0:0:0:0:
208,36,182679,1,2,1:2:0:0:
260,269,182846,1,0,1:2:0:0:
362,95,183013,2,0,P|271:51|204:63,1,152.880001866211,8|0,0:2|0:2,0:0:0:0:
139,96,183346,6,0,P|163:165|168:276,1,152.880001866211,2|0,1:2|0:2,0:0:0:0:
122,307,183679,2,0,P|139:247|140:189,1,101.920001244141,10|0,0:2|0:2,0:0:0:0:
296,139,184013,2,0,P|271:211|264:287,1,152.880001866211,2|0,1:2|0:2,0:0:0:0:
299,353,184346,1,10,0:2:0:0:
377,104,184513,2,0,P|322:66|268:64,1,101.920001244141,2|0,1:2|0:2,0:0:0:0:
182,221,184846,1,2,1:2:0:0:
381,192,185013,2,0,P|438:165|470:107,1,101.920001244141,10|0,0:2|0:2,0:0:0:0:
220,102,185346,1,2,1:2:0:0:
360,268,185513,1,0,1:2:0:0:
215,24,185679,2,0,P|158:51|126:109,1,101.920001244141,10|0,0:2|0:2,0:0:0:0:
256,286,186013,6,0,P|263:213|273:167,1,101.920001244141,2|0,1:2|0:0,0:0:0:0:
157,329,186346,1,10,0:2:0:0:
355,227,186513,2,0,P|351:177|343:127,1,101.920001244141,2|0,0:2|1:2,0:0:0:0:
173,241,186846,1,2,1:2:0:0:
358,310,187013,1,10,0:2:0:0:
165,204,187179,1,0,1:2:0:0:
367,108,187346,1,2,0:2:0:0:
271,321,187513,1,0,1:2:0:0:
166,115,187679,5,10,0:2:0:0:
388,220,187846,1,2,0:2:0:0:
165,204,188013,1,2,1:2:0:0:
389,93,188179,1,2,1:2:0:0:
277,291,188346,1,10,0:2:0:0:
216,38,188513,1,2,0:2:0:0:
136,289,188679,6,0,P|132:238|123:188,1,101.920001244141,0|0,1:2|0:2,0:0:0:0:
295,42,189013,2,0,P|286:92|282:142,1,101.920001244141,10|2,0:2|0:2,0:0:0:0:
364,300,189346,1,2,1:2:0:0:
191,161,189513,1,2,0:2:0:0:
395,277,189679,1,10,0:2:0:0:
150,315,189846,2,0,P|146:264|137:214,1,101.920001244141,2|0,1:2|0:2,0:0:0:0:
333,84,190179,1,0,1:2:0:0:
235,256,190346,1,10,0:2:0:0:
123,102,190513,1,2,0:2:0:0:
359,154,190679,1,2,1:2:0:0:
126,135,190846,1,2,1:2:0:0:
371,21,191013,1,10,0:2:0:0:
223,220,191179,1,2,0:2:0:0:
267,11,191346,6,0,P|288:68|296:144,1,101.920001244141,0|0,1:2|0:2,0:0:0:0:
172,278,191679,2,0,P|181:227|199:180,1,101.920001244141,10|0,0:2|0:2,0:0:0:0:
286,355,192013,1,2,1:2:0:0:
89,275,192179,1,2,1:2:0:0:
322,177,192346,1,10,0:2:0:0:
208,377,192513,1,2,1:2:0:0:
142,119,192679,5,10,0:2:0:0:
345,257,192846,1,8,0:2:0:0:
345,257,192929,1,8,0:2:0:0:
345,257,193013,1,10,0:2:0:0:
95,228,193179,1,8,0:2:0:0:
354,142,193346,1,2,1:2:0:0:
127,246,193513,1,0,1:2:0:0:
370,56,193679,2,0,P|397:130|409:218,1,152.880001866211,10|0,1:2|0:0,0:0:0:0:
349,253,194013,6,0,B|195:250|296:340|123:332,1,222.039990852234,6|0,1:2|0:0,0:0:0:0:
240,98,194513,1,0,1:2:0:0:
315,341,194679,1,8,0:2:0:0:
160,217,194846,1,2,0:2:0:0:
370,148,195013,1,2,3:2:0:0:
142,194,195179,1,2,0:2:0:0:
366,279,195346,1,2,0:2:0:0:
291,40,195513,1,8,0:2:0:0:
214,277,195679,2,0,P|136:305|85:303,1,111.019995426117,2|0,1:2|0:2,0:0:0:0:
214,67,196013,1,10,0:2:0:0:
293,317,196179,1,0,1:2:0:0:
353,108,196346,2,0,P|302:85|247:79,1,111.019995426117,2|0,0:2|0:2,0:0:0:0:
23,241,196679,6,0,P|128:138|225:176,1,222.039990852234,2|0,1:2|3:2,0:0:0:0:
326,297,197179,1,0,1:2:0:0:
214,67,197346,1,10,0:2:0:0:
178,293,197513,1,2,0:2:0:0:
371,144,197679,1,2,3:2:0:0:
176,258,197846,1,2,0:2:0:0:
424,298,198013,1,2,0:2:0:0:
317,76,198179,1,8,0:2:0:0:
266,326,198346,2,0,P|198:375|145:374,1,111.019995426117,2|0,1:2|0:2,0:0:0:0:
228,104,198679,1,10,0:2:0:0:
339,290,198846,1,0,1:2:0:0:
317,76,199013,2,0,P|249:27|196:28,1,111.019995426117,2|0,0:2|0:2,0:0:0:0:
97,231,199346,6,0,P|258:197|334:197,1,222.039990852234,2|0,1:2|3:2,0:0:0:0:
123,140,199846,1,0,1:2:0:0:
352,180,200013,1,8,0:2:0:0:
218,336,200179,1,2,0:2:0:0:
276,94,200346,1,2,3:2:0:0:
248,311,200513,1,2,0:2:0:0:
125,103,200679,1,2,0:2:0:0:
352,219,200846,1,8,0:2:0:0:
72,211,201013,2,0,P|45:137|42:90,1,111.019995426117,2|0,1:2|0:2,0:0:0:0:
251,232,201346,1,10,0:2:0:0:
56,297,201513,1,0,1:2:0:0:
299,99,201679,2,0,P|320:149|329:204,1,111.019995426117,2|0,0:2|0:2,0:0:0:0:
167,360,202013,6,0,P|176:247|174:123,1,222.039990852234,2|0,1:2|3:2,0:0:0:0:
273,301,202513,1,0,1:2:0:0:
188,91,202679,1,8,0:2:0:0:
105,295,202846,1,2,0:2:0:0:
331,195,203013,1,10,0:2:0:0:
117,257,203179,1,2,0:2:0:0:
348,288,203346,2,0,P|407:302|418:302,1,55.5099977130586,2|0,3:2|3:2,0:0:0:0:
278,98,203513,2,0,P|250:102|224:111,1,55.5099977130586,8|0,3:2|3:2,0:0:0:0:
145,345,203679,2,0,P|89:342|38:320,1,111.019995426117,2|0,1:2|3:2,0:0:0:0:
331,195,204013,2,0,P|386:197|437:219,1,111.019995426117,10|0,0:2|0:0,0:0:0:0:
203,198,204346,1,0,3:0:0:0:
371,117,204513,1,0,3:0:0:0:
