osu file format v14

[General]
AudioFilename: audio.mp3
AudioLeadIn: 0
PreviewTime: 172096
Countdown: 0
SampleSet: Soft
StackLeniency: 0.7
Mode: 0
LetterboxInBreaks: 0
WidescreenStoryboard: 1

[Editor]
DistanceSpacing: 1
BeatDivisor: 4
GridSize: 32
TimelineZoom: 2.6

[Metadata]
Title:HAPPY HAPPY
TitleUnicode:HAPPY HAPPY
Artist:TWICE
ArtistUnicode:TWICE
Creator:Sotarks
Version:Ren's Normal
Source:
Tags:ren reform derandom otaku kowari kujinn japanese jpop j-pop kpop k-pop female vocalist sana jihyo dahyun nayeon jeongyeon chaeyoung momo mina tzuyu 나연 정연 모모 사나 지효 미나 다현 채영 쯔위 once breakthrough jyp entertainment
BeatmapID:2108767
BeatmapSetID:1006690

[Difficulty]
HPDrainRate:3
CircleSize:3
OverallDifficulty:4.5
ApproachRate:5
SliderMultiplier:1.02
SliderTickRate:1

[Events]
//Background and Video events
0,0,"bg.jpg",0,0
//Break Periods
2,32879,36813
2,87546,91479
2,130213,139479
//Storyboard Layer 0 (Background)
//Storyboard Layer 1 (Fail)
//Storyboard Layer 2 (Pass)
//Storyboard Layer 3 (Foreground)
//Storyboard Layer 4 (Overlay)
//Storyboard Sound Samples

[TimingPoints]
680,333.333333333333,4,2,2,42,1,0
680,-100,4,2,2,42,0,0
5013,-100,4,2,22,42,0,0
5346,-100,4,2,22,42,0,0
5679,-100,4,2,22,42,0,0
6013,-100,4,2,22,42,0,0
10013,-100,4,2,22,32,0,0
10679,-100,4,2,22,32,0,0
11263,-100,4,2,22,5,0,0
11346,-100,4,2,22,62,0,0
21013,-100,4,2,22,62,0,0
21346,-100,4,2,22,62,0,0
21679,-100,4,2,22,62,0,0
22346,-100,4,2,22,62,0,0
32679,-100,4,2,22,52,0,0
32763,-100,4,2,22,42,0,0
38013,-100,4,3,22,52,0,0
43346,-100,4,2,22,82,0,0
64679,-100,4,2,22,52,0,0
66013,-100,4,2,2,52,0,0
76679,-100,4,2,22,52,0,0
87346,-100,4,2,22,42,0,0
92679,-100,4,3,22,52,0,0
98013,-100,4,2,22,82,0,0
119346,-100,4,2,22,82,0,0
140679,-100,4,2,2,52,0,0
155679,-100,4,2,22,52,0,0
156013,-100,4,2,22,52,0,0
156346,-100,4,2,22,52,0,0
156679,-100,4,2,22,52,0,0
166346,-100,4,2,22,52,0,0
166679,-100,4,2,22,52,0,0
167013,-100,4,2,22,52,0,0
167346,-100,4,2,22,52,0,0
172179,-100,4,2,22,52,0,0
172346,-100,4,2,22,52,0,0
172679,-100,4,2,22,82,0,0
194013,-100,4,2,22,82,0,0

[Colours]
Combo1 : 255,249,121
Combo2 : 255,77,17
Combo3 : 255,6,193
Combo4 : 81,255,255

[HitObjects]
93,73,680,6,0,P|155:71|201:106,1,102,14|2,0:2|3:2,0:0:0:0:
226,123,1179,1,2,3:2:0:0:
198,221,1513,1,2,0:2:0:0:
268,294,1846,2,0,P|322:278|381:271,1,102,2|2,0:2|0:2,0:0:0:0:
465,298,2513,1,2,0:2:0:0:
465,298,2679,1,10,0:2:0:0:
438,199,3013,1,2,3:2:0:0:
477,105,3346,6,0,P|439:85|374:83,1,102,10|2,0:2|3:2,0:0:0:0:
330,92,3846,1,2,3:2:0:0:
235,129,4179,1,2,0:2:0:0:
172,47,4513,2,0,P|128:33|72:34,1,102,2|0,0:2|0:0,0:0:0:0:
23,47,5013,2,0,P|32:102|39:164,1,102,2|8,3:2|0:2,0:0:0:0:
27,249,5679,1,2,3:2:0:0:
19,350,6013,6,0,P|52:341|125:338,1,102,10|2,0:2|3:2,0:0:0:0:
163,362,6513,1,2,3:2:0:0:
260,332,6846,1,2,0:2:0:0:
195,253,7179,2,0,P|190:208|191:130,1,102,2|2,3:2|0:2,0:0:0:0:
206,50,7846,1,2,3:2:0:0:
206,50,8013,2,0,P|250:40|314:40,1,102,10|2,0:2|0:2,0:0:0:0:
401,77,8679,6,0,P|391:155|391:201,2,102,10|0|8,0:2|3:2|0:2,0:0:0:0:
420,29,9513,1,2,3:2:0:0:
420,29,9679,2,0,P|455:37|481:41,1,51,2|2,3:2|0:2,0:0:0:0:
469,39,11346,6,0,P|473:92|477:151,1,102,6|8,1:2|0:2,0:0:0:0:
451,239,12013,2,0,P|405:259|347:262,1,102,0|8,1:2|0:2,0:0:0:0:
281,190,12679,2,0,P|235:170|177:167,1,102,0|8,1:2|0:2,0:0:0:0:
138,190,13179,1,0,0:0:0:0:
138,190,13346,1,2,1:2:0:0:
42,225,13679,2,0,P|27:185|26:109,1,102,10|0,0:2|1:2,0:0:0:0:
56,29,14346,6,0,L|167:36,1,102,8|0,0:2|1:2,0:0:0:0:
249,80,15013,1,8,0:2:0:0:
338,31,15346,2,0,P|356:83|357:145,1,102,0|8,1:2|0:2,0:0:0:0:
339,230,16013,1,2,1:2:0:0:
249,181,16346,2,0,P|231:233|230:295,1,102,10|0,0:2|1:2,0:0:0:0:
276,369,17013,5,8,0:2:0:0:
276,369,17179,2,0,L|393:360,2,102
225,376,18013,1,0,1:2:0:0:
135,327,18346,2,0,P|128:290|125:204,1,102,8|2,0:2|1:2,0:0:0:0:
144,125,19013,1,10,0:2:0:0:
144,125,19179,6,0,P|186:130|257:129,1,102,2|0,3:2|0:0,0:0:0:0:
329,71,19846,1,0,0:0:0:0:
329,71,20013,2,0,P|371:66|442:67,1,102,0|8,1:2|0:2,0:0:0:0:
505,135,20679,2,0,P|501:186|502:257,1,102,0|10,1:2|0:2,0:0:0:0:
406,277,21346,2,0,P|405:226|401:175,1,102,0|10,1:2|0:2,0:0:0:0:
348,88,22013,5,0,1:2:0:0:
297,176,22346,1,8,0:2:0:0:
219,109,22679,1,0,1:2:0:0:
176,202,23013,2,0,L|71:197,1,102,8|0,0:2|1:2,0:0:0:0:
27,176,23513,2,0,P|39:222|40:287,1,102
31,326,24013,1,2,0:0:0:0:
132,317,24346,2,0,P|189:300|248:303,1,102,10|0,0:2|1:2,0:0:0:0:
327,337,25013,5,8,0:2:0:0:
426,359,25346,2,0,P|429:308|430:257,1,102,0|8,1:2|0:2,0:0:0:0:
408,157,26013,2,0,P|458:137|510:135,2,102,0|8|2,1:2|0:2|1:2,0:0:0:0:
369,190,26846,1,2,1:2:0:0:
369,190,27013,2,0,P|318:186|271:167,1,102,10|0,0:2|1:2,0:0:0:0:
186,111,27679,5,8,0:2:0:0:
186,111,27846,2,0,P|135:114|88:133,1,102
20,209,28513,1,0,0:0:0:0:
20,209,28679,2,0,P|32:248|34:275,1,51,0|0,1:2|0:0,0:0:0:0:
20,307,29013,1,8,0:0:0:0:
109,355,29346,2,0,P|139:353|178:351,1,51,2|10,1:2|0:2,0:0:0:0:
209,340,29679,1,0,0:0:0:0:
209,340,29846,5,2,3:2:0:0:
244,244,30179,1,0,0:0:0:0:
221,144,30513,1,0,0:0:0:0:
223,45,30846,1,0,0:0:0:0:
223,45,31013,2,0,P|188:40|157:39,1,51,8|0,0:2|0:0,0:0:0:0:
122,28,31346,2,0,P|126:86|130:153,1,102,0|8,3:2|3:2,0:0:0:0:
90,224,32013,1,0,1:2:0:0:
143,310,32346,2,0,P|194:310|246:268,1,102,8|6,3:2|0:2,0:0:0:0:
235,282,38013,6,0,P|231:220|226:68,1,204,6|8,1:2|1:2,0:0:0:0:
299,6,39013,1,2,0:2:0:0:
324,104,39346,2,0,P|377:114|448:109,2,102,2|2|10,1:2|0:2|1:2,0:0:0:0:
226,78,40346,6,0,P|175:77|125:86,1,102,2|0,0:2|1:2,0:0:0:0:
39,143,41013,1,2,1:2:0:0:
126,194,41346,2,0,P|117:236|108:305,1,102,0|2,1:2|1:2,0:0:0:0:
183,363,42013,2,0,P|216:358|246:355,1,51,2|0,1:2|1:2,0:0:0:0:
284,359,42346,2,0,B|290:330|290:330|284:309|284:309|290:279,1,76.5,0|0,1:2|1:2,0:0:0:0:
332,58,43346,6,0,P|283:44|218:40,1,102,6|10,1:2|0:2,0:0:0:0:
136,75,44013,2,0,P|147:127|152:193,1,102,2|10,1:2|0:2,0:0:0:0:
151,226,44513,1,2,1:2:0:0:
121,323,44846,1,2,1:2:0:0:
121,323,45013,2,0,P|163:337|228:335,1,102,10|2,0:2|1:2,0:0:0:0:
270,328,45513,1,0,1:2:0:0:
270,328,45679,1,10,0:2:0:0:
342,255,46013,6,0,P|384:241|449:243,1,102,2|10,1:2|0:2,0:0:0:0:
488,260,46513,2,0,P|482:198|482:138,1,102,2|2,0:2|1:2,0:0:0:0:
488,107,47013,1,10,0:2:0:0:
423,27,47346,1,2,0:2:0:0:
356,104,47679,2,0,P|308:91|235:86,1,102,10|2,0:2|1:2,0:0:0:0:
219,121,48179,2,0,P|195:127|158:130,1,51,2|10,1:2|0:2,0:0:0:0:
120,114,48513,1,2,0:2:0:0:
120,114,48679,6,0,L|127:230,1,102,0|10,1:2|0:2,0:0:0:0:
128,317,49346,2,0,P|96:331|58:338,2,51,2|2|10,1:2|0:2|0:2,0:0:0:0:
170,289,49846,2,0,L|275:295,1,102,2|0,1:2|1:2,0:0:0:0:
322,302,50346,1,8,0:2:0:0:
422,321,50679,2,0,P|417:346|416:371,2,51,2|2|10,1:2|1:2|0:2,0:0:0:0:
441,273,51179,1,2,0:2:0:0:
441,273,51346,5,0,1:2:0:0:
453,171,51679,2,0,P|410:142|338:136,1,102,10|0,0:2|1:2,0:0:0:0:
315,155,52179,1,2,1:2:0:0:
315,155,52346,2,0,L|249:153,1,51,10|2,0:2|1:2,0:0:0:0:
221,181,52679,2,0,L|119:184,1,102,2|10,0:2|0:2,0:0:0:0:
19,206,53346,2,0,P|26:246|29:271,2,51,2|0|8,1:2|1:2|0:2,0:0:0:0:
56,110,54013,6,0,P|103:87|163:82,1,102,2|10,1:2|0:2,0:0:0:0:
229,146,54679,2,0,P|276:169|336:174,1,102,2|10,1:2|0:2,0:0:0:0:
375,171,55179,1,2,1:2:0:0:
470,133,55513,1,2,1:2:0:0:
470,133,55679,1,10,0:2:0:0:
508,227,56013,1,2,1:2:0:0:
480,325,56346,1,10,0:2:0:0:
383,291,56679,6,0,L|275:297,1,102,2|10,1:2|0:2,0:0:0:0:
238,324,57179,2,0,L|136:318,1,102,2|2,0:2|1:2,0:0:0:0:
85,317,57679,1,10,0:2:0:0:
12,244,58013,1,2,0:2:0:0:
84,171,58346,1,10,0:2:0:0:
84,171,58513,2,0,P|87:128|90:55,1,102,2|2,0:2|1:2,0:0:0:0:
82,18,59013,1,10,0:2:0:0:
82,18,59179,6,0,P|136:20|188:38,1,102,2|0,0:2|0:2,0:0:0:0:
221,65,59679,1,10,0:2:0:0:
299,129,60013,2,0,P|296:163|295:186,2,51,2|2|10,1:2|0:2|0:2,0:0:0:0:
313,80,60513,2,0,P|359:70|423:72,1,102,2|0,1:2|1:2,0:0:0:0:
463,83,61013,1,10,0:2:0:0:
463,83,61179,1,2,0:2:0:0:
499,178,61513,2,0,P|497:211|496:240,1,51,2|10,1:2|0:2,0:0:0:0:
500,279,61846,1,2,0:2:0:0:
500,279,62013,6,0,P|459:302|385:303,1,102,0|10,1:2|0:2,0:0:0:0:
310,269,62679,1,2,1:2:0:0:
237,341,63013,2,0,L|172:336,1,51,10|2,0:2|1:2,0:0:0:0:
136,348,63346,2,0,P|124:302|124:235,1,102,2|10,0:2|0:2,0:0:0:0:
148,148,64013,2,0,P|114:138|85:137,2,51,2|0|8,1:2|1:2|0:2,0:0:0:0:
223,216,64679,5,0,3:2:0:0:
306,156,65013,1,0,3:2:0:0:
374,231,65346,2,0,P|369:273|370:300,2,51,0|0|8,3:2|3:2|3:3,0:0:0:0:
408,192,65846,1,4,3:3:0:0:
408,192,66013,6,0,L|402:78,1,102,2|2,1:2|0:2,0:0:0:0:
504,85,66679,2,0,L|509:186,1,102,10|2,0:2|0:2,0:0:0:0:
470,281,67346,2,0,P|434:297|368:298,1,102,2|2,0:2|1:2,0:0:0:0:
330,269,67846,1,2,0:2:0:0:
330,269,68013,2,0,P|294:253|228:252,1,102,10|2,0:2|0:2,0:0:0:0:
139,294,68679,6,0,P|129:241|125:175,1,102,2|2,1:2|0:2,0:0:0:0:
130,142,69179,1,0,0:2:0:0:
130,142,69346,2,0,P|95:137|65:138,1,51,10|2,0:2|0:2,0:0:0:0:
29,146,69679,1,2,0:2:0:0:
47,45,70013,1,2,0:2:0:0:
47,45,70179,2,0,P|97:27|156:24,1,102,2|10,1:2|0:2,0:0:0:0:
189,49,70679,2,0,P|239:67|298:70,1,102,10|10,0:2|1:2,0:0:0:0:
385,43,71346,6,0,P|392:78|395:108,1,51,2|2,1:2|0:2,0:0:0:0:
373,140,71679,2,0,P|366:175|363:205,1,51,2|2,0:2|0:2,0:0:0:0:
374,240,72013,1,10,0:2:0:0:
313,321,72346,1,2,0:2:0:0:
227,265,72679,2,0,P|188:271|170:283,1,51,2|2,0:2|0:2,0:0:0:0:
132,300,73013,2,0,P|93:294|75:282,1,51,2|2,1:2|0:2,0:0:0:0:
44,255,73346,1,10,0:2:0:0:
3,161,73679,1,2,1:2:0:0:
89,107,74013,6,0,L|153:111,1,51,2|0,1:2|0:2,0:0:0:0:
187,90,74346,2,0,L|251:94,1,51,2|0,0:2|0:2,0:0:0:0:
285,73,74679,2,0,L|349:77,1,51,10|2,0:2|0:2,0:0:0:0:
385,62,75013,1,2,0:2:0:0:
473,113,75346,1,2,0:2:0:0:
419,199,75679,2,0,P|428:245|436:305,2,102,2|10|10,1:2|1:2|1:2,0:0:0:0:
319,177,76679,6,0,L|199:186,1,102,2|2,1:2|0:2,0:0:0:0:
153,264,77346,2,0,L|51:256,1,102,10|2,0:2|0:2,0:0:0:0:
0,251,77846,2,0,P|20:197|23:135,1,102,2|0,1:2|0:2,0:0:0:0:
17,102,78346,1,2,1:2:0:0:
89,29,78679,2,0,L|199:35,1,102,10|0,0:2|0:2,0:0:0:0:
285,73,79346,6,0,P|279:115|282:190,1,102,2|2,1:2|0:2,0:0:0:0:
366,229,80013,2,0,P|372:271|369:346,1,102,10|2,0:2|0:2,0:0:0:0:
347,375,80513,2,0,P|306:362|235:360,1,102,2|2,1:2|1:2,0:0:0:0:
196,365,81013,2,0,P|188:329|189:298,1,51,2|2,1:2|0:2,0:0:0:0:
196,264,81346,1,10,0:2:0:0:
142,177,81679,1,10,0:2:0:0:
53,227,82013,5,2,1:2:0:0:
53,227,82179,2,0,P|41:173|41:119,1,102,2|2,0:2|0:2,0:0:0:0:
57,78,82679,2,0,P|111:66|165:66,1,102,10|0,0:2|0:2,0:0:0:0:
254,96,83346,1,2,0:2:0:0:
254,96,83513,2,0,P|308:108|362:108,1,102,2|2,0:2|0:2,0:0:0:0:
404,96,84013,2,0,P|392:150|392:204,1,102,10|2,0:2|1:2,0:0:0:0:
439,286,84679,5,2,1:2:0:0:
378,368,85013,1,2,0:2:0:0:
308,293,85346,2,0,P|240:281|189:281,1,102,10|2,0:2|0:2,0:0:0:0:
107,302,86013,2,0,P|94:252|95:196,1,102,2|0,0:2|1:2,0:0:0:0:
106,152,86513,1,0,3:2:0:0:
106,152,86679,2,0,P|65:140|6:138,1,102,2|8,1:2|1:2,0:0:0:0:
58,50,87346,1,6,1:2:0:0:
6,137,92679,6,0,P|66:96|194:97,1,204,6|8,1:2|1:2,0:0:0:0:
276,156,93679,1,2,0:2:0:0:
363,103,94013,2,0,P|357:47|357:-1,2,102,2|2|10,1:2|0:2|1:2,0:0:0:0:
435,174,95013,6,0,P|434:224|428:275,1,102,2|0,0:2|1:2,0:0:0:0:
390,369,95679,1,2,1:2:0:0:
311,302,96013,2,0,P|255:296|207:296,1,102,0|2,1:2|1:2,0:0:0:0:
113,330,96679,2,0,P|108:294|108:274,1,51,2|0,1:2|1:2,0:0:0:0:
123,230,97013,2,0,B|131:205|131:205|128:179|128:179|139:138,1,76.5,0|0,1:2|1:2,0:0:0:0:
338,49,98013,6,0,P|388:49|448:86,1,102,6|10,1:2|0:2,0:0:0:0:
433,173,98679,2,0,P|387:195|337:195,1,102,2|10,1:2|0:2,0:0:0:0:
287,182,99180,1,2,1:2:0:0:
185,170,99513,1,2,1:2:0:0:
185,170,99680,2,0,P|193:219|197:277,1,102,10|2,0:2|1:2,0:0:0:0:
196,322,100180,1,0,1:2:0:0:
196,322,100346,1,10,0:2:0:0:
288,278,100680,6,0,P|339:278|399:289,1,102,2|10,1:2|0:2,0:0:0:0:
432,313,101180,2,0,P|432:258|443:201,1,102,2|2,0:2|1:2,0:0:0:0:
457,163,101680,1,10,0:2:0:0:
429,64,102013,1,2,0:2:0:0:
352,131,102346,2,0,P|302:135|229:133,1,102,10|2,0:2|1:2,0:0:0:0:
208,105,102846,2,0,P|184:99|147:96,1,51,2|10,1:2|0:2,0:0:0:0:
115,125,103180,1,2,0:2:0:0:
115,125,103346,6,0,P|122:177|122:241,1,102,0|10,1:2|0:2,0:0:0:0:
126,328,104013,2,0,L|61:317,2,51,2|2|10,1:2|0:2|0:2,0:0:0:0:
173,347,104513,2,0,L|285:327,1,102,2|0,1:2|1:2,0:0:0:0:
323,320,105013,1,8,0:2:0:0:
298,221,105346,2,0,L|233:232,2,51,2|2|10,1:2|1:2|0:2,0:0:0:0:
348,215,105846,1,2,0:2:0:0:
348,215,106013,5,0,1:2:0:0:
447,194,106346,2,0,P|441:136|442:90,1,102,10|0,0:2|1:2,0:0:0:0:
453,42,106846,1,2,1:2:0:0:
453,42,107013,2,0,L|387:40,1,51,10|2,0:2|1:2,0:0:0:0:
354,20,107346,2,0,L|252:23,1,102,2|10,0:2|0:2,0:0:0:0:
153,48,108013,2,0,P|160:88|163:113,1,51,2|0,1:2|1:2,0:0:0:0:
165,149,108346,1,8,0:2:0:0:
130,245,108680,6,0,P|177:268|237:273,1,102,2|10,1:2|0:2,0:0:0:0:
297,201,109346,2,0,P|344:178|404:173,1,102,2|10,1:2|0:2,0:0:0:0:
435,200,109846,1,2,1:2:0:0:
498,120,110180,1,2,1:2:0:0:
498,120,110346,1,10,0:2:0:0:
439,36,110680,1,2,1:2:0:0:
347,80,111013,1,10,0:2:0:0:
262,23,111346,6,0,L|154:29,1,102,2|10,1:2|0:2,0:0:0:0:
110,15,111846,2,0,P|119:60|125:124,1,102,2|2,0:2|1:2,0:0:0:0:
120,166,112346,1,10,0:2:0:0:
64,251,112680,1,2,0:2:0:0:
127,331,113013,1,10,0:2:0:0:
127,331,113180,2,0,P|170:328|243:325,1,102,2|2,0:2|1:2,0:0:0:0:
275,345,113680,1,10,0:2:0:0:
275,345,113846,6,0,P|271:298|264:219,1,102,2|0,0:2|0:2,0:0:0:0:
266,192,114346,1,10,0:2:0:0:
279,90,114679,1,2,1:2:0:0:
279,90,114846,2,0,P|308:88|342:91,1,51,2|10,0:2|0:2,0:0:0:0:
380,93,115179,2,0,P|395:137|401:211,1,102,2|0,1:2|1:2,0:0:0:0:
405,243,115680,1,10,0:2:0:0:
403,344,116013,2,0,P|428:342|453:341,1,51,2|2,1:2|1:2,0:0:0:0:
502,357,116346,1,10,0:2:0:0:
502,357,116513,6,0,P|499:300|500:240,1,102,2|0,0:2|0:2,0:0:0:0:
506,204,117013,1,10,0:2:0:0:
465,110,117346,1,2,1:2:0:0:
465,110,117513,2,0,P|468:68|473:46,2,51,2|10|2,1:2|0:2|1:2,0:0:0:0:
430,148,118013,2,0,P|384:137|329:137,1,102,10|10,0:2|0:2,0:0:0:0:
239,183,118679,1,2,1:2:0:0:
318,246,119013,1,10,1:2:0:0:
242,314,119346,6,0,P|190:304|74:295,1,153,6|0,1:2|1:2,0:0:0:0:
40,283,120013,1,8,0:2:0:0:
40,283,120179,2,0,P|35:321|33:345,2,51,2|2|2,0:2|3:2|0:2,0:0:0:0:
28,233,120679,1,2,0:2:0:0:
100,160,121013,1,2,1:2:0:0:
27,87,121346,1,10,0:2:0:0:
99,14,121679,1,2,0:2:0:0:
171,86,122013,6,0,B|268:85|208:41|330:41,1,153,2|0,1:2|1:2,0:0:0:0:
362,51,122679,1,10,0:2:0:0:
362,51,122846,2,0,P|366:22|373:1,2,51,2|2|2,0:2|3:2|0:2,0:0:0:0:
381,98,123346,1,2,0:2:0:0:
429,187,123679,1,2,1:2:0:0:
342,241,124013,1,10,0:2:0:0:
390,330,124346,1,2,0:2:0:0:
293,362,124679,6,0,P|233:339|128:324,1,153,2|0,1:2|1:2,0:0:0:0:
94,320,125346,1,8,0:2:0:0:
94,320,125513,2,0,P|97:355|99:380,2,51,2|2|2,0:2|3:2|0:2,0:0:0:0:
69,275,126013,1,2,0:2:0:0:
148,211,126346,1,2,1:2:0:0:
242,248,126679,1,10,0:2:0:0:
321,184,127012,1,2,0:2:0:0:
415,223,127346,6,0,P|450:196|470:124,1,102,2|0,1:2|3:2,0:0:0:0:
439,46,128013,1,8,0:2:0:0:
439,46,128179,2,0,P|476:39|494:39,2,51,2|10|2,0:2|0:2|0:2,0:0:0:0:
395,73,128679,2,0,L|281:66,1,102,2|2,3:2|1:2,0:0:0:0:
220,139,129346,2,0,L|106:132,1,102,10|2,0:2|3:2,0:0:0:0:
45,205,130013,1,6,0:2:0:0:
185,267,140679,6,0,B|308:223|259:305|393:262,1,204,0|8,1:2|1:2,0:0:0:0:
454,192,141679,1,0,0:2:0:0:
381,119,142013,2,0,B|258:75|307:157|173:114,1,204,0|8,1:2|1:2,0:0:0:0:
138,93,142846,1,0,0:2:0:0:
138,93,143013,2,0,P|100:87|72:86,1,51,0|0,0:2|0:2,0:0:0:0:
36,83,143346,6,0,P|48:153|52:250,2,153,0|0|0,1:2|0:2|0:2,0:0:0:0:
119,24,144679,2,0,B|255:6|179:82|326:66,1,204,0|8,1:2|1:2,0:0:0:0:
406,33,145679,2,0,P|415:68|417:98,1,51,0|0,0:2|0:2,0:0:0:0:
401,131,146013,6,0,L|407:247,1,102,0|0,1:2|0:2,0:0:0:0:
408,283,146513,1,0,0:2:0:0:
408,283,146679,1,8,1:2:0:0:
305,283,147013,2,0,L|299:181,1,102,0|0,0:2|1:2,0:0:0:0:
140,53,148013,2,0,L|142:103,1,51,8|0,1:2|0:2,0:0:0:0:
114,146,148346,2,0,L|116:196,1,51,0|0,0:2|0:2,0:0:0:0:
80,233,148679,6,0,L|85:339,1,102,0|0,1:2|0:2,0:0:0:0:
183,362,149346,2,0,L|177:260,1,102,8|0,1:2|0:2,0:0:0:0:
232,174,150013,2,0,B|374:143|288:231|448:201,1,204,0|8,1:2|1:2,0:0:0:0:
500,136,151013,1,0,0:2:0:0:
427,63,151346,6,0,P|370:47|317:44,1,102,14|2,0:2|3:2,0:0:0:0:
277,54,151846,1,2,3:2:0:0:
178,27,152179,1,2,0:2:0:0:
96,88,152513,2,0,P|106:139|111:209,1,102,2|2,0:2|0:2,0:0:0:0:
82,286,153179,1,2,0:2:0:0:
82,286,153346,1,10,0:2:0:0:
166,343,153679,1,2,3:2:0:0:
253,289,154013,6,0,P|308:281|362:278,1,102,10|2,0:2|3:2,0:0:0:0:
399,302,154513,1,2,3:2:0:0:
489,349,154846,1,2,0:2:0:0:
480,247,155179,2,0,P|478:196|481:126,1,102,2|0,0:2|3:2,0:0:0:0:
497,97,155679,2,0,P|441:85|377:85,1,102,2|8,3:2|0:2,0:0:0:0:
303,125,156346,1,2,3:2:0:0:
202,105,156679,6,0,P|206:157|210:222,1,102,10|2,0:2|3:2,0:0:0:0:
200,257,157179,2,0,P|149:242|98:237,1,102,2|2,3:2|0:2,0:0:0:0:
28,309,157846,1,0,0:0:0:0:
100,381,158179,2,0,P|150:375|199:361,1,102,2|2,0:2|3:2,0:0:0:0:
246,342,158679,1,10,0:2:0:0:
316,268,159013,1,2,0:2:0:0:
259,183,159346,6,0,P|259:129|243:80,2,102,10|0|8,0:0|0:0|0:0,0:0:0:0:
228,223,160179,1,2,0:0:0:0:
228,223,160346,2,0,P|188:211|155:209,1,51,2|2,3:2|0:0,0:0:0:0:
132,231,160679,2,0,L|11:228,1,102,10|2,0:2|3:2,0:0:0:0:
6,128,161346,1,10,0:2:0:0:
59,40,161679,2,0,P|96:36|134:36,1,51,0|0,0:2|0:2,0:0:0:0:
151,65,162013,6,0,L|258:58,1,102,10|2,0:2|0:0,0:0:0:0:
303,55,162513,1,2,3:2:0:0:
397,16,162846,1,2,0:0:0:0:
488,60,163179,2,0,P|481:111|477:168,1,102,2|2,0:0|3:2,0:0:0:0:
491,210,163679,2,0,P|493:243|490:273,1,51,0|2,3:2|0:0,0:0:0:0:
489,312,164013,1,10,0:2:0:0:
400,362,164346,1,2,3:2:0:0:
331,286,164679,6,0,P|268:275|219:275,1,102,10|2,0:2|0:0,0:0:0:0:
181,288,165179,1,2,3:2:0:0:
83,320,165513,1,2,0:0:0:0:
30,232,165846,2,0,P|26:177|28:128,1,102,2|0,0:0|3:2,0:0:0:0:
39,80,166346,2,0,P|77:89|145:89,1,102,2|8,3:2|0:2,0:0:0:0:
211,17,167013,1,2,3:2:0:0:
283,89,167346,6,0,P|333:89|383:79,1,102,10|2,0:2|0:0,0:0:0:0:
429,56,167846,1,2,3:2:0:0:
506,122,168179,1,2,0:0:0:0:
438,198,168513,2,0,P|431:253|431:311,1,102,2|2,0:0|3:2,0:0:0:0:
364,377,169179,1,0,0:0:0:0:
364,377,169346,1,8,0:2:0:0:
286,310,169679,1,2,0:0:0:0:
339,222,170013,5,2,0:0:0:0:
285,135,170346,2,0,B|99:139|207:251|10:258,1,306
20,257,172679,6,0,P|25:197|23:138,1,102,6|10,1:2|0:2,0:0:0:0:
126,155,173346,2,0,P|125:205|130:256,1,102,2|10,1:2|0:2,0:0:0:0:
136,307,173846,1,2,1:2:0:0:
216,370,174179,1,2,1:2:0:0:
216,370,174346,2,0,P|266:357|327:355,1,102,10|2,0:2|1:2,0:0:0:0:
366,362,174846,1,0,1:2:0:0:
366,362,175012,1,10,0:2:0:0:
467,377,175346,6,0,P|458:326|458:275,1,102,2|10,1:2|0:2,0:0:0:0:
485,232,175846,2,0,P|493:181|493:130,1,102,2|2,0:2|1:2,0:0:0:0:
482,80,176346,1,10,0:2:0:0:
387,42,176679,1,2,0:2:0:0:
299,95,177013,2,0,P|258:104|194:99,1,102,10|2,0:2|1:2,0:0:0:0:
147,103,177512,2,0,P|153:127|156:164,1,51,2|10,1:2|0:2,0:0:0:0:
154,204,177846,1,2,0:2:0:0:
154,204,178013,6,0,P|142:252|136:326,1,102,0|10,1:2|0:2,0:0:0:0:
233,334,178679,2,0,L|226:392,2,51,2|2|10,1:2|0:2|0:2,0:0:0:0:
244,284,179179,2,0,P|294:269|353:268,1,102,2|0,1:2|1:2,0:0:0:0:
392,283,179679,1,8,0:2:0:0:
488,316,180013,2,0,P|484:348|481:388,2,51,2|2|10,1:2|1:2|0:2,0:0:0:0:
505,267,180513,1,2,0:2:0:0:
505,267,180679,5,0,1:2:0:0:
464,173,181013,2,0,P|421:155|354:156,1,102,10|0,0:2|1:2,0:0:0:0:
328,186,181512,1,2,1:2:0:0:
328,186,181679,2,0,L|262:184,1,51,10|2,0:2|1:2,0:0:0:0:
230,207,182013,2,0,P|228:156|216:106,1,102,2|10,0:2|0:2,0:0:0:0:
114,106,182679,2,0,P|107:130|107:156,1,51,2|0,1:2|1:2,0:0:0:0:
111,207,183013,1,8,0:2:0:0:
128,307,183346,6,0,P|184:299|247:293,1,102,2|10,1:2|0:2,0:0:0:0:
314,350,184013,2,0,P|364:344|415:337,1,102,2|10,1:2|0:2,0:0:0:0:
465,328,184513,2,0,P|453:281|453:205,1,102,2|2,1:2|1:2,0:0:0:0:
466,179,185013,1,10,0:2:0:0:
441,80,185346,1,2,1:2:0:0:
346,117,185679,1,10,0:2:0:0:
257,66,186012,6,0,P|211:64|149:72,1,102,2|10,1:2|0:2,0:0:0:0:
107,89,186513,2,0,P|122:133|121:202,1,102,2|2,0:2|1:2,0:0:0:0:
115,238,187012,1,10,0:2:0:0:
89,337,187346,1,2,0:2:0:0:
186,307,187679,1,10,0:2:0:0:
186,307,187846,2,0,P|235:307|297:333,1,102,2|2,0:2|1:2,0:0:0:0:
325,355,188346,1,10,0:2:0:0:
325,355,188513,6,0,P|375:354|436:329,1,102,2|0,0:2|0:2,0:0:0:0:
467,311,189012,1,10,0:2:0:0:
407,228,189345,1,2,1:2:0:0:
407,228,189512,2,0,P|405:199|408:165,1,51,2|10,0:2|0:2,0:0:0:0:
424,128,189846,2,0,P|376:110|325:110,1,102,2|0,1:2|1:2,0:0:0:0:
275,119,190346,1,10,0:2:0:0:
184,165,190679,2,0,P|186:190|187:215,1,51,2|2,1:2|1:2,0:0:0:0:
187,266,191012,1,10,0:2:0:0:
187,266,191179,6,0,P|137:256|79:253,1,102,2|0,0:2|0:2,0:0:0:0:
35,261,191679,1,10,0:2:0:0:
59,161,192013,1,2,1:2:0:0:
35,61,192346,2,0,P|67:55|96:56,1,51,10|2,0:2|1:2,0:0:0:0:
130,79,192679,2,0,L|246:73,1,102,10|10,0:2|0:2,0:0:0:0:
325,33,193345,1,2,1:2:0:0:
402,99,193679,1,10,1:2:0:0:
318,158,194013,6,0,P|305:213|299:317,1,153,6|0,1:2|1:2,0:0:0:0:
308,359,194679,1,8,0:2:0:0:
308,359,194846,2,0,P|270:355|242:355,2,51,2|2|2,0:2|3:2|0:2,0:0:0:0:
356,375,195346,1,2,0:2:0:0:
417,293,195679,1,2,1:2:0:0:
359,208,196013,1,10,0:2:0:0:
420,126,196346,1,2,0:2:0:0:
342,59,196679,6,0,B|251:49|284:98|183:82,1,153,2|0,1:2|1:2,0:0:0:0:
143,89,197346,1,10,0:2:0:0:
143,89,197513,2,0,P|139:48|134:28,2,51,2|2|2,0:2|3:2|0:2,0:0:0:0:
128,138,198013,1,2,0:2:0:0:
68,220,198346,1,2,1:2:0:0:
166,245,198679,1,10,0:2:0:0:
106,327,199012,1,2,0:2:0:0:
204,354,199346,6,0,P|265:324|356:316,1,153,2|0,1:2|1:2,0:0:0:0:
398,324,200013,1,8,0:2:0:0:
398,324,200179,2,0,P|397:351|396:380,2,51,2|2|2,0:2|3:2|0:2,0:0:0:0:
419,277,200679,1,2,0:2:0:0:
491,204,201013,1,2,1:2:0:0:
395,167,201346,1,10,0:2:0:0:
467,94,201680,1,2,0:2:0:0:
370,61,202013,6,0,P|313:51|259:49,1,102,2|0,1:2|3:2,0:0:0:0:
171,79,202679,1,8,0:2:0:0:
171,79,202846,2,0,P|163:42|163:7,2,51,2|10|2,0:2|0:2|0:2,0:0:0:0:
202,119,203346,2,0,L|193:240,1,102,2|2,3:2|1:2,0:0:0:0:
104,269,204013,2,0,L|108:329,1,51,10|0,0:2|0:0,0:0:0:0:
114,370,204346,1,0,3:0:0:0:
114,370,204513,1,0,3:0:0:0:
