osu file format v14

[General]
AudioFilename: audio.mp3
AudioLeadIn: 0
PreviewTime: 172096
Countdown: 0
SampleSet: Soft
StackLeniency: 0.7
Mode: 0
LetterboxInBreaks: 0
WidescreenStoryboard: 1

[Editor]
Bookmarks: 190346
DistanceSpacing: 1
BeatDivisor: 8
GridSize: 32
TimelineZoom: 4.699998

[Metadata]
Title:HAPPY HAPPY
TitleUnicode:HAPPY HAPPY
Artist:TWICE
ArtistUnicode:TWICE
Creator:Sotarks
Version:Reform's Insane
Source:
Tags:ren reform derandom otaku kowari kujinn japanese jpop j-pop kpop k-pop female vocalist sana jihyo dahyun nayeon jeongyeon chaeyoung momo mina tzuyu 나연 정연 모모 사나 지효 미나 다현 채영 쯔위 once breakthrough jyp entertainment
BeatmapID:2153980
BeatmapSetID:1006690

[Difficulty]
HPDrainRate:5
CircleSize:3.5
OverallDifficulty:7.5
ApproachRate:9
SliderMultiplier:1.72
SliderTickRate:1

[Events]
//Background and Video events
0,0,"bg.jpg",0,0
//Break Periods
2,32879,37413
2,87546,92079
2,130213,140079
//Storyboard Layer 0 (Background)
//Storyboard Layer 1 (Fail)
//Storyboard Layer 2 (Pass)
//Storyboard Layer 3 (Foreground)
//Storyboard Layer 4 (Overlay)
//Storyboard Sound Samples

[TimingPoints]
680,333.333333333333,4,2,2,42,1,0
680,-138.888888888889,4,2,2,42,0,0
5013,-98.0392156862746,4,2,22,42,0,0
5346,-138.888888888889,4,2,22,42,0,0
5679,-98.0392156862745,4,2,22,42,0,0
6013,-138.888888888889,4,2,22,42,0,0
10013,-138.888888888889,4,2,22,32,0,0
10679,-192.307692307693,4,2,22,32,0,0
11262,-192.307692307693,4,2,22,5,0,0
11263,-192.307692307693,4,2,22,5,0,0
11346,-121.951219512195,4,2,22,62,0,0
21013,-89.2857142857142,4,2,22,62,0,0
21346,-121.951219512195,4,2,22,62,0,0
21679,-89.2857142857142,4,2,22,62,0,0
22346,-121.951219512195,4,2,22,62,0,0
32679,-161.290322580645,4,2,22,52,0,0
32763,-161.290322580645,4,2,22,42,0,0
38013,-121.951219512195,4,3,22,52,0,0
43346,-98.0392156862744,4,2,22,82,0,0
64679,-98.0392156862744,4,2,22,52,0,0
66013,-121.951219512195,4,2,2,52,0,0
76679,-108.695652173913,4,2,22,52,0,0
87346,-161.290322580645,4,2,22,42,0,0
92679,-121.951219512195,4,3,22,52,0,0
98013,-98.0392156862744,4,2,22,82,0,0
119346,-89.2857142857143,4,2,22,82,0,0
140679,-138.888888888889,4,2,2,52,0,0
155679,-98.0392156862746,4,2,22,52,0,0
156013,-138.888888888889,4,2,22,52,0,0
156346,-98.0392156862745,4,2,22,52,0,0
156679,-138.888888888889,4,2,22,52,0,0
166346,-98.0392156862746,4,2,22,52,0,0
166679,-138.888888888889,4,2,22,52,0,0
167013,-98.0392156862745,4,2,22,52,0,0
167346,-138.888888888889,4,2,22,52,0,0
172179,-192.307692307692,4,2,22,52,0,0
172346,-121.951219512195,4,2,22,52,0,0
172679,-89.2857142857143,4,2,22,82,0,0
194013,-81.9672131147541,4,2,22,82,0,0

[Colours]
Combo1 : 255,249,121
Combo2 : 255,77,17
Combo3 : 255,6,193
Combo4 : 81,255,255

[HitObjects]
74,334,680,6,0,P|127:327|211:317,1,123.840003023438,14|2,0:2|3:2,0:0:0:0:
289,251,1179,2,0,P|330:258|364:263,1,61.9200015117188,2|8,3:2|0:2,0:0:0:0:
228,154,1513,2,0,P|187:161|153:166,1,61.9200015117188,2|0,0:2|3:2,0:0:0:0:
313,91,1846,2,0,L|326:161,1,61.9200015117188,2|8,0:2|0:2,0:0:0:0:
202,292,2179,2,0,L|213:231,1,61.9200015117188,2|0,0:2|3:2,0:0:0:0:
335,315,2513,1,2,0:2:0:0:
335,315,2679,2,0,L|348:385,1,61.9200015117188,10|0,0:2|0:2,0:0:0:0:
171,363,3013,6,0,P|131:354|113:293,1,92.8800022675782,2|0,3:2|3:2,0:0:0:0:
123,278,3346,6,0,P|128:232|141:145,1,123.840003023438,10|2,0:2|3:2,0:0:0:0:
244,57,3846,2,0,P|249:96|252:129,1,61.9200015117188,2|8,3:2|0:2,0:0:0:0:
357,217,4179,2,0,P|362:178|365:145,1,61.9200015117188,2|0,0:2|3:2,0:0:0:0:
446,56,4513,1,2,0:2:0:0:
446,56,4679,6,0,P|405:81|343:68,1,92.8800022675782,8|0,0:2|0:2,0:0:0:0:
296,37,5013,2,0,P|255:12|154:56,1,131.580000803101,2|0,3:2|0:2,0:0:0:0:
136,92,5346,2,0,P|149:143|159:210,1,92.8800022675782,8|0,0:2|0:2,0:0:0:0:
224,223,5679,2,0,P|208:283|197:373,1,131.580000803101,2|0,3:2|0:2,0:0:0:0:
281,373,6013,6,0,P|326:379|382:322,1,123.840003023438,10|2,0:2|3:2,0:0:0:0:
329,206,6513,2,0,P|290:193|256:187,1,61.9200015117188,2|8,3:2|0:2,0:0:0:0:
394,103,6846,2,0,P|424:96|453:85,1,61.9200015117188,2|0,0:2|3:2,0:0:0:0:
291,27,7179,2,0,L|305:93,1,61.9200015117188,2|8,3:2|0:2,0:0:0:0:
188,106,7513,2,0,L|174:172,1,61.9200015117188,2|0,0:2|3:2,0:0:0:0:
60,164,7846,1,2,3:2:0:0:
60,164,8013,2,0,L|74:230,1,61.9200015117188,10|0,0:2|0:2,0:0:0:0:
202,314,8346,6,0,P|233:289|304:298,1,92.8800022675782,2|0,0:2|0:0,0:0:0:0:
321,315,8679,6,0,L|330:361,3,30.9600007558594,10|0|0|0,0:2|3:2|3:2|3:2,0:0:0:0:
364,235,9013,2,0,L|369:204,3,30.9600007558594,0|0|0|0,3:2|3:2|3:2|3:2,0:0:0:0:
292,145,9346,2,0,L|256:137,3,30.9600007558594,8|0|2|0,0:2|0:0|3:2|0:0,0:0:0:0:
354,86,9679,2,0,L|390:78,3,30.9600007558594,2|0|2|0,3:2|0:0|0:2|0:0,0:0:0:0:
283,24,10013,5,2,0:2:0:0:
168,105,10346,1,2,0:2:0:0:
28,36,10679,2,0,P|9:87|45:180,1,156.519999044678,2|0,0:2|0:2,0:0:0:0:
107,230,11346,5,6,1:2:0:0:
220,129,11679,2,0,P|281:123|332:171,1,94.0266681013998,8|0,0:2|0:2,0:0:0:0:
352,197,12013,2,0,P|394:214|440:205,1,94.0266681013998,0|0,1:2|0:0,0:0:0:0:
500,151,12346,1,8,0:2:0:0:
334,15,12568,5,0,0:0:0:0:
345,25,12679,2,0,P|340:96|328:157,1,94.0266681013998,0|0,1:2|0:2,0:0:0:0:
279,183,13013,2,0,P|284:254|296:315,1,94.0266681013998,8|0,0:2|0:2,0:0:0:0:
330,341,13346,1,2,1:2:0:0:
195,276,13513,1,2,1:2:0:0:
362,202,13679,1,10,0:2:0:0:
362,202,13846,1,2,3:2:0:0:
212,110,14013,5,0,1:2:0:0:
366,20,14235,1,0,0:0:0:0:
380,17,14346,2,0,P|433:23|465:68,1,94.0266681013998,8|0,0:2|0:0,0:0:0:0:
424,119,14679,2,0,P|430:174|438:249,1,94.0266681013998,0|0,1:2|0:2,0:0:0:0:
483,280,15013,1,8,0:2:0:0:
323,343,15235,5,0,0:0:0:0:
317,352,15346,2,0,P|268:329|217:324,1,94.0266681013998,0|0,1:2|0:2,0:0:0:0:
169,276,15679,2,0,P|120:299|69:304,1,94.0266681013998,8|0,0:2|0:2,0:0:0:0:
23,245,16013,1,2,1:2:0:0:
23,245,16179,1,2,1:2:0:0:
165,95,16346,2,0,P|216:91|256:148,1,94.0266681013998,10|0,0:2|0:2,0:0:0:0:
285,190,16679,5,0,1:2:0:0:
126,357,17013,2,0,P|121:308|113:228,1,94.0266681013998,8|0,0:2|0:2,0:0:0:0:
73,204,17346,2,0,P|78:155|86:75,1,94.0266681013998,0|0,1:2|0:2,0:0:0:0:
136,54,17679,1,8,0:2:0:0:
295,269,18013,6,0,P|348:278|400:253,1,94.0266681013998,0|0,1:2|0:2,0:0:0:0:
378,182,18346,2,0,P|325:173|273:198,1,94.0266681013998,8|0,0:2|0:2,0:0:0:0:
201,245,18679,1,2,1:2:0:0:
78,178,18846,1,2,1:2:0:0:
188,115,19013,1,10,0:2:0:0:
188,115,19179,1,2,3:2:0:0:
131,254,19346,6,0,P|144:328|149:373,1,94.0266681013998,0|0,1:2|0:2,0:0:0:0:
216,371,19679,2,0,P|264:382|325:347,1,94.0266681013998,8|0,0:2|0:0,0:0:0:0:
371,331,20013,1,0,1:2:0:0:
244,196,20235,1,0,0:0:0:0:
247,208,20346,1,8,0:2:0:0:
364,67,20568,1,0,0:0:0:0:
360,76,20679,6,0,P|321:44|248:68,1,94.0266681013998,0|0,1:2|0:2,0:0:0:0:
217,95,21013,2,0,P|200:54|238:86,1,128.426668234375,10|0,0:2|0:2,0:0:0:0:
213,183,21346,6,0,P|160:208|109:191,1,94.0266681013998,0|0,1:2|0:2,0:0:0:0:
46,208,21679,2,0,P|78:173|69:220,1,128.426668234375,10|0,0:2|0:2,0:0:0:0:
24,283,22013,5,0,1:2:0:0:
24,283,22346,2,0,P|79:296|145:318,1,94.0266681013998,8|0,0:2|0:2,0:0:0:0:
180,349,22679,2,0,P|235:336|301:314,1,94.0266681013998,0|0,1:2|0:0,0:0:0:0:
340,283,23013,1,8,0:2:0:0:
194,167,23235,5,0,0:0:0:0:
176,161,23346,2,0,P|165:106|192:50,1,94.0266681013998,0|0,1:2|0:2,0:0:0:0:
242,28,23679,2,0,P|303:37|355:42,1,94.0266681013998,8|0,0:2|0:2,0:0:0:0:
406,87,24013,1,2,1:2:0:0:
261,155,24179,1,2,1:2:0:0:
404,224,24346,1,10,0:2:0:0:
404,224,24513,1,2,3:2:0:0:
269,83,24679,5,0,1:2:0:0:
269,83,25013,2,0,P|218:106|161:98,1,94.0266681013998,8|0,0:2|0:0,0:0:0:0:
125,44,25346,2,0,P|87:27|14:38,1,94.0266681013998,0|0,1:2|0:2,0:0:0:0:
0,96,25679,1,8,0:2:0:0:
155,268,25902,5,0,0:0:0:0:
160,279,26013,2,0,P|211:272|262:265,1,94.0266681013998,0|0,1:2|0:2,0:0:0:0:
312,216,26346,2,0,P|365:226|415:234,1,94.0266681013998,8|0,0:2|0:2,0:0:0:0:
478,288,26679,1,2,1:2:0:0:
478,288,26846,1,2,1:2:0:0:
381,97,27013,2,0,P|334:91|276:138,1,94.0266681013998,10|0,0:2|0:2,0:0:0:0:
232,172,27346,5,0,1:2:0:0:
232,172,27679,2,0,P|242:232|248:302,1,94.0266681013998,8|0,0:2|0:2,0:0:0:0:
168,331,28013,2,0,P|158:271|152:201,1,94.0266681013998,0|0,1:2|0:2,0:0:0:0:
92,178,28346,1,8,0:2:0:0:
209,47,28568,5,0,0:0:0:0:
207,63,28679,2,0,P|256:80|306:75,1,94.0266681013998,0|0,1:2|0:0,0:0:0:0:
359,31,29013,2,0,P|405:29|449:45,1,94.0266681013998,8|0,0:2|0:2,0:0:0:0:
496,111,29346,1,2,1:2:0:0:
351,173,29513,1,2,1:2:0:0:
488,254,29679,1,10,0:2:0:0:
488,254,29846,1,2,3:2:0:0:
334,350,30013,6,0,P|275:342|205:335,1,94.0266681013998,0|0,1:2|0:0,0:0:0:0:
185,285,30346,2,0,P|122:295|65:298,1,94.0266681013998,8|0,0:2|0:2,0:0:0:0:
31,244,30679,2,0,P|12:199|40:138,1,94.0266681013998,0|0,1:2|0:2,0:0:0:0:
80,106,31013,2,0,P|126:110|173:118,1,94.0266681013998,8|0,0:2|0:2,0:0:0:0:
240,163,31346,6,0,P|272:158|295:153,3,35.2600005380249,0|0|0|0,3:2|3:2|3:2|3:2,0:0:0:0:
342,108,31679,5,8,3:2:0:0:
422,152,31846,1,0,3:2:0:0:
300,238,32013,1,0,1:2:0:0:
384,217,32179,1,0,3:2:0:0:
245,315,32346,1,8,3:2:0:0:
324,336,32513,1,0,3:2:0:0:
142,361,32679,5,6,0:2:0:0:
239,34,38013,6,0,P|231:83|221:129,1,70.5200010760498,6|0,1:2|0:2,0:0:0:0:
180,195,38346,1,0,0:2:0:0:
180,195,38513,1,0,0:2:0:0:
287,180,38679,2,0,P|295:229|305:275,1,70.5200010760498,8|0,1:2|0:2,0:0:0:0:
347,330,39013,1,2,0:2:0:0:
347,330,39179,1,0,0:2:0:0:
232,287,39346,6,0,P|187:298|149:328,1,70.5200010760498,2|0,1:2|0:2,0:0:0:0:
50,203,39679,2,0,P|80:219|115:226,1,70.5200010760498,2|0,0:2|0:2,0:0:0:0:
200,149,40013,2,0,P|196:96|193:51,1,70.5200010760498,10|0,1:2|0:2,0:0:0:0:
89,33,40346,2,0,P|86:68|83:103,1,70.5200010760498,2|0,0:2|0:2,0:0:0:0:
236,206,40679,5,0,1:2:0:0:
236,206,40763,1,0,0:2:0:0:
236,206,40846,1,0,0:2:0:0:
236,206,40929,1,0,0:2:0:0:
236,206,41013,2,0,L|289:198,3,35.2600005380249,2|0|0|0,1:2|0:2|0:2|0:2,0:0:0:0:
173,259,41346,2,0,L|120:251,3,35.2600005380249,0|0|0|0,1:2|0:2|0:2|0:2,0:0:0:0:
238,314,41679,2,0,L|291:306,3,35.2600005380249,2|0|0|0,1:2|0:2|0:2|0:2,0:0:0:0:
338,257,42013,5,2,1:2:0:0:
465,313,42179,1,0,1:2:0:0:
386,142,42346,1,0,1:2:0:0:
354,127,42429,1,0,1:2:0:0:
318,124,42513,1,0,1:2:0:0:
285,136,42596,1,0,1:2:0:0:
179,350,43346,6,0,P|186:265|214:196,1,131.580000803101,6|0,1:2|0:2,0:0:0:0:
210,178,43679,2,0,P|177:144|115:144,1,87.7200005354004,10|0,0:2|0:2,0:0:0:0:
64,265,44013,2,0,P|126:282|191:235,1,131.580000803101,2|0,1:2|0:2,0:0:0:0:
211,214,44346,1,10,0:2:0:0:
382,47,44513,2,0,P|356:126|351:205,1,131.580000803101,2|0,1:2|0:2,0:0:0:0:
357,225,44846,1,2,1:2:0:0:
242,78,45013,6,0,P|201:56|149:57,1,87.7200005354004,10|0,0:2|0:2,0:0:0:0:
85,246,45346,1,2,1:2:0:0:
257,175,45513,1,0,1:2:0:0:
73,82,45679,2,0,P|86:142|92:203,1,87.7200005354004,10|0,0:2|0:2,0:0:0:0:
203,341,46013,6,0,P|276:360|343:282,1,175.440001070801,2|10,1:2|0:2,0:0:0:0:
208,237,46513,2,0,P|183:191|195:134,1,87.7200005354004,2|0,0:2|1:2,0:0:0:0:
245,62,46846,1,2,1:2:0:0:
369,191,47013,2,0,P|394:145|382:88,1,87.7200005354004,10|0,0:2|1:2,0:0:0:0:
328,7,47346,5,2,0:2:0:0:
328,7,47513,1,0,1:2:0:0:
215,137,47679,2,0,P|161:152|108:164,1,87.7200005354004,10|0,0:2|0:2,0:0:0:0:
320,233,48013,1,2,1:2:0:0:
231,65,48179,1,2,1:2:0:0:
158,192,48346,1,10,0:2:0:0:
300,139,48513,1,2,0:2:0:0:
65,135,48679,6,0,P|47:198|91:274,1,131.580000803101,0|0,1:2|0:0,0:0:0:0:
108,283,49013,2,0,P|151:258|207:266,1,87.7200005354004,10|0,0:2|0:2,0:0:0:0:
342,323,49346,1,2,1:2:0:0:
206,377,49513,1,2,0:2:0:0:
263,234,49679,1,10,0:2:0:0:
365,349,49846,6,0,P|414:368|467:362,1,87.7200005354004,2|0,1:2|0:2,0:0:0:0:
445,185,50179,1,0,1:2:0:0:
445,185,50346,2,0,P|401:185|361:203,1,87.7200005354004,8|2,0:2|0:2,0:0:0:0:
239,264,50679,1,2,1:2:0:0:
390,313,50846,1,2,1:2:0:0:
238,358,51013,1,10,0:2:0:0:
378,304,51179,1,2,0:2:0:0:
237,98,51346,6,0,P|259:166|267:254,1,131.580000803101,0|0,1:2|0:0,0:0:0:0:
251,263,51679,2,0,P|213:292|154:291,1,87.7200005354004,10|0,0:2|0:2,0:0:0:0:
139,163,52013,1,0,1:2:0:0:
266,225,52179,1,2,1:2:0:0:
85,273,52346,1,10,0:2:0:0:
146,130,52513,1,2,1:2:0:0:
330,318,52679,6,0,P|378:341|430:335,1,87.7200005354004,2|0,0:2|1:2,0:0:0:0:
296,140,53013,2,0,P|252:141|214:162,1,87.7200005354004,10|0,0:2|0:2,0:0:0:0:
441,214,53346,1,2,1:2:0:0:
362,58,53513,1,0,1:2:0:0:
274,219,53679,2,0,P|265:271|282:326,1,87.7200005354004,8|0,0:2|0:0,0:0:0:0:
512,339,54013,6,0,P|483:292|398:302,1,131.580000803101,2|0,1:2|0:2,0:0:0:0:
376,322,54346,2,0,B|326:335|281:307,1,87.7200005354004,10|0,0:2|0:2,0:0:0:0:
97,169,54679,2,0,P|111:251|125:335,1,131.580000803101,2|0,1:2|0:2,0:0:0:0:
128,347,55013,1,10,0:2:0:0:
236,112,55179,2,0,P|281:90|344:102,1,87.7200005354004,2|0,1:2|0:2,0:0:0:0:
397,170,55513,1,2,1:2:0:0:
106,188,55679,6,0,P|96:114|90:68,1,87.7200005354004,10|0,0:2|0:2,0:0:0:0:
273,226,56013,1,2,1:2:0:0:
191,328,56179,1,0,1:2:0:0:
88,175,56346,2,0,P|78:101|72:55,1,87.7200005354004,10|0,0:2|0:2,0:0:0:0:
256,32,56679,6,0,P|309:70|384:53,1,131.580000803101,2|0,1:2|0:2,0:0:0:0:
418,35,57013,1,10,0:2:0:0:
317,189,57179,2,0,P|252:176|210:165,1,87.7200005354004,2|0,0:2|1:2,0:0:0:0:
317,89,57513,1,2,1:2:0:0:
418,242,57679,2,0,P|483:229|525:218,1,87.7200005354004,10|0,0:2|1:2,0:0:0:0:
420,122,58013,5,2,0:2:0:0:
420,122,58179,1,0,1:2:0:0:
290,296,58346,2,0,P|273:249|288:195,1,87.7200005354004,10|2,0:2|0:2,0:0:0:0:
476,284,58679,1,2,1:2:0:0:
372,366,58846,1,2,1:2:0:0:
349,244,59013,1,10,0:2:0:0:
476,298,59179,1,2,0:2:0:0:
248,354,59346,6,0,B|158:344|225:308|111:296,1,131.580000803101,0|0,1:2|0:0,0:0:0:0:
91,319,59679,2,0,P|73:267|92:215,1,87.7200005354004,10|2,0:2|0:2,0:0:0:0:
199,138,60013,1,2,1:2:0:0:
70,82,60179,1,2,0:2:0:0:
118,210,60346,1,10,0:2:0:0:
226,45,60513,6,0,P|241:90|254:148,1,87.7200005354004,2|0,1:2|0:2,0:0:0:0:
353,253,60846,1,0,1:2:0:0:
353,253,61013,2,0,P|368:208|381:150,1,87.7200005354004,10|2,0:2|0:2,0:0:0:0:
272,69,61346,1,2,1:2:0:0:
388,25,61513,1,2,1:2:0:0:
263,177,61679,2,0,P|216:172|176:130,1,87.7200005354004,10|2,0:2|0:2,0:0:0:0:
375,61,62013,6,0,P|425:53|485:126,1,131.580000803101,0|0,1:2|0:0,0:0:0:0:
467,147,62346,2,0,P|460:197|451:270,1,87.7200005354004,10|0,0:2|0:2,0:0:0:0:
276,338,62679,2,0,P|270:294|264:251,1,87.7200005354004,2|2,1:2|1:2,0:0:0:0:
336,96,63013,1,10,0:2:0:0:
390,273,63179,1,2,1:2:0:0:
244,162,63346,6,0,P|199:148|135:135,1,87.7200005354004,2|0,0:2|1:2,0:0:0:0:
346,83,63679,2,0,P|388:73|430:60,1,87.7200005354004,10|0,0:2|0:2,0:0:0:0:
250,16,64013,1,2,1:2:0:0:
250,16,64179,1,0,1:2:0:0:
341,172,64346,2,0,P|328:229|315:296,1,87.7200005354004,8|0,0:2|0:0,0:0:0:0:
154,346,64679,6,0,L|115:352,2,21.9300001338501,0|0|0,3:2|3:2|3:2,0:0:0:0:
45,262,65013,2,0,L|84:268,2,21.9300001338501,0|0|0,3:2|3:2|3:2,0:0:0:0:
182,204,65346,1,0,3:2:0:0:
182,204,65429,1,0,3:2:0:0:
182,204,65513,1,0,3:2:0:0:
48,89,65679,1,8,3:3:0:0:
193,49,65846,1,4,3:3:0:0:
90,175,66013,6,0,P|91:246|128:288,1,105.780001614075,2|0,1:2|0:2,0:0:0:0:
170,318,66346,2,0,P|230:326|298:342,1,105.780001614075,2|0,0:2|0:0,0:0:0:0:
341,295,66679,2,0,P|394:285|465:263,1,105.780001614075,10|0,0:2|0:2,0:0:0:0:
485,248,67013,1,2,0:2:0:0:
382,182,67179,1,0,1:2:0:0:
478,93,67346,6,0,P|437:59|332:71,1,141.0400021521,2|2,0:2|1:2,0:0:0:0:
275,103,67846,1,2,0:2:0:0:
134,33,68013,1,10,0:2:0:0:
134,33,68346,2,0,P|121:86|136:157,1,105.780001614075,2|0,0:2|0:0,0:0:0:0:
170,197,68679,6,0,P|186:249|175:328,1,105.780001614075,2|0,1:2|0:2,0:0:0:0:
168,333,69013,2,0,P|156:289|163:241,1,70.5200010760498,2|0,0:2|0:2,0:0:0:0:
244,168,69346,1,10,0:2:0:0:
244,168,69513,1,2,0:2:0:0:
328,262,69679,1,2,0:2:0:0:
328,262,69846,1,2,1:2:0:0:
422,115,70013,5,2,0:2:0:0:
422,115,70179,2,0,P|426:156|430:215,1,70.5200010760498,2|0,1:2|1:2,0:0:0:0:
277,37,70513,1,10,0:2:0:0:
277,37,70679,2,0,P|273:78|269:137,1,70.5200010760498,10|0,0:2|0:2,0:0:0:0:
338,333,71013,2,0,P|335:297|331:262,1,70.5200010760498,10|0,1:2|0:2,0:0:0:0:
207,148,71346,5,2,1:2:0:0:
207,148,71513,1,2,0:2:0:0:
117,224,71679,1,2,0:2:0:0:
117,224,71846,1,2,0:2:0:0:
214,313,72013,2,0,P|256:313|288:295,1,70.5200010760498,10|0,0:2|0:0,0:0:0:0:
127,134,72346,2,0,P|85:134|53:152,1,70.5200010760498,2|0,0:2|1:2,0:0:0:0:
224,229,72679,5,2,0:2:0:0:
224,229,72846,1,2,0:2:0:0:
104,294,73013,1,2,1:2:0:0:
104,294,73179,1,2,0:2:0:0:
285,334,73346,2,0,P|297:290|303:259,1,70.5200010760498,10|0,0:2|0:0,0:0:0:0:
127,134,73679,2,0,P|134:168|143:202,1,70.5200010760498,2|0,1:2|0:2,0:0:0:0:
355,57,74013,5,2,1:2:0:0:
355,57,74179,1,0,0:2:0:0:
226,102,74346,1,2,0:2:0:0:
226,102,74513,1,0,0:2:0:0:
363,156,74679,1,10,0:2:0:0:
220,212,74846,1,2,0:2:0:0:
359,128,75013,2,0,P|396:116|440:117,1,70.5200010760498,2|2,0:2|1:2,0:0:0:0:
223,68,75346,6,0,P|187:66|154:55,1,70.5200010760498,2|0,0:2|1:2,0:0:0:0:
53,214,75679,2,0,P|86:203|121:201,1,70.5200010760498,2|0,1:2|0:2,0:0:0:0:
255,371,76013,2,0,L|248:288,1,70.5200010760498,10|0,1:2|0:2,0:0:0:0:
257,101,76346,2,0,L|251:171,1,70.5200010760498,10|0,1:2|0:0,0:0:0:0:
356,341,76679,6,0,P|410:335|477:300,1,118.679996015991,2|0,1:2|2:2,0:0:0:0:
477,281,77013,2,0,P|440:261|394:255,1,79.1199973439942,2|0,0:2|0:2,0:0:0:0:
256,329,77346,2,0,P|201:354|132:341,1,118.679996015991,10|0,0:2|0:0,0:0:0:0:
106,323,77679,1,2,0:2:0:0:
198,232,77846,1,2,1:2:0:0:
115,147,78013,2,0,P|55:134|-22:167,1,118.679996015991
14,177,78346,6,0,L|25:84,1,79.1199973439942,2|0,1:2|0:2,0:0:0:0:
198,232,78679,2,0,L|207:310,1,79.1199973439942,10|0,0:2|0:2,0:0:0:0:
33,152,79013,2,0,L|42:73,1,79.1199973439942,0|0,0:2|0:2,0:0:0:0:
235,128,79346,6,0,P|285:161|350:144,1,118.679996015991,2|0,1:2|2:2,0:0:0:0:
374,128,79679,2,0,P|358:173|352:223,1,79.1199973439942,2|0,0:2|0:2,0:0:0:0:
445,345,80013,2,0,P|461:300|467:250,1,79.1199973439942,10|0,0:2|0:2,0:0:0:0:
322,297,80346,1,2,0:2:0:0:
489,175,80513,6,0,P|483:128|364:116,1,158.239994687988,2|2,1:2|1:2,0:0:0:0:
231,173,81013,1,2,1:2:0:0:
286,53,81179,1,2,0:2:0:0:
357,187,81346,2,0,P|346:243|338:326,1,118.679996015991,10|0,0:2|0:0,0:0:0:0:
317,333,81679,2,0,P|279:359|201:331,1,118.679996015991,10|0,0:2|2:2,0:0:0:0:
143,304,82013,5,2,1:2:0:0:
78,183,82179,2,0,P|69:141|65:89,1,79.1199973439942,2|0,0:2|0:2,0:0:0:0:
208,231,82513,1,2,0:2:0:0:
152,103,82679,2,0,P|166:62|191:18,1,79.1199973439942,10|0,0:2|0:0,0:0:0:0:
289,158,83013,1,0,0:2:0:0:
289,158,83179,1,0,1:2:0:0:
182,30,83346,5,2,0:2:0:0:
333,83,83513,2,0,P|385:71|432:61,1,79.1199973439942,2|0,0:2|1:2,0:0:0:0:
200,117,83846,1,2,0:2:0:0:
384,176,84013,2,0,P|436:164|483:154,1,79.1199973439942,10|0,0:2|0:2,0:0:0:0:
278,283,84346,2,0,P|220:267|141:246,1,118.679996015991,2|0,1:2|0:0,0:0:0:0:
135,276,84679,6,0,P|182:290|232:262,1,79.1199973439942,2|0,1:2|0:2,0:0:0:0:
227,116,85013,2,0,P|191:149|190:207,1,79.1199973439942,2|0,0:2|0:2,0:0:0:0:
339,268,85346,2,0,P|327:220|278:190,1,79.1199973439942,10|0,0:2|0:2,0:0:0:0:
129,277,85679,1,2,0:2:0:0:
282,322,85846,1,0,1:2:0:0:
179,137,86013,6,0,L|184:177,3,39.5599986719971,2|0|0|0,3:2|3:2|1:2|3:0,0:0:0:0:
203,289,86346,1,0,1:2:0:0:
276,176,86513,1,0,3:2:0:0:
131,208,86679,1,2,1:2:0:0:
281,148,86846,1,0,3:2:0:0:
136,98,87013,1,8,1:2:0:0:
271,55,87179,1,0,3:2:0:0:
271,55,87263,1,0,3:2:0:0:
271,55,87346,5,2,0:2:0:0:
218,328,92679,6,0,P|168:317|134:308,1,70.5200010760498,6|0,1:2|0:2,0:0:0:0:
76,222,93013,1,0,0:2:0:0:
76,222,93179,1,0,0:2:0:0:
204,237,93346,2,0,P|176:194|158:163,1,70.5200010760498,8|0,1:2|0:2,0:0:0:0:
188,61,93679,1,2,0:2:0:0:
188,61,93846,1,0,0:2:0:0:
331,197,94013,6,0,L|321:282,1,70.5200010760498,2|0,1:2|0:2,0:0:0:0:
306,362,94346,1,2,0:2:0:0:
306,362,94513,1,0,0:2:0:0:
149,146,94679,2,0,L|159:231,1,70.5200010760498,10|0,1:2|0:2,0:0:0:0:
174,311,95013,1,2,0:2:0:0:
174,311,95179,1,0,0:2:0:0:
260,146,95346,5,0,1:2:0:0:
260,146,95429,1,0,0:2:0:0:
260,146,95513,1,0,0:2:0:0:
260,146,95596,1,0,0:0:0:0:
260,146,95679,2,0,P|285:137|316:132,3,35.2600005380249,2|0|0|0,1:2|0:2|0:2|0:2,0:0:0:0:
190,227,96013,2,0,P|172:222|156:216,3,35.2600005380249,0|0|0|0,1:2|0:2|0:2|0:2,0:0:0:0:
283,293,96346,2,0,L|294:353,3,35.2600005380249,2|0|0|0,1:2|0:2|0:2|0:2,0:0:0:0:
185,324,96679,5,2,1:2:0:0:
364,249,96846,1,0,1:2:0:0:
168,201,97013,1,0,1:2:0:0:
152,169,97096,1,0,1:2:0:0:
151,133,97179,1,0,1:2:0:0:
166,100,97263,1,0,1:2:0:0:
259,328,98013,6,0,P|306:300|405:322,1,131.580000803101,6|0,1:2|0:2,0:0:0:0:
413,329,98346,2,0,P|373:348|324:330,1,87.7200005354004,10|0,0:2|0:2,0:0:0:0:
334,68,98679,2,0,P|328:138|315:240,1,131.580000803101,2|0,1:2|0:2,0:0:0:0:
313,250,99013,1,10,0:2:0:0:
183,96,99179,2,0,P|140:74|76:85,1,87.7200005354004,2|0,1:2|0:0,0:0:0:0:
21,153,99513,1,2,1:2:0:0:
202,220,99679,6,0,P|276:207|320:201,1,87.7200005354004,10|0,0:2|0:2,0:0:0:0:
135,347,100013,1,2,1:2:0:0:
91,219,100179,1,0,1:2:0:0:
258,326,100346,2,0,P|332:339|376:345,1,87.7200005354004,10|0,0:2|0:2,0:0:0:0:
464,221,100679,6,0,P|458:150|346:118,1,175.440001070801,2|10,1:2|0:2,0:0:0:0:
270,239,101179,2,0,P|236:272|179:265,1,87.7200005354004,2|0,0:2|1:2,0:0:0:0:
83,183,101513,1,2,1:2:0:0:
185,71,101679,2,0,P|227:74|257:105,1,87.7200005354004,10|0,0:2|1:2,0:0:0:0:
164,316,102013,6,0,P|159:251|154:209,1,87.7200005354004,2|0,0:2|1:2,0:0:0:0:
346,119,102346,2,0,P|341:162|338:206,1,87.7200005354004,10|0,0:2|0:2,0:0:0:0:
97,113,102679,1,2,1:2:0:0:
242,53,102846,1,2,1:2:0:0:
154,229,103013,2,0,P|106:236|56:207,1,87.7200005354004,10|2,0:2|0:2,0:0:0:0:
284,153,103346,6,0,P|300:210|306:321,1,131.580000803101,0|0,1:2|0:0,0:0:0:0:
333,328,103679,2,0,P|343:270|364:214,1,87.7200005354004,10|0,0:2|0:2,0:0:0:0:
423,127,104013,1,2,1:2:0:0:
255,195,104179,1,2,0:2:0:0:
350,56,104346,1,10,0:2:0:0:
386,222,104513,6,0,P|400:270|410:334,1,87.7200005354004,2|0,1:2|0:2,0:0:0:0:
213,127,104846,1,0,1:2:0:0:
213,127,105013,2,0,P|199:175|189:239,1,87.7200005354004,8|2,0:2|0:2,0:0:0:0:
305,291,105346,1,2,1:2:0:0:
126,338,105513,1,2,1:2:0:0:
321,303,105679,1,10,0:2:0:0:
156,196,105846,1,2,0:2:0:0:
277,370,106013,6,0,P|333:383|395:305,1,131.580000803101,0|0,1:2|0:0,0:0:0:0:
385,300,106346,2,0,P|389:246|402:193,1,87.7200005354004,10|0,0:2|0:2,0:0:0:0:
248,129,106679,1,0,1:2:0:0:
420,62,106846,1,2,1:2:0:0:
240,168,107013,2,0,P|248:211|250:254,1,87.7200005354004,10|2,0:2|1:2,0:0:0:0:
79,94,107346,6,0,P|129:65|184:73,1,87.7200005354004,2|0,0:2|1:2,0:0:0:0:
89,276,107679,2,0,P|45:271|10:246,1,87.7200005354004,10|0,0:2|0:2,0:0:0:0:
182,141,108013,1,2,1:2:0:0:
49,64,108179,1,0,1:2:0:0:
186,236,108346,2,0,P|229:231|264:206,1,87.7200005354004,8|0,0:2|0:0,0:0:0:0:
421,38,108679,6,0,P|404:103|396:190,1,131.580000803101,2|0,1:2|0:2,0:0:0:0:
372,204,109013,2,0,P|389:260|392:327,1,87.7200005354004,10|0,0:2|0:2,0:0:0:0:
213,144,109346,2,0,P|249:106|318:108,1,87.7200005354004,2|0,1:2|0:0,0:0:0:0:
271,282,109679,1,10,0:2:0:0:
95,199,109846,2,0,P|82:155|96:99,1,87.7200005354004,2|0,1:2|0:2,0:0:0:0:
294,187,110179,1,2,1:2:0:0:
106,304,110346,6,0,P|27:318|-10:327,1,87.7200005354004,10|0,0:2|0:2,0:0:0:0:
168,169,110679,1,2,1:2:0:0:
236,304,110846,1,0,1:2:0:0:
58,206,111013,2,0,P|50:159|75:111,1,87.7200005354004,10|0,0:2|0:2,0:0:0:0:
296,97,111346,6,0,B|193:87|261:23|130:14,1,175.440001070801,2|10,1:2|0:2,0:0:0:0:
177,208,111846,2,0,P|241:204|275:169,1,87.7200005354004,2|0,0:2|1:2,0:0:0:0:
338,90,112179,1,2,1:2:0:0:
365,308,112346,2,0,P|395:269|403:210,1,87.7200005354004,10|0,0:2|1:2,0:0:0:0:
305,76,112679,6,0,P|275:115|267:174,1,87.7200005354004,2|0,0:2|1:2,0:0:0:0:
233,340,113013,2,0,P|218:293|176:261,1,87.7200005354004,10|2,0:2|0:2,0:0:0:0:
71,150,113346,1,2,1:2:0:0:
208,244,113513,1,2,1:2:0:0:
87,122,113679,1,10,0:2:0:0:
91,290,113846,1,2,0:2:0:0:
193,132,114013,6,0,P|262:122|322:184,1,131.580000803101,0|0,1:2|0:0,0:0:0:0:
333,196,114346,2,0,P|319:239|320:303,1,87.7200005354004,10|2,0:2|0:2,0:0:0:0:
421,147,114679,1,2,1:2:0:0:
236,221,114846,1,2,0:2:0:0:
404,301,115013,1,10,0:2:0:0:
299,111,115179,6,0,P|263:85|202:86,1,87.7200005354004,2|0,1:2|0:2,0:0:0:0:
79,179,115513,1,0,1:2:0:0:
79,179,115679,2,0,P|115:205|176:204,1,87.7200005354004,10|2,0:2|0:2,0:0:0:0:
281,141,116013,1,2,1:2:0:0:
195,298,116179,1,2,1:2:0:0:
159,98,116346,1,10,0:2:0:0:
251,240,116513,1,2,0:2:0:0:
311,33,116679,6,0,P|368:34|411:117,1,131.580000803101,0|0,1:2|0:0,0:0:0:0:
396,137,117013,2,0,P|346:155|293:135,1,87.7200005354004,10|0,0:2|0:2,0:0:0:0:
111,79,117346,1,2,1:2:0:0:
211,255,117513,1,2,1:2:0:0:
206,117,117679,2,0,P|217:64|227:9,1,87.7200005354004,10|2,0:2|1:2,0:0:0:0:
94,276,118013,5,10,0:2:0:0:
247,196,118179,1,8,0:2:0:0:
247,196,118263,1,8,0:2:0:0:
247,196,118346,2,0,P|309:210|361:224,1,87.7200005354004,10|8,0:2|0:2,0:0:0:0:
193,359,118679,5,2,1:2:0:0:
127,191,118846,1,0,1:2:0:0:
277,268,119013,1,10,1:2:0:0:
112,334,119179,1,0,0:0:0:0:
261,166,119346,6,0,B|367:154|333:239|460:222,1,192.640002351563,6|0,1:2|3:2,0:0:0:0:
321,49,119846,1,0,1:2:0:0:
321,49,120013,2,0,P|276:79|211:77,1,96.3200011757813,8|2,0:2|0:2,0:0:0:0:
93,34,120346,1,2,3:2:0:0:
207,159,120513,1,2,0:2:0:0:
67,288,120679,6,0,P|48:232|58:166,1,96.3200011757813,2|8,0:2|0:2,0:0:0:0:
220,70,121013,2,0,P|239:126|229:192,1,96.3200011757813,2|0,1:2|0:2,0:0:0:0:
94,75,121346,1,10,0:2:0:0:
94,75,121513,1,0,1:2:0:0:
177,261,121679,2,0,P|224:282|276:266,1,96.3200011757813,2|0,0:2|0:2,0:0:0:0:
418,103,122013,6,0,B|380:204|458:180|418:302,1,192.640002351563,2|0,1:2|3:2,0:0:0:0:
257,104,122513,1,0,1:2:0:0:
257,104,122679,2,0,P|270:165|272:226,1,96.3200011757813,10|2,0:2|0:2,0:0:0:0:
112,314,123013,1,2,3:2:0:0:
165,183,123179,1,2,0:2:0:0:
229,342,123346,6,0,P|279:362|340:360,1,96.3200011757813,2|8,0:2|0:2,0:0:0:0:
91,228,123679,2,0,P|43:230|0:249,1,96.3200011757813,2|0,1:2|0:2,0:0:0:0:
266,209,124013,1,10,0:2:0:0:
162,368,124179,2,0,P|147:310|152:247,1,96.3200011757813,0|2,1:2|0:2,0:0:0:0:
195,149,124513,1,0,0:2:0:0:
332,308,124679,6,0,P|347:242|329:106,1,192.640002351563,2|0,1:2|3:2,0:0:0:0:
110,48,125179,1,0,1:2:0:0:
110,48,125346,2,0,P|99:108|107:157,1,96.3200011757813,8|2,0:2|0:2,0:0:0:0:
294,74,125679,1,2,3:2:0:0:
142,142,125846,1,2,0:2:0:0:
285,233,126013,6,0,P|352:246|412:261,1,96.3200011757813,2|8,0:2|0:2,0:0:0:0:
177,325,126346,2,0,P|130:335|82:344,1,96.3200011757813,2|0,1:2|0:2,0:0:0:0:
201,162,126679,1,10,0:2:0:0:
286,310,126846,1,0,1:2:0:0:
80,223,127013,2,0,P|66:170|89:97,1,96.3200011757813,2|0,0:2|0:2,0:0:0:0:
239,310,127346,6,0,B|135:284|168:371|41:337,1,192.640002351563,2|0,1:2|3:2,0:0:0:0:
186,172,127846,1,0,1:2:0:0:
186,172,128013,2,0,P|229:145|300:160,1,96.3200011757813,8|2,0:2|0:2,0:0:0:0:
409,267,128346,1,10,0:2:0:0:
258,313,128513,1,2,0:2:0:0:
392,142,128679,6,0,L|391:93,2,48.1600005878906,2|0|8,3:2|3:2|3:2,0:0:0:0:
237,286,129013,1,2,1:2:0:0:
289,142,129179,1,0,3:2:0:0:
363,304,129346,2,0,L|464:325,1,96.3200011757813,10|0,0:2|1:2,0:0:0:0:
198,204,129679,1,2,3:2:0:0:
265,364,129846,1,0,0:0:0:0:
358,257,130013,5,6,0:2:0:0:
230,51,140679,6,0,P|158:52|123:107,1,123.840003023438,0|0,1:2|0:2,0:0:0:0:
295,225,141346,2,0,P|367:224|402:169,1,123.840003023438,8|0,1:2|0:2,0:0:0:0:
137,192,142013,6,0,P|159:259|169:321,1,123.840003023438,0|0,1:2|0:2,0:0:0:0:
325,152,142679,2,0,P|327:119|338:80,2,61.9200015117188,8|0|0,1:2|0:2|0:2,0:0:0:0:
364,254,143179,1,0,0:2:0:0:
364,254,143346,6,0,P|301:252|257:296,1,123.840003023438,0|0,1:2|0:2,0:0:0:0:
190,361,143846,1,0,0:2:0:0:
190,361,144013,2,0,L|121:352,1,61.9200015117188,8|0,1:2|0:2,0:0:0:0:
57,233,144346,2,0,L|126:224,1,61.9200015117188,0|0,0:2|0:2,0:0:0:0:
269,133,144679,6,0,P|212:122|120:102,1,123.840003023438,0|0,1:2|0:2,0:0:0:0:
147,108,145346,1,8,1:2:0:0:
147,108,145513,1,0,0:2:0:0:
69,182,145679,1,0,0:2:0:0:
69,182,145846,1,0,0:2:0:0:
180,294,146013,6,0,P|229:291|275:222,1,123.840003023438,0|0,1:2|0:2,0:0:0:0:
286,103,146513,1,0,0:2:0:0:
286,103,146679,2,0,P|288:168|293:236,1,123.840003023438,8|0,1:2|0:2,0:0:0:0:
459,369,147346,6,0,P|463:307|465:245,1,123.840003023438,0|0,1:2|0:2,0:0:0:0:
185,88,148013,2,0,P|179:40|184:7,2,61.9200015117188,8|0|0,1:2|0:2|0:2,0:0:0:0:
239,161,148513,1,0,0:2:0:0:
239,161,148679,6,0,B|164:155|194:195|103:181,1,123.840003023438,0|0,1:2|0:2,0:0:0:0:
219,308,149346,2,0,B|294:302|264:342|355:328,1,123.840003023438,8|0,1:2|0:2,0:0:0:0:
446,154,150013,6,0,P|405:140|330:189,1,123.840003023438,0|0,1:2|0:2,0:0:0:0:
126,360,150679,2,0,P|122:323|119:280,1,61.9200015117188,8|0,1:2|0:2,0:0:0:0:
190,238,151013,2,0,P|187:207|184:176,1,61.9200015117188,0|0,0:2|0:2,0:0:0:0:
72,59,151346,6,0,P|125:66|209:76,1,123.840003023438,14|2,0:2|3:2,0:0:0:0:
287,142,151846,2,0,P|328:135|362:130,1,61.9200015117188,2|8,3:2|0:2,0:0:0:0:
226,239,152179,2,0,P|185:232|151:227,1,61.9200015117188,2|0,0:2|3:2,0:0:0:0:
311,302,152513,2,0,L|324:232,1,61.9200015117188,2|8,0:2|0:2,0:0:0:0:
200,101,152846,2,0,L|211:162,1,61.9200015117188,2|0,0:2|3:2,0:0:0:0:
333,78,153179,1,2,0:2:0:0:
333,78,153346,2,0,L|346:8,1,61.9200015117188,10|0,0:2|0:2,0:0:0:0:
169,30,153679,6,0,P|129:39|111:100,1,92.8800022675782,2|0,3:2|0:0,0:0:0:0:
121,115,154013,6,0,P|126:161|139:248,1,123.840003023438,10|2,0:2|3:2,0:0:0:0:
242,336,154513,2,0,P|247:297|250:264,1,61.9200015117188,2|8,3:2|0:2,0:0:0:0:
355,176,154846,2,0,P|360:215|363:248,1,61.9200015117188,2|0,0:2|3:2,0:0:0:0:
444,337,155179,1,2,0:2:0:0:
444,337,155346,6,0,P|403:312|367:346,1,92.8800022675782,10|0,0:2|0:0,0:0:0:0:
307,377,155679,2,0,P|267:364|166:352,1,131.580000803101,2|0,3:2|0:2,0:0:0:0:
138,288,156013,2,0,P|132:237|163:213,1,92.8800022675782,8|0,0:2|0:0,0:0:0:0:
222,170,156346,2,0,P|206:110|192:34,1,131.580000803101,2|0,3:2|3:0,0:0:0:0:
279,20,156679,6,0,P|324:14|380:71,1,123.840003023438,10|2,0:2|3:2,0:0:0:0:
327,187,157179,2,0,P|288:200|254:206,1,61.9200015117188,2|8,3:2|0:2,0:0:0:0:
392,290,157513,2,0,P|422:297|451:308,1,61.9200015117188,2|2,0:2|3:2,0:0:0:0:
289,366,157846,2,0,L|303:300,1,61.9200015117188,0|8,0:0|0:2,0:0:0:0:
186,287,158179,2,0,L|172:221,1,61.9200015117188,2|0,0:2|3:2,0:0:0:0:
58,229,158513,1,2,3:2:0:0:
58,229,158679,2,0,L|72:163,1,61.9200015117188,10|0,0:2|0:2,0:0:0:0:
200,79,159013,6,0,P|231:104|302:95,1,92.8800022675782,2|0,0:2|0:0,0:0:0:0:
372,65,159346,2,0,P|359:131|344:212,2,123.840003023438,10|0|8,0:0|0:0|0:0,0:0:0:0:
446,171,160179,1,2,0:0:0:0:
446,171,160346,2,0,P|480:165|515:160,1,61.9200015117188,2|2,3:2|0:0,0:0:0:0:
354,277,160679,6,0,P|306:268|242:256,1,92.8800022675782,10|0,0:2|0:0,0:0:0:0:
203,306,161013,2,0,P|155:315|91:327,1,92.8800022675782,2|0,3:2|0:0,0:0:0:0:
45,285,161346,1,10,0:2:0:0:
178,167,161679,1,0,0:2:0:0:
84,106,161846,1,0,0:2:0:0:
84,106,161929,1,0,0:2:0:0:
84,106,162013,6,0,P|87:163|95:256,1,123.840003023438,10|2,0:2|0:0,0:0:0:0:
173,319,162513,2,0,P|212:315|255:308,1,61.9200015117188,2|8,3:2|0:2,0:0:0:0:
297,217,162846,2,0,P|336:220|385:229,1,61.9200015117188,2|0,0:0|3:2,0:0:0:0:
437,316,163179,2,0,P|433:357|429:391,1,61.9200015117188,2|8,0:0|0:2,0:0:0:0:
446,200,163513,2,0,P|442:169|439:138,1,61.9200015117188,2|0,3:2|3:2,0:0:0:0:
331,271,163846,1,2,0:0:0:0:
331,271,164013,2,0,P|290:263|259:256,1,61.9200015117188,10|0,0:2|0:0,0:0:0:0:
159,106,164346,6,0,P|106:99|72:146,1,92.8800022675782,2|0,3:2|0:0,0:0:0:0:
67,146,164679,6,0,P|83:200|94:273,1,123.840003023438,10|2,0:2|0:0,0:0:0:0:
190,208,165179,2,0,P|198:167|207:140,1,61.9200015117188,2|8,3:2|0:2,0:0:0:0:
296,220,165513,2,0,P|304:249|310:280,1,61.9200015117188,2|0,0:0|3:2,0:0:0:0:
374,156,165846,1,2,0:0:0:0:
374,156,166013,6,0,P|423:169|453:128,1,92.8800022675782,8|0,0:2|0:0,0:0:0:0:
471,72,166346,2,0,P|420:63|334:39,1,131.580000803101,2|0,3:2|0:0,0:0:0:0:
275,73,166679,2,0,P|244:51|196:73,1,92.8800022675782,8|0,0:2|0:0,0:0:0:0:
127,100,167013,2,0,P|139:175|147:249,1,131.580000803101,2|0,3:2|3:2,0:0:0:0:
187,297,167346,6,0,P|236:327|317:303,1,123.840003023438,10|2,0:2|0:0,0:0:0:0:
364,235,167846,2,0,P|362:204|360:173,1,61.9200015117188,2|8,3:2|0:2,0:0:0:0:
247,104,168179,2,0,P|245:134|243:165,1,61.9200015117188,2|0,0:0|3:2,0:0:0:0:
354,89,168513,2,0,P|393:82|430:78,1,61.9200015117188,2|8,0:0|0:2,0:0:0:0:
280,27,168846,2,0,P|249:23|218:17,1,61.9200015117188,2|0,3:2|3:2,0:0:0:0:
127,107,169179,1,0,0:0:0:0:
127,107,169346,2,0,P|93:113|56:123,1,61.9200015117188,8|0,0:2|0:0,0:0:0:0:
219,294,169679,6,0,P|226:243|236:187,1,92.8800022675782,2|0,0:0|0:0,0:0:0:0:
243,166,170013,1,2,0:0:0:0:
272,315,172179,5,2,0:2:0:0:
272,315,172346,2,0,P|235:313|194:243,1,105.780001614075,2|0,0:2|0:2,0:0:0:0:
203,186,172679,6,0,B|298:180|231:124|358:122,1,144.480001763672,6|0,1:2|0:2,0:0:0:0:
362,145,173013,2,0,P|378:198|353:258,1,96.3200011757813,10|0,0:2|0:2,0:0:0:0:
203,91,173346,2,0,P|153:59|76:98,1,144.480001763672,2|0,1:2|0:2,0:0:0:0:
53,125,173679,1,10,0:2:0:0:
163,256,173846,2,0,P|211:238|260:226,1,96.3200011757813,2|0,1:2|0:0,0:0:0:0:
396,285,174179,1,2,1:2:0:0:
248,87,174346,6,0,P|244:144|238:192,1,96.3200011757813,10|0,0:2|0:2,0:0:0:0:
355,347,174679,1,2,1:2:0:0:
199,287,174846,1,0,1:2:0:0:
383,155,175013,2,0,P|387:212|393:260,1,96.3200011757813,10|0,0:2|0:2,0:0:0:0:
250,207,175346,6,0,B|132:187|201:120|72:100,1,192.640002351563,2|10,1:2|0:2,0:0:0:0:
42,285,175846,2,0,P|109:295|142:262,1,96.3200011757813,2|0,0:2|1:2,0:0:0:0:
249,108,176179,1,2,1:2:0:0:
84,208,176346,2,0,P|34:195|11:139,1,96.3200011757813,10|0,0:2|1:2,0:0:0:0:
127,20,176679,6,0,P|136:83|141:139,1,96.3200011757813,2|0,0:2|1:2,0:0:0:0:
263,276,177013,2,0,P|268:228|275:180,1,96.3200011757813,10|0,0:2|0:2,0:0:0:0:
344,62,177346,1,2,1:2:0:0:
170,123,177513,1,2,1:2:0:0:
351,84,177679,1,10,0:2:0:0:
196,16,177846,1,2,0:2:0:0:
296,252,178013,6,0,P|341:218|432:252,1,144.480001763672,0|0,1:2|0:0,0:0:0:0:
456,277,178346,2,0,P|480:227|483:156,1,96.3200011757813,10|0,0:2|0:2,0:0:0:0:
366,51,178679,1,2,1:2:0:0:
299,215,178846,1,2,0:2:0:0:
440,155,179013,1,10,0:2:0:0:
223,140,179179,6,0,P|199:181|200:254,1,96.3200011757813,2|0,1:2|0:2,0:0:0:0:
342,379,179513,1,0,1:2:0:0:
342,379,179679,2,0,P|366:338|365:265,1,96.3200011757813,8|2,0:2|0:2,0:0:0:0:
279,143,180013,1,2,1:2:0:0:
440,214,180179,1,2,1:2:0:0:
260,169,180346,1,10,0:2:0:0:
344,334,180513,1,2,0:2:0:0:
115,357,180679,6,0,P|101:285|123:201,1,144.480001763672,0|0,1:2|0:0,0:0:0:0:
135,173,181013,2,0,P|103:136|35:123,1,96.3200011757813,10|0,0:2|0:2,0:0:0:0:
29,262,181346,1,0,1:2:0:0:
211,224,181513,1,2,1:2:0:0:
37,160,181679,1,10,0:2:0:0:
115,357,181846,1,2,1:2:0:0:
261,132,182013,6,0,P|305:104|369:113,1,96.3200011757813,2|0,0:2|1:2,0:0:0:0:
258,303,182346,2,0,P|210:301|171:275,1,96.3200011757813,10|0,0:2|0:2,0:0:0:0:
359,187,182679,1,2,1:2:0:0:
411,321,182846,1,0,1:2:0:0:
218,206,183013,2,0,P|207:151|227:95,1,96.3200011757813,8|0,0:2|0:0,0:0:0:0:
423,31,183346,6,0,P|400:100|393:174,1,144.480001763672,2|0,1:2|0:2,0:0:0:0:
362,205,183679,2,0,P|381:256|385:321,1,96.3200011757813,10|0,0:2|0:2,0:0:0:0:
148,355,184013,2,0,P|89:333|76:247,1,144.480001763672,2|0,1:2|0:2,0:0:0:0:
85,215,184346,1,10,0:2:0:0:
281,260,184513,2,0,P|332:239|347:185,1,96.3200011757813,2|0,1:2|0:2,0:0:0:0:
215,106,184846,1,2,1:2:0:0:
174,257,185013,6,0,P|188:332|196:375,1,96.3200011757813,10|0,0:2|0:2,0:0:0:0:
303,107,185346,1,2,1:2:0:0:
152,174,185513,1,0,1:2:0:0:
308,276,185679,2,0,P|360:266|412:257,1,96.3200011757813,10|0,0:2|0:2,0:0:0:0:
154,365,186013,6,0,P|76:360|53:244,1,192.640002351563,2|10,1:2|0:2,0:0:0:0:
198,65,186513,2,0,P|220:120|211:178,1,96.3200011757813,2|0,0:2|1:2,0:0:0:0:
145,278,186846,1,2,1:2:0:0:
57,39,187013,2,0,P|35:94|44:152,1,96.3200011757813,10|0,0:2|1:2,0:0:0:0:
250,227,187346,6,0,P|205:200|148:213,1,96.3200011757813,2|0,0:2|1:2,0:0:0:0:
36,358,187679,2,0,P|92:348|152:341,1,96.3200011757813,10|2,0:2|0:2,0:0:0:0:
250,227,188013,1,2,1:2:0:0:
82,274,188179,1,2,1:2:0:0:
238,352,188346,1,10,0:2:0:0:
67,242,188513,1,2,0:2:0:0:
215,127,188679,6,0,P|265:119|349:205,1,144.480001763672,0|0,1:2|0:0,0:0:0:0:
371,185,189013,2,0,P|361:243|354:314,1,96.3200011757813,10|2,0:2|0:2,0:0:0:0:
188,246,189346,1,2,1:2:0:0:
294,354,189513,1,2,0:2:0:0:
239,172,189679,1,10,0:2:0:0:
153,338,189846,6,0,P|104:362|54:346,1,96.3200011757813,2|0,1:2|0:2,0:0:0:0:
301,237,190179,1,0,1:2:0:0:
301,237,190346,2,0,P|347:229|388:252,1,96.3200011757813,10|2,0:2|0:2,0:0:0:0:
137,228,190679,1,2,1:2:0:0:
281,362,190846,1,2,1:2:0:0:
158,207,191013,2,0,P|151:149|163:95,1,96.3200011757813,10|2,0:2|0:2,0:0:0:0:
494,77,191346,6,0,P|435:117|357:76,1,144.480001763672,0|0,1:2|0:0,0:0:0:0:
342,57,191679,2,0,P|298:31|244:48,1,96.3200011757813,10|0,0:2|0:2,0:0:0:0:
115,94,192013,1,2,1:2:0:0:
283,157,192179,1,2,1:2:0:0:
115,227,192346,1,10,0:2:0:0:
255,136,192513,1,2,1:2:0:0:
45,62,192679,5,10,0:2:0:0:
71,220,192846,1,8,0:2:0:0:
71,220,192929,1,8,0:2:0:0:
71,220,193013,1,10,0:2:0:0:
186,89,193179,1,8,0:2:0:0:
155,280,193346,1,2,1:2:0:0:
50,129,193513,1,0,1:2:0:0:
89,332,193679,2,0,P|138:363|187:358,1,96.3200011757813,10|0,1:2|0:0,0:0:0:0:
400,141,194013,6,0,P|332:125|260:236,1,209.839991354859,6|0,1:2|0:0,0:0:0:0:
354,334,194513,1,0,1:2:0:0:
354,334,194679,2,0,P|362:267|374:217,1,104.919995677429,8|2,0:2|0:2,0:0:0:0:
193,106,195013,1,2,3:2:0:0:
241,257,195179,1,2,0:2:0:0:
301,72,195346,6,0,P|368:53|415:51,1,104.919995677429,2|8,0:2|0:2,0:0:0:0:
157,197,195679,2,0,P|104:191|55:175,1,104.919995677429,2|0,1:2|0:2,0:0:0:0:
211,68,196013,1,10,0:2:0:0:
295,178,196179,1,0,1:2:0:0:
118,137,196346,2,0,P|108:77|137:17,1,104.919995677429,2|0,0:2|0:2,0:0:0:0:
267,177,196679,6,0,P|255:245|238:384,1,209.839991354859,2|0,1:2|3:2,0:0:0:0:
84,208,197179,1,0,1:2:0:0:
84,208,197346,2,0,P|94:271|99:329,1,104.919995677429,10|2,0:2|0:2,0:0:0:0:
204,116,197679,1,2,3:2:0:0:
253,257,197846,1,2,0:2:0:0:
320,102,198013,6,0,P|372:64|441:81,1,104.919995677429,2|8,0:2|0:2,0:0:0:0:
172,219,198346,2,0,P|120:215|81:181,1,104.919995677429,2|0,1:2|0:2,0:0:0:0:
214,63,198679,1,10,0:2:0:0:
312,204,198846,1,0,1:2:0:0:
189,79,199013,2,0,P|143:65|79:95,1,104.919995677429,2|0,0:2|0:2,0:0:0:0:
234,302,199346,6,0,P|305:278|449:269,1,209.839991354859,2|0,1:2|3:2,0:0:0:0:
396,111,199846,1,0,1:2:0:0:
396,111,200013,2,0,P|379:171|374:228,1,104.919995677429,8|2,0:2|0:2,0:0:0:0:
304,70,200346,1,2,3:2:0:0:
479,147,200513,1,2,0:2:0:0:
268,260,200679,6,0,P|212:266|158:227,1,104.919995677429,2|8,0:2|0:2,0:0:0:0:
192,85,201013,2,0,P|248:79|302:118,1,104.919995677429,2|0,1:2|0:2,0:0:0:0:
150,270,201346,2,0,P|129:209|140:152,1,104.919995677429,10|0,0:2|1:2,0:0:0:0:
318,86,201679,2,0,P|339:147|328:204,1,104.919995677429,2|0,0:2|0:2,0:0:0:0:
193,62,202013,6,0,B|78:77|147:161|25:175,1,209.839991354859,2|0,1:2|3:2,0:0:0:0:
192,308,202513,1,0,1:2:0:0:
192,308,202679,2,0,P|201:240|220:176,1,104.919995677429,8|2,0:2|0:2,0:0:0:0:
328,66,203013,1,10,0:2:0:0:
390,212,203179,1,2,0:2:0:0:
221,101,203346,6,0,P|191:94|161:90,2,52.4599978387147,2|0|8,3:2|3:2|3:2,0:0:0:0:
409,186,203679,1,2,1:2:0:0:
219,248,203846,1,0,3:2:0:0:
331,105,204013,5,10,0:2:0:0:
283,352,204180,1,0,0:0:0:0:
151,157,204347,1,0,3:0:0:0:
390,212,204513,1,0,3:0:0:0:
