osu file format v14

[General]
AudioFilename: audio.mp3
AudioLeadIn: 0
PreviewTime: 172096
Countdown: 0
SampleSet: Soft
StackLeniency: 0.7
Mode: 0
LetterboxInBreaks: 0
WidescreenStoryboard: 1

[Editor]
Bookmarks: 32679,38013,87346,92679,130013,140679
DistanceSpacing: 1.2
BeatDivisor: 4
GridSize: 32
TimelineZoom: 2.6

[Metadata]
Title:HAPPY HAPPY
TitleUnicode:HAPPY HAPPY
Artist:TWICE
ArtistUnicode:TWICE
Creator:Sotarks
Version:Kowari's Hard
Source:
Tags:ren reform derandom otaku kowari kujinn japanese jpop j-pop kpop k-pop female vocalist sana jihyo dahyun nayeon jeongyeon chaeyoung momo mina tzuyu 나연 정연 모모 사나 지효 미나 다현 채영 쯔위 once breakthrough jyp entertainment
BeatmapID:2113168
BeatmapSetID:1006690

[Difficulty]
HPDrainRate:4
CircleSize:3.5
OverallDifficulty:7
ApproachRate:8
SliderMultiplier:1.42
SliderTickRate:1

[Events]
//Background and Video events
0,0,"bg.jpg",0,0
//Break Periods
2,32879,37263
2,87546,91929
2,130213,139929
//Storyboard Layer 0 (Background)
//Storyboard Layer 1 (Fail)
//Storyboard Layer 2 (Pass)
//Storyboard Layer 3 (Foreground)
//Storyboard Layer 4 (Overlay)
//Storyboard Sound Samples

[TimingPoints]
680,333.333333333333,4,2,2,42,1,0
680,-121.951219512195,4,2,2,42,0,0
5013,-121.951219512195,4,2,22,42,0,0
10013,-121.951219512195,4,2,22,32,0,0
11263,-121.951219512195,4,2,22,5,0,0
11346,-108.695652173913,4,2,22,62,0,0
32763,-108.695652173913,4,2,22,42,0,0
38013,-121.951219512195,4,3,22,52,0,0
43346,-98.0392156862744,4,2,22,82,0,0
64679,-121.951219512195,4,2,22,52,0,0
66013,-121.951219512195,4,2,2,52,0,0
76679,-121.951219512195,4,2,22,52,0,0
87346,-121.951219512195,4,2,22,42,0,0
92679,-108.695652173913,4,3,22,52,0,0
98013,-98.0392156862745,4,2,22,82,0,0
119346,-108.695652173913,4,2,22,82,0,0
140679,-138.888888888889,4,2,2,52,0,0
151346,-121.951219512195,4,2,2,52,0,0
155679,-121.951219512195,4,2,22,52,0,0
162013,-108.695652173913,4,2,22,52,0,0
170013,-161.290322580645,4,2,22,52,0,0
172679,-98.0392156862745,4,2,22,82,0,0
194013,-108.695652173913,4,2,22,82,0,0

[Colours]
Combo1 : 255,249,121
Combo2 : 255,77,17
Combo3 : 255,6,193
Combo4 : 81,255,255

[HitObjects]
82,115,680,6,0,P|133:100|198:94,1,116.440001776733,14|2,0:2|3:2,0:0:0:0:
261,142,1179,2,0,P|249:189|236:278,1,116.440001776733,2|2,3:2|0:2,0:0:0:0:
341,382,1846,2,0,P|382:362|413:355,1,58.2200008883667,2|8,0:2|0:2,0:0:0:0:
409,278,2179,2,0,P|452:292|479:309,1,58.2200008883667,2|0,0:2|3:2,0:0:0:0:
506,228,2513,1,2,0:2:0:0:
506,228,2679,2,0,P|481:172|513:108,1,116.440001776733,10|2,0:2|3:2,0:0:0:0:
364,28,3346,6,0,P|307:56|236:52,1,116.440001776733,10|2,0:2|3:2,0:0:0:0:
191,5,3846,2,0,P|199:58|210:138,1,116.440001776733,2|2,3:2|0:2,0:0:0:0:
275,268,4513,1,2,0:2:0:0:
224,204,4679,6,0,P|174:212|137:276,2,116.440001776733,8|2|8,0:2|3:2|0:2,0:0:0:0:
366,133,5679,1,2,3:2:0:0:
257,11,6013,6,0,B|181:13|223:53|133:47,1,116.440001776733,10|2,0:2|3:2,0:0:0:0:
68,47,6513,2,0,B|80:81|90:106,1,58.2200008883667,2|8,3:2|0:2,0:0:0:0:
162,135,6846,2,0,B|150:169|140:194,1,58.2200008883667,2|0,0:2|3:2,0:0:0:0:
113,266,7179,2,0,P|149:306|212:306,1,116.440001776733,2|2,3:2|0:2,0:0:0:0:
272,257,7679,2,0,P|255:214|252:191,1,58.2200008883667,0|2,3:2|3:2,0:0:0:0:
269,121,8013,2,0,P|321:144|385:167,1,116.440001776733,10|2,0:2|0:2,0:0:0:0:
466,28,8679,6,0,P|446:39|435:43,3,29.1100004441834,10|0|0|0,0:2|3:2|3:2|3:2,0:0:0:0:
410,70,9013,2,0,P|390:59|379:55,3,29.1100004441834,0|0|0|0,3:2|3:2|3:2|3:2,0:0:0:0:
345,42,9346,2,0,P|325:53|314:57,3,29.1100004441834,8|0|2|0,0:2|0:0|3:2|0:0,0:0:0:0:
280,42,9679,2,0,P|238:27|216:24,1,58.2200008883667,2|2,3:2|0:2,0:0:0:0:
34,178,10679,6,0,P|76:156|150:248,1,174.6600026651,2|0,0:2|0:0,0:0:0:0:
122,320,11346,6,0,P|180:311|206:312,1,65.319997807251,6|0,1:2|0:0,0:0:0:0:
265,262,11679,2,0,P|304:286|400:288,1,130.639995614502,8|0,0:2|1:2,0:0:0:0:
463,196,12179,1,0,0:0:0:0:
463,196,12346,2,0,P|421:206|380:197,1,65.319997807251,8|0,0:2|0:0,0:0:0:0:
326,147,12679,2,0,P|282:126|254:124,1,65.319997807251,0|0,1:2|0:0,0:0:0:0:
196,184,13013,2,0,P|152:199|121:198,1,65.319997807251,8|0,0:2|0:0,0:0:0:0:
53,155,13346,1,2,1:2:0:0:
53,155,13513,1,2,1:2:0:0:
86,70,13679,2,0,P|128:87|164:97,1,65.319997807251,10|2,0:2|3:2,0:0:0:0:
229,52,14013,5,0,1:2:0:0:
319,42,14179,1,0,0:0:0:0:
319,42,14346,2,0,P|303:92|300:129,1,65.319997807251,8|0,0:2|0:0,0:0:0:0:
378,152,14679,2,0,P|403:193|406:235,1,65.319997807251,0|0,1:2|0:0,0:0:0:0:
392,305,15013,1,8,0:2:0:0:
304,338,15179,2,0,P|267:320|237:313,1,65.319997807251,0|0,0:0|1:2,0:0:0:0:
192,237,15513,2,0,P|145:265|66:287,1,130.639995614502
21,362,16013,1,2,1:2:0:0:
21,362,16179,1,2,1:2:0:0:
111,375,16346,6,0,B|189:374|160:348|247:342,2,130.639995614502,10|0|8,0:2|1:2|0:2,0:0:0:0:
68,293,17179,2,0,P|89:248|94:212,1,65.319997807251,0|0,0:0|1:2,0:0:0:0:
77,141,17513,2,0,P|120:114|200:123,1,130.639995614502
266,181,18013,2,0,P|247:220|239:256,1,65.319997807251,0|0,1:2|0:0,0:0:0:0:
191,317,18346,2,0,P|210:356|218:392,1,65.319997807251,8|0,0:2|0:0,0:0:0:0:
307,382,18679,1,2,1:2:0:0:
307,382,18846,1,2,1:2:0:0:
329,293,19013,5,10,0:2:0:0:
329,293,19179,2,0,P|370:254|452:258,1,130.639995614502,2|0,3:2|0:0,0:0:0:0:
502,184,19679,2,0,P|485:138|481:105,1,65.319997807251,8|0,0:2|0:0,0:0:0:0:
421,52,20013,2,0,P|412:83|381:131,1,65.319997807251,0|0,1:2|0:0,0:0:0:0:
318,160,20346,2,0,P|269:141|237:134,1,65.319997807251,8|0,0:2|0:0,0:0:0:0:
175,180,20679,1,0,1:2:0:0:
43,51,21013,2,0,P|60:96|67:124,1,65.319997807251,10|0,0:2|0:0,0:0:0:0:
57,203,21346,1,0,1:2:0:0:
221,282,21679,2,0,P|204:237|197:209,1,65.319997807251,10|0,0:2|0:0,0:0:0:0:
219,130,22013,6,0,P|259:104|357:123,1,130.639995614502,0|8,1:2|0:2,0:0:0:0:
431,268,22679,2,0,P|409:310|402:339,2,65.319997807251,0|0|8,1:2|0:0|0:2,0:0:0:0:
447,165,23179,2,0,P|418:179|387:187,1,65.319997807251,0|0,0:2|0:0,0:0:0:0:
295,178,23512,2,0,P|237:148|173:132,1,130.639995614502
123,214,24013,1,2,1:2:0:0:
123,214,24179,1,2,1:2:0:0:
24,200,24346,2,0,P|38:257|40:283,1,65.319997807251,10|2,0:2|3:2,0:0:0:0:
72,123,24679,6,0,P|102:87|190:77,1,130.639995614502,0|8,1:2|0:2,0:0:0:0:
243,141,25179,1,0,0:0:0:0:
243,141,25346,2,0,P|228:185|220:229,1,65.319997807251,0|0,1:2|0:0,0:0:0:0:
228,294,25679,2,0,P|274:323|306:319,1,65.319997807251,8|0,0:2|0:0,0:0:0:0:
353,263,26013,1,0,1:2:0:0:
322,177,26179,1,0,0:0:0:0:
322,177,26346,2,0,P|367:153|393:153,1,65.319997807251,8|0,0:2|0:0,0:0:0:0:
472,151,26679,2,0,P|463:204|459:236,1,65.319997807251,2|2,1:2|1:2,0:0:0:0:
442,305,27013,2,0,P|394:342|349:336,1,97.9799967108766,10|0,0:2|0:2,0:0:0:0:
322,312,27346,5,0,1:2:0:0:
202,173,27679,1,8,0:2:0:0:
202,173,27846,2,0,P|161:148|126:136,1,65.319997807251,0|0,0:0|1:2,0:0:0:0:
54,152,28179,2,0,P|70:208|88:293,1,130.639995614502
115,365,28679,2,0,P|152:344|192:331,1,65.319997807251,0|0,1:2|0:0,0:0:0:0:
199,247,29013,2,0,P|240:258|277:277,1,65.319997807251,8|0,0:2|0:0,0:0:0:0:
309,345,29346,1,2,1:2:0:0:
309,345,29513,1,2,1:2:0:0:
378,286,29679,1,10,0:2:0:0:
378,286,29846,6,0,P|392:217|416:134,1,130.639995614502,2|0,3:2|0:0,0:0:0:0:
443,74,30346,1,8,0:2:0:0:
374,13,30513,2,0,P|312:26|294:98,1,130.639995614502
319,170,31013,1,8,0:2:0:0:
142,216,31346,6,0,P|151:198|158:184,3,32.6599989036255,0|0|0|0,3:2|3:2|3:2|3:2,0:0:0:0:
106,229,31679,2,0,P|119:277|123:311,1,65.319997807251,8|0,3:2|3:2,0:0:0:0:
173,368,32013,2,0,P|211:347|243:338,1,65.319997807251,0|0,1:2|3:2,0:0:0:0:
304,284,32346,2,0,P|342:305|374:314,1,65.319997807251,8|0,3:2|3:2,0:0:0:0:
453,297,32679,1,6,0:2:0:0:
40,32,38013,6,0,P|60:71|83:153,1,116.440001776733,6|0,1:2|0:2,0:0:0:0:
85,221,38513,1,0,0:2:0:0:
85,221,38679,2,0,P|109:162|142:118,1,116.440001776733,8|2,1:2|0:2,0:0:0:0:
213,83,39179,1,0,0:2:0:0:
213,83,39346,2,0,P|253:114|327:131,1,116.440001776733,2|2,1:2|0:2,0:0:0:0:
391,101,39846,1,0,0:2:0:0:
391,101,40013,2,0,P|356:132|346:204,1,116.440001776733,10|2,1:2|0:2,0:0:0:0:
385,269,40513,1,0,0:2:0:0:
385,269,40679,6,0,P|357:278|344:287,3,29.1100004441834,0|0|0|0,1:2|0:2|0:2|0:2,0:0:0:0:
317,289,41013,2,0,P|289:280|276:271,3,29.1100004441834,2|0|0|0,1:2|0:2|0:2|0:2,0:0:0:0:
252,262,41346,2,0,P|224:271|211:280,3,29.1100004441834,0|0|0|0,1:2|0:2|0:2|0:2,0:0:0:0:
186,286,41679,2,0,P|158:277|145:268,3,29.1100004441834,2|0|0|0,1:2|0:2|0:2|0:2,0:0:0:0:
130,246,42013,2,0,P|153:200|160:178,1,58.2200008883667,2|0,1:2|1:2,0:0:0:0:
131,115,42346,1,0,1:2:0:0:
131,115,42429,1,0,1:2:0:0:
131,115,42513,2,0,L|110:71,1,29.1100004441834,0|0,1:2|1:2,0:0:0:0:
501,23,43346,6,0,P|461:63|398:68,1,108.630000663025,6|0,1:2|0:2,0:0:0:0:
366,48,43679,2,0,P|316:28|268:27,1,72.4200004420166,10|0,0:2|0:2,0:0:0:0:
207,73,44013,2,0,P|170:96|124:104,1,72.4200004420166,2|0,1:2|0:0,0:0:0:0:
50,59,44346,1,10,0:2:0:0:
14,153,44513,6,0,P|38:212|60:273,1,108.630000663025,2|0,1:2|0:2,0:0:0:0:
62,305,44846,1,2,1:2:0:0:
152,351,45013,2,0,P|192:325|231:317,1,72.4200004420166,10|0,0:2|0:2,0:0:0:0:
315,335,45346,1,2,1:2:0:0:
401,282,45513,1,0,1:2:0:0:
399,181,45679,2,0,P|342:175|311:162,1,72.4200004420166,10|0,0:2|0:2,0:0:0:0:
290,75,46013,6,0,P|324:37|430:26,1,144.840000884033,2|10,1:2|0:2,0:0:0:0:
500,76,46513,2,0,P|486:127|481:165,1,72.4200004420166,2|0,0:2|1:2,0:0:0:0:
491,248,46846,1,2,1:2:0:0:
491,248,47013,2,0,P|446:281|420:287,1,72.4200004420166,10|0,0:2|1:2,0:0:0:0:
342,335,47346,6,0,B|265:323|303:299|203:286,1,144.840000884033,2|10,0:2|0:2,0:0:0:0:
116,331,47846,1,0,0:2:0:0:
53,250,48013,2,0,P|80:206|91:181,1,72.4200004420166,2|2,1:2|1:2,0:0:0:0:
65,88,48346,1,10,0:2:0:0:
65,88,48513,6,0,P|119:137|196:147,1,144.840000884033,2|0,0:2|0:2,0:0:0:0:
279,104,49013,2,0,P|294:55|310:23,1,72.4200004420166,10|0,0:2|0:2,0:0:0:0:
268,194,49346,2,0,P|282:227|291:262,1,72.4200004420166,2|2,1:2|0:2,0:0:0:0:
312,361,49679,1,10,0:2:0:0:
412,378,49846,6,0,P|460:344|452:247,1,144.840000884033,2|0,1:2|1:2,0:0:0:0:
379,206,50346,2,0,P|390:159|393:126,1,72.4200004420166,8|2,0:2|0:2,0:0:0:0:
347,43,50679,1,2,1:2:0:0:
347,43,50846,1,2,1:2:0:0:
277,117,51013,1,10,0:2:0:0:
277,117,51179,6,0,B|180:106|237:68|124:70,1,144.840000884033,2|0,0:2|0:2,0:0:0:0:
57,124,51679,2,0,P|75:175|80:203,1,72.4200004420166,10|0,0:2|0:2,0:0:0:0:
179,206,52013,2,0,P|161:257|156:285,1,72.4200004420166,0|2,1:2|1:2,0:0:0:0:
202,365,52346,1,10,0:2:0:0:
202,365,52513,1,2,1:2:0:0:
277,297,52679,6,0,P|306:260|406:245,2,144.840000884033,2|10|2,0:2|0:2|1:2,0:0:0:0:
206,371,53513,1,0,1:2:0:0:
172,275,53679,2,0,P|146:229|129:205,1,72.4200004420166,8|0,0:2|0:0,0:0:0:0:
113,113,54013,6,0,P|163:82|235:79,1,108.630000663025,2|0,1:2|0:2,0:0:0:0:
258,95,54346,2,0,P|299:112|335:118,1,72.4200004420166,10|0,0:2|0:2,0:0:0:0:
423,86,54679,2,0,P|412:145|408:178,1,72.4200004420166,2|0,1:2|0:0,0:0:0:0:
446,252,55013,1,10,0:2:0:0:
389,335,55179,2,0,P|343:345|273:301,1,108.630000663025,2|0,1:2|0:0,0:0:0:0:
264,275,55513,1,2,1:2:0:0:
268,174,55679,6,0,P|221:197|196:206,1,72.4200004420166,10|0,0:2|0:2,0:0:0:0:
100,206,56013,1,2,1:2:0:0:
40,124,56179,1,0,1:2:0:0:
70,27,56346,2,0,P|113:15|150:20,1,72.4200004420166,10|0,0:2|0:2,0:0:0:0:
206,94,56679,6,0,P|261:126|346:119,1,144.840000884033,2|10,1:2|0:2,0:0:0:0:
437,93,57179,2,0,P|414:151|409:183,1,72.4200004420166,2|0,0:2|1:2,0:0:0:0:
438,259,57513,1,2,1:2:0:0:
381,342,57679,2,0,P|329:325|295:318,1,72.4200004420166,10|0,0:2|1:2,0:0:0:0:
212,347,58013,6,0,P|261:306|268:213,1,144.840000884033,2|10,0:2|0:2,0:0:0:0:
194,167,58513,1,2,0:2:0:0:
194,167,58679,2,0,P|146:189|118:192,1,72.4200004420166,2|2,1:2|1:2,0:0:0:0:
38,139,59013,1,10,0:2:0:0:
2,233,59179,6,0,P|34:261|87:367,1,144.840000884033,2|0,0:2|0:2,0:0:0:0:
144,268,59679,2,0,P|179:229|204:209,1,72.4200004420166,10|2,0:2|0:2,0:0:0:0:
167,117,60013,2,0,P|219:114|251:117,1,72.4200004420166,2|2,1:2|0:2,0:0:0:0:
321,175,60346,1,10,0:2:0:0:
321,175,60513,6,0,P|339:217|436:243,1,144.840000884033,2|0,1:2|1:2,0:0:0:0:
504,179,61013,2,0,P|485:128|475:90,1,72.4200004420166,10|2,0:2|0:2,0:0:0:0:
455,12,61346,1,2,1:2:0:0:
353,4,61513,1,2,1:2:0:0:
304,82,61679,1,10,0:2:0:0:
319,182,61846,6,0,B|245:202|254:158|167:164,1,144.840000884033,2|0,0:2|0:2,0:0:0:0:
88,210,62346,2,0,P|106:253|114:291,1,72.4200004420166,10|0,0:2|0:2,0:0:0:0:
171,360,62679,2,0,P|180:325|195:292,1,72.4200004420166,2|2,1:2|1:2,0:0:0:0:
277,232,63013,1,10,0:2:0:0:
277,232,63179,1,2,1:2:0:0:
351,301,63346,6,0,P|390:338|494:315,2,144.840000884033,2|10|2,0:2|0:2|1:2,0:0:0:0:
372,201,64179,1,0,1:2:0:0:
372,201,64346,2,0,P|394:155|403:110,1,72.4200004420166,8|0,0:2|0:0,0:0:0:0:
358,63,64679,6,0,B|280:63|318:93|231:88,2,116.440001776733,0|0|0,3:2|3:2|3:2,0:0:0:0:
439,55,65513,1,0,3:2:0:0:
439,55,65679,2,0,P|430:103|428:132,1,58.2200008883667,8|4,3:3|3:3,0:0:0:0:
370,169,66013,6,0,P|390:233|398:284,1,116.440001776733,2|2,1:2|0:2,0:0:0:0:
263,373,66679,2,0,P|283:309|291:258,1,116.440001776733,10|2,0:2|0:2,0:0:0:0:
238,197,67346,2,0,P|200:216|177:221,2,58.2200008883667,2|0|2,0:2|0:0|1:2,0:0:0:0:
264,119,67846,1,2,0:2:0:0:
264,119,68013,2,0,P|237:88|152:78,1,116.440001776733,10|2,0:2|0:2,0:0:0:0:
29,163,68679,6,0,P|51:208|71:289,1,116.440001776733,2|2,1:2|0:2,0:0:0:0:
84,351,69179,1,0,0:2:0:0:
84,351,69346,2,0,P|122:335|146:329,1,58.2200008883667,10|2,0:2|0:2,0:0:0:0:
160,252,69679,2,0,P|198:268|222:274,1,58.2200008883667,2|2,0:2|1:2,0:0:0:0:
283,228,70013,1,2,0:2:0:0:
283,228,70179,2,0,P|301:192|375:164,1,116.440001776733,2|10,1:2|0:2,0:0:0:0:
439,203,70679,2,0,P|427:236|422:263,1,58.2200008883667,10|0,0:2|0:2,0:0:0:0:
355,305,71013,2,0,P|367:338|372:365,1,58.2200008883667,10|0,1:2|0:2,0:0:0:0:
278,281,71346,6,0,P|236:299|163:317,1,116.440001776733,2|2,1:2|0:2,0:0:0:0:
101,268,71846,1,2,0:2:0:0:
101,268,72013,2,0,P|123:230|137:145,1,116.440001776733,10|2,0:2|0:2,0:0:0:0:
56,18,72679,2,0,P|17:34|-9:38,2,58.2200008883667,2|2|2,0:2|0:2|1:2,0:0:0:0:
135,37,73179,1,2,0:2:0:0:
135,37,73346,2,0,P|178:41|247:84,1,116.440001776733,10|2,0:2|1:2,0:0:0:0:
277,236,74013,6,0,P|293:187|308:161,1,58.2200008883667,2|0,1:2|0:2,0:0:0:0:
372,152,74346,2,0,P|356:103|341:77,1,58.2200008883667,2|0,0:2|0:2,0:0:0:0:
287,47,74679,2,0,P|252:68|226:75,2,58.2200008883667,10|2|2,0:2|0:2|0:2,0:0:0:0:
356,0,75179,1,2,1:2:0:0:
356,0,75346,2,0,P|399:13|429:34,1,58.2200008883667,2|0,0:2|1:2,0:0:0:0:
489,80,75679,1,2,1:2:0:0:
413,224,76013,2,0,P|375:204|293:182,1,116.440001776733,10|10,1:2|1:2,0:0:0:0:
169,274,76679,6,0,P|126:309|56:300,1,116.440001776733,2|2,1:2|0:2,0:0:0:0:
27,235,77179,1,0,0:2:0:0:
27,235,77346,2,0,P|54:185|75:106,1,116.440001776733,10|2,0:2|0:2,0:0:0:0:
70,46,77846,2,0,P|97:96|168:131,1,116.440001776733,2|0,1:2|0:2,0:0:0:0:
226,111,78346,1,2,1:2:0:0:
301,255,78679,2,0,P|251:268|193:328,1,116.440001776733,10|0,0:2|0:2,0:0:0:0:
309,171,79346,6,0,B|385:174|356:198|428:199,1,116.440001776733,2|2,1:2|0:2,0:0:0:0:
494,164,79846,1,0,0:2:0:0:
494,164,80013,2,0,P|470:217|452:272,1,116.440001776733,10|2,0:2|0:2,0:0:0:0:
457,353,80513,2,0,P|407:363|339:321,1,116.440001776733,2|2,1:2|1:2,0:0:0:0:
326,256,81013,2,0,P|340:214|345:190,1,58.2200008883667,2|2,1:2|0:2,0:0:0:0:
305,127,81346,1,10,0:2:0:0:
144,98,81679,6,0,P|157:148|168:230,1,116.440001776733,10|2,0:2|1:2,0:0:0:0:
137,288,82179,2,0,P|185:315|247:311,1,116.440001776733,2|2,0:2|0:2,0:0:0:0:
298,249,82679,2,0,P|308:192|331:110,1,116.440001776733,10|0,0:2|0:2,0:0:0:0:
366,66,83179,1,0,1:2:0:0:
295,23,83346,2,0,P|254:40|236:57,1,58.2200008883667,2|2,0:2|0:2,0:0:0:0:
232,129,83679,1,0,1:2:0:0:
166,178,83846,2,0,P|124:164|92:158,2,58.2200008883667,2|10|0,0:2|0:2|0:2,0:0:0:0:
221,238,84346,1,2,1:2:0:0:
116,363,84679,6,0,P|58:318|54:270,1,116.440001776733,2|2,1:2|0:2,0:0:0:0:
110,126,85346,2,0,B|183:120|157:149|230:150,1,116.440001776733,10|2,0:2|0:2,0:0:0:0:
291,106,85846,2,0,P|321:83|356:69,1,58.2200008883667,0|2,1:2|0:2,0:0:0:0:
417,98,86179,1,0,1:2:0:0:
417,98,86346,2,0,P|402:140|395:167,1,58.2200008883667,0|0,1:2|3:2,0:0:0:0:
324,188,86679,2,0,P|339:230|346:257,1,58.2200008883667,2|0,1:2|3:2,0:0:0:0:
313,319,87013,1,8,1:2:0:0:
233,336,87179,1,0,3:2:0:0:
233,336,87263,1,0,3:2:0:0:
233,336,87346,5,2,0:2:0:0:
43,343,92679,6,0,P|83:307|165:287,1,130.639995614502,6|0,1:2|0:2,0:0:0:0:
237,328,93179,1,0,0:2:0:0:
237,328,93346,2,0,P|214:276|209:191,1,130.639995614502,8|2,1:2|0:2,0:0:0:0:
273,139,93846,1,0,0:2:0:0:
273,139,94013,2,0,P|341:166|409:181,1,130.639995614502,2|2,1:2|0:2,0:0:0:0:
484,152,94513,1,0,0:2:0:0:
484,152,94679,2,0,B|399:177|451:199|367:227,1,130.639995614502,10|2,1:2|0:2,0:0:0:0:
292,255,95179,1,0,0:2:0:0:
292,255,95346,6,0,P|300:222|306:206,3,32.6599989036255,0|0|0|0,1:2|0:2|0:2|0:0,0:0:0:0:
283,179,95679,2,0,P|275:146|269:130,3,32.6599989036255,2|0|0|0,1:2|0:2|0:2|0:2,0:0:0:0:
295,105,96013,2,0,P|303:72|309:56,3,32.6599989036255,0|0|0|0,1:2|0:2|0:2|0:2,0:0:0:0:
275,36,96346,2,0,P|267:3|261:-13,3,32.6599989036255,2|0|0|0,1:2|0:2|0:2|0:2,0:0:0:0:
221,11,96679,2,0,P|176:40|149:47,1,65.319997807251,2|0,1:2|1:2,0:0:0:0:
73,39,97013,1,0,1:2:0:0:
73,39,97096,1,0,1:2:0:0:
73,39,97179,2,0,P|49:31|32:22,1,32.6599989036255,0|0,1:2|1:2,0:0:0:0:
499,32,98013,6,0,P|449:57|434:170,1,144.840000884033,6|10,1:2|0:2,0:0:0:0:
478,221,98513,1,0,0:2:0:0:
422,305,98679,2,0,P|379:284|348:274,1,72.4200004420166,2|0,1:2|0:0,0:0:0:0:
277,210,99013,1,10,0:2:0:0:
218,292,99179,6,0,P|168:330|74:331,1,144.840000884033,2|2,1:2|1:2,0:0:0:0:
25,255,99679,2,0,P|51:204|58:171,1,72.4200004420166,10|0,0:2|0:2,0:0:0:0:
32,89,100013,1,2,1:2:0:0:
88,5,100179,1,0,1:2:0:0:
188,18,100346,2,0,P|216:62|231:97,1,72.4200004420166,10|0,0:2|0:2,0:0:0:0:
207,180,100679,6,0,P|222:222|319:232,1,144.840000884033,2|10,1:2|0:2,0:0:0:0:
379,161,101179,2,0,P|354:110|345:83,1,72.4200004420166,2|0,0:2|1:2,0:0:0:0:
460,199,101513,1,2,1:2:0:0:
460,199,101679,2,0,P|438:243|427:274,1,72.4200004420166,10|0,0:2|1:2,0:0:0:0:
448,364,102013,2,0,P|398:380|317:309,1,144.840000884033,2|10,0:2|0:2,0:0:0:0:
320,231,102513,1,0,0:2:0:0:
320,231,102679,2,0,P|345:183|354:143,1,72.4200004420166,2|2,1:2|1:2,0:0:0:0:
318,68,103013,1,10,0:2:0:0:
224,29,103179,5,2,0:2:0:0:
224,29,103263,1,0,0:0:0:0:
224,29,103346,2,0,B|133:32|180:77|86:72,1,144.840000884033,0|10,1:2|0:2,0:0:0:0:
12,136,103846,1,0,0:2:0:0:
12,136,104013,2,0,P|40:175|52:209,1,72.4200004420166,2|2,1:2|0:2,0:0:0:0:
20,295,104346,1,10,0:2:0:0:
100,357,104513,6,0,P|143:328|241:295,1,144.840000884033,2|0,1:2|1:2,0:0:0:0:
331,293,105013,2,0,P|283:270|258:250,1,72.4200004420166,8|2,0:2|0:2,0:0:0:0:
229,164,105346,2,0,P|258:124|279:81,1,72.4200004420166,2|2,1:2|1:2,0:0:0:0:
273,2,105679,1,10,0:2:0:0:
273,2,105846,6,0,P|317:40|417:82,1,144.840000884033,2|0,0:2|0:2,0:0:0:0:
489,39,106346,2,0,P|446:68|410:168,1,144.840000884033,10|0,0:2|1:2,0:0:0:0:
470,232,106846,1,2,1:2:0:0:
470,232,107013,2,0,P|436:253|393:252,1,72.4200004420166,10|2,0:2|1:2,0:0:0:0:
321,196,107346,6,0,P|304:141|236:57,2,144.840000884033,2|10|2,0:2|0:2|1:2,0:0:0:0:
269,283,108179,1,0,1:2:0:0:
269,283,108346,2,0,P|221:271|181:264,1,72.4200004420166,8|0,0:2|0:0,0:0:0:0:
103,302,108679,6,0,P|157:255|161:179,1,144.840000884033,2|10,1:2|0:2,0:0:0:0:
93,111,109179,1,0,0:2:0:0:
93,111,109346,2,0,P|50:134|17:145,2,72.4200004420166,2|0|10,1:2|0:0|0:2,0:0:0:0:
148,26,109846,6,0,P|220:31|288:87,1,144.840000884033,2|2,1:2|1:2,0:0:0:0:
314,167,110346,2,0,P|289:199|278:230,1,72.4200004420166,10|0,0:2|0:2,0:0:0:0:
315,323,110679,1,2,1:2:0:0:
414,342,110846,1,0,1:2:0:0:
487,271,111013,2,0,P|469:211|456:140,1,108.630000663025,10|0,0:2|0:0,0:0:0:0:
465,115,111346,6,0,P|422:77|336:75,1,144.840000884033,2|10,1:2|0:2,0:0:0:0:
269,149,111846,2,0,P|290:195|296:226,1,72.4200004420166,2|0,0:2|1:2,0:0:0:0:
257,310,112179,1,2,1:2:0:0:
257,310,112346,2,0,P|208:285|177:278,1,72.4200004420166,10|0,0:2|1:2,0:0:0:0:
96,317,112679,6,0,P|137:238|138:169,1,144.840000884033,2|10,0:2|0:2,0:0:0:0:
74,105,113179,1,2,0:2:0:0:
74,105,113346,2,0,P|35:127|1:136,2,72.4200004420166,2|2|10,1:2|1:2|0:2,0:0:0:0:
137,25,113846,1,2,0:2:0:0:
238,26,114013,6,0,P|282:47|296:157,1,144.840000884033,0|10,1:2|0:2,0:0:0:0:
230,201,114513,1,2,0:2:0:0:
230,201,114679,2,0,P|186:192|151:185,1,72.4200004420166,2|2,1:2|0:2,0:0:0:0:
269,292,115013,1,10,0:2:0:0:
366,318,115179,6,0,P|421:301|433:207,1,144.840000884033,2|0,1:2|1:2,0:0:0:0:
362,158,115679,2,0,P|335:115|333:78,1,72.4200004420166,10|2,0:2|0:2,0:0:0:0:
388,9,116013,2,0,P|335:35|301:48,1,72.4200004420166,2|2,1:2|1:2,0:0:0:0:
222,22,116346,1,10,0:2:0:0:
157,100,116513,6,0,P|181:141|217:251,1,144.840000884033,2|0,0:2|0:2,0:0:0:0:
171,325,117013,2,0,P|122:328|83:315,1,72.4200004420166,10|0,0:2|0:2,0:0:0:0:
50,233,117346,2,0,P|71:185|76:161,1,72.4200004420166,2|2,1:2|1:2,0:0:0:0:
36,71,117679,1,10,0:2:0:0:
36,71,117846,1,2,1:2:0:0:
124,20,118013,6,0,P|164:39|192:60,1,72.4200004420166,10|8,0:2|0:2,0:0:0:0:
209,101,118263,1,8,0:2:0:0:
209,101,118346,2,0,P|265:98|292:88,1,72.4200004420166,10|8,0:2|0:2,0:0:0:0:
357,26,118679,1,2,1:2:0:0:
357,26,118846,1,0,1:2:0:0:
450,65,119013,2,0,P|425:108|416:140,1,72.4200004420166,10|0,1:2|0:0,0:0:0:0:
456,212,119346,6,0,P|447:265|360:292,1,130.639995614502,6|0,1:2|3:2,0:0:0:0:
303,250,119846,1,0,1:2:0:0:
303,250,120013,2,0,B|218:238|246:277|170:262,2,130.639995614502,8|2|2,0:2|3:2|0:2,0:0:0:0:
359,178,120846,1,8,0:2:0:0:
359,178,121013,2,0,P|344:129|340:98,1,65.319997807251,2|0,1:2|0:2,0:0:0:0:
329,24,121346,2,0,P|317:63|305:92,1,65.319997807251,10|0,0:2|1:2,0:0:0:0:
260,151,121679,1,2,0:2:0:0:
57,68,122013,6,0,P|95:107|104:193,1,130.639995614502,2|0,1:2|3:2,0:0:0:0:
63,260,122513,1,0,1:2:0:0:
63,260,122679,2,0,P|116:220|191:198,2,130.639995614502,10|2|2,0:2|3:2|0:2,0:0:0:0:
48,351,123513,1,8,0:2:0:0:
48,351,123679,2,0,P|83:356|117:365,1,65.319997807251,2|0,1:2|0:2,0:0:0:0:
188,312,124013,2,0,P|223:307|257:298,1,65.319997807251,10|0,0:2|1:2,0:0:0:0:
301,222,124346,1,2,0:2:0:0:
318,40,124679,6,0,P|275:75|273:174,1,130.639995614502,2|0,1:2|3:2,0:0:0:0:
328,209,125179,1,0,1:2:0:0:
328,209,125346,2,0,P|365:199|410:197,1,65.319997807251,8|2,0:2|0:2,0:0:0:0:
300,296,125679,2,0,P|267:292|236:283,1,65.319997807251,2|2,3:2|0:2,0:0:0:0:
174,215,126013,2,0,P|130:232|86:238,1,65.319997807251,2|8,0:2|0:2,0:0:0:0:
28,198,126346,2,0,P|5:229|23:326,1,130.639995614502,2|10,1:2|0:2,0:0:0:0:
97,353,126846,1,0,1:2:0:0:
97,353,127013,2,0,P|143:338|170:336,1,65.319997807251,2|0,0:2|0:2,0:0:0:0:
246,364,127346,6,0,B|329:363|294:327|384:322,1,130.639995614502,2|0,1:2|3:2,0:0:0:0:
448,280,127846,1,0,1:2:0:0:
448,280,128013,2,0,P|420:237|411:204,1,65.319997807251,8|2,0:2|0:2,0:0:0:0:
323,224,128346,2,0,P|333:173|350:144,1,65.319997807251,10|2,0:2|0:2,0:0:0:0:
391,85,128679,5,2,3:2:0:0:
391,85,128846,1,8,3:2:0:0:
323,23,129013,2,0,B|240:24|275:60|180:49,2,130.639995614502,2|10|2,1:2|0:2|3:2,0:0:0:0:
405,63,129846,1,0,0:0:0:0:
486,22,130013,5,6,0:2:0:0:
28,365,140679,6,0,P|56:304|188:260,1,204.480004992188,0|8,1:2|1:2,0:0:0:0:
461,214,142013,2,0,B|341:211|414:148|257:148,1,204.480004992188,0|8,1:2|1:2,0:0:0:0:
12,31,143346,6,0,P|36:66|106:226,1,204.480004992188,0|8,1:2|1:2,0:0:0:0:
338,375,144679,2,0,P|403:356|413:217,1,204.480004992188,0|8,1:2|1:2,0:0:0:0:
238,17,146013,6,0,P|210:57|189:128,1,102.240002496094,0|0,1:2|0:2,0:0:0:0:
68,178,146679,2,0,P|96:218|117:289,1,102.240002496094,8|0,1:2|0:2,0:0:0:0:
213,370,147346,2,0,B|267:356|244:335|309:325,1,102.240002496094,0|0,1:2|0:2,0:0:0:0:
446,329,148013,2,0,P|365:313|315:267,1,153.360003744141,8|0,1:2|0:2,0:0:0:0:
242,200,148679,6,0,P|257:168|276:91,1,102.240002496094,0|0,1:2|0:2,0:0:0:0:
347,23,149346,2,0,P|358:72|379:119,1,102.240002496094,8|0,1:2|0:2,0:0:0:0:
472,200,150013,2,0,B|348:207|414:263|261:252,1,204.480004992188,0|8,1:2|1:2,0:0:0:0:
3,79,151346,6,0,P|24:116|46:198,1,116.440001776733,14|2,0:2|3:2,0:0:0:0:
68,264,151846,2,0,P|97:282|181:264,1,116.440001776733,2|2,3:2|0:2,0:0:0:0:
206,194,152346,1,0,3:2:0:0:
206,194,152513,2,0,P|198:157|190:125,1,58.2200008883667,2|8,0:2|0:2,0:0:0:0:
196,55,152846,2,0,P|245:37|317:71,1,116.440001776733,2|2,0:2|0:2,0:0:0:0:
369,104,153346,2,0,P|347:151|326:226,1,116.440001776733,10|2,0:2|3:2,0:0:0:0:
359,288,153846,1,0,3:2:0:0:
439,300,154013,6,0,P|451:242|411:194,1,116.440001776733,10|2,0:2|3:2,0:0:0:0:
345,162,154513,2,0,P|312:181|286:187,1,58.2200008883667,2|8,3:2|0:2,0:0:0:0:
235,243,154846,2,0,P|202:224|176:218,1,58.2200008883667,2|0,0:2|3:2,0:0:0:0:
101,223,155179,1,2,0:2:0:0:
101,223,155346,2,0,P|79:274|60:348,2,116.440001776733,10|2|8,0:2|3:2|0:2,0:0:0:0:
190,86,156346,2,0,P|184:52|176:26,1,58.2200008883667,2|0,3:2|3:0,0:0:0:0:
245,142,156679,6,0,P|281:172|363:172,1,116.440001776733,10|2,0:2|3:2,0:0:0:0:
430,177,157179,2,0,P|415:221|408:249,1,58.2200008883667,2|8,3:2|0:2,0:0:0:0:
335,263,157513,2,0,P|350:307|357:335,1,58.2200008883667,2|2,0:2|3:2,0:0:0:0:
293,373,157846,2,0,P|250:380|187:328,1,116.440001776733,0|2,0:0|0:2,0:0:0:0:
183,259,158346,2,0,P|203:226|212:202,1,58.2200008883667,0|2,3:2|3:2,0:0:0:0:
172,135,158679,1,10,0:2:0:0:
25,207,159013,1,2,0:2:0:0:
109,346,159346,6,0,B|201:347|161:296|288:301,1,174.6600026651,10|0,0:0|3:0,0:0:0:0:
344,342,160013,2,0,P|380:353|413:358,1,58.2200008883667,8|2,0:0|0:0,0:0:0:0:
459,300,160346,1,2,3:2:0:0:
459,300,160513,1,2,0:0:0:0:
406,237,160679,2,0,P|382:187|407:112,1,116.440001776733,10|2,0:2|3:2,0:0:0:0:
500,5,161346,2,0,P|452:27|371:45,1,116.440001776733,10|0,0:2|0:2,0:0:0:0:
312,66,161846,5,0,0:2:0:0:
312,66,161929,1,0,0:2:0:0:
312,66,162013,2,0,P|256:46|174:29,1,130.639995614502,10|2,0:2|0:0,0:0:0:0:
110,82,162513,2,0,P|129:122|137:146,1,65.319997807251,2|8,3:2|0:2,0:0:0:0:
221,173,162846,2,0,P|202:213|194:237,1,65.319997807251,2|0,0:0|3:2,0:0:0:0:
200,324,163179,2,0,P|161:303|131:297,1,65.319997807251,2|8,0:0|0:2,0:0:0:0:
50,317,163513,1,2,3:2:0:0:
50,317,163679,2,0,P|65:255|67:242,1,65.319997807251,0|2,3:2|0:0,0:0:0:0:
116,176,164013,6,0,P|93:115|76:31,2,130.639995614502,10|2|10,0:2|3:2|0:2,0:0:0:0:
284,248,165013,1,2,0:0:0:0:
284,248,165179,2,0,P|316:217|414:193,1,130.639995614502,2|2,3:2|0:0,0:0:0:0:
483,222,165679,1,0,3:2:0:0:
483,222,165846,2,0,P|456:177|446:140,1,65.319997807251,2|8,0:0|0:2,0:0:0:0:
432,75,166179,1,0,3:2:0:0:
432,75,166346,2,0,P|391:59|363:57,1,65.319997807251,2|0,3:2|0:0,0:0:0:0:
284,89,166679,2,0,P|236:119|137:120,1,130.639995614502,8|2,0:2|3:2,0:0:0:0:
79,90,167179,1,0,3:2:0:0:
79,90,167346,6,0,P|95:139|112:222,1,130.639995614502,10|2,0:2|0:0,0:0:0:0:
135,304,167846,2,0,P|147:243|172:161,1,130.639995614502,2|2,3:2|0:0,0:0:0:0:
211,97,168346,1,0,3:2:0:0:
211,97,168513,2,0,P|241:122|269:135,1,65.319997807251,2|8,0:0|0:2,0:0:0:0:
346,173,168846,2,0,P|376:148|404:135,1,65.319997807251,2|0,3:2|3:2,0:0:0:0:
490,148,169179,1,0,0:0:0:0:
490,148,169346,2,0,P|465:213|451:285,1,130.639995614502,8|2,0:2|0:0,0:0:0:0:
401,348,169846,1,0,0:0:0:0:
401,348,170013,6,0,B|183:362|348:184|118:202,1,352.159986028809,2|0,0:0|0:0,0:0:0:0:
475,21,172679,6,0,P|417:68|370:68,1,108.630000663025,6|0,1:2|0:2,0:0:0:0:
339,46,173013,2,0,P|302:28|261:20,1,72.4200004420166,10|0,0:2|0:2,0:0:0:0:
188,79,173346,2,0,P|211:128|217:160,1,72.4200004420166,2|0,1:2|0:0,0:0:0:0:
195,245,173679,1,10,0:2:0:0:
118,311,173846,6,0,P|183:281|268:268,1,144.840000884033,2|2,1:2|1:2,0:0:0:0:
341,320,174346,2,0,P|379:335|417:340,1,72.4200004420166,10|0,0:2|0:2,0:0:0:0:
483,269,174679,1,2,1:2:0:0:
483,269,174846,1,0,1:2:0:0:
444,175,175013,2,0,P|395:196|352:205,1,72.4200004420166,10|0,0:2|0:2,0:0:0:0:
282,163,175346,6,0,P|243:133|131:109,1,144.840000884033,2|10,1:2|0:2,0:0:0:0:
57,145,175846,2,0,P|72:188|80:221,1,72.4200004420166,2|0,0:2|1:2,0:0:0:0:
142,292,176179,1,2,1:2:0:0:
142,292,176346,2,0,P|151:257|163:222,1,72.4200004420166,10|0,0:2|1:2,0:0:0:0:
206,130,176679,6,0,P|251:168|341:201,1,144.840000884033,2|10,0:2|0:2,0:0:0:0:
421,155,177179,1,0,0:2:0:0:
416,53,177346,2,0,P|371:55|335:70,1,72.4200004420166,2|2,1:2|1:2,0:0:0:0:
268,130,177679,1,10,0:2:0:0:
171,162,177846,6,0,B|95:159|118:123|29:120,1,144.840000884033,2|0,0:2|0:2,0:0:0:0:
15,20,178346,2,0,P|49:5|94:-2,1,72.4200004420166,10|0,0:2|0:2,0:0:0:0:
172,47,178679,2,0,P|206:69|244:82,1,72.4200004420166,2|2,1:2|0:2,0:0:0:0:
330,40,179013,1,10,0:2:0:0:
330,40,179179,6,0,P|281:81|256:174,1,144.840000884033,2|0,1:2|1:2,0:0:0:0:
179,223,179679,2,0,P|207:264|224:301,1,72.4200004420166,8|2,0:2|0:2,0:0:0:0:
272,369,180013,2,0,P|314:377|357:367,1,72.4200004420166,2|2,1:2|1:2,0:0:0:0:
402,289,180346,1,10,0:2:0:0:
344,205,180513,6,0,P|312:167|310:60,1,144.840000884033,2|0,0:2|0:2,0:0:0:0:
391,23,181013,2,0,P|431:47|467:57,1,72.4200004420166,10|0,0:2|0:2,0:0:0:0:
509,140,181346,2,0,P|469:164|433:174,1,72.4200004420166,0|2,1:2|1:2,0:0:0:0:
344,153,181679,1,10,0:2:0:0:
263,91,181846,1,2,1:2:0:0:
162,108,182013,6,0,P|128:145|132:259,2,144.840000884033,2|10|2,0:2|0:2|1:2,0:0:0:0:
257,72,182846,1,0,1:2:0:0:
328,144,183013,2,0,P|305:179|293:218,1,72.4200004420166,8|0,0:2|0:0,0:0:0:0:
307,308,183346,6,0,B|247:318|279:279|188:289,1,108.630000663025,2|0,1:2|0:2,0:0:0:0:
164,320,183679,2,0,P|130:344|87:353,1,72.4200004420166,10|0,0:2|0:2,0:0:0:0:
15,295,184013,2,0,P|41:237|45:207,1,72.4200004420166,2|0,1:2|0:0,0:0:0:0:
19,129,184346,1,10,0:2:0:0:
47,31,184513,2,0,P|93:19|187:63,1,144.840000884033,2|2,1:2|1:2,0:0:0:0:
203,153,185013,6,0,P|222:79|250:6,1,144.840000884033,10|2,0:2|1:2,0:0:0:0:
347,22,185513,1,0,1:2:0:0:
347,22,185679,2,0,P|354:70|365:105,1,72.4200004420166,10|0,0:2|0:2,0:0:0:0:
432,165,186013,6,0,P|428:202|326:268,1,144.840000884033,2|10,1:2|0:2,0:0:0:0:
272,202,186513,2,0,P|215:175|188:172,1,72.4200004420166,2|0,0:2|1:2,0:0:0:0:
113,214,186846,1,2,1:2:0:0:
108,315,187013,2,0,P|148:350|176:359,1,72.4200004420166,10|0,0:2|1:2,0:0:0:0:
247,297,187346,6,0,P|287:258|389:250,1,144.840000884033,2|10,0:2|0:2,0:0:0:0:
460,295,187846,1,2,0:2:0:0:
460,295,188013,2,0,P|445:239|441:208,1,72.4200004420166,2|2,1:2|1:2,0:0:0:0:
466,126,188346,1,10,0:2:0:0:
418,36,188513,6,0,B|324:45|380:73|276:90,1,144.840000884033,2|0,0:2|0:2,0:0:0:0:
201,144,189013,2,0,P|145:123|111:119,1,72.4200004420166,10|2,0:2|0:2,0:0:0:0:
42,167,189346,2,0,P|60:207|70:246,1,72.4200004420166,2|2,1:2|0:2,0:0:0:0:
74,335,189679,1,10,0:2:0:0:
160,281,189846,6,0,P|190:246|296:222,1,144.840000884033,2|0,1:2|1:2,0:0:0:0:
367,275,190346,2,0,P|350:315|341:353,1,72.4200004420166,10|2,0:2|0:2,0:0:0:0:
249,383,190679,2,0,P|209:362|170:353,1,72.4200004420166,2|2,1:2|1:2,0:0:0:0:
80,360,191013,1,10,0:2:0:0:
80,360,191179,6,0,P|30:337|33:242,1,144.840000884033,2|0,0:2|0:2,0:0:0:0:
67,163,191679,2,0,P|110:190|146:204,1,72.4200004420166,10|0,0:2|0:2,0:0:0:0:
217,145,192013,1,2,1:2:0:0:
232,45,192179,1,2,1:2:0:0:
325,4,192346,2,0,P|367:17|396:39,1,72.4200004420166,10|2,0:2|1:2,0:0:0:0:
451,113,192679,6,0,P|428:159|417:203,1,72.4200004420166,10|8,0:2|0:2,0:0:0:0:
431,229,192929,1,8,0:2:0:0:
431,229,193013,2,0,P|445:271|451:311,1,72.4200004420166,10|8,0:2|0:2,0:0:0:0:
374,366,193346,1,2,1:2:0:0:
374,366,193513,1,0,1:2:0:0:
288,313,193679,2,0,P|241:298|201:300,1,72.4200004420166,10|0,1:2|0:0,0:0:0:0:
126,299,194013,6,0,P|190:269|220:198,1,130.639995614502,6|0,1:2|0:0,0:0:0:0:
177,135,194513,1,0,1:2:0:0:
177,135,194679,2,0,P|107:163|32:169,1,130.639995614502,8|2,0:2|3:2,0:0:0:0:
10,72,195179,1,2,0:2:0:0:
10,72,195346,2,0,P|57:82|92:86,1,65.319997807251,2|8,0:2|0:2,0:0:0:0:
146,28,195679,2,0,P|188:2|269:17,1,130.639995614502,2|10,1:2|0:2,0:0:0:0:
317,89,196179,1,0,1:2:0:0:
317,89,196346,2,0,P|303:143|300:171,1,65.319997807251,2|0,0:2|0:2,0:0:0:0:
309,243,196679,6,0,P|342:277|439:268,1,130.639995614502,2|0,1:2|3:2,0:0:0:0:
478,207,197179,1,0,1:2:0:0:
478,207,197346,2,0,P|456:158|437:83,1,130.639995614502,10|2,0:2|3:2,0:0:0:0:
376,14,197846,1,2,0:2:0:0:
376,14,198013,2,0,P|347:41|311:56,1,65.319997807251,2|8,0:2|0:2,0:0:0:0:
255,112,198346,2,0,P|226:85|190:70,1,65.319997807251,2|0,1:2|0:2,0:0:0:0:
111,70,198679,2,0,P|76:94|83:187,1,130.639995614502,10|2,0:2|0:2,0:0:0:0:
136,242,199179,1,0,0:2:0:0:
208,186,199346,6,0,B|289:181|261:217|348:209,1,130.639995614502,2|0,1:2|3:2,0:0:0:0:
395,141,199846,1,0,1:2:0:0:
395,141,200013,2,0,P|382:178|366:283,1,130.639995614502,8|2,0:2|3:2,0:0:0:0:
364,359,200513,1,2,0:2:0:0:
364,359,200679,2,0,P|316:341|282:335,1,65.319997807251,2|8,0:2|0:2,0:0:0:0:
239,270,201013,2,0,P|186:308|116:323,1,130.639995614502,2|10,1:2|0:2,0:0:0:0:
48,269,201513,1,0,1:2:0:0:
48,269,201679,2,0,P|60:230|65:185,1,65.319997807251,2|0,0:2|0:2,0:0:0:0:
34,118,202013,6,0,P|57:90|161:86,1,130.639995614502,2|0,1:2|3:2,0:0:0:0:
222,128,202513,1,0,1:2:0:0:
222,128,202679,2,0,P|213:169|209:206,1,65.319997807251,8|2,0:2|0:2,0:0:0:0:
302,86,203013,2,0,P|293:45|289:8,1,65.319997807251,10|2,0:2|0:2,0:0:0:0:
367,138,203346,6,0,P|373:154|381:173,2,32.6599989036255,2|0|8,3:2|3:2|3:2,0:0:0:0:
454,209,203679,2,0,P|441:248|433:279,1,65.319997807251,2|0,1:2|3:2,0:0:0:0:
343,283,204013,2,0,P|356:322|364:353,1,65.319997807251,10|0,0:2|0:0,0:0:0:0:
449,373,204346,1,0,3:0:0:0:
449,373,204513,1,0,3:0:0:0:
