osu file format v14

[General]
AudioFilename: audio.mp3
AudioLeadIn: 0
PreviewTime: 45669
Countdown: 0
SampleSet: Soft
StackLeniency: 0.7
Mode: 0
LetterboxInBreaks: 0
WidescreenStoryboard: 0

[Editor]
Bookmarks: 11909,15274,30158,37600,45042,61786,78530,93414,100856,108297,125042,141786,156670,186437
DistanceSpacing: 1.7
BeatDivisor: 4
GridSize: 32
TimelineZoom: 3.899997

[Metadata]
Title:Feel Special
TitleUnicode:Feel Special
Artist:TWICE
ArtistUnicode:트와이스
Creator:iYiyo
Version:Special
Source:
Tags:Dora- doraemonelf DraQeu FillUp No Kim MBmasher FunnyA Hokichi CharmCaster Fragmented k-pop kpop korean korea pop jype jyp entertainment title track eight 8th ep sana jihyo dahyun nayeon jeongyeon chaeyoung momo mina tzuyu 나연 정연 모모 사나 지효 미나 다현 채영 쯔위
BeatmapID:2177260
BeatmapSetID:1041786

[Difficulty]
HPDrainRate:5.5
CircleSize:4
OverallDifficulty:8.5
ApproachRate:9.3
SliderMultiplier:1.8
SliderTickRate:1

[Events]
//Background and Video events
0,0,"feel special.jpg",0,0
Video,-1394,"twice feel special.avi"
//Break Periods
2,156913,167278
//Storyboard Layer 0 (Background)
//Storyboard Layer 1 (Fail)
//Storyboard Layer 2 (Pass)
//Storyboard Layer 3 (Foreground)
//Storyboard Layer 4 (Overlay)
//Storyboard Sound Samples

[TimingPoints]
434,465.116279069767,4,2,1,55,1,0
1131,-100,4,2,2,55,0,0
1596,-100,4,2,1,55,0,0
1828,-100,4,2,2,55,0,0
2061,-100,4,2,3,55,0,0
4852,-100,4,2,2,55,0,0
5317,-100,4,2,3,55,0,0
5549,-100,4,2,2,55,0,0
5782,-100,4,2,4,55,0,0
7875,-100,4,2,1,60,0,0
9503,-100,4,2,3,60,0,0
9658,-100,4,2,2,60,0,0
9969,-100,4,2,1,60,0,0
10085,-100,4,2,1,5,0,0
10201,-100,4,2,1,60,0,0
10899,-100,4,2,3,60,0,0
11131,-100,4,2,1,60,0,0
11286,-100,4,2,2,60,0,0
11364,-100,4,2,3,60,0,0
11519,-100,4,2,2,60,0,0
11829,-100,4,2,1,60,0,0
12759,-100,4,2,3,60,0,0
12992,-100,4,2,1,60,0,0
13224,-100,4,2,4,60,0,0
13456,-100,4,2,2,70,0,0
13806,-100,4,2,3,70,0,0
14154,-100,4,2,2,70,0,0
14387,-100,4,2,5,70,0,0
14503,-100,4,2,1,70,0,0
15200,-100,4,2,1,5,0,0
15317,-100,4,2,2,65,0,0
15782,-100,4,2,1,65,0,0
16480,-100,4,2,5,65,0,0
16945,-100,4,2,2,65,0,0
17643,-100,4,2,6,65,0,0
17759,-100,4,2,2,65,0,0
18573,-100,4,2,7,65,0,0
18689,-100,4,2,2,65,0,0
19503,-100,4,2,1,65,0,0
20201,-100,4,2,2,65,0,0
20433,-100,4,2,6,65,0,0
20549,-100,4,2,2,65,0,0
21363,-100,4,2,1,65,0,0
21480,-100,4,2,2,65,0,0
22293,-100,4,2,6,65,0,0
22759,-100,4,2,2,65,0,0
23224,-100,4,2,1,65,0,0
23457,-100,4,2,2,65,0,0
24154,-100,4,2,3,65,0,0
24387,-100,4,2,2,65,0,0
25085,-100,4,2,1,65,0,0
25317,-100,4,2,2,65,0,0
26015,-100,4,2,7,65,0,0
26131,-100,4,2,2,65,0,0
26945,-100,4,2,6,65,0,0
27410,-100,4,2,2,65,0,0
27875,-100,4,2,6,65,0,0
27991,-100,4,2,2,65,0,0
28688,-100,4,2,5,65,0,0
29038,-100,4,2,2,65,0,0
29154,-100,4,2,2,5,0,0
29271,-100,4,2,5,65,0,0
29387,-100,4,2,1,65,0,0
29619,-100,4,2,1,70,0,0
30201,-100,4,2,4,65,0,0
31131,-100,4,2,8,65,0,0
31596,-100,4,2,2,65,0,0
32992,-100,4,2,8,65,0,0
33922,-100,4,2,2,65,0,0
34852,-100,4,2,8,65,0,0
35317,-100,4,2,2,65,0,0
36713,-100,4,2,8,65,0,0
37178,-100,4,2,1,65,0,0
37643,-100,4,2,6,70,0,0
37992,-100,4,2,9,70,0,0
40899,-100,4,2,10,70,0,0
41364,-100,4,2,9,70,0,0
42643,-100,4,2,9,5,0,0
42759,-100,4,2,9,70,0,0
43224,-100,4,2,11,70,0,0
43456,-100,4,2,9,70,0,0
46945,-71.4285714285714,4,2,12,75,0,1
47642,-71.4285714285714,4,2,2,75,0,1
47875,-71.4285714285714,4,2,6,75,0,1
48573,-71.4285714285714,4,2,12,75,0,1
48689,-71.4285714285714,4,2,12,5,0,1
48806,-71.4285714285714,4,2,12,75,0,1
51363,-71.4285714285714,4,2,2,75,0,1
51596,-71.4285714285714,4,2,6,75,0,1
52294,-71.4285714285714,4,2,12,75,0,1
52410,-71.4285714285714,4,2,12,5,0,1
52527,-71.4285714285714,4,2,12,75,0,1
55084,-71.4285714285714,4,2,2,75,0,1
55317,-71.4285714285714,4,2,6,75,0,1
55782,-71.4285714285714,4,2,12,75,0,1
56131,-71.4285714285714,4,2,12,5,0,1
56247,-71.4285714285714,4,2,12,75,0,1
58108,-71.4285714285714,4,2,12,80,0,1
58689,-71.4285714285714,4,2,12,5,0,1
58806,-71.4285714285714,4,2,12,80,0,1
60084,-71.4285714285714,4,2,1,80,0,1
60433,-71.4285714285714,4,2,6,80,0,1
60550,-71.4285714285714,4,2,1,80,0,1
60666,-71.4285714285714,4,2,12,80,0,1
60782,-71.4285714285714,4,2,1,80,0,1
60899,-71.4285714285714,4,2,6,80,0,1
61015,-71.4285714285714,4,2,1,80,0,1
61131,-71.4285714285714,4,2,2,80,0,1
61364,-71.4285714285714,4,2,12,80,0,1
61480,-71.4285714285714,4,2,1,80,0,1
61829,-71.4285714285714,4,2,12,80,0,1
62061,-71.4285714285714,4,2,14,80,0,1
62294,-71.4285714285714,4,2,12,80,0,1
62526,-71.4285714285714,4,2,5,80,0,1
62759,-71.4285714285714,4,2,6,80,0,1
62992,-71.4285714285714,4,2,5,80,0,1
63224,-71.4285714285714,4,2,13,80,0,1
63457,-71.4285714285714,4,2,14,80,0,1
63573,-71.4285714285714,4,2,14,5,0,1
63690,-71.4285714285714,4,2,14,80,0,1
64154,-71.4285714285714,4,2,12,80,0,1
64387,-71.4285714285714,4,2,14,80,0,1
65085,-71.4285714285714,4,2,12,80,0,1
65317,-71.4285714285714,4,2,14,80,0,1
66015,-71.4285714285714,4,2,12,80,0,1
66247,-71.4285714285714,4,2,5,80,0,1
66480,-71.4285714285714,4,2,6,80,0,1
66713,-71.4285714285714,4,2,5,80,0,1
66945,-71.4285714285714,4,2,13,80,0,1
67178,-71.4285714285714,4,2,14,80,0,1
67294,-71.4285714285714,4,2,14,5,0,1
67410,-71.4285714285714,4,2,14,80,0,1
67526,-71.4285714285714,4,2,14,5,0,1
67643,-71.4285714285714,4,2,14,80,0,1
67875,-71.4285714285714,4,2,12,80,0,1
68108,-71.4285714285714,4,2,14,80,0,1
68224,-71.4285714285714,4,2,14,5,0,1
68340,-71.4285714285714,4,2,14,80,0,1
68805,-71.4285714285714,4,2,12,80,0,1
69039,-71.4285714285714,4,2,14,80,0,1
69736,-71.4285714285714,4,2,12,80,0,1
69968,-71.4285714285714,4,2,5,80,0,1
70201,-71.4285714285714,4,2,6,80,0,1
70433,-71.4285714285714,4,2,5,80,0,1
70666,-71.4285714285714,4,2,12,80,0,1
70899,-71.4285714285714,4,2,14,80,0,1
71015,-71.4285714285714,4,2,14,5,0,1
71131,-71.4285714285714,4,2,14,80,0,1
71597,-71.4285714285714,4,2,12,80,0,1
71829,-71.4285714285714,4,2,14,80,0,1
72527,-71.4285714285714,4,2,12,80,0,1
72759,-71.4285714285714,4,2,14,80,0,1
72992,-71.4285714285714,4,2,6,85,0,1
73224,-71.4285714285714,4,2,5,85,0,1
73340,-71.4285714285714,4,2,12,85,0,1
73572,-71.4285714285714,4,2,12,5,0,1
73689,-71.4285714285714,4,2,15,85,0,1
73922,-71.4285714285714,4,2,12,85,0,1
74154,-71.4285714285714,4,2,7,85,0,1
74387,-71.4285714285714,4,2,12,85,0,1
74620,-71.4285714285714,4,2,5,85,0,1
74852,-71.4285714285714,4,2,6,85,0,1
74968,-71.4285714285714,4,2,1,85,0,1
75317,-71.4285714285714,4,2,12,85,0,1
75433,-71.4285714285714,4,2,1,85,0,1
75549,-71.4285714285714,4,2,12,85,0,1
75665,-71.4285714285714,4,2,1,85,0,1
75782,-71.4285714285714,4,2,6,85,0,1
75898,-71.4285714285714,4,2,1,85,0,1
76247,-71.4285714285714,4,2,12,85,0,1
76363,-71.4285714285714,4,2,3,85,0,1
76713,-71.4285714285714,4,2,3,85,0,0
78108,-71.4285714285714,4,2,1,85,0,0
78573,-100,4,2,2,65,0,0
79038,-100,4,2,5,65,0,0
79503,-100,4,2,1,65,0,0
79852,-100,4,2,1,5,0,0
79968,-100,4,2,3,65,0,0
80433,-100,4,2,2,65,0,0
80549,-100,4,2,2,5,0,0
80666,-100,4,2,2,65,0,0
80898,-100,4,2,5,65,0,0
81363,-100,4,2,2,65,0,0
81829,-100,4,2,7,65,0,0
81945,-100,4,2,2,65,0,0
82759,-100,4,2,5,65,0,0
83224,-100,4,2,1,65,0,0
83689,-100,4,2,3,65,0,0
84154,-100,4,2,2,65,0,0
84270,-100,4,2,2,5,0,0
84386,-100,4,2,2,65,0,0
84619,-100,4,2,5,65,0,0
84968,-100,4,2,5,5,0,0
85085,-100,4,2,2,65,0,0
85549,-100,4,2,5,65,0,0
86015,-100,4,2,2,65,0,0
86480,-100,4,2,5,65,0,0
86945,-100,4,2,2,65,0,0
87410,-100,4,2,5,65,0,0
87875,-100,4,2,2,65,0,0
88340,-100,4,2,5,65,0,0
88806,-100,4,2,2,65,0,0
89271,-100,4,2,7,65,0,0
89387,-100,4,2,2,65,0,0
90201,-100,4,2,3,65,0,0
90549,-100,4,2,3,5,0,0
90666,-100,4,2,2,65,0,0
91131,-100,4,2,5,65,0,0
91596,-100,4,2,2,65,0,0
92177,-100,4,2,2,5,0,0
92294,-100,4,2,2,65,0,0
92643,-100,4,2,1,65,0,0
93457,-100,4,2,4,65,0,0
94387,-100,4,2,8,65,0,0
94852,-100,4,2,2,65,0,0
96247,-100,4,2,8,65,0,0
97177,-100,4,2,2,65,0,0
98108,-100,4,2,8,65,0,0
98573,-100,4,2,2,65,0,0
99968,-100,4,2,8,65,0,0
100433,-100,4,2,1,65,0,0
100899,-100,4,2,6,70,0,0
101248,-100,4,2,9,70,0,0
101945,-100,4,2,9,5,0,0
102061,-100,4,2,9,70,0,0
102177,-100,4,2,9,5,0,0
102294,-100,4,2,9,70,0,0
104038,-100,4,2,9,5,0,0
104154,-100,4,2,10,70,0,0
104620,-100,4,2,9,70,0,0
105317,-100,4,2,16,70,0,0
105550,-100,4,2,9,70,0,0
105898,-100,4,2,9,5,0,0
106015,-100,4,2,16,70,0,0
106364,-100,4,2,9,70,0,0
106480,-100,4,2,17,70,0,0
106712,-100,4,2,16,70,0,0
108108,-100,4,2,9,70,0,0
109038,-100,4,2,9,70,0,0
110201,-71.4285714285714,4,2,12,75,0,1
110433,-71.4285714285714,4,2,14,75,0,1
110666,-71.4285714285714,4,2,15,75,0,1
110898,-71.4285714285714,4,2,5,75,0,1
111131,-71.4285714285714,4,2,6,75,0,1
111364,-71.4285714285714,4,2,5,75,0,1
111596,-71.4285714285714,4,2,18,75,0,1
111829,-71.4285714285714,4,2,14,75,0,1
111945,-71.4285714285714,4,2,14,5,0,1
112061,-71.4285714285714,4,2,14,75,0,1
112527,-71.4285714285714,4,2,15,75,0,1
112759,-71.4285714285714,4,2,14,75,0,1
113456,-71.4285714285714,4,2,15,75,0,1
113689,-71.4285714285714,4,2,14,75,0,1
114387,-71.4285714285714,4,2,15,75,0,1
114619,-71.4285714285714,4,2,5,75,0,1
114852,-71.4285714285714,4,2,6,75,0,1
115085,-71.4285714285714,4,2,5,75,0,1
115317,-71.4285714285714,4,2,18,75,0,1
115549,-71.4285714285714,4,2,14,75,0,1
115665,-71.4285714285714,4,2,14,5,0,1
115782,-71.4285714285714,4,2,14,75,0,1
115898,-71.4285714285714,4,2,14,5,0,1
116015,-71.4285714285714,4,2,14,75,0,1
116247,-71.4285714285714,4,2,15,75,0,1
116480,-71.4285714285714,4,2,14,75,0,1
116596,-71.4285714285714,4,2,14,5,0,1
116713,-71.4285714285714,4,2,14,75,0,1
117177,-71.4285714285714,4,2,15,75,0,1
117293,-71.4285714285714,4,2,14,75,0,1
118108,-71.4285714285714,4,2,15,75,0,1
118340,-71.4285714285714,4,2,5,75,0,1
118573,-71.4285714285714,4,2,6,75,0,1
118806,-71.4285714285714,4,2,5,75,0,1
119038,-71.4285714285714,4,2,15,75,0,1
119271,-71.4285714285714,4,2,14,75,0,1
119387,-71.4285714285714,4,2,14,5,0,1
119503,-71.4285714285714,4,2,14,75,0,1
119968,-71.4285714285714,4,2,15,75,0,1
120200,-71.4285714285714,4,2,14,75,0,1
120899,-71.4285714285714,4,2,15,75,0,1
121131,-71.4285714285714,4,2,5,75,0,1
121364,-71.4285714285714,4,2,6,75,0,1
121596,-71.4285714285714,4,2,5,75,0,1
121713,-71.4285714285714,4,2,2,75,0,1
121945,-71.4285714285714,4,2,2,5,0,1
122061,-71.4285714285714,4,2,15,75,0,1
122294,-71.4285714285714,4,2,12,75,0,1
122527,-71.4285714285714,4,2,15,75,0,1
122760,-71.4285714285714,4,2,19,75,0,1
122992,-71.4285714285714,4,2,5,75,0,1
123224,-71.4285714285714,4,2,6,75,0,1
123340,-71.4285714285714,4,2,1,75,0,1
123689,-71.4285714285714,4,2,18,75,0,1
123806,-71.4285714285714,4,2,1,75,0,1
123922,-71.4285714285714,4,2,12,75,0,1
124038,-71.4285714285714,4,2,1,75,0,1
124154,-71.4285714285714,4,2,6,75,0,1
124270,-71.4285714285714,4,2,1,75,0,1
124387,-71.4285714285714,4,2,2,75,0,1
124620,-71.4285714285714,4,2,19,75,0,1
124736,-71.4285714285714,4,2,1,75,0,1
125085,-71.4285714285714,4,2,12,85,0,1
125317,-71.4285714285714,4,2,14,85,0,1
125550,-71.4285714285714,4,2,12,85,0,1
125782,-71.4285714285714,4,2,5,85,0,1
126015,-71.4285714285714,4,2,6,85,0,1
126247,-71.4285714285714,4,2,5,85,0,1
126480,-71.4285714285714,4,2,13,85,0,1
126713,-71.4285714285714,4,2,14,85,0,1
126829,-71.4285714285714,4,2,14,5,0,1
126945,-71.4285714285714,4,2,14,85,0,1
127410,-71.4285714285714,4,2,12,85,0,1
127643,-71.4285714285714,4,2,14,85,0,1
128339,-71.4285714285714,4,2,12,85,0,1
128572,-71.4285714285714,4,2,14,85,0,1
129271,-71.4285714285714,4,2,12,85,0,1
129503,-71.4285714285714,4,2,5,85,0,1
129736,-71.4285714285714,4,2,6,85,0,1
129968,-71.4285714285714,4,2,5,85,0,1
130201,-71.4285714285714,4,2,13,85,0,1
130433,-71.4285714285714,4,2,14,85,0,1
130549,-71.4285714285714,4,2,14,5,0,1
130666,-71.4285714285714,4,2,14,85,0,1
130782,-71.4285714285714,4,2,14,5,0,1
130899,-71.4285714285714,4,2,14,85,0,1
131131,-71.4285714285714,4,2,12,85,0,1
131363,-71.4285714285714,4,2,14,85,0,1
131479,-71.4285714285714,4,2,14,5,0,1
131596,-71.4285714285714,4,2,14,85,0,1
132061,-71.4285714285714,4,2,12,85,0,1
132294,-71.4285714285714,4,2,14,85,0,1
132992,-71.4285714285714,4,2,12,85,0,1
133224,-71.4285714285714,4,2,5,85,0,1
133457,-71.4285714285714,4,2,6,85,0,1
133689,-71.4285714285714,4,2,5,85,0,1
133922,-71.4285714285714,4,2,12,85,0,1
134154,-71.4285714285714,4,2,14,85,0,1
134270,-71.4285714285714,4,2,14,5,0,1
134387,-71.4285714285714,4,2,14,85,0,1
134852,-71.4285714285714,4,2,12,85,0,1
135085,-71.4285714285714,4,2,14,85,0,1
135783,-71.4285714285714,4,2,12,85,0,1
136015,-71.4285714285714,4,2,14,85,0,1
136247,-71.4285714285714,4,2,6,85,0,1
136479,-71.4285714285714,4,2,5,85,0,1
136596,-71.4285714285714,4,2,12,85,0,1
136828,-71.4285714285714,4,2,12,5,0,1
136944,-71.4285714285714,4,2,15,85,0,1
137177,-71.4285714285714,4,2,12,85,0,1
137410,-71.4285714285714,4,2,7,85,0,1
137643,-71.4285714285714,4,2,12,85,0,1
137875,-71.4285714285714,4,2,5,85,0,1
138108,-71.4285714285714,4,2,6,85,0,1
138224,-71.4285714285714,4,2,1,85,0,1
138573,-71.4285714285714,4,2,12,85,0,1
138689,-71.4285714285714,4,2,1,85,0,1
138805,-71.4285714285714,4,2,12,85,0,1
138921,-71.4285714285714,4,2,1,85,0,1
139038,-71.4285714285714,4,2,6,85,0,1
139154,-71.4285714285714,4,2,1,85,0,1
139503,-71.4285714285714,4,2,12,85,0,1
139619,-71.4285714285714,4,2,1,85,0,1
139968,-100,4,2,20,50,0,0
140123,-100,4,2,3,50,0,0
140433,-100,4,2,3,65,0,0
140899,-100,4,2,3,75,0,0
141054,-100,4,2,3,85,0,0
141364,-100,4,2,4,85,0,0
141829,-100,4,2,21,80,0,0
142294,-100,4,2,22,80,0,0
142410,-125,4,2,8,80,0,0
142759,-125,4,2,23,80,0,0
142875,-125,4,2,2,80,0,0
143107,-125,4,2,2,5,0,0
143224,-125,4,2,24,80,0,0
143340,-125,4,2,8,80,0,0
143572,-125,4,2,8,5,0,0
143689,-125,4,2,25,80,0,0
144154,-125,4,2,26,80,0,0
144387,-125,4,2,8,80,0,0
144620,-125,4,2,23,80,0,0
144852,-125,4,2,8,80,0,0
145085,-125,4,2,27,80,0,0
145433,-125,4,2,27,5,0,0
145550,-125,4,2,21,80,0,0
146015,-125,4,2,22,80,0,0
146131,-125,4,2,8,80,0,0
146480,-125,4,2,23,80,0,0
146596,-125,4,2,2,80,0,0
146828,-125,4,2,2,5,0,0
146945,-125,4,2,24,80,0,0
147061,-125,4,2,2,80,0,0
147293,-125,4,2,2,5,0,0
147410,-125,4,2,28,80,0,0
147875,-125,4,2,23,80,0,0
148108,-125,4,2,8,80,0,0
148340,-125,4,2,21,80,0,0
148457,-125,4,2,8,80,0,0
148806,-125,4,2,22,80,0,0
149038,-125,4,2,29,80,0,0
149154,-125,4,2,29,5,0,0
149271,-125,4,2,21,80,0,0
149736,-125,4,2,22,80,0,0
149968,-125,4,2,8,80,0,0
150201,-125,4,2,23,80,0,0
150433,-125,4,2,2,80,0,0
150666,-125,4,2,24,80,0,0
151131,-125,4,2,25,80,0,0
151364,-125,4,2,29,80,0,0
151596,-125,4,2,26,80,0,0
151829,-125,4,2,8,80,0,0
152062,-125,4,2,23,80,0,0
152294,-125,4,2,8,80,0,0
152527,-125,4,2,27,80,0,0
152759,-125,4,2,29,80,0,0
152875,-125,4,2,29,5,0,0
152992,-125,4,2,21,80,0,0
153457,-125,4,2,22,80,0,0
153689,-125,4,2,8,80,0,0
153922,-125,4,2,23,80,0,0
154154,-125,4,2,2,80,0,0
154387,-125,4,2,24,80,0,0
154619,-125,4,2,20,80,0,0
154852,-125,4,2,28,80,0,0
155085,-125,4,2,8,80,0,0
155317,-125,4,2,23,80,0,0
155550,-125,4,2,8,80,0,0
155782,-125,4,2,21,80,0,0
156015,-125,4,2,2,80,0,0
156247,-125,4,2,22,80,0,0
156595,-125,4,2,22,5,0,0
156713,-125,4,2,5,100,0,0
167875,-100,4,2,2,70,0,0
168456,-100,4,2,2,5,0,0
168573,-100,4,2,2,70,0,0
169154,-100,4,2,2,5,0,0
169271,-100,4,2,2,70,0,0
169387,-100,4,2,2,5,0,0
169736,-100,4,2,2,70,0,0
169852,-100,4,2,1,70,0,0
170201,-100,4,2,2,70,0,0
170318,-100,4,2,1,70,0,0
170434,-100,4,2,2,70,0,0
170550,-100,4,2,1,70,0,0
171131,-100,4,2,2,70,0,0
171596,-71.4285714285714,4,2,12,75,0,1
171828,-71.4285714285714,4,2,14,75,0,1
172061,-71.4285714285714,4,2,15,75,0,1
172293,-71.4285714285714,4,2,5,75,0,1
172526,-71.4285714285714,4,2,6,75,0,1
172759,-71.4285714285714,4,2,5,75,0,1
172991,-71.4285714285714,4,2,18,75,0,1
173224,-71.4285714285714,4,2,14,75,0,1
173340,-71.4285714285714,4,2,14,5,0,1
173457,-71.4285714285714,4,2,14,75,0,1
173922,-71.4285714285714,4,2,15,75,0,1
174154,-71.4285714285714,4,2,14,75,0,1
174852,-71.4285714285714,4,2,15,75,0,1
175084,-71.4285714285714,4,2,14,75,0,1
175782,-71.4285714285714,4,2,15,75,0,1
176014,-71.4285714285714,4,2,5,75,0,1
176247,-71.4285714285714,4,2,6,75,0,1
176480,-71.4285714285714,4,2,5,75,0,1
176713,-71.4285714285714,4,2,18,75,0,1
176945,-71.4285714285714,4,2,14,75,0,1
177061,-71.4285714285714,4,2,14,5,0,1
177178,-71.4285714285714,4,2,14,75,0,1
177294,-71.4285714285714,4,2,14,5,0,1
177410,-71.4285714285714,4,2,14,75,0,1
177643,-71.4285714285714,4,2,15,75,0,1
177875,-71.4285714285714,4,2,14,75,0,1
177991,-71.4285714285714,4,2,14,5,0,1
178108,-71.4285714285714,4,2,14,75,0,1
178572,-71.4285714285714,4,2,15,75,0,1
178806,-71.4285714285714,4,2,14,75,0,1
179503,-71.4285714285714,4,2,15,75,0,1
179735,-71.4285714285714,4,2,5,75,0,1
179968,-71.4285714285714,4,2,6,75,0,1
180201,-71.4285714285714,4,2,5,75,0,1
180433,-71.4285714285714,4,2,15,75,0,1
180666,-71.4285714285714,4,2,14,75,0,1
180782,-71.4285714285714,4,2,14,5,0,1
180898,-71.4285714285714,4,2,14,75,0,1
181364,-71.4285714285714,4,2,15,75,0,1
181596,-71.4285714285714,4,2,14,75,0,1
182294,-71.4285714285714,4,2,15,75,0,1
182526,-71.4285714285714,4,2,5,75,0,1
182759,-71.4285714285714,4,2,6,75,0,1
182991,-71.4285714285714,4,2,5,75,0,1
183108,-71.4285714285714,4,2,2,75,0,1
183340,-71.4285714285714,4,2,2,5,0,1
183457,-71.4285714285714,4,2,15,75,0,1
183689,-71.4285714285714,4,2,12,75,0,1
183922,-71.4285714285714,4,2,15,75,0,1
184154,-71.4285714285714,4,2,19,75,0,1
184387,-71.4285714285714,4,2,5,75,0,1
184620,-71.4285714285714,4,2,6,75,0,1
184736,-71.4285714285714,4,2,1,75,0,1
185085,-71.4285714285714,4,2,18,75,0,1
185201,-71.4285714285714,4,2,1,75,0,1
185317,-71.4285714285714,4,2,12,75,0,1
185433,-71.4285714285714,4,2,1,75,0,1
185550,-71.4285714285714,4,2,6,75,0,1
185666,-71.4285714285714,4,2,1,75,0,1
185782,-71.4285714285714,4,2,2,75,0,1
186015,-71.4285714285714,4,2,19,75,0,1
186131,-71.4285714285714,4,2,1,75,0,1
186480,-71.4285714285714,4,2,14,85,0,1
186945,-71.4285714285714,4,2,13,85,0,1
187177,-71.4285714285714,4,2,5,85,0,1
187410,-71.4285714285714,4,2,13,85,0,1
187643,-71.4285714285714,4,2,5,85,0,1
187875,-71.4285714285714,4,2,13,85,0,1
188108,-71.4285714285714,4,2,5,85,0,1
188224,-71.4285714285714,4,2,5,5,0,1
188340,-71.4285714285714,4,2,10,85,0,1
188572,-71.4285714285714,4,2,5,85,0,1
188806,-71.4285714285714,4,2,13,85,0,1
189038,-71.4285714285714,4,2,5,85,0,1
189271,-71.4285714285714,4,2,13,85,0,1
189503,-71.4285714285714,4,2,5,85,0,1
189736,-71.4285714285714,4,2,13,85,0,1
189968,-71.4285714285714,4,2,5,85,0,1
190201,-71.4285714285714,4,2,13,85,0,1
190433,-71.4285714285714,4,2,5,85,0,1
190666,-71.4285714285714,4,2,13,85,0,1
190898,-71.4285714285714,4,2,5,85,0,1
191131,-71.4285714285714,4,2,13,85,0,1
191364,-71.4285714285714,4,2,5,85,0,1
191596,-71.4285714285714,4,2,13,85,0,1
191829,-71.4285714285714,4,2,5,85,0,1
191945,-71.4285714285714,4,2,5,5,0,1
192061,-71.4285714285714,4,2,10,85,0,1
192293,-71.4285714285714,4,2,5,85,0,1
192527,-71.4285714285714,4,2,13,85,0,1
192759,-71.4285714285714,4,2,5,85,0,1
192875,-71.4285714285714,4,2,5,5,0,1
192992,-71.4285714285714,4,2,13,85,0,1
193224,-71.4285714285714,4,2,5,85,0,1
193456,-71.4285714285714,4,2,13,85,0,1
193690,-71.4285714285714,4,2,5,85,0,1
193922,-71.4285714285714,4,2,13,85,0,1
194154,-71.4285714285714,4,2,5,85,0,1
194387,-71.4285714285714,4,2,13,85,0,1
194619,-71.4285714285714,4,2,5,85,0,1
194852,-71.4285714285714,4,2,13,85,0,1
195085,-71.4285714285714,4,2,5,85,0,1
195317,-71.4285714285714,4,2,13,85,0,1
195550,-71.4285714285714,4,2,5,85,0,1
195666,-71.4285714285714,4,2,5,5,0,1
195782,-71.4285714285714,4,2,13,85,0,1
196014,-71.4285714285714,4,2,5,85,0,1
196248,-71.4285714285714,4,2,13,85,0,1
196480,-71.4285714285714,4,2,5,85,0,1
196712,-71.4285714285714,4,2,13,85,0,1
196945,-71.4285714285714,4,2,5,85,0,1
197178,-71.4285714285714,4,2,13,85,0,1
197410,-71.4285714285714,4,2,5,85,0,1
197643,-71.4285714285714,4,2,11,85,0,1
197875,-71.4285714285714,4,2,5,85,0,1
197992,-71.4285714285714,4,2,12,85,0,1
198224,-71.4285714285714,4,2,12,5,0,1
198340,-71.4285714285714,4,2,29,85,0,1
198573,-71.4285714285714,4,2,13,85,0,1
198806,-71.4285714285714,4,2,7,85,0,1
199039,-71.4285714285714,4,2,30,85,0,1
199271,-71.4285714285714,4,2,5,85,0,1
199503,-71.4285714285714,4,2,11,85,0,1
199619,-71.4285714285714,4,2,1,85,0,1
199968,-71.4285714285714,4,2,12,85,0,1
200085,-71.4285714285714,4,2,1,85,0,1
200201,-71.4285714285714,4,2,2,85,0,1
200317,-71.4285714285714,4,2,1,85,0,1
200434,-71.4285714285714,4,2,9,85,0,1
200550,-71.4285714285714,4,2,1,85,0,1
200899,-71.4285714285714,4,2,30,85,0,1
201015,-71.4285714285714,4,2,3,85,0,1
201364,-71.4285714285714,4,2,3,85,0,0
204620,-71.4285714285714,4,2,3,5,0,0

[Colours]
Combo1 : 216,186,16
Combo2 : 255,0,0
Combo3 : 255,255,128
Combo4 : 192,192,192
Combo5 : 255,128,64

[HitObjects]
463,235,434,5,2,2:0:0:0:
429,320,1132,5,2,2:0:0:0:
429,320,1248,1,2,2:0:0:0:
429,320,1365,1,2,2:0:0:0:
337,311,1597,1,2,2:0:0:0:
317,222,1830,1,2,2:0:0:0:
395,175,2062,1,2,2:0:0:0:
463,235,3457,5,2,2:0:0:0:
49,235,3922,1,2,2:0:0:0:
83,320,4852,5,2,2:0:0:0:
83,320,4968,1,2,2:0:0:0:
83,320,5085,1,2,2:0:0:0:
175,311,5317,1,2,2:0:0:0:
195,222,5549,1,2,2:0:0:0:
117,175,5782,1,2,2:0:0:0:
322,45,6713,5,2,2:0:0:0:
402,85,6945,2,0,L|388:174,1,90,0|2,2:0|2:0,2:0:0:0:
468,215,7410,1,0,2:0:0:0:
243,339,7875,6,0,P|202:322|159:329,1,90,2|0,2:0|2:0,2:0:0:0:
52,363,8224,1,0,2:0:0:0:
47,352,8340,2,0,B|66:326|66:326|47:271,1,90,0|8,1:0|2:0,2:0:0:0:
45,185,8689,1,0,2:0:0:0:
45,185,8806,1,0,2:0:0:0:
109,123,9038,1,10,2:0:0:0:
196,143,9271,1,0,1:0:0:0:
389,38,9503,5,10,2:0:0:0:
346,103,9658,1,2,2:0:0:0:
335,113,9736,2,0,L|305:107,1,30,0|0,2:0|2:0,2:0:0:0:
396,176,9891,1,2,2:0:0:0:
407,186,9969,2,0,L|456:177,1,45,8|0,2:0|2:0,2:0:0:0:
212,41,10201,6,0,L|207:130,1,90,0|8,1:0|2:0,2:0:0:0:
188,337,10666,1,0,2:0:0:0:
257,279,10899,1,10,2:0:0:0:
341,310,11131,1,0,1:0:0:0:
466,260,11286,1,2,2:0:0:0:
455,270,11364,2,0,L|419:261,1,30,10|0,2:0|2:0,2:0:0:0:
341,194,11519,1,2,2:0:0:0:
352,184,11596,5,0,2:0:0:0:
477,134,11829,1,8,2:0:0:0:
212,41,12061,2,0,L|207:130,1,90,0|8,1:0|2:0,2:0:0:0:
197,225,12410,1,0,2:0:0:0:
197,225,12527,1,0,2:0:0:0:
147,301,12759,1,10,2:0:0:0:
68,257,12992,1,0,1:0:0:0:
47,82,13224,5,10,2:0:0:0:
47,82,13340,1,0,2:0:0:0:
47,82,13456,5,0,1:0:0:0:
379,108,13689,1,0,3:0:0:0:
379,108,13806,1,0,1:0:0:0:
73,208,14038,1,0,2:0:0:0:
73,208,14154,1,0,1:0:0:0:
405,234,14387,1,2,1:2:0:0:
415,226,14503,1,8,2:3:0:0:
427,227,14620,1,10,2:3:0:0:
434,236,14736,1,6,2:3:0:0:
432,247,14852,2,0,P|374:279|313:256,1,135,4|0,2:0|2:0,2:0:0:0:
174,339,15317,6,0,P|177:297|170:249,1,90,4|0,3:2|2:0,2:0:0:0:
58,184,15666,1,0,3:0:0:0:
51,194,15782,2,0,P|57:238|54:283,1,90,0|0,1:0|3:0,2:0:0:0:
327,345,16364,2,0,P|347:334|369:329,1,45,0|2,3:0|2:0,2:0:0:0:
476,321,16713,1,2,3:2:0:0:
458,127,16945,2,0,P|436:132|416:142,1,45,2|0,3:2|2:0,2:0:0:0:
354,197,17178,5,2,2:0:0:0:
343,188,17294,1,0,2:0:0:0:
330,183,17410,2,0,P|307:183|285:189,1,45,2|0,3:2|2:0,2:0:0:0:
255,264,17643,1,2,1:2:0:0:
244,273,17759,1,2,3:2:0:0:
231,278,17875,2,0,P|208:277|141:252,1,90,2|0,2:0|3:0,2:0:0:0:
237,40,18340,2,0,P|241:61|238:84,1,45,2|0,2:0|3:0,2:0:0:0:
54,161,18573,2,0,P|49:139|52:116,1,45,2|2,1:2|2:0,2:0:0:0:
247,46,18806,1,2,3:2:0:0:
247,46,18922,6,0,P|266:109|251:174,1,135,0|0,2:0|3:0,2:0:0:0:
125,294,19503,1,0,1:0:0:0:
125,294,19620,1,0,3:0:0:0:
125,294,19736,2,0,P|80:296|38:280,1,90,0|0,2:0|3:0,2:0:0:0:
135,80,20201,1,2,2:0:0:0:
135,80,20317,1,0,3:0:0:0:
135,80,20433,2,0,P|131:57|135:35,3,45,2|0|2|0,1:2|3:0|3:2|2:0,2:0:0:0:
149,167,20899,6,0,L|193:172,1,45,2|0,2:0|2:0,2:0:0:0:
125,251,21131,1,2,3:2:0:0:
125,251,21247,2,0,L|169:256,1,45,2|0,2:0|1:0,2:0:0:0:
101,335,21480,1,2,3:2:0:0:
101,335,21596,2,0,L|190:346,1,90,2|0,2:0|3:0,2:0:0:0:
467,294,22061,2,0,P|474:273|474:250,1,45,0|0,2:0|3:0,2:0:0:0:
441,182,22293,1,2,1:2:0:0:
368,205,22409,1,2,2:0:0:0:
297,173,22527,1,2,2:0:0:0:
268,102,22643,1,2,2:0:0:0:
303,34,22759,6,0,L|298:123,1,90,2|0,3:2|2:0,2:0:0:0:
193,276,23108,1,2,3:2:0:0:
193,276,23224,2,0,L|195:231,1,45,0|0,1:0|2:0,2:0:0:0:
109,21,23457,2,0,L|104:110,1,90,2|0,3:2|2:0,2:0:0:0:
0,263,23806,1,0,3:0:0:0:
0,263,23922,2,0,L|2:218,1,45,0|0,2:0|2:0,2:0:0:0:
7,70,24154,1,0,3:0:0:0:
214,50,24387,1,0,3:0:0:0:
214,50,24503,1,2,2:0:0:0:
214,50,24620,6,0,P|236:50|257:57,2,45,2|0|0,2:0|2:0|3:0,2:0:0:0:
270,192,24968,1,2,2:0:0:0:
270,192,25085,2,0,P|286:177|298:157,1,45,0|0,1:0|3:0,2:0:0:0:
124,146,25317,2,0,P|132:189|154:228,1,90,2|0,2:0|3:0,2:0:0:0:
354,351,25782,2,0,L|357:306,1,45,2|0,2:0|3:0,2:0:0:0:
415,255,26015,1,2,1:2:0:0:
410,244,26131,1,2,2:0:0:0:
405,233,26247,2,0,L|408:188,1,45,2|2,3:2|2:0,2:0:0:0:
146,138,26480,6,0,B|201:161|201:161|229:150,1,90,2|0,2:0|3:0,2:0:0:0:
369,50,26829,1,0,2:0:0:0:
361,56,26945,2,0,B|306:33|306:33|277:43,1,90,2|0,1:2|2:0,2:0:0:0:
138,144,27294,1,0,2:0:0:0:
146,138,27410,2,0,B|201:161|201:161|229:150,1,90,2|0,3:2|2:0,2:0:0:0:
369,50,27759,1,0,3:0:0:0:
361,56,27875,2,0,L|367:111,1,45,2|0,1:2|3:0,2:0:0:0:
434,167,28108,1,0,3:0:0:0:
426,173,28224,1,0,2:0:0:0:
367,240,28340,5,0,1:0:0:0:
338,205,28456,1,0,2:0:0:0:
297,188,28572,1,2,3:2:0:0:
252,195,28688,1,0,1:0:0:0:
217,222,28806,2,0,L|223:277,1,45,2|0,2:0|2:0,2:0:0:0:
124,124,29038,2,0,L|128:79,1,45,2|0,1:2|2:0,2:0:0:0:
18,269,29271,5,2,1:2:0:0:
64,326,29387,1,8,2:3:0:0:
138,336,29503,1,10,2:3:0:0:
200,294,29619,1,8,2:3:0:0:
217,222,29736,1,6,2:3:0:0:
234,150,29852,1,4,2:3:0:0:
296,108,29969,1,6,2:3:0:0:
370,118,30085,1,4,2:3:0:0:
416,175,30201,6,0,L|392:353,1,180,4|0,3:2|2:0,2:0:0:0:
34,110,31131,2,0,P|84:80|142:88,1,120,2|0,1:2|2:0,2:0:0:0:
213,142,31596,2,0,P|162:172|104:164,1,120,2|0,3:2|2:0,2:0:0:0:
225,54,32061,6,0,L|426:76,1,180,0|0,3:0|2:0,2:0:0:0:
472,274,32992,2,0,P|422:304|364:296,1,120,2|0,1:2|2:0,2:0:0:0:
293,242,33457,2,0,P|344:212|402:220,1,120,2|0,2:0|2:0,2:0:0:0:
282,329,33922,6,0,L|81:307,1,180,0|0,3:0|2:0,2:0:0:0:
80,74,34852,2,0,P|128:106|186:98,1,120,2|0,1:2|2:0,2:0:0:0:
263,38,35317,2,0,P|318:19|372:42,1,120,2|0,3:2|2:0,2:0:0:0:
386,136,35782,6,0,L|266:148,1,120,2|0,3:2|2:0,2:0:0:0:
217,224,36247,2,0,L|97:235,1,120,2|0,2:0|2:0,2:0:0:0:
45,312,36713,2,0,P|119:357|204:333,1,180,2|2,1:2|2:1,2:0:0:0:
345,285,37410,1,0,2:0:0:0:
485,339,37643,6,0,L|477:249,1,90,4|0,3:2|2:0,2:0:0:0:
393,192,37992,1,0,1:0:0:0:
393,192,38108,2,0,L|385:102,1,90,0|2,3:0|1:2,2:0:0:0:
278,51,38457,1,2,2:0:0:0:
278,51,38573,2,0,L|234:55,1,45,2|0,3:2|2:0,2:0:0:0:
121,140,38806,2,0,L|165:144,1,45,2|0,1:2|2:0,2:0:0:0:
262,242,39038,2,0,L|173:250,1,90,2|0,1:2|2:0,2:0:0:0:
31,324,39503,6,0,P|70:345|115:341,1,90,0|0,3:0|2:0,2:0:0:0:
189,308,39852,1,0,1:0:0:0:
189,308,39968,2,0,P|234:303|273:325,1,90,0|2,3:0|1:2,2:0:0:0:
387,358,40317,1,2,2:0:0:0:
387,358,40433,2,0,L|376:309,1,45,2|0,3:2|1:0,2:0:0:0:
313,187,40666,2,0,L|303:231,1,45,2|0,2:0|2:0,2:0:0:0:
414,128,40899,2,0,L|395:39,1,90,2|0,1:2|2:0,2:0:0:0:
204,132,41364,6,0,B|182:164|182:164|200:211,1,90,0|0,3:0|2:0,2:0:0:0:
279,257,41713,1,0,1:0:0:0:
279,257,41829,2,0,B|302:224|302:224|284:177,1,90,0|2,3:0|1:2,2:0:0:0:
137,87,42178,1,2,2:0:0:0:
137,87,42294,2,0,L|114:148,1,45,2|0,3:2|1:0,2:0:0:0:
71,249,42527,2,0,L|55:206,1,45,2|0,2:0|2:0,2:0:0:0:
201,210,42759,1,2,1:2:0:0:
165,331,42992,1,0,1:0:0:0:
159,339,43108,1,2,1:2:0:0:
236,352,43224,5,2,1:2:0:0:
261,314,43340,1,0,1:0:0:0:
262,270,43456,1,2,1:2:0:0:
240,231,43572,1,0,1:0:0:0:
201,210,43689,1,2,1:2:0:0:
162,189,43806,1,0,1:0:0:0:
140,150,43922,1,2,1:2:0:0:
141,106,44038,1,0,1:0:0:0:
166,68,44154,6,0,L|210:73,1,45,2|0,1:2|1:0,2:0:0:0:
418,46,44387,2,0,L|373:40,1,45,2|0,1:2|1:0,2:0:0:0:
175,93,44620,2,0,L|219:98,1,45,2|0,1:2|1:0,2:0:0:0:
427,71,44853,2,0,L|382:65,1,45,2|0,2:0|2:0,2:0:0:0:
193,143,45782,6,0,L|282:154,2,90,2|2|2,2:0|2:0|2:0,2:0:0:0:
89,127,46480,1,10,2:0:0:0:
396,181,46945,6,0,L|444:297,1,125.999996154785,6|0,3:2|2:0,2:0:0:0:
305,143,47294,1,2,2:0:0:0:
305,143,47410,2,0,L|381:43,1,125.999996154785,0|2,3:0|2:0,2:0:0:0:
319,236,47875,1,2,3:2:0:0:
239,81,48108,1,2,2:0:0:0:
239,81,48224,1,2,2:0:0:0:
239,81,48340,1,2,3:2:0:0:
171,244,48573,2,0,P|201:250|231:241,1,62.9999980773926,2|0,2:0|2:0,2:0:0:0:
80,185,48806,6,0,L|99:309,1,125.999996154785,2|2,3:2|2:0,2:0:0:0:
184,352,49154,1,2,2:0:0:0:
184,352,49271,2,0,P|213:343|244:349,1,62.9999980773926,0|2,3:0|2:0,2:0:0:0:
340,333,49503,1,2,2:0:0:0:
324,151,49736,1,2,3:2:0:0:
247,203,49968,5,2,2:0:0:0:
316,245,50084,1,2,2:0:0:0:
392,217,50201,1,2,3:2:0:0:
417,140,50317,1,2,2:0:0:0:
373,72,50433,1,2,2:0:0:0:
293,64,50549,1,2,2:0:0:0:
236,122,50666,6,0,L|110:111,1,125.999996154785,2|0,3:2|2:0,2:0:0:0:
316,245,51015,1,2,2:0:0:0:
316,245,51131,2,0,L|441:234,1,125.999996154785,0|2,3:0|2:0,2:0:0:0:
210,345,51596,1,2,3:2:0:0:
190,155,51829,2,0,L|195:217,1,62.9999980773926,2|2,2:0|2:0,2:0:0:0:
210,345,52061,1,2,3:2:0:0:
401,265,52294,2,0,P|372:256|341:262,1,62.9999980773926,2|0,2:0|2:0,2:0:0:0:
312,371,52527,6,0,L|300:245,1,125.999996154785,2|2,3:2|2:0,2:0:0:0:
190,155,52875,1,2,2:0:0:0:
190,155,52992,2,0,L|195:217,1,62.9999980773926,0|2,3:0|2:0,2:0:0:0:
210,345,53224,1,2,2:0:0:0:
35,267,53457,1,2,3:2:0:0:
37,366,53689,5,2,2:0:0:0:
106,329,53805,1,2,2:0:0:0:
127,253,53921,1,2,3:2:0:0:
86,185,54037,1,2,2:0:0:0:
44,117,54155,1,2,2:0:0:0:
65,41,54271,1,2,2:0:0:0:
135,4,54387,6,0,L|149:136,1,125.999996154785,2|0,3:2|2:0,2:0:0:0:
289,167,54736,1,2,2:0:0:0:
289,167,54852,2,0,L|275:41,1,125.999996154785,0|2,3:0|2:0,2:0:0:0:
427,117,55317,1,2,3:2:0:0:
445,311,55550,2,0,L|438:248,1,62.9999980773926,2|2,2:0|2:0,2:0:0:0:
289,167,55782,1,2,3:2:0:0:
289,167,55899,1,2,2:0:0:0:
289,167,56015,2,0,L|295:229,1,62.9999980773926,2|0,2:0|2:0,2:0:0:0:
217,342,56247,6,0,P|166:306|104:307,1,125.999996154785,2|0,3:2|2:0,2:0:0:0:
57,170,56713,1,2,3:2:0:0:
57,170,56829,1,2,2:0:0:0:
57,170,56945,1,2,2:0:0:0:
244,149,57178,1,2,3:2:0:0:
150,130,57410,5,2,2:0:0:0:
195,66,57526,1,2,2:0:0:0:
274,57,57642,1,2,3:2:0:0:
332,110,57758,1,2,2:0:0:0:
332,189,57875,1,2,2:0:0:0:
139,307,58108,6,0,B|171:288|171:288|256:312,1,125.999996154785,8|0,3:2|2:0,2:0:0:0:
373,307,58457,2,0,B|341:288|341:288|255:312,1,125.999996154785,8|0,2:0|2:0,2:0:0:0:
115,219,58806,1,10,2:0:0:0:
397,219,59038,1,2,3:2:0:0:
115,219,59271,1,10,2:0:0:0:
397,219,59503,1,10,3:2:0:0:
256,101,59736,1,0,2:0:0:0:
11,259,59968,5,8,3:2:0:0:
63,318,60084,1,8,2:3:0:0:
141,328,60200,1,8,2:3:0:0:
207,284,60316,1,4,2:3:0:0:
226,207,60433,1,8,3:2:0:0:
245,130,60550,1,8,2:3:0:0:
311,86,60666,1,10,2:0:0:0:
389,96,60782,1,8,2:3:0:0:
442,156,60899,6,0,L|435:218,1,62.9999980773926,10|8,3:0|2:3,2:0:0:0:
115,219,61131,2,0,L|122:157,1,62.9999980773926,6|4,2:3|2:3,2:0:0:0:
467,299,61364,2,0,L|409:323,1,62.9999980773926,10|4,3:2|2:3,2:0:0:0:
90,76,61596,2,0,L|147:51,1,62.9999980773926,4|4,2:3|2:3,2:0:0:0:
442,156,61829,6,0,P|392:193|333:178,1,125.999996154785,6|8,3:2|2:0,2:0:0:0:
195,283,62178,1,2,2:0:0:0:
195,283,62294,2,0,P|188:222|230:178,1,125.999996154785,0|10,1:0|2:0,2:0:0:0:
62,286,62759,1,2,3:2:0:0:
65,95,62992,1,10,2:0:0:0:
65,95,63108,1,2,2:0:0:0:
65,95,63224,1,2,1:2:0:0:
251,63,63457,2,0,L|257:133,1,62.9999980773926,10|0,2:0|2:0,2:0:0:0:
145,214,63690,6,0,P|202:193|255:223,1,125.999996154785,2|10,3:2|2:0,2:0:0:0:
396,303,64038,1,2,2:0:0:0:
396,303,64154,2,0,L|390:240,1,62.9999980773926,0|2,1:0|2:0,2:0:0:0:
375,103,64387,1,10,2:0:0:0:
230,213,64620,1,2,3:2:0:0:
316,181,64852,5,10,2:0:0:0:
309,262,64968,1,2,2:0:0:0:
242,306,65085,1,2,1:2:0:0:
165,282,65201,1,2,2:0:0:0:
136,206,65317,1,10,2:0:0:0:
176,137,65433,1,2,2:0:0:0:
257,125,65550,6,0,L|382:134,1,125.999996154785,2|8,3:2|2:0,2:0:0:0:
165,282,65899,1,2,2:0:0:0:
165,282,66015,2,0,L|39:291,1,125.999996154785,0|10,1:0|2:0,2:0:0:0:
346,283,66480,1,2,3:2:0:0:
257,125,66713,2,0,L|288:179,1,62.9999980773926,10|2,2:0|2:0,2:0:0:0:
346,283,66945,1,2,1:2:0:0:
165,282,67178,2,0,L|102:286,1,62.9999980773926,10|0,2:0|2:0,2:0:0:0:
37,135,67410,6,0,P|63:117|94:113,1,62.9999980773926,2|0,3:2|2:0,2:0:0:0:
158,31,67643,1,10,2:0:0:0:
158,31,67759,2,0,P|188:37|213:56,1,62.9999980773926,2|0,2:0|1:0,2:0:0:0:
311,52,67992,1,2,2:0:0:0:
311,52,68108,2,0,P|325:79|327:110,1,62.9999980773926,10|0,2:0|2:0,2:0:0:0:
370,277,68340,1,2,3:2:0:0:
466,252,68573,5,10,2:0:0:0:
414,193,68689,1,2,2:0:0:0:
335,190,68805,1,2,1:2:0:0:
278,245,68921,1,2,2:0:0:0:
221,301,69039,1,10,2:0:0:0:
143,298,69155,1,2,2:0:0:0:
91,238,69271,6,0,L|216:252,1,125.999996154785,2|8,3:2|2:0,2:0:0:0:
337,96,69620,1,2,2:0:0:0:
337,96,69736,2,0,L|211:110,1,125.999996154785,0|10,1:0|2:0,2:0:0:0:
91,238,70201,1,2,3:2:0:0:
314,316,70433,2,0,L|251:323,1,62.9999980773926,10|2,2:0|2:0,2:0:0:0:
91,238,70666,1,2,1:2:0:0:
91,238,70782,1,2,2:0:0:0:
91,238,70899,2,0,L|153:230,1,62.9999980773926,10|0,2:0|2:0,2:0:0:0:
379,371,71131,6,0,P|398:312|374:256,1,125.999996154785,2|8,3:2|2:0,2:0:0:0:
254,187,71597,1,2,1:2:0:0:
254,187,71713,1,2,2:0:0:0:
254,187,71829,1,10,2:0:0:0:
142,284,72061,1,2,3:2:0:0:
73,216,72294,5,10,2:0:0:0:
45,289,72410,1,2,2:0:0:0:
82,360,72527,1,2,1:2:0:0:
158,378,72643,1,2,2:0:0:0:
224,334,72759,1,10,2:0:0:0:
139,68,72992,6,0,B|171:87|171:87|256:63,1,125.999996154785,8|8,3:2|2:0,2:0:0:0:
373,67,73340,2,0,B|341:86|341:86|256:62,1,125.999996154785,8|0,2:0|2:0,2:0:0:0:
115,165,73689,1,10,2:0:0:0:
397,165,73922,1,2,3:2:0:0:
115,165,74154,1,8,2:0:0:0:
397,165,74387,1,10,1:2:0:0:
256,283,74620,1,8,2:0:0:0:
55,98,74852,5,8,3:2:0:0:
24,170,74968,1,8,2:3:0:0:
61,239,75084,1,8,2:3:0:0:
138,254,75200,1,4,2:3:0:0:
198,204,75317,1,8,1:2:0:0:
258,153,75433,1,8,2:3:0:0:
335,169,75549,1,10,2:0:0:0:
371,238,75665,1,8,2:3:0:0:
341,310,75782,6,0,P|330:280|331:249,1,62.9999980773926,10|8,3:0|2:3,2:0:0:0:
55,98,76015,2,0,P|65:127|64:158,1,62.9999980773926,4|4,2:3|2:3,2:0:0:0:
205,357,76247,2,0,P|236:358|265:347,1,62.9999980773926,10|4,1:2|2:3,2:0:0:0:
191,51,76480,2,0,P|159:49|130:60,1,62.9999980773926,4|4,2:3|2:3,2:0:0:0:
256,192,76713,12,4,78108,2:0:0:0:
101,300,78573,6,0,P|142:316|185:307,1,90,4|0,3:2|2:0,2:0:0:0:
242,222,78922,1,0,2:0:0:0:
249,230,79038,2,0,P|292:220|333:237,1,90,2|0,3:2|2:0,2:0:0:0:
447,366,79503,1,0,3:0:0:0:
447,366,79620,1,0,2:0:0:0:
447,366,79736,2,0,P|441:344|443:322,1,45,0|0,2:0|2:0,2:0:0:0:
477,238,79968,1,0,3:0:0:0:
336,149,80201,1,0,2:0:0:0:
336,149,80317,1,0,2:0:0:0:
336,149,80433,6,0,P|314:154|292:152,1,45,2|0,3:2|2:0,2:0:0:0:
133,240,80666,1,0,2:0:0:0:
133,240,80782,2,0,P|138:218|151:200,1,45,2|0,2:0|3:0,2:0:0:0:
155,18,81015,1,0,2:0:0:0:
155,18,81131,2,0,P|188:46|200:89,1,90,2|0,2:0|3:0,2:0:0:0:
380,73,81596,1,0,2:0:0:0:
390,81,81713,1,2,2:0:0:0:
400,89,81829,2,0,L|452:81,2,45,2|2|2,3:2|2:0|2:0,2:0:0:0:
343,194,82178,1,2,2:0:0:0:
344,184,82294,6,0,L|255:197,1,90,0|0,3:0|2:0,2:0:0:0:
134,181,82759,1,2,3:2:0:0:
127,175,82875,2,0,B|144:145|144:145|126:92,1,90,0|2,2:0|2:0,2:0:0:0:
45,296,83224,2,0,L|130:266,1,90,0|0,3:0|2:0,2:0:0:0:
182,317,83573,1,0,2:0:0:0:
206,279,83689,1,0,3:0:0:0:
246,262,83805,1,0,2:0:0:0:
290,270,83921,1,0,2:0:0:0:
321,302,84038,1,0,2:0:0:0:
329,345,84154,6,0,L|345:302,1,45,2|0,3:2|2:0,2:0:0:0:
206,279,84386,1,0,2:0:0:0:
206,279,84503,2,0,L|189:236,1,45,2|0,2:0|3:0,2:0:0:0:
307,177,84736,1,0,2:0:0:0:
307,177,84852,2,0,L|323:134,1,45,2|0,2:0|2:0,2:0:0:0:
357,53,85085,1,0,3:0:0:0:
121,47,85317,1,2,2:0:0:0:
134,89,85433,1,2,2:0:0:0:
148,132,85549,1,2,3:2:0:0:
134,174,85666,1,2,2:0:0:0:
120,217,85782,1,2,2:0:0:0:
134,258,85899,1,2,2:0:0:0:
148,301,86015,6,0,L|237:313,1,90,2|0,3:2|2:0,2:0:0:0:
321,326,86364,1,0,2:0:0:0:
328,313,86480,2,0,P|371:304|412:321,1,90,2|0,3:2|2:0,2:0:0:0:
487,359,86829,1,0,2:0:0:0:
487,359,86945,2,0,L|482:224,1,135,2|0,3:2|2:0,2:0:0:0:
440,154,87410,1,0,3:0:0:0:
341,99,87643,2,0,L|356:37,1,60,2|0,2:0|2:0,2:0:0:0:
329,30,87875,6,0,P|285:23|245:43,1,90,2|0,3:2|2:0,2:0:0:0:
185,109,88224,1,0,2:0:0:0:
174,120,88340,2,0,P|130:126|90:106,1,90,2|0,3:2|2:0,2:0:0:0:
34,46,88689,1,0,2:0:0:0:
34,47,88806,1,2,3:2:0:0:
27,219,89038,1,0,2:0:0:0:
174,310,89271,1,2,3:2:0:0:
210,283,89387,1,2,2:0:0:0:
255,279,89503,1,2,2:0:0:0:
294,299,89619,1,2,2:0:0:0:
318,336,89736,6,0,L|417:328,1,90,0|0,3:0|2:0,2:0:0:0:
442,175,90201,1,0,3:0:0:0:
435,167,90317,2,0,L|345:175,1,90,0|0,2:0|2:0,2:0:0:0:
250,189,90666,1,2,3:2:0:0:
109,98,90899,2,0,L|64:101,2,45,0|2|0,2:0|2:0|3:0,2:0:0:0:
321,38,91364,1,0,2:0:0:0:
321,38,91480,1,2,2:0:0:0:
321,38,91596,6,0,L|313:128,1,90,0|0,1:0|2:0,2:0:0:0:
233,67,91945,2,0,L|225:157,1,90,0|0,3:0|2:0,2:0:0:0:
302,218,92294,1,2,1:2:0:0:
145,96,92527,1,2,3:2:0:0:
141,140,92643,1,8,2:3:0:0:
137,185,92759,1,8,2:3:0:0:
133,230,92875,1,8,2:3:0:0:
129,275,92992,1,4,2:3:0:0:
125,319,93108,1,4,2:3:0:0:
121,364,93225,1,4,2:3:0:0:
445,335,93457,6,0,L|266:351,1,180,4|0,3:2|2:0,2:0:0:0:
199,154,94387,2,0,L|318:145,1,120,2|0,1:2|2:0,2:0:0:0:
321,61,94852,2,0,L|455:49,1,120,2|0,3:2|2:0,2:0:0:0:
491,122,95317,6,0,P|511:207|465:281,1,180,0|0,3:0|2:0,2:0:0:0:
313,154,96247,2,0,L|193:143,1,120,2|0,1:2|2:0,2:0:0:0:
191,61,96712,2,0,L|71:49,1,120,2|0,2:0|2:0,2:0:0:0:
21,122,97177,6,0,P|0:207|46:281,1,180,0|0,3:0|2:0,2:0:0:0:
378,369,98108,2,0,L|386:249,1,120,2|0,1:2|2:0,2:0:0:0:
324,185,98573,2,0,L|333:65,1,120,2|0,3:2|2:0,2:0:0:0:
255,32,99038,6,0,P|203:58|184:114,1,120,2|0,3:2|2:0,2:0:0:0:
199,210,99503,2,0,P|188:267|143:304,1,120,2|0,2:0|2:0,2:0:0:0:
48,316,99968,2,0,L|63:136,1,180,2|2,1:2|2:1,2:0:0:0:
163,13,100666,1,0,2:0:0:0:
324,52,100899,6,0,L|316:141,1,90,4|0,3:2|2:0,2:0:0:0:
389,205,101248,1,0,1:0:0:0:
389,205,101364,2,0,L|396:294,1,90,0|2,3:0|1:2,2:0:0:0:
306,348,101713,1,2,2:0:0:0:
306,348,101829,2,0,L|260:345,1,45,2|0,3:2|2:0,2:0:0:0:
174,237,102061,2,0,L|219:239,1,45,2|0,1:2|2:0,2:0:0:0:
309,131,102294,2,0,L|217:125,1,90,2|0,1:2|2:0,2:0:0:0:
105,7,102759,6,0,P|90:48|104:90,1,90,0|0,3:0|2:0,2:0:0:0:
205,166,103108,1,0,1:0:0:0:
205,166,103224,2,0,P|221:124|207:83,1,90,0|2,3:0|1:2,2:0:0:0:
56,217,103573,1,2,2:0:0:0:
56,217,103689,2,0,L|49:172,1,45,2|0,3:2|1:0,2:0:0:0:
130,324,103922,2,0,L|123:368,1,45,2|0,2:0|2:0,2:0:0:0:
209,223,104154,2,0,L|195:134,1,90,2|0,1:2|2:0,2:0:0:0:
306,36,104620,5,0,3:0:0:0:
378,183,104852,1,0,3:0:0:0:
378,183,104968,1,0,1:0:0:0:
378,183,105085,1,0,3:0:0:0:
468,42,105317,1,2,1:2:0:0:
306,36,105550,2,0,L|309:76,1,45,2|0,3:2|1:0,2:0:0:0:
378,183,105782,2,0,L|370:133,1,45,2|0,3:2|2:0,2:0:0:0:
306,36,106015,1,2,1:2:0:0:
188,121,106247,1,0,1:0:0:0:
196,128,106364,1,2,1:2:0:0:
199,37,106480,5,2,1:2:0:0:
156,47,106596,1,0,1:0:0:0:
122,75,106712,1,2,1:2:0:0:
105,117,106828,1,0,1:0:0:0:
111,161,106945,1,2,1:2:0:0:
136,197,107061,1,0,1:0:0:0:
176,217,107177,1,2,1:2:0:0:
221,215,107293,1,0,1:0:0:0:
259,193,107410,6,0,L|264:149,1,45,2|0,1:2|1:0,2:0:0:0:
394,25,107643,2,0,L|389:69,1,45,2|0,1:2|1:0,2:0:0:0:
295,212,107875,2,0,L|300:168,1,45,2|0,1:2|1:0,2:0:0:0:
430,44,108108,2,0,L|425:88,1,45,2|0,3:2|3:0,2:0:0:0:
367,250,109038,6,0,L|377:160,2,90,2|2|2,2:0|2:0|2:0,2:0:0:0:
353,350,109736,1,10,2:0:0:0:
203,197,110201,6,0,P|143:180|86:205,1,125.999996154785,6|8,3:2|2:0,2:0:0:0:
279,251,110550,1,2,2:0:0:0:
279,251,110666,2,0,P|295:191|270:134,1,125.999996154785,0|10,1:0|2:0,2:0:0:0:
93,87,111131,1,2,3:2:0:0:
110,271,111364,1,10,2:0:0:0:
110,271,111480,1,2,2:0:0:0:
110,271,111596,1,2,1:2:0:0:
260,165,111829,2,0,P|262:133|254:103,1,62.9999980773926,10|0,2:0|2:0,2:0:0:0:
206,241,112061,6,0,P|265:257|322:232,1,125.999996154785,2|10,3:2|2:0,2:0:0:0:
366,148,112410,1,2,2:0:0:0:
366,148,112527,2,0,P|367:116|359:86,1,62.9999980773926,0|2,1:0|2:0,2:0:0:0:
288,24,112759,1,10,2:0:0:0:
131,122,112992,1,2,3:2:0:0:
162,35,113224,5,10,2:0:0:0:
82,43,113340,1,2,2:0:0:0:
38,111,113456,1,2,1:2:0:0:
63,188,113572,1,2,2:0:0:0:
139,216,113689,1,10,2:0:0:0:
208,174,113805,1,2,2:0:0:0:
219,93,113922,6,0,L|85:87,1,125.999996154785,2|8,3:2|2:0,2:0:0:0:
265,244,114271,1,2,2:0:0:0:
265,244,114387,2,0,L|390:249,1,125.999996154785,0|10,1:0|2:0,2:0:0:0:
219,93,114852,1,2,3:2:0:0:
93,236,115085,2,0,L|155:238,1,62.9999980773926,10|2,2:0|2:0,2:0:0:0:
265,244,115317,1,2,1:2:0:0:
219,93,115549,2,0,L|156:90,1,62.9999980773926,10|0,2:0|2:0,2:0:0:0:
52,41,115782,6,0,P|60:70|55:101,1,62.9999980773926,2|0,3:2|2:0,2:0:0:0:
38,208,116015,1,10,2:0:0:0:
38,208,116131,2,0,P|68:215|92:235,1,62.9999980773926,2|0,2:0|1:0,2:0:0:0:
175,303,116364,1,2,2:0:0:0:
175,303,116480,2,0,P|196:280|225:269,1,62.9999980773926,10|0,2:0|2:0,2:0:0:0:
318,248,116713,1,2,3:2:0:0:
413,261,116945,5,10,2:0:0:0:
391,186,117061,1,2,2:0:0:0:
320,152,117177,1,2,1:2:0:0:
247,182,117293,1,2,2:0:0:0:
174,212,117410,1,10,2:0:0:0:
103,178,117526,1,2,2:0:0:0:
81,102,117643,6,0,L|206:97,1,125.999996154785,2|8,3:2|2:0,2:0:0:0:
445,147,117992,1,2,2:0:0:0:
445,147,118108,2,0,L|320:152,1,125.999996154785,0|10,1:0|2:0,2:0:0:0:
174,212,118573,1,2,3:2:0:0:
379,270,118806,2,0,L|316:272,1,62.9999980773926,10|2,2:0|2:0,2:0:0:0:
174,212,119038,1,2,1:2:0:0:
174,212,119155,1,2,2:0:0:0:
174,212,119271,2,0,L|176:274,1,62.9999980773926,10|0,2:0|2:0,2:0:0:0:
204,129,119503,6,0,P|143:129|96:170,1,125.999996154785,2|8,3:2|2:0,2:0:0:0:
95,330,119968,1,2,1:2:0:0:
95,330,120084,1,2,2:0:0:0:
95,330,120200,1,10,2:0:0:0:
270,293,120433,1,2,3:2:0:0:
176,274,120666,5,8,2:0:0:0:
221,210,120782,1,2,2:0:0:0:
300,201,120899,1,2,1:2:0:0:
358,254,121015,1,2,2:0:0:0:
358,333,121131,1,10,2:0:0:0:
114,66,121364,6,0,L|122:191,1,125.999996154785,8|8,3:2|2:0,2:0:0:0:
28,92,121713,2,0,L|36:217,1,125.999996154785,8|0,2:0|2:0,2:0:0:0:
243,40,122061,1,10,2:0:0:0:
262,345,122294,1,2,3:2:0:0:
243,40,122527,1,10,2:0:0:0:
262,345,122760,1,10,1:2:0:0:
364,184,122992,1,8,2:0:0:0:
106,69,123224,5,8,3:2:0:0:
61,133,123340,1,8,2:3:0:0:
84,208,123456,1,8,2:3:0:0:
157,236,123572,1,4,2:3:0:0:
224,196,123689,1,8,1:2:0:0:
291,156,123806,1,8,2:3:0:0:
364,184,123922,1,10,2:0:0:0:
387,259,124038,1,8,2:3:0:0:
342,323,124154,6,0,L|279:318,1,62.9999980773926,10|8,3:0|2:3,2:0:0:0:
106,69,124387,2,0,L|168:73,1,62.9999980773926,6|4,2:3|2:3,2:0:0:0:
422,206,124620,2,0,L|387:259,1,62.9999980773926,10|4,1:2|2:3,2:0:0:0:
25,185,124852,2,0,L|61:133,1,62.9999980773926,4|4,2:3|2:3,2:0:0:0:
414,90,125085,6,0,P|438:146|422:206,1,125.999996154785,6|8,3:2|2:0,2:0:0:0:
273,263,125433,1,2,2:0:0:0:
273,263,125550,2,0,P|248:206|264:146,1,125.999996154785,0|10,1:0|2:0,2:0:0:0:
118,250,126015,1,2,3:2:0:0:
73,85,126247,1,10,2:0:0:0:
73,85,126364,1,2,2:0:0:0:
73,85,126480,1,2,1:2:0:0:
248,61,126713,2,0,P|278:68|309:66,1,62.9999980773926,10|0,2:0|2:0,2:0:0:0:
395,47,126945,6,0,L|412:171,1,125.999996154785,2|10,3:2|2:0,2:0:0:0:
430,298,127294,1,2,2:0:0:0:
430,298,127410,2,0,P|399:290|368:292,1,62.9999980773926,0|2,1:0|2:0,2:0:0:0:
240,329,127643,1,10,2:0:0:0:
317,168,127875,1,2,3:2:0:0:
253,236,128107,5,10,2:0:0:0:
224,161,128223,1,2,2:0:0:0:
262,91,128339,1,2,1:2:0:0:
342,77,128457,1,2,2:0:0:0:
403,131,128572,1,10,2:0:0:0:
398,212,128688,1,2,2:0:0:0:
331,259,128806,6,0,L|206:254,1,125.999996154785,2|8,3:2|2:0,2:0:0:0:
136,85,129154,1,2,2:0:0:0:
136,85,129271,2,0,L|261:90,1,125.999996154785,0|10,1:0|2:0,2:0:0:0:
431,40,129736,1,2,3:2:0:0:
424,243,129968,2,0,L|426:180,1,62.9999980773926,10|2,2:0|2:0,2:0:0:0:
431,40,130201,1,2,1:2:0:0:
261,90,130433,2,0,L|263:152,1,62.9999980773926,10|0,2:0|2:0,2:0:0:0:
301,284,130666,6,0,P|271:277|240:279,1,62.9999980773926,2|0,3:2|2:0,2:0:0:0:
64,210,130899,1,10,2:0:0:0:
64,210,131015,2,0,P|94:203|125:205,1,62.9999980773926,2|0,2:0|1:0,2:0:0:0:
306,132,131247,1,2,2:0:0:0:
306,132,131363,2,0,P|276:125|245:127,1,62.9999980773926,10|0,2:0|2:0,2:0:0:0:
130,53,131596,1,2,3:2:0:0:
38,82,131829,5,10,2:0:0:0:
89,139,131945,1,2,2:0:0:0:
167,139,132061,1,2,1:2:0:0:
220,81,132177,1,2,2:0:0:0:
273,21,132294,1,10,2:0:0:0:
352,20,132410,1,2,2:0:0:0:
404,80,132527,6,0,L|262:68,1,125.999996154785,2|8,3:2|2:0,2:0:0:0:
89,139,132875,1,2,2:0:0:0:
89,139,132992,2,0,L|214:149,1,125.999996154785,0|10,1:0|2:0,2:0:0:0:
388,250,133457,1,2,3:2:0:0:
168,314,133689,2,0,L|230:319,1,62.9999980773926,10|2,2:0|2:0,2:0:0:0:
388,250,133922,1,2,1:2:0:0:
388,250,134038,1,2,2:0:0:0:
388,250,134154,2,0,L|325:244,1,62.9999980773926,10|0,2:0|2:0,2:0:0:0:
160,91,134387,6,0,P|162:151|204:197,1,125.999996154785,2|8,3:2|2:0,2:0:0:0:
315,114,134852,1,2,1:2:0:0:
315,114,134968,1,2,2:0:0:0:
315,114,135085,1,10,2:0:0:0:
261,298,135317,1,2,3:2:0:0:
350,335,135550,5,10,2:0:0:0:
349,257,135666,1,2,2:0:0:0:
288,206,135783,1,2,1:2:0:0:
210,216,135899,1,2,2:0:0:0:
166,282,136015,1,10,2:0:0:0:
398,66,136247,6,0,L|390:191,1,125.999996154785,8|8,3:2|2:0,2:0:0:0:
484,92,136596,2,0,L|476:217,1,125.999996154785,8|0,2:0|2:0,2:0:0:0:
269,40,136944,1,10,2:0:0:0:
250,345,137177,1,2,3:2:0:0:
269,40,137410,1,8,2:0:0:0:
250,345,137643,1,10,1:2:0:0:
148,184,137875,1,8,2:0:0:0:
470,206,138108,5,8,3:2:0:0:
439,134,138224,1,8,2:3:0:0:
368,102,138340,1,8,2:3:0:0:
294,131,138456,1,4,2:3:0:0:
262,204,138573,1,8,1:2:0:0:
229,276,138689,1,8,2:3:0:0:
156,305,138805,1,10,2:0:0:0:
83,274,138921,1,8,2:3:0:0:
54,201,139038,6,0,P|78:180|107:170,1,62.9999980773926,10|8,3:0|2:3,2:0:0:0:
470,206,139271,2,0,P|445:226|416:236,1,62.9999980773926,4|4,2:3|2:3,2:0:0:0:
150,94,139503,2,0,P|129:69|119:40,1,62.9999980773926,10|4,1:2|2:3,2:0:0:0:
374,313,139736,2,0,P|394:337|404:366,1,62.9999980773926,4|4,2:3|2:3,2:0:0:0:
204,339,139968,6,0,P|175:329|145:332,2,60,6|2|2,2:0|2:3|2:3,2:0:0:0:
95,214,140433,2,0,P|95:169|120:133,1,90,2|2,2:3|2:3,2:0:0:0:
203,123,140744,1,2,2:3:0:0:
203,123,140821,1,2,2:3:0:0:
203,123,140899,2,0,L|198:182,2,60,2|6|6,2:3|2:3|2:3,2:0:0:0:
336,84,141364,2,0,L|327:203,1,120,6|0,2:3|2:0,2:0:0:0:
317,320,141829,5,2,3:2:0:0:
191,153,142294,1,2,2:0:0:0:
200,162,142410,2,0,P|237:149|275:162,1,72,2|8,2:0|2:0,2:0:0:0:
76,216,142759,1,2,1:2:0:0:
78,202,142875,2,0,P|51:180|40:146,1,72,2|0,2:0|2:0,2:0:0:0:
188,284,143224,1,10,2:0:0:0:
175,287,143340,2,0,P|167:321|143:347,1,72,2|0,2:0|2:0,2:0:0:0:
200,161,143689,6,0,P|269:152|324:196,1,144,2|10,3:2|2:0,2:0:0:0:
380,329,144387,2,0,L|344:304,1,36,2|2,3:2|2:0,2:0:0:0:
245,239,144620,1,2,1:2:0:0:
422,177,144852,1,10,2:0:0:0:
291,59,145085,2,0,B|297:130|297:130|266:110,1,108,10|0,2:0|2:0,2:0:0:0:
160,43,145550,5,2,3:2:0:0:
333,337,146015,1,10,2:0:0:0:
342,346,146131,2,0,L|422:336,1,72,2|8,2:0|2:0,2:0:0:0:
294,230,146480,1,2,1:2:0:0:
285,239,146596,2,0,L|204:229,1,72,2|0,2:0|2:0,2:0:0:0:
373,147,146945,1,10,2:0:0:0:
382,156,147061,2,0,L|462:146,1,72,2|0,2:0|2:0,2:0:0:0:
422,335,147410,6,0,L|279:352,1,144,2|10,3:2|2:0,2:0:0:0:
67,246,148108,1,2,3:2:0:0:
73,281,148224,1,2,2:0:0:0:
80,316,148340,1,2,1:2:0:0:
107,293,148457,1,2,2:0:0:0:
135,270,148573,1,10,2:0:0:0:
284,102,148806,2,0,L|329:98,1,36,2|8,2:0|2:0,2:0:0:0:
210,186,149038,2,0,L|164:182,1,36,2|0,1:2|2:0,2:0:0:0:
282,273,149271,6,0,L|430:263,1,144,2|10,3:2|2:0,2:0:0:0:
212,15,149968,1,10,3:2:0:0:
210,186,150201,1,2,1:2:0:0:
284,102,150433,1,2,2:0:0:0:
282,273,150666,2,0,B|281:344,1,72,10|8,2:0|2:0,2:0:0:0:
210,186,151131,5,2,3:2:0:0:
396,217,151364,1,2,1:2:0:0:
396,217,151480,1,2,2:0:0:0:
396,217,151596,1,10,2:0:0:0:
202,323,151829,1,2,3:2:0:0:
388,354,152062,1,2,1:2:0:0:
210,186,152294,1,10,2:0:0:0:
210,186,152410,1,2,2:0:0:0:
210,186,152527,2,0,L|213:150,1,36,2|8,2:0|2:0,2:0:0:0:
396,217,152759,2,0,L|399:252,1,36,2|0,1:2|2:0,2:0:0:0:
185,182,152992,6,0,L|198:38,1,144,2|10,3:2|2:0,2:0:0:0:
396,217,153689,2,0,L|361:220,1,36,10|8,3:2|2:0,2:0:0:0:
259,237,153922,1,2,1:2:0:0:
280,76,154154,1,2,2:0:0:0:
396,217,154387,2,0,L|389:288,1,72,10|8,2:0|1:2,2:0:0:0:
417,56,154852,5,2,3:2:0:0:
289,203,155085,1,2,2:0:0:0:
289,203,155201,1,0,3:0:0:0:
289,203,155317,1,2,2:0:0:0:
161,56,155550,1,2,3:2:0:0:
36,186,155782,5,2,2:0:0:0:
55,215,155899,1,0,2:0:0:0:
86,233,156015,1,2,2:0:0:0:
122,234,156131,1,0,2:0:0:0:
155,219,156247,2,0,P|204:202|255:217,1,108,2|0,2:0|2:0,2:0:0:0:
281,244,156713,1,6,2:0:0:0:
420,285,167875,6,0,L|407:182,1,90,8|0,2:0|2:0,2:0:0:0:
310,173,168224,2,0,L|321:262,1,90,8|0,2:0|2:0,2:0:0:0:
244,314,168573,1,10,2:0:0:0:
160,117,169038,6,0,L|165:72,1,45,10|0,2:0|2:0,2:0:0:0:
70,81,169271,2,0,L|75:36,1,45,10|0,2:0|2:0,2:0:0:0:
32,270,169736,5,8,2:0:0:0:
86,329,169852,1,8,2:3:0:0:
164,340,169968,1,8,2:3:0:0:
231,297,170084,1,4,2:3:0:0:
254,221,170201,1,8,2:0:0:0:
277,145,170318,1,8,2:3:0:0:
344,102,170434,1,10,2:0:0:0:
422,112,170550,1,8,2:3:0:0:
472,173,170666,5,10,2:3:0:0:
457,263,170782,1,8,2:3:0:0:
369,293,170898,1,6,2:3:0:0:
303,229,171014,1,4,2:3:0:0:
328,140,171131,1,10,2:0:0:0:
313,50,171247,1,4,2:3:0:0:
225,20,171363,1,4,2:3:0:0:
159,84,171479,1,4,2:3:0:0:
184,173,171596,6,0,L|309:165,1,125.999996154785,6|8,3:2|2:0,2:0:0:0:
320,322,171945,1,2,2:0:0:0:
320,322,172061,2,0,L|194:329,1,125.999996154785,0|10,1:0|2:0,2:0:0:0:
48,124,172526,1,2,3:2:0:0:
78,296,172759,1,10,2:0:0:0:
78,296,172875,1,2,2:0:0:0:
78,296,172991,1,2,1:2:0:0:
48,124,173224,2,0,L|59:187,1,62.9999980773926,10|0,2:0|2:0,2:0:0:0:
77,296,173457,6,0,P|129:262|189:275,1,125.999996154785,2|10,3:2|2:0,2:0:0:0:
263,338,173805,1,2,2:0:0:0:
263,338,173922,2,0,L|326:327,1,62.9999980773926,0|2,1:0|2:0,2:0:0:0:
414,305,174154,1,10,2:0:0:0:
326,154,174387,1,2,3:2:0:0:
403,206,174619,5,10,2:0:0:0:
334,248,174735,1,2,2:0:0:0:
258,220,174852,1,2,1:2:0:0:
233,143,174968,1,2,2:0:0:0:
277,75,175084,1,10,2:0:0:0:
357,67,175200,1,2,2:0:0:0:
414,125,175317,6,0,L|288:116,1,125.999996154785,2|8,3:2|2:0,2:0:0:0:
145,306,175666,1,2,2:0:0:0:
145,306,175782,2,0,L|270:297,1,125.999996154785,0|10,1:0|2:0,2:0:0:0:
403,206,176247,1,2,3:2:0:0:
219,193,176480,2,0,L|281:197,1,62.9999980773926,10|2,2:0|2:0,2:0:0:0:
403,206,176713,1,2,1:2:0:0:
325,348,176945,2,0,P|318:317|327:287,1,62.9999980773926,10|0,2:0|2:0,2:0:0:0:
354,48,177178,6,0,P|360:78|351:108,1,62.9999980773926,2|0,3:2|2:0,2:0:0:0:
403,206,177410,1,10,2:0:0:0:
403,206,177527,2,0,P|379:226|349:233,1,62.9999980773926,2|0,2:0|1:0,2:0:0:0:
290,327,177759,1,2,2:0:0:0:
290,327,177875,2,0,P|260:317|239:294,1,62.9999980773926,10|0,2:0|2:0,2:0:0:0:
128,289,178108,1,2,3:2:0:0:
29,300,178340,5,10,2:0:0:0:
52,224,178456,1,2,2:0:0:0:
122,189,178572,1,2,1:2:0:0:
196,216,178688,1,2,2:0:0:0:
272,246,178806,1,10,2:0:0:0:
343,211,178922,1,2,2:0:0:0:
366,135,179038,6,0,L|240:138,1,125.999996154785,2|8,3:2|2:0,2:0:0:0:
128,289,179387,1,2,2:0:0:0:
128,289,179503,2,0,L|253:285,1,125.999996154785,0|10,1:0|2:0,2:0:0:0:
366,135,179968,1,2,3:2:0:0:
371,325,180201,2,0,L|369:262,1,62.9999980773926,10|2,2:0|2:0,2:0:0:0:
366,135,180433,1,2,1:2:0:0:
366,135,180550,1,2,2:0:0:0:
366,135,180666,2,0,P|335:127|305:135,1,62.9999980773926,10|0,2:0|2:0,2:0:0:0:
138,262,180898,6,0,P|193:290|253:277,1,125.999996154785,2|8,3:2|2:0,2:0:0:0:
287,106,181364,1,2,1:2:0:0:
287,106,181480,1,2,2:0:0:0:
287,106,181596,1,10,2:0:0:0:
98,63,181829,1,2,3:2:0:0:
177,6,182061,5,10,2:0:0:0:
192,84,182178,1,10,2:0:0:0:
146,147,182294,1,2,1:2:0:0:
66,153,182410,1,2,2:0:0:0:
10,99,182526,1,10,2:0:0:0:
24,326,182759,6,0,B|110:297|110:297|110:262,1,125.999996154785,8|8,3:2|2:0,2:0:0:0:
277,223,183108,2,0,B|190:251|190:251|190:285,1,125.999996154785,8|0,2:0|2:0,2:0:0:0:
432,353,183457,1,10,2:0:0:0:
351,27,183689,1,2,3:2:0:0:
432,353,183922,1,10,2:0:0:0:
351,27,184154,1,10,1:2:0:0:
110,261,184387,1,8,2:0:0:0:
468,198,184620,5,8,3:2:0:0:
427,266,184736,1,8,2:3:0:0:
346,278,184852,1,8,2:3:0:0:
284,227,184968,1,4,2:3:0:0:
283,146,185085,1,8,1:2:0:0:
282,65,185201,1,8,2:3:0:0:
220,14,185317,1,10,2:0:0:0:
140,28,185433,1,8,2:3:0:0:
97,95,185550,5,10,3:0:0:0:
95,184,185666,1,8,2:3:0:0:
135,263,185782,1,6,2:3:0:0:
207,315,185898,1,4,2:3:0:0:
295,327,186015,1,10,1:2:0:0:
379,297,186131,1,4,2:3:0:0:
438,230,186247,1,4,2:3:0:0:
460,144,186363,1,4,2:3:0:0:
438,57,186480,6,0,B|365:28|365:28|325:54,1,125.999996154785,6|8,3:2|2:0,2:0:0:0:
191,210,186829,1,2,2:0:0:0:
191,210,186945,2,0,B|264:181|264:181|308:211,1,125.999996154785,8|10,1:2|2:0,2:0:0:0:
433,319,187410,1,10,3:2:0:0:
465,117,187643,1,10,2:0:0:0:
465,117,187759,1,2,2:0:0:0:
465,117,187875,1,10,1:2:0:0:
280,204,188108,2,0,L|286:267,1,62.9999980773926,10|0,2:0|2:0,2:0:0:0:
235,66,188340,6,0,P|174:51|119:77,1,125.999996154785,8|8,3:2|2:0,2:0:0:0:
65,263,188806,1,8,1:2:0:0:
65,263,188922,1,0,2:0:0:0:
65,263,189038,1,8,2:0:0:0:
212,163,189271,1,10,3:2:0:0:
124,192,189503,5,10,2:0:0:0:
133,112,189619,1,2,2:0:0:0:
201,70,189736,1,10,1:2:0:0:
277,94,189852,1,2,2:0:0:0:
305,170,189968,1,10,2:0:0:0:
264,239,190084,1,2,2:0:0:0:
182,249,190201,6,0,L|192:123,1,125.999996154785,10|8,3:2|2:0,2:0:0:0:
406,30,190550,1,0,2:0:0:0:
406,30,190666,2,0,L|396:156,1,125.999996154785,8|10,1:2|2:0,2:0:0:0:
379,299,191131,1,10,3:2:0:0:
182,249,191364,2,0,L|243:263,1,62.9999980773926,10|2,2:0|2:0,2:0:0:0:
379,299,191596,1,10,1:2:0:0:
306,137,191829,2,0,L|245:123,1,62.9999980773926,10|0,2:0|2:0,2:0:0:0:
377,200,192061,6,0,P|401:143|382:82,1,125.999996154785,8|8,3:2|2:0,2:0:0:0:
133,148,192527,1,8,1:2:0:0:
133,148,192643,1,0,2:0:0:0:
133,148,192759,2,0,P|128:179|137:209,1,62.9999980773926,8|0,2:0|2:0,2:0:0:0:
260,283,192992,1,10,3:2:0:0:
161,294,193224,5,10,2:0:0:0:
184,218,193340,1,2,2:0:0:0:
254,183,193456,1,10,1:2:0:0:
328,210,193572,1,2,2:0:0:0:
404,240,193690,1,10,2:0:0:0:
475,205,193806,1,2,2:0:0:0:
498,129,193922,6,0,L|372:118,1,125.999996154785,10|8,3:2|2:0,2:0:0:0:
161,294,194271,1,2,2:0:0:0:
161,294,194387,2,0,L|286:304,1,125.999996154785,8|10,1:2|2:0,2:0:0:0:
303,142,194852,1,10,3:2:0:0:
155,73,195085,1,10,2:0:0:0:
155,73,195201,1,2,2:0:0:0:
155,73,195317,1,10,1:2:0:0:
65,206,195550,2,0,P|34:210|3:204,1,62.9999980773926,10|0,2:0|2:0,2:0:0:0:
155,73,195782,6,0,P|209:53|236:105,1,125.999996154785,10|8,3:2|2:0,2:0:0:0:
35,40,196248,1,10,1:2:0:0:
35,40,196364,1,2,2:0:0:0:
35,40,196480,1,10,2:0:0:0:
93,228,196712,1,10,3:2:0:0:
187,209,196945,5,10,2:0:0:0:
143,145,197061,1,2,2:0:0:0:
64,134,197178,1,10,1:2:0:0:
6,186,197294,1,2,2:0:0:0:
4,266,197410,1,10,2:0:0:0:
373,307,197643,6,0,B|341:288|341:288|255:312,1,125.999996154785,8|8,3:2|2:0,2:0:0:0:
138,306,197992,2,0,B|170:287|170:287|255:311,1,125.999996154785,8|0,2:0|2:0,2:0:0:0:
421,226,198340,1,10,2:0:0:0:
91,226,198573,1,10,3:2:0:0:
421,226,198806,1,8,2:0:0:0:
91,226,199039,1,10,1:2:0:0:
256,44,199271,1,8,2:0:0:0:
511,271,199503,5,8,3:2:0:0:
454,325,199619,1,8,2:3:0:0:
376,321,199735,1,8,2:3:0:0:
323,262,199851,1,4,2:3:0:0:
330,183,199968,1,8,1:2:0:0:
336,104,200085,1,8,2:3:0:0:
284,45,200201,1,10,2:0:0:0:
205,41,200317,1,8,2:3:0:0:
149,95,200434,6,0,L|163:156,1,62.9999980773926,10|8,3:0|2:3,2:0:0:0:
511,271,200666,2,0,L|496:209,1,62.9999980773926,4|4,2:3|2:3,2:0:0:0:
73,111,200899,2,0,L|87:172,1,62.9999980773926,10|4,1:2|2:3,2:0:0:0:
435,287,201131,2,0,L|420:225,1,62.9999980773926,4|4,2:3|2:3,2:0:0:0:
256,192,201364,12,0,204620,2:0:0:0:
