osu file format v14

[General]
AudioFilename: audio.mp3
AudioLeadIn: 0
PreviewTime: 45669
Countdown: 0
SampleSet: Soft
StackLeniency: 0.4
Mode: 2
LetterboxInBreaks: 0
WidescreenStoryboard: 1

[Editor]
DistanceSpacing: 1
BeatDivisor: 8
GridSize: 32
TimelineZoom: 1.8

[Metadata]
Title:Feel Special
TitleUnicode:Feel Special
Artist:TWICE
ArtistUnicode:트와이스
Creator:Xetopia
Version:Platter
Source:
Tags:Imai Lisa Nelly Dora- doraemonelf k-pop kpop korean korea pop jype jyp entertainment title track eight 8th ep sana jihyo dahyun nayeon jeongyeon chaeyoung momo mina tzuyu 나연 정연 모모 사나 지효 미나 다현 채영 쯔위 Hayley Aitken Michelle Min Lee Collapsedone Ollipop Park Jin-young Asiansoul 박진영
BeatmapID:2331693
BeatmapSetID:1108886

[Difficulty]
HPDrainRate:5
CircleSize:3.5
OverallDifficulty:8
ApproachRate:8
SliderMultiplier:2.2
SliderTickRate:2

[Events]
//Background and Video events
0,0,"godjihyo.jpg",0,0
//Break Periods
2,156916,167128
//Storyboard Layer 0 (Background)
//Storyboard Layer 1 (Fail)
//Storyboard Layer 2 (Pass)
//Storyboard Layer 3 (Foreground)
//Storyboard Layer 4 (Overlay)
//Storyboard Sound Samples

[TimingPoints]
437,465.116279069767,4,2,1,55,1,0
1134,-111.111111111111,4,2,2,55,0,0
1599,-111.111111111111,4,2,1,55,0,0
1832,-111.111111111111,4,2,2,55,0,0
2064,-111.111111111111,4,2,3,55,0,0
4855,-111.111111111111,4,2,2,55,0,0
5320,-111.111111111111,4,2,3,55,0,0
5553,-111.111111111111,4,2,2,55,0,0
5785,-111.111111111111,4,2,4,55,0,0
7878,-100,4,2,1,60,0,0
9506,-100,4,2,3,60,0,0
9661,-100,4,2,2,60,0,0
9971,-100,4,2,1,60,0,0
10902,-100,4,2,3,60,0,0
11134,-100,4,2,1,60,0,0
11289,-100,4,2,2,60,0,0
11367,-100,4,2,3,60,0,0
11522,-100,4,2,2,60,0,0
11832,-100,4,2,1,60,0,0
12762,-100,4,2,3,60,0,0
12995,-100,4,2,1,60,0,0
13227,-100,4,2,4,60,0,0
13460,-100,4,2,2,70,0,0
13809,-100,4,2,3,70,0,0
14157,-100,4,2,2,70,0,0
14390,-100,4,2,5,70,0,0
14506,-100,4,2,1,70,0,0
15088,-100,4,2,2,70,0,0
15320,-100,4,2,2,65,0,0
15785,-100,4,2,1,65,0,0
16483,-100,4,2,5,65,0,0
16948,-100,4,2,2,65,0,0
17646,-100,4,2,6,65,0,0
17762,-100,4,2,2,65,0,0
18576,-100,4,2,7,65,0,0
18692,-100,4,2,2,65,0,0
19506,-100,4,2,1,65,0,0
20204,-100,4,2,2,65,0,0
20436,-100,4,2,6,65,0,0
20553,-100,4,2,2,65,0,0
21367,-100,4,2,1,65,0,0
21483,-100,4,2,2,65,0,0
22297,-100,4,2,6,65,0,0
22413,-100,4,2,2,65,0,0
23227,-100,4,2,1,65,0,0
23460,-100,4,2,2,65,0,0
24157,-100,4,2,3,65,0,0
24390,-100,4,2,2,65,0,0
25088,-100,4,2,1,65,0,0
25320,-100,4,2,2,65,0,0
26018,-100,4,2,7,65,0,0
26134,-100,4,2,2,65,0,0
26948,-100,4,2,6,65,0,0
27064,-100,4,2,2,65,0,0
27878,-100,4,2,6,65,0,0
27995,-100,4,2,2,65,0,0
28692,-100,4,2,5,65,0,0
29041,-100,4,2,2,65,0,0
29274,-100,4,2,5,65,0,0
29390,-100,4,2,1,65,0,0
29623,-100,4,2,1,70,0,0
30204,-100,4,2,4,65,0,0
31134,-100,4,2,8,65,0,0
31599,-100,4,2,2,65,0,0
32995,-100,4,2,8,65,0,0
33227,-100,4,2,2,65,0,0
34855,-100,4,2,8,65,0,0
35320,-100,4,2,2,65,0,0
36716,-100,4,2,8,65,0,0
36948,-100,4,2,1,65,0,0
37646,-100,4,2,6,70,0,0
37995,-100,4,2,9,70,0,0
40902,-100,4,2,10,70,0,0
41250,-100,4,2,9,70,0,0
43227,-100,4,2,11,70,0,0
43460,-100,4,2,9,65,0,0
43692,-100,4,2,9,60,0,0
43925,-100,4,2,9,55,0,0
44157,-100,4,2,9,50,0,0
44390,-100,4,2,9,45,0,0
44623,-100,4,2,9,40,0,0
45785,-100,4,2,9,65,0,0
46948,-100,4,2,12,75,0,1
47646,-100,4,2,2,75,0,1
47878,-100,4,2,6,75,0,1
48111,-100,4,2,2,75,0,1
48343,-100,4,2,6,75,0,1
48576,-100,4,2,12,75,0,1
51367,-100,4,2,2,75,0,1
51599,-100,4,2,6,75,0,1
51832,-100,4,2,2,75,0,1
52064,-100,4,2,6,75,0,1
52297,-100,4,2,12,75,0,1
55088,-100,4,2,2,75,0,1
55320,-100,4,2,6,75,0,1
55553,-100,4,2,2,75,0,1
55785,-100,4,2,12,75,0,1
58111,-100,4,2,12,80,0,1
60088,-100,4,2,1,80,0,1
60436,-100,4,2,6,80,0,1
60553,-100,4,2,1,80,0,1
60669,-100,4,2,12,80,0,1
60785,-100,4,2,1,80,0,1
60902,-100,4,2,6,80,0,1
61018,-100,4,2,1,80,0,1
61134,-100,4,2,2,80,0,1
61367,-100,4,2,12,80,0,1
61483,-100,4,2,1,80,0,1
61832,-90.9090909090909,4,2,12,80,0,1
62064,-90.9090909090909,4,2,14,80,0,1
62297,-90.9090909090909,4,2,12,80,0,1
62530,-90.9090909090909,4,2,5,80,0,1
62762,-90.9090909090909,4,2,6,80,0,1
62995,-90.9090909090909,4,2,5,80,0,1
63227,-90.9090909090909,4,2,13,80,0,1
63460,-90.9090909090909,4,2,14,80,0,1
64157,-90.9090909090909,4,2,12,80,0,1
64390,-90.9090909090909,4,2,14,80,0,1
65088,-90.9090909090909,4,2,12,80,0,1
65320,-90.9090909090909,4,2,14,80,0,1
66018,-90.9090909090909,4,2,12,80,0,1
66250,-90.9090909090909,4,2,5,80,0,1
66483,-90.9090909090909,4,2,6,80,0,1
66716,-90.9090909090909,4,2,5,80,0,1
66948,-90.9090909090909,4,2,13,80,0,1
67181,-90.9090909090909,4,2,14,80,0,1
67878,-90.9090909090909,4,2,12,80,0,1
68111,-90.9090909090909,4,2,14,80,0,1
68809,-90.9090909090909,4,2,12,80,0,1
69041,-90.9090909090909,4,2,14,80,0,1
69739,-90.9090909090909,4,2,12,80,0,1
69971,-90.9090909090909,4,2,5,80,0,1
70204,-90.9090909090909,4,2,6,80,0,1
70436,-90.9090909090909,4,2,5,80,0,1
70669,-90.9090909090909,4,2,12,80,0,1
70902,-90.9090909090909,4,2,14,80,0,1
71599,-90.9090909090909,4,2,12,80,0,1
71832,-90.9090909090909,4,2,14,80,0,1
72530,-90.9090909090909,4,2,12,80,0,1
72762,-90.9090909090909,4,2,14,80,0,1
72995,-90.9090909090909,4,2,6,85,0,1
73227,-90.9090909090909,4,2,5,85,0,1
73343,-90.9090909090909,4,2,12,85,0,1
73692,-90.9090909090909,4,2,15,85,0,1
73925,-90.9090909090909,4,2,12,85,0,1
74157,-90.9090909090909,4,2,7,85,0,1
74390,-90.9090909090909,4,2,12,85,0,1
74623,-90.9090909090909,4,2,5,85,0,1
74855,-90.9090909090909,4,2,6,85,0,1
74971,-90.9090909090909,4,2,1,85,0,1
75320,-90.9090909090909,4,2,12,85,0,1
75436,-90.9090909090909,4,2,1,85,0,1
75553,-90.9090909090909,4,2,12,85,0,1
75669,-90.9090909090909,4,2,1,85,0,1
75785,-90.9090909090909,4,2,6,85,0,1
75902,-90.9090909090909,4,2,1,85,0,1
76250,-90.9090909090909,4,2,12,85,0,1
76367,-90.9090909090909,4,2,3,85,0,1
76716,-100,4,2,3,85,0,0
78111,-100,4,2,1,85,0,0
78576,-100,4,2,2,85,0,0
79041,-100,4,2,5,85,0,0
79506,-100,4,2,1,85,0,0
79971,-100,4,2,3,85,0,0
80436,-100,4,2,2,85,0,0
80902,-100,4,2,5,85,0,0
81367,-100,4,2,2,85,0,0
81832,-100,4,2,7,65,0,0
81948,-100,4,2,2,85,0,0
82762,-100,4,2,5,85,0,0
83227,-100,4,2,1,85,0,0
83692,-100,4,2,3,85,0,0
84157,-100,4,2,2,85,0,0
84623,-100,4,2,5,85,0,0
85088,-100,4,2,2,85,0,0
85553,-100,4,2,5,85,0,0
86018,-100,4,2,2,85,0,0
86483,-100,4,2,5,85,0,0
86948,-100,4,2,2,85,0,0
87413,-100,4,2,5,85,0,0
87878,-100,4,2,2,85,0,0
88343,-100,4,2,5,85,0,0
88809,-100,4,2,2,85,0,0
89274,-100,4,2,7,85,0,0
89390,-100,4,2,2,85,0,0
90204,-100,4,2,3,85,0,0
90669,-100,4,2,2,85,0,0
91134,-100,4,2,5,85,0,0
91599,-100,4,2,2,85,0,0
92646,-100,4,2,1,85,0,0
93460,-100,4,2,4,85,0,0
94390,-100,4,2,8,85,0,0
94855,-100,4,2,2,85,0,0
96250,-100,4,2,8,85,0,0
96483,-100,4,2,2,85,0,0
98111,-100,4,2,8,85,0,0
98576,-100,4,2,2,85,0,0
99971,-100,4,2,8,85,0,0
100204,-100,4,2,1,85,0,0
100902,-100,4,2,6,85,0,0
101250,-100,4,2,9,85,0,0
104157,-100,4,2,10,85,0,0
104506,-100,4,2,9,85,0,0
105320,-100,4,2,16,85,0,0
105436,-100,4,2,9,85,0,0
106018,-100,4,2,16,85,0,0
106367,-90.9090909090909,4,2,9,85,0,0
106483,-100,4,2,17,85,0,0
106716,-100,4,2,16,85,0,0
108111,-100,4,2,9,85,0,0
110204,-100,4,2,12,75,0,1
110436,-100,4,2,14,75,0,1
110669,-100,4,2,15,75,0,1
110902,-100,4,2,5,75,0,1
111134,-100,4,2,6,75,0,1
111367,-100,4,2,5,75,0,1
111599,-100,4,2,18,75,0,1
111832,-100,4,2,14,75,0,1
112530,-100,4,2,15,75,0,1
112762,-100,4,2,14,75,0,1
113460,-100,4,2,15,75,0,1
113692,-100,4,2,14,75,0,1
114390,-100,4,2,15,75,0,1
114623,-100,4,2,5,75,0,1
114855,-100,4,2,6,75,0,1
115088,-100,4,2,5,75,0,1
115320,-100,4,2,18,75,0,1
115553,-100,4,2,14,75,0,1
116250,-100,4,2,15,75,0,1
116483,-100,4,2,14,75,0,1
118111,-100,4,2,15,75,0,1
118343,-100,4,2,5,75,0,1
118576,-100,4,2,6,75,0,1
118809,-100,4,2,5,75,0,1
119041,-100,4,2,15,75,0,1
119274,-100,4,2,14,75,0,1
119971,-100,4,2,15,75,0,1
120204,-100,4,2,14,75,0,1
120902,-100,4,2,15,75,0,1
121134,-100,4,2,5,75,0,1
121367,-100,4,2,6,75,0,1
121599,-100,4,2,5,75,0,1
121716,-100,4,2,2,75,0,1
121832,-100,4,2,15,75,0,1
122297,-100,4,2,12,75,0,1
122530,-100,4,2,15,75,0,1
122762,-100,4,2,19,75,0,1
122995,-100,4,2,5,75,0,1
123227,-100,4,2,6,75,0,1
123343,-100,4,2,1,75,0,1
123692,-100,4,2,18,75,0,1
123809,-100,4,2,1,75,0,1
123925,-100,4,2,12,75,0,1
124041,-100,4,2,1,75,0,1
124157,-100,4,2,6,75,0,1
124274,-100,4,2,1,75,0,1
124390,-100,4,2,2,75,0,1
124623,-100,4,2,19,75,0,1
124739,-100,4,2,1,75,0,1
125088,-90.9090909090909,4,2,12,85,0,1
125320,-90.9090909090909,4,2,14,85,0,1
125553,-90.9090909090909,4,2,12,85,0,1
125785,-90.9090909090909,4,2,5,85,0,1
126018,-90.9090909090909,4,2,6,85,0,1
126250,-90.9090909090909,4,2,5,85,0,1
126483,-90.9090909090909,4,2,13,85,0,1
126716,-90.9090909090909,4,2,14,85,0,1
127413,-90.9090909090909,4,2,12,85,0,1
127646,-90.9090909090909,4,2,14,85,0,1
128343,-90.9090909090909,4,2,12,85,0,1
128576,-90.9090909090909,4,2,14,85,0,1
129274,-90.9090909090909,4,2,12,85,0,1
129506,-90.9090909090909,4,2,5,85,0,1
129739,-90.9090909090909,4,2,6,85,0,1
129971,-90.9090909090909,4,2,5,85,0,1
130204,-90.9090909090909,4,2,13,85,0,1
130436,-90.9090909090909,4,2,14,85,0,1
131134,-90.9090909090909,4,2,12,85,0,1
131367,-90.9090909090909,4,2,14,85,0,1
132064,-90.9090909090909,4,2,12,85,0,1
132297,-90.9090909090909,4,2,14,85,0,1
132995,-90.9090909090909,4,2,12,85,0,1
133227,-90.9090909090909,4,2,5,85,0,1
133460,-90.9090909090909,4,2,6,85,0,1
133692,-90.9090909090909,4,2,5,85,0,1
133925,-90.9090909090909,4,2,12,85,0,1
134157,-90.9090909090909,4,2,14,85,0,1
134855,-90.9090909090909,4,2,12,85,0,1
135088,-90.9090909090909,4,2,14,85,0,1
135785,-90.9090909090909,4,2,12,85,0,1
136018,-90.9090909090909,4,2,14,85,0,1
136250,-90.9090909090909,4,2,6,85,0,1
136483,-90.9090909090909,4,2,5,85,0,1
136599,-90.9090909090909,4,2,12,85,0,1
136948,-90.9090909090909,4,2,15,85,0,1
137181,-90.9090909090909,4,2,12,85,0,1
137413,-90.9090909090909,4,2,7,85,0,1
137646,-90.9090909090909,4,2,12,85,0,1
137878,-90.9090909090909,4,2,5,85,0,1
138111,-90.9090909090909,4,2,6,85,0,1
138227,-90.9090909090909,4,2,1,85,0,1
138576,-83.3333333333333,4,2,12,85,0,1
138692,-90.9090909090909,4,2,1,85,0,1
138809,-90.9090909090909,4,2,12,85,0,1
138925,-90.9090909090909,4,2,1,85,0,1
139041,-90.9090909090909,4,2,6,85,0,1
139157,-90.9090909090909,4,2,1,85,0,1
139506,-90.9090909090909,4,2,12,85,0,1
139623,-90.9090909090909,4,2,1,85,0,1
139971,-90.9090909090909,4,2,20,50,0,0
140126,-90.9090909090909,4,2,3,50,0,0
140436,-100,4,2,3,65,0,0
140902,-100,4,2,3,75,0,0
141057,-100,4,2,3,85,0,0
141367,-100,4,2,4,85,0,0
141832,-100,4,2,21,80,0,0
142297,-100,4,2,22,80,0,0
142374,-100,4,2,8,80,0,0
142762,-100,4,2,23,80,0,0
142840,-100,4,2,2,80,0,0
143227,-100,4,2,24,80,0,0
143343,-100,4,2,8,40,0,0
143692,-100,4,2,25,80,0,0
144157,-100,4,2,26,80,0,0
144390,-100,4,2,8,80,0,0
144623,-100,4,2,23,80,0,0
144855,-100,4,2,8,80,0,0
145088,-100,4,2,27,80,0,0
145553,-100,4,2,21,80,0,0
146018,-100,4,2,22,80,0,0
146095,-100,4,2,8,80,0,0
146483,-100,4,2,23,80,0,0
146561,-100,4,2,2,80,0,0
146948,-100,4,2,24,80,0,0
147064,-100,4,2,2,40,0,0
147181,-100,4,2,20,40,0,0
147413,-100,4,2,28,80,0,0
147491,-100,4,2,8,80,0,0
147878,-100,4,2,23,80,0,0
148111,-100,4,2,8,80,0,0
148343,-100,4,2,21,80,0,0
148460,-100,4,2,8,80,0,0
148809,-100,4,2,22,80,0,0
149041,-100,4,2,29,80,0,0
149274,-100,4,2,21,80,0,0
149739,-100,4,2,22,80,0,0
149971,-100,4,2,8,80,0,0
150204,-100,4,2,23,80,0,0
150436,-100,4,2,2,80,0,0
150669,-100,4,2,24,80,0,0
151134,-100,4,2,25,80,0,0
151367,-100,4,2,29,80,0,0
151599,-100,4,2,26,80,0,0
151832,-100,4,2,8,80,0,0
152064,-100,4,2,23,80,0,0
152297,-100,4,2,8,80,0,0
152530,-100,4,2,27,80,0,0
152762,-100,4,2,29,80,0,0
152995,-100,4,2,21,80,0,0
153460,-100,4,2,22,80,0,0
153692,-100,4,2,8,80,0,0
153925,-100,4,2,23,80,0,0
154041,-100,4,2,2,80,0,0
154390,-100,4,2,24,80,0,0
154623,-100,4,2,20,80,0,0
154855,-100,4,2,28,80,0,0
155088,-100,4,2,8,80,0,0
155320,-100,4,2,23,80,0,0
155553,-100,4,2,8,80,0,0
155785,-100,4,2,21,80,0,0
156018,-100,4,2,2,80,0,0
156250,-100,4,2,22,80,0,0
156716,-100,4,2,5,60,0,0
167878,-100,4,2,2,70,0,0
169855,-100,4,2,1,70,0,0
170204,-100,4,2,2,70,0,0
170320,-100,4,2,1,70,0,0
170436,-100,4,2,2,70,0,0
170553,-100,4,2,1,70,0,0
171134,-100,4,2,2,70,0,0
171599,-90.9090909090909,4,2,12,75,0,1
171832,-90.9090909090909,4,2,14,75,0,1
172064,-90.9090909090909,4,2,15,75,0,1
172297,-90.9090909090909,4,2,5,75,0,1
172530,-90.9090909090909,4,2,6,75,0,1
172762,-90.9090909090909,4,2,5,75,0,1
172995,-90.9090909090909,4,2,18,75,0,1
173227,-90.9090909090909,4,2,14,75,0,1
173925,-90.9090909090909,4,2,15,75,0,1
174157,-90.9090909090909,4,2,14,75,0,1
174855,-90.9090909090909,4,2,15,75,0,1
175088,-90.9090909090909,4,2,14,75,0,1
175785,-90.9090909090909,4,2,15,75,0,1
176018,-90.9090909090909,4,2,5,75,0,1
176250,-90.9090909090909,4,2,6,75,0,1
176483,-90.9090909090909,4,2,5,75,0,1
176716,-90.9090909090909,4,2,18,75,0,1
176948,-90.9090909090909,4,2,14,75,0,1
177646,-90.9090909090909,4,2,15,75,0,1
177878,-90.9090909090909,4,2,14,75,0,1
178576,-90.9090909090909,4,2,15,75,0,1
178809,-90.9090909090909,4,2,14,75,0,1
179506,-90.9090909090909,4,2,15,75,0,1
179739,-90.9090909090909,4,2,5,75,0,1
179971,-90.9090909090909,4,2,6,75,0,1
180204,-90.9090909090909,4,2,5,75,0,1
180436,-90.9090909090909,4,2,15,75,0,1
180669,-90.9090909090909,4,2,14,75,0,1
181367,-90.9090909090909,4,2,15,75,0,1
181599,-90.9090909090909,4,2,14,75,0,1
182297,-90.9090909090909,4,2,15,75,0,1
182530,-90.9090909090909,4,2,5,75,0,1
182762,-90.9090909090909,4,2,6,75,0,1
182995,-90.9090909090909,4,2,5,75,0,1
183111,-90.9090909090909,4,2,2,75,0,1
183227,-90.9090909090909,4,2,15,75,0,1
183692,-90.9090909090909,4,2,12,75,0,1
183925,-90.9090909090909,4,2,15,75,0,1
184157,-90.9090909090909,4,2,19,75,0,1
184390,-90.9090909090909,4,2,5,75,0,1
184623,-90.9090909090909,4,2,6,75,0,1
184739,-90.9090909090909,4,2,1,75,0,1
185088,-90.9090909090909,4,2,18,75,0,1
185204,-90.9090909090909,4,2,1,75,0,1
185320,-90.9090909090909,4,2,12,75,0,1
185436,-90.9090909090909,4,2,1,75,0,1
185553,-90.9090909090909,4,2,6,75,0,1
185669,-90.9090909090909,4,2,1,75,0,1
185785,-90.9090909090909,4,2,2,75,0,1
186018,-90.9090909090909,4,2,19,75,0,1
186134,-90.9090909090909,4,2,1,75,0,1
186483,-90.9090909090909,4,2,14,85,0,1
186948,-90.9090909090909,4,2,13,85,0,1
187181,-90.9090909090909,4,2,5,85,0,1
187413,-90.9090909090909,4,2,13,85,0,1
187646,-90.9090909090909,4,2,5,85,0,1
187878,-90.9090909090909,4,2,13,85,0,1
188111,-90.9090909090909,4,2,5,85,0,1
188343,-90.9090909090909,4,2,10,85,0,1
188576,-90.9090909090909,4,2,5,85,0,1
188809,-90.9090909090909,4,2,13,85,0,1
189041,-90.9090909090909,4,2,5,85,0,1
189274,-90.9090909090909,4,2,13,85,0,1
189390,-90.9090909090909,4,2,5,85,0,1
189739,-90.9090909090909,4,2,13,85,0,1
189855,-90.9090909090909,4,2,5,85,0,1
190204,-90.9090909090909,4,2,13,85,0,1
190436,-90.9090909090909,4,2,5,85,0,1
190669,-90.9090909090909,4,2,13,85,0,1
190902,-90.9090909090909,4,2,5,85,0,1
191134,-90.9090909090909,4,2,13,85,0,1
191367,-90.9090909090909,4,2,5,85,0,1
191599,-90.9090909090909,4,2,13,85,0,1
191832,-90.9090909090909,4,2,5,85,0,1
192064,-90.9090909090909,4,2,10,85,0,1
192297,-90.9090909090909,4,2,5,85,0,1
192530,-90.9090909090909,4,2,13,85,0,1
192762,-90.9090909090909,4,2,5,85,0,1
192995,-90.9090909090909,4,2,13,85,0,1
193111,-90.9090909090909,4,2,5,85,0,1
193460,-90.9090909090909,4,2,13,85,0,1
193576,-90.9090909090909,4,2,5,85,0,1
193925,-90.9090909090909,4,2,13,85,0,1
194157,-90.9090909090909,4,2,5,85,0,1
194390,-90.9090909090909,4,2,13,85,0,1
194623,-90.9090909090909,4,2,5,85,0,1
194855,-90.9090909090909,4,2,13,85,0,1
195088,-90.9090909090909,4,2,5,85,0,1
195320,-90.9090909090909,4,2,13,85,0,1
195436,-90.9090909090909,4,2,5,85,0,1
195785,-90.9090909090909,4,2,13,85,0,1
196018,-90.9090909090909,4,2,5,85,0,1
196250,-90.9090909090909,4,2,13,85,0,1
196367,-90.9090909090909,4,2,5,85,0,1
196716,-90.9090909090909,4,2,13,85,0,1
196948,-90.9090909090909,4,2,5,85,0,1
197181,-90.9090909090909,4,2,13,85,0,1
197297,-90.9090909090909,4,2,5,85,0,1
197646,-90.9090909090909,4,2,11,85,0,1
197878,-90.9090909090909,4,2,5,85,0,1
197995,-90.9090909090909,4,2,12,85,0,1
198343,-90.9090909090909,4,2,29,85,0,1
198576,-90.9090909090909,4,2,13,85,0,1
198809,-90.9090909090909,4,2,7,85,0,1
199041,-90.9090909090909,4,2,30,85,0,1
199274,-90.9090909090909,4,2,5,85,0,1
199506,-90.9090909090909,4,2,11,85,0,1
199623,-90.9090909090909,4,2,1,85,0,1
199971,-90.9090909090909,4,2,12,85,0,1
200088,-90.9090909090909,4,2,1,85,0,1
200204,-90.9090909090909,4,2,2,85,0,1
200320,-90.9090909090909,4,2,1,85,0,1
200436,-90.9090909090909,4,2,9,85,0,1
200553,-90.9090909090909,4,2,1,85,0,1
200902,-100,4,2,30,85,0,1
201018,-100,4,2,3,85,0,1
201367,-100,4,2,3,85,0,0
204623,-100,4,2,3,5,0,0

[Colours]
Combo1 : 216,186,16
Combo2 : 255,0,0
Combo3 : 255,255,128
Combo4 : 192,192,192
Combo5 : 255,128,64

[HitObjects]
154,51,437,5,2,0:2:0:0:
451,351,1134,1,2,0:2:0:0:
418,314,1250,1,2,0:2:0:0:
377,286,1366,1,2,0:2:0:0:
277,246,1599,1,2,0:2:0:0:
377,286,1832,2,0,L|483:287,1,98.9999969787599,2|2,0:2|0:2,0:0:0:0:
151,33,3460,5,2,0:2:0:0:
361,33,3925,1,2,0:2:0:0:
61,351,4855,5,2,0:2:0:0:
94,314,4971,1,2,0:2:0:0:
135,286,5087,1,2,0:2:0:0:
235,246,5320,1,2,0:2:0:0:
135,286,5553,2,0,L|20:288,1,98.9999969787599,2|2,0:2|0:2,0:0:0:0:
427,30,6716,5,2,0:2:0:0:
431,139,6948,1,0,2:0:0:0:
435,249,7181,1,2,0:2:0:0:
439,359,7413,1,0,2:0:0:0:
121,42,7878,6,0,P|176:109|302:167,1,220,2|0,0:2|1:0,2:2:0:0:
72,340,8576,2,0,L|72:278,1,55,8|0,0:2|2:0,0:0:0:0:
150,343,8809,2,0,L|264:344,2,110,0|10|0,2:0|0:2|1:0,0:0:0:0:
369,99,9506,5,10,0:2:0:0:
281,40,9661,1,2,0:2:0:0:
235,39,9739,1,0,2:0:0:0:
142,93,9971,1,8,0:2:0:0:
107,194,10204,1,0,1:0:0:0:
146,295,10436,1,8,0:2:0:0:
240,346,10669,1,0,2:0:0:0:
454,269,10902,6,0,L|456:227,1,27.5,10|0,0:2|0:0,0:0:0:0:
371,185,11134,1,0,1:0:0:0:
162,33,11367,2,0,L|160:68,1,27.5,10|0,0:2|0:0,2:2:0:0:
264,102,11599,6,0,L|259:218,1,110,0|8,2:0|0:2,0:0:0:0:
144,294,12064,1,0,1:0:0:0:
373,355,12297,1,8,0:2:0:0:
332,317,12413,1,0,2:0:0:0:
285,289,12530,1,0,2:0:0:0:
174,256,12762,1,10,0:2:0:0:
35,195,12995,2,0,L|148:196,1,110,0|10,1:0|0:2,0:0:0:0:
453,81,13460,6,0,L|287:78,2,165,0|0|0,1:0|1:0|1:0,0:0:0:0:
231,339,14390,1,2,1:2:0:0:
285,338,14506,1,8,0:3:0:0:
340,338,14622,1,10,0:3:0:0:
395,338,14738,1,6,0:3:0:0:
450,338,14855,2,0,L|451:220,1,110,4|2,0:2|0:2,2:2:0:0:
149,52,15320,6,0,L|33:52,1,110,4|0,3:2|2:0,2:2:0:0:
98,132,15669,2,0,L|162:132,1,55,0|0,3:0|1:0,2:2:0:0:
373,46,16018,2,0,L|379:222,1,165,0|0,3:0|3:0,2:2:0:0:
301,263,16483,1,2,0:2:0:0:
164,345,16716,6,0,L|162:228,1,110,2|2,3:2|3:2,2:2:0:0:
384,346,17181,1,2,0:2:0:0:
426,310,17297,1,0,2:0:0:0:
472,281,17413,1,2,3:2:0:0:
318,219,17646,1,2,1:2:0:0:
276,183,17762,1,2,3:2:0:0:
230,154,17878,6,0,L|114:154,1,110,2|0,0:2|3:0,2:2:0:0:
420,60,18343,2,0,L|491:59,2,55,2|0|2,0:2|3:0|1:2,2:2:0:0:
189,57,18809,6,0,L|184:285,1,220,2|0,3:2|3:0,0:0:0:0:
343,140,19506,1,0,1:0:0:0:
342,194,19622,1,0,3:0:0:0:
342,249,19738,1,0,2:0:0:0:
235,321,19971,1,0,3:0:0:0:
15,203,20204,5,2,0:2:0:0:
50,159,20320,1,0,3:0:0:0:
88,120,20436,1,2,1:2:0:0:
131,86,20552,1,0,3:0:0:0:
178,57,20669,1,2,3:2:0:0:
399,41,20902,6,0,L|401:104,1,55,2|0,0:2|2:0,2:2:0:0:
268,161,21250,2,0,L|144:163,1,110,2|2,0:2|3:2,2:2:0:0:
248,254,21599,6,0,L|364:251,2,110,2|0|0,0:2|3:0|2:0,2:2:0:0:
31,334,22297,1,2,1:2:0:0:
30,279,22413,1,2,0:2:0:0:
29,224,22529,1,2,0:2:0:0:
328,343,22762,6,0,L|449:344,1,110,2|0,3:2|2:0,2:2:0:0:
492,343,23111,2,0,L|418:343,1,55,2|0,3:2|1:0,2:2:0:0:
215,42,23460,6,0,L|215:215,1,165,2|0,3:2|3:0,2:2:0:0:
281,217,23925,1,0,2:0:0:0:
422,109,24157,2,0,L|425:231,1,110,0|0,3:0|3:0,0:0:0:0:
223,56,24623,5,2,0:2:0:0:
354,116,24855,1,0,3:0:0:0:
310,82,24971,1,2,0:2:0:0:
261,57,25087,1,0,1:0:0:0:
37,42,25320,6,0,L|37:262,1,220,2|2,0:2|0:2,2:2:0:0:
353,346,26018,2,0,L|418:345,1,55,2|2,1:2|0:2,0:0:0:0:
353,346,26250,2,0,L|278:345,1,55,2|2,3:2|0:2,2:2:0:0:
235,290,26483,6,0,L|233:169,1,110,2|0,0:2|3:0,2:2:0:0:
375,146,26948,2,0,L|496:146,2,110,2|0|2,1:2|2:0|3:2,2:2:0:0:
159,98,27646,2,0,L|157:32,1,55,0|0,2:0|3:0,0:0:0:0:
240,44,27878,2,0,L|355:43,1,110,2|0,1:2|3:0,2:2:0:0:
125,231,28343,5,0,1:0:0:0:
248,338,28576,1,2,3:2:0:0:
249,283,28692,1,0,1:0:0:0:
160,250,28809,2,0,L|162:130,1,110,2|2,0:2|1:2,2:2:0:0:
383,41,29274,5,2,1:2:0:0:
429,69,29390,1,8,0:3:0:0:
459,114,29506,1,10,0:3:0:0:
468,168,29623,1,8,0:3:0:0:
453,221,29739,1,6,0:3:0:0:
418,263,29855,1,4,0:3:0:0:
369,286,29971,1,6,0:3:0:0:
68,39,30204,6,0,L|63:268,1,220,4|0,3:2|2:0,2:2:0:0:
375,32,31134,2,0,P|334:71|249:120,1,146.666666666667,2|0,1:2|2:0,2:2:0:0:
361,169,31599,2,0,L|365:321,1,146.666666666667,2|0,3:2|2:0,2:2:0:0:
246,352,32064,6,0,P|301:303|429:223,1,220,0|0,3:0|2:0,2:2:0:0:
104,32,32995,2,0,L|100:189,1,146.666666666667,2|0,1:2|2:0,2:2:0:0:
184,292,33460,2,0,P|232:245|310:195,1,146.666666666667,2|0,0:2|2:0,2:2:0:0:
196,165,33925,6,0,P|140:108|25:22,1,220,0|0,3:0|2:0,2:2:0:0:
309,35,34855,2,0,L|314:187,1,146.666666666667,2|0,1:2|2:0,2:2:0:0:
208,39,35320,2,0,L|213:191,1,146.666666666667,2|0,3:2|2:0,2:2:0:0:
381,350,35785,6,0,P|433:299|498:256,1,146.666666666667,2|0,3:2|2:0,2:2:0:0:
419,206,36250,1,2,0:2:0:0:
178,117,36561,1,0,2:0:0:0:
252,116,36716,5,2,1:2:0:0:
478,29,36948,1,0,3:0:0:0:
479,83,37064,1,0,0:0:0:0:
481,138,37180,1,2,0:1:0:0:
365,201,37413,1,0,2:0:0:0:
56,331,37646,6,0,L|176:331,1,110,4|0,3:2|2:0,2:2:0:0:
222,331,37995,2,0,L|284:330,1,55,0|0,1:0|3:0,2:2:0:0:
61,56,38343,1,2,1:2:0:0:
60,110,38459,1,2,0:2:0:0:
136,75,38576,6,0,L|261:77,1,110,2|2,3:2|1:2,2:2:0:0:
478,336,39041,2,0,L|483:113,1,220,2|0,1:2|3:0,2:2:0:0:
261,59,39739,5,0,2:0:0:0:
220,96,39855,1,0,1:0:0:0:
174,125,39971,1,0,3:0:0:0:
312,197,40204,1,2,1:2:0:0:
101,327,40436,5,2,3:2:0:0:
100,272,40552,1,0,1:0:0:0:
99,217,40668,1,2,0:2:0:0:
325,343,40902,2,0,L|436:344,1,110,2|0,1:2|2:0,2:2:0:0:
125,66,41367,6,0,L|10:66,1,110,0|0,3:0|2:0,2:2:0:0:
72,131,41716,2,0,L|135:131,1,55,0|0,1:0|3:0,2:2:0:0:
349,308,42064,2,0,L|351:240,1,55,2|2,1:2|0:2,0:0:0:0:
283,227,42297,5,2,3:2:0:0:
284,172,42413,1,0,1:0:0:0:
286,117,42529,1,2,0:2:0:0:
397,63,42762,1,2,1:2:0:0:
169,44,42995,5,0,1:0:0:0:
204,86,43111,1,2,1:2:0:0:
244,123,43227,1,2,1:2:0:0:
289,155,43343,1,0,1:0:0:0:
337,181,43460,1,2,1:2:0:0:
124,341,43692,5,2,1:2:0:0:
122,286,43808,1,0,1:0:0:0:
121,231,43924,1,2,1:2:0:0:
347,345,44157,2,0,L|344:231,1,110,2|2,1:2|1:2,2:2:0:0:
36,129,44623,6,0,L|35:64,1,55,2|0,1:2|1:0,2:2:0:0:
95,39,44855,2,0,L|173:39,1,55,2|0,0:2|2:0,2:2:0:0:
468,44,45785,1,2,0:2:0:0:
399,114,46017,1,2,0:2:0:0:
314,164,46250,1,2,0:2:0:0:
439,270,46483,1,10,0:2:0:0:
111,280,46948,6,0,L|108:155,1,110,6|0,3:2|2:0,2:2:0:0:
182,161,47297,2,0,L|179:92,1,55,2|0,0:2|3:0,2:2:0:0:
68,43,47646,1,2,0:2:0:0:
287,44,47878,6,0,L|401:43,2,110,2|2|2,3:2|0:2|3:2,0:0:0:0:
72,341,48576,2,0,L|136:341,1,55,2|0,0:2|2:0,2:2:0:0:
191,341,48809,6,0,L|315:338,1,110,2|2,3:2|0:2,2:2:0:0:
430,274,49274,1,0,3:0:0:0:
431,219,49390,1,2,0:2:0:0:
432,164,49506,1,2,0:2:0:0:
316,135,49739,5,2,3:2:0:0:
94,31,49971,1,2,0:2:0:0:
51,63,50087,1,2,0:2:0:0:
37,115,50203,1,2,3:2:0:0:
57,165,50319,1,2,0:2:0:0:
104,193,50436,1,2,0:2:0:0:
426,36,50669,6,0,L|428:158,1,110,2|0,3:2|2:0,2:2:0:0:
370,182,51018,2,0,L|300:182,1,55,2|0,0:2|3:0,2:2:0:0:
96,339,51367,2,0,L|96:276,1,55,2|2,0:2|0:2,0:0:0:0:
167,337,51599,6,0,L|290:335,1,110,2|2,3:2|0:2,2:2:0:0:
156,242,52064,2,0,L|46:242,1,110,2|2,3:2|0:2,2:2:0:0:
360,50,52530,5,2,3:2:0:0:
474,135,52762,1,2,0:2:0:0:
474,80,52878,1,2,0:2:0:0:
474,25,52994,1,0,3:0:0:0:
360,50,53227,1,2,0:2:0:0:
149,50,53460,6,0,L|147:171,1,110,2|2,3:2|0:2,0:0:0:0:
358,259,53925,1,2,3:2:0:0:
403,290,54041,1,2,0:2:0:0:
453,312,54157,1,2,0:2:0:0:
153,321,54390,5,2,3:2:0:0:
35,265,54623,1,0,2:0:0:0:
33,210,54739,1,2,0:2:0:0:
32,155,54855,1,0,3:0:0:0:
153,321,55088,1,2,0:2:0:0:
370,109,55320,6,0,L|255:109,1,110,2|2,3:2|0:2,2:2:0:0:
44,41,55785,2,0,L|38:108,2,55,2|2|2,3:2|0:2|0:2,2:2:0:0:
348,36,56250,6,0,L|466:35,1,110,2|0,3:2|2:0,2:2:0:0:
312,140,56716,2,0,L|194:141,1,110,2|2,3:2|0:2,0:0:0:0:
420,275,57181,5,2,3:2:0:0:
297,333,57413,1,2,2:0:0:0:
295,278,57529,1,2,2:0:0:0:
294,223,57645,1,2,3:2:0:0:
420,275,57878,1,2,2:0:0:0:
79,337,58111,6,0,P|106:308|218:238,1,165,8|8,3:2|0:2,2:2:0:0:
273,212,58576,2,0,L|160:212,1,110,0|10,3:0|0:2,0:0:0:0:
106,150,58925,6,0,L|180:150,1,55,0|2,0:0|3:2,0:0:0:0:
271,148,59274,1,10,0:2:0:0:
48,32,59506,2,0,L|44:162,1,110,10|0,3:2|2:0,0:0:0:0:
383,352,59971,5,8,3:2:0:0:
432,317,60087,1,8,0:3:0:0:
446,260,60203,1,8,0:3:0:0:
418,208,60319,1,4,0:3:0:0:
363,187,60436,2,0,L|298:187,2,55,8|8|10,3:2|0:3|0:2,0:0:0:0:
230,88,60902,6,0,L|111:89,1,110,10|6,3:3|0:3,2:2:0:0:
455,38,61367,2,0,L|458:106,2,55,10|4|4,3:2|0:3|0:3,2:2:0:0:
145,339,61832,6,0,L|269:338,1,121.000003692627,6|8,3:2|0:2,2:2:0:0:
338,333,62181,2,0,L|339:268,1,60.5000018463135,2|0,0:2|1:0,2:2:0:0:
212,213,62530,2,0,L|150:213,1,60.5000018463135,10|2,0:2|0:2,0:0:0:0:
224,138,62762,6,0,L|353:138,2,121.000003692627,2|10|2,3:2|0:2|1:2,0:0:0:0:
93,136,63460,1,10,0:2:0:0:
330,45,63692,6,0,L|198:46,1,121.000003692627,2|10,3:2|0:2,2:2:0:0:
133,49,64041,2,0,L|204:50,1,60.5000018463135,2|0,0:2|1:0,2:2:0:0:
316,140,64390,1,10,0:2:0:0:
178,146,64623,5,2,3:2:0:0:
415,321,64855,1,10,0:2:0:0:
464,288,64971,1,2,0:2:0:0:
483,232,65087,1,2,1:2:0:0:
462,176,65203,1,2,0:2:0:0:
411,146,65320,1,10,0:2:0:0:
66,301,65553,6,0,L|64:170,1,121.000003692627,2|8,3:2|0:2,2:2:0:0:
125,247,65902,2,0,L|192:246,1,60.5000018463135,2|0,0:2|1:0,2:2:0:0:
425,26,66250,1,10,0:2:0:0:
427,86,66366,1,2,0:2:0:0:
429,146,66482,5,2,3:2:0:0:
300,27,66716,1,10,0:2:0:0:
56,37,66948,2,0,L|52:158,1,121.000003692627,2|10,1:2|0:2,2:2:0:0:
360,297,67413,6,0,L|493:296,1,121.000003692627,2|10,3:2|0:2,2:2:0:0:
420,214,67762,2,0,L|353:214,1,60.5000018463135,2|0,0:2|1:0,2:2:0:0:
239,137,68111,2,0,L|237:69,1,60.5000018463135,10|0,0:2|2:0,2:2:0:0:
312,204,68343,6,0,L|309:71,1,121.000003692627,2|10,3:2|0:2,0:0:0:0:
84,295,68809,2,0,L|8:297,2,60.5000018463135,2|2|10,1:2|0:2|0:2,0:0:0:0:
402,288,69274,6,0,L|272:290,1,121.000003692627,2|8,3:2|0:2,2:2:0:0:
209,263,69623,2,0,L|208:190,1,60.5000018463135,2|0,0:2|1:0,2:2:0:0:
354,143,69971,2,0,L|434:142,1,60.5000018463135,10|2,0:2|0:2,0:0:0:0:
341,82,70204,6,0,L|208:83,1,121.000003692627,2|10,3:2|0:2,2:2:0:0:
454,39,70669,2,0,L|462:102,2,60.5000018463135,2|2|10,1:2|0:2|0:2,2:2:0:0:
81,156,71134,6,0,L|78:29,1,121.000003692627,2|8,3:2|0:2,2:2:0:0:
226,326,71599,2,0,L|359:324,1,121.000003692627,2|10,1:2|0:2,0:0:0:0:
112,241,72064,6,0,L|248:239,1,121.000003692627,2|10,3:2|0:2,0:0:0:0:
472,163,72530,1,2,1:2:0:0:
472,102,72646,1,2,0:2:0:0:
472,42,72762,1,10,0:2:0:0:
156,93,72995,6,0,L|17:93,1,121.000003692627,8|8,3:2|0:2,2:2:0:0:
97,166,73343,2,0,L|174:166,1,60.5000018463135,8|0,0:2|1:0,2:2:0:0:
298,172,73692,1,10,0:2:0:0:
60,338,73925,6,0,L|56:209,1,121.000003692627,2|8,3:2|0:2,0:0:0:0:
202,346,74390,1,10,1:2:0:0:
247,306,74506,1,0,0:0:0:0:
298,273,74622,1,8,0:2:0:0:
80,58,74855,5,8,3:2:0:0:
123,100,74971,1,8,0:3:0:0:
171,136,75087,1,8,0:3:0:0:
225,164,75203,1,4,0:3:0:0:
282,184,75320,2,0,L|355:184,2,60.5000018463135,8|8|10,1:2|0:3|0:2,0:0:0:0:
38,338,75785,6,0,L|161:336,1,121.000003692627,10|4,3:3|0:3,2:2:0:0:
405,336,76250,1,10,1:2:0:0:
405,275,76366,1,4,0:3:0:0:
405,215,76482,1,4,0:3:0:0:
95,212,76716,5,4,0:2:0:0:
256,192,76948,12,4,78111,0:2:0:0:
86,30,78576,6,0,L|83:199,1,165,4|0,3:2|2:0,2:2:0:0:
154,126,79041,2,0,L|277:126,1,110,2|0,3:2|2:0,2:2:0:0:
396,240,79506,2,0,L|401:300,2,55,0|0|0,3:0|2:0|2:0,2:2:0:0:
285,308,79971,1,0,3:0:0:0:
71,236,80204,2,0,L|128:236,1,55,0|0,2:0|2:0,0:0:0:0:
182,141,80436,6,0,L|309:140,1,110,2|0,3:2|2:0,2:2:0:0:
76,44,80902,1,0,3:0:0:0:
198,308,81134,2,0,P|170:263|31:166,1,220,2|0,0:2|2:0,2:2:0:0:
338,345,81832,1,2,3:2:0:0:
338,290,81948,1,2,0:2:0:0:
339,235,82064,1,2,0:2:0:0:
192,196,82297,6,0,L|194:76,1,110,0|0,3:0|2:0,2:2:0:0:
408,37,82762,1,2,3:2:0:0:
446,76,82878,1,0,2:0:0:0:
490,109,82994,1,0,0:0:0:0:
349,182,83227,5,0,3:0:0:0:
488,287,83460,1,0,2:0:0:0:
453,244,83576,1,0,2:0:0:0:
412,207,83692,1,0,3:0:0:0:
367,176,83808,1,0,2:0:0:0:
318,152,83925,1,0,2:0:0:0:
106,52,84157,6,0,L|232:52,1,110,2|0,3:2|2:0,2:2:0:0:
277,52,84506,2,0,L|201:53,1,55,2|0,0:2|3:0,2:2:0:0:
451,158,84855,6,0,L|329:158,1,110,2|0,0:2|3:0,2:2:0:0:
230,158,85320,1,2,0:2:0:0:
33,338,85553,1,2,3:2:0:0:
32,283,85669,1,2,0:2:0:0:
31,228,85785,1,2,0:2:0:0:
337,347,86018,6,0,L|456:347,1,110,2|0,3:2|2:0,2:2:0:0:
390,268,86367,1,0,2:0:0:0:
337,268,86483,2,0,L|216:267,1,110,2|0,3:2|2:0,2:2:0:0:
467,35,86948,5,2,3:2:0:0:
468,89,87064,1,0,0:0:0:0:
468,144,87180,1,0,0:0:0:0:
350,82,87413,1,0,3:0:0:0:
134,238,87646,2,0,L|64:239,1,55,2|2,0:2|0:2,2:2:0:0:
148,239,87878,6,0,L|265:237,1,110,2|0,3:2|2:0,2:2:0:0:
293,205,88227,1,0,2:0:0:0:
255,174,88343,2,0,L|146:176,1,110,2|0,3:2|2:0,2:2:0:0:
31,171,88809,2,0,L|27:55,1,110,2|0,3:2|2:0,0:0:0:0:
241,29,89274,1,2,3:2:0:0:
279,68,89390,1,2,0:2:0:0:
327,94,89506,1,2,0:2:0:0:
441,122,89739,6,0,L|445:243,1,110,0|0,3:0|2:0,2:2:0:0:
308,315,90204,2,0,L|246:315,1,55,0|0,3:0|2:0,2:2:0:0:
389,209,90553,1,0,2:0:0:0:
444,209,90669,5,2,3:2:0:0:
240,32,90902,2,0,L|238:106,1,55,0|2,2:0|0:2,2:2:0:0:
318,39,91134,2,0,L|315:156,1,110,0|0,3:0|2:0,0:0:0:0:
16,315,91599,6,0,L|186:313,1,165,0|0,1:0|3:0,2:2:0:0:
357,306,92297,1,2,1:2:0:0:
122,36,92530,5,2,3:2:0:0:
76,66,92646,1,4,0:3:0:0:
48,113,92762,1,4,0:3:0:0:
43,167,92878,1,4,0:3:0:0:
61,218,92995,1,8,0:3:0:0:
99,257,93111,1,8,0:3:0:0:
151,276,93227,1,8,0:3:0:0:
467,27,93460,6,0,L|472:247,1,220,4|0,3:2|2:0,2:2:0:0:
246,310,94390,2,0,P|207:278|121:230,1,146.666666666667,2|0,1:2|2:0,2:2:0:0:
210,170,94855,2,0,P|249:138|335:90,1,146.666666666667,2|0,3:2|2:0,2:2:0:0:
241,287,95320,6,0,P|204:255|44:176,1,220,0|0,3:0|2:0,2:2:0:0:
338,26,96250,2,0,L|344:177,1,146.666666666667,2|0,1:2|2:0,2:2:0:0:
238,25,96716,2,0,L|244:176,1,146.666666666667,2|0,0:2|2:0,2:2:0:0:
366,281,97181,6,0,P|419:213|337:116,1,220,0|0,3:0|2:0,2:2:0:0:
55,42,98111,2,0,L|53:191,1,146.666666666667,2|0,1:2|2:0,2:2:0:0:
142,46,98576,2,0,P|180:78|271:115,1,146.666666666667,2|0,3:2|2:0,2:2:0:0:
178,220,99041,6,0,P|140:252|49:289,1,146.666666666667,2|0,3:2|2:0,2:2:0:0:
139,342,99506,1,2,0:2:0:0:
350,271,99816,1,0,2:0:0:0:
258,270,99971,1,2,1:2:0:0:
36,207,100204,5,0,3:0:0:0:
34,152,100320,1,0,0:0:0:0:
33,97,100436,1,2,0:1:0:0:
146,37,100669,1,0,2:0:0:0:
458,233,100902,6,0,L|458:116,1,110,4|0,3:2|2:0,2:2:0:0:
401,189,101250,2,0,L|336:188,1,55,0|0,1:0|3:0,2:2:0:0:
137,55,101599,2,0,L|136:124,1,55,2|2,1:2|0:2,0:0:0:0:
196,68,101832,6,0,L|317:67,1,110,2|2,3:2|1:2,2:2:0:0:
94,326,102297,2,0,P|163:257|273:185,1,220,2|0,1:2|3:0,2:2:0:0:
480,32,102995,5,0,2:0:0:0:
481,86,103111,1,0,1:0:0:0:
482,141,103227,1,0,3:0:0:0:
372,30,103460,1,2,1:2:0:0:
153,39,103692,5,2,3:2:0:0:
151,93,103808,1,0,1:0:0:0:
150,148,103924,1,2,0:2:0:0:
363,165,104157,2,0,L|477:166,1,110,2|0,1:2|2:0,2:2:0:0:
166,335,104623,6,0,L|46:334,1,110,0|0,3:0|3:0,0:0:0:0:
112,257,104971,1,0,1:0:0:0:
169,259,105088,2,0,L|288:259,1,110,0|2,3:0|1:2,0:0:0:0:
66,43,105553,1,2,3:2:0:0:
65,97,105669,1,0,1:0:0:0:
64,152,105785,1,2,3:2:0:0:
192,36,106018,5,2,1:2:0:0:
414,277,106250,1,0,1:0:0:0:
455,241,106366,1,2,1:2:0:0:
468,189,106482,1,2,1:2:0:0:
448,138,106598,1,0,1:0:0:0:
403,109,106715,1,2,1:2:0:0:
168,96,106948,6,0,L|103:97,2,55,2|0|2,1:2|1:0|1:2,0:0:0:0:
380,91,107413,2,0,L|502:92,1,110,2|2,1:2|1:2,2:2:0:0:
185,337,107878,6,0,L|111:339,1,55,2|0,1:2|1:0,2:2:0:0:
59,340,108111,2,0,L|119:339,1,55,2|0,3:2|3:0,2:2:0:0:
187,281,109041,1,2,0:2:0:0:
256,211,109273,1,2,0:2:0:0:
341,161,109506,1,2,0:2:0:0:
456,117,109739,1,10,0:2:0:0:
126,40,110204,6,0,L|256:39,1,110,6|8,3:2|0:2,2:2:0:0:
298,38,110553,2,0,L|241:39,1,55,2|0,0:2|1:0,2:2:0:0:
131,137,110902,1,10,0:2:0:0:
348,262,111134,6,0,L|224:263,2,110,2|10|2,3:2|0:2|1:2,0:0:0:0:
29,323,111832,2,0,L|29:250,1,55,10|0,0:2|2:0,2:2:0:0:
104,328,112064,6,0,L|217:328,1,110,2|10,3:2|0:2,2:2:0:0:
430,325,112530,1,0,1:0:0:0:
430,270,112646,1,2,0:2:0:0:
431,215,112762,1,10,0:2:0:0:
314,157,112995,5,2,3:2:0:0:
91,35,113227,1,10,0:2:0:0:
47,66,113343,1,2,0:2:0:0:
33,118,113459,1,2,1:2:0:0:
55,167,113575,1,2,0:2:0:0:
103,190,113692,1,10,0:2:0:0:
423,36,113925,6,0,L|302:36,1,110,2|8,3:2|0:2,2:2:0:0:
246,160,114274,2,0,L|244:97,1,55,2|0,0:2|1:0,2:2:0:0:
470,267,114623,2,0,L|472:206,1,55,10|2,0:2|0:2,0:0:0:0:
416,212,114855,6,0,L|306:213,2,110,2|10|2,3:2|0:2|1:2,2:2:0:0:
120,336,115553,2,0,L|119:275,1,55,10|0,0:2|2:0,2:2:0:0:
193,334,115785,6,0,L|312:331,1,110,2|10,3:2|0:2,2:2:0:0:
246,258,116134,2,0,L|172:260,1,55,2|0,0:2|1:0,2:2:0:0:
319,129,116483,1,10,0:2:0:0:
105,48,116716,6,0,L|226:49,1,110,2|10,3:2|0:2,0:0:0:0:
433,151,117181,1,2,3:2:0:0:
432,96,117297,1,2,0:2:0:0:
432,41,117413,1,10,0:2:0:0:
134,172,117646,6,0,L|11:173,1,110,2|8,3:2|0:2,2:2:0:0:
84,98,117995,2,0,L|156:97,1,55,2|0,0:2|1:0,2:2:0:0:
367,37,118343,1,10,0:2:0:0:
368,91,118459,1,2,0:2:0:0:
369,146,118575,5,2,3:2:0:0:
256,190,118809,1,10,0:2:0:0:
36,207,119041,1,2,1:2:0:0:
35,261,119157,1,2,0:2:0:0:
34,316,119273,1,10,0:2:0:0:
356,336,119506,6,0,L|483:335,1,110,2|8,3:2|0:2,2:2:0:0:
270,266,119971,2,0,L|153:268,1,110,2|10,1:2|0:2,0:0:0:0:
374,179,120436,5,2,3:2:0:0:
240,43,120669,1,8,0:2:0:0:
282,77,120785,1,2,0:2:0:0:
332,100,120901,1,2,1:2:0:0:
444,122,121134,1,10,0:2:0:0:
114,348,121367,6,0,L|110:237,1,110,8|8,3:2|0:2,2:2:0:0:
177,207,121716,2,0,L|176:137,1,55,8|0,0:2|1:0,2:2:0:0:
60,97,122064,1,10,0:2:0:0:
279,53,122297,6,0,L|165:53,1,110,2|10,3:2|0:2,0:0:0:0:
381,50,122762,2,0,L|497:51,1,110,10|8,1:2|0:2,0:0:0:0:
188,353,123227,5,8,3:2:0:0:
145,319,123343,1,8,0:3:0:0:
131,267,123459,1,8,0:3:0:0:
152,218,123575,1,4,0:3:0:0:
199,191,123692,1,8,1:2:0:0:
241,157,123808,1,8,0:3:0:0:
255,105,123924,1,10,0:2:0:0:
234,56,124040,1,8,0:3:0:0:
187,29,124157,6,0,L|73:30,1,110,10|6,3:3|0:3,2:2:0:0:
381,24,124623,2,0,L|386:99,2,55,10|4|4,1:2|0:3|0:3,2:2:0:0:
39,164,125088,6,0,L|36:38,1,121.000003692627,6|8,3:2|0:2,2:2:0:0:
104,78,125436,2,0,L|168:78,1,60.5000018463135,2|0,0:2|1:0,2:2:0:0:
394,250,125785,2,0,L|395:174,1,60.5000018463135,10|2,0:2|0:2,0:0:0:0:
326,254,126018,6,0,L|205:254,2,121.000003692627,2|10|2,3:2|0:2|1:2,0:0:0:0:
447,251,126716,1,10,0:2:0:0:
218,78,126948,6,0,L|348:78,1,121.000003692627,2|10,3:2|0:2,2:2:0:0:
409,78,127297,2,0,L|340:78,1,60.5000018463135,2|0,0:2|1:0,2:2:0:0:
214,170,127646,1,10,0:2:0:0:
338,172,127878,5,2,3:2:0:0:
97,288,128111,1,10,0:2:0:0:
48,253,128227,1,2,0:2:0:0:
32,196,128343,1,2,1:2:0:0:
54,140,128459,1,2,0:2:0:0:
105,110,128576,1,10,0:2:0:0:
485,36,128809,6,0,L|348:37,1,121.000003692627,2|8,3:2|0:2,2:2:0:0:
303,36,129157,2,0,L|381:36,1,60.5000018463135,2|0,0:2|1:0,2:2:0:0:
151,241,129506,2,0,L|150:166,1,60.5000018463135,10|2,0:2|0:2,0:0:0:0:
225,239,129739,6,0,L|354:239,1,121.000003692627,2|10,3:2|0:2,2:2:0:0:
137,115,130204,2,0,L|10:115,1,121.000003692627,2|10,1:2|0:2,2:2:0:0:
353,343,130669,5,2,3:2:0:0:
230,285,130902,1,10,0:2:0:0:
230,224,131018,1,2,0:2:0:0:
230,164,131134,1,0,1:0:0:0:
353,343,131367,1,10,0:2:0:0:
120,80,131599,6,0,L|250:78,1,121.000003692627,2|10,3:2|0:2,0:0:0:0:
472,35,132064,1,2,1:2:0:0:
473,95,132180,1,2,0:2:0:0:
474,155,132296,1,10,0:2:0:0:
144,246,132530,6,0,L|19:246,1,121.000003692627,2|8,3:2|0:2,2:2:0:0:
88,170,132878,2,0,L|159:169,1,60.5000018463135,2|0,0:2|1:0,2:2:0:0:
382,31,133227,1,10,0:2:0:0:
382,91,133343,1,2,0:2:0:0:
383,151,133459,5,2,3:2:0:0:
241,201,133692,1,10,0:2:0:0:
478,278,133925,1,2,1:2:0:0:
431,239,134041,1,2,0:2:0:0:
379,208,134157,1,10,0:2:0:0:
41,35,134390,6,0,L|40:159,1,121.000003692627,2|8,3:2|0:2,2:2:0:0:
273,57,134855,2,0,L|400:57,1,121.000003692627,2|10,1:2|0:2,0:0:0:0:
165,217,135320,5,2,3:2:0:0:
290,333,135553,1,10,0:2:0:0:
248,289,135669,1,2,0:2:0:0:
201,250,135785,1,2,1:2:0:0:
150,218,135901,1,2,0:2:0:0:
96,192,136018,1,10,0:2:0:0:
423,28,136250,6,0,L|424:157,1,121.000003692627,8|8,3:2|0:2,2:2:0:0:
347,98,136599,2,0,L|348:170,1,60.5000018463135,8|0,0:2|1:0,2:2:0:0:
480,259,136948,1,10,0:2:0:0:
249,265,137181,6,0,L|118:266,1,121.000003692627,2|8,3:2|0:2,0:0:0:0:
356,149,137646,2,0,L|486:147,1,121.000003692627,10|8,1:2|0:2,0:0:0:0:
126,30,138111,5,8,3:2:0:0:
80,68,138227,1,8,0:3:0:0:
59,124,138343,1,8,0:3:0:0:
68,184,138459,1,4,0:3:0:0:
105,231,138576,1,8,1:2:0:0:
160,254,138692,1,8,0:3:0:0:
247,258,138809,2,0,L|172:259,1,60.5000018463135,10|8,0:2|0:3,0:0:0:0:
45,347,139041,6,0,L|41:222,1,121.000003692627,10|4,3:3|0:3,2:2:0:0:
381,116,139506,2,0,L|515:116,1,121.000003692627,10|4,1:2|0:3,2:2:0:0:
377,42,139971,6,0,L|283:42,2,80.6666691284181,6|2|2,0:2|0:3|0:3,2:2:0:0:
195,100,140436,2,0,L|193:222,1,110,2|2,0:3|0:3,2:2:0:0:
305,236,140902,6,0,L|391:236,2,73.3333333333333,2|6|6,0:3|0:3|0:3,2:2:0:0:
49,230,141367,2,0,L|45:61,1,146.666666666667,6|0,0:3|2:0,2:2:0:0:
286,67,141832,5,2,3:2:0:0:
145,76,142297,2,0,L|145:27,1,36.6666666666667,2|2,0:2|0:2,0:0:0:0:
217,158,142530,2,0,L|329:157,1,110,0|2,3:0|1:2,0:0:0:0:
102,264,143227,2,0,L|38:265,2,55,10|2|8,0:2|2:0|0:2,2:2:0:0:
415,342,143692,6,0,L|416:119,1,220,2|10,3:2|0:2,2:2:0:0:
303,89,144390,2,0,L|247:89,1,55,2|2,3:2|2:0,2:2:0:0:
320,27,144623,2,0,L|435:27,2,110,2|10|10,1:2|0:2|0:2,2:2:0:0:
83,254,145553,1,2,3:2:0:0:
258,328,146018,6,0,L|258:281,1,36.6666666666667,10|2,0:2|0:2,0:0:0:0:
184,269,146250,2,0,L|64:268,1,110,8|2,3:2|1:2,0:0:0:0:
130,190,146599,1,2,2:0:0:0:
363,105,146948,2,0,L|425:105,2,55,10|2|8,0:2|2:0|1:2,2:2:0:0:
41,37,147413,6,0,L|39:258,1,220,2|10,3:2|0:2,2:2:0:0:
176,325,148111,1,2,3:2:0:0:
210,281,148227,1,2,2:0:0:0:
248,242,148343,1,2,1:2:0:0:
291,208,148459,1,2,0:2:0:0:
338,179,148576,1,10,0:2:0:0:
144,85,148809,2,0,L|85:85,2,55,2|8|2,0:2|0:2|1:2,2:2:0:0:
453,88,149274,5,2,3:2:0:0:
247,26,149739,2,0,L|132:25,1,110,10|10,0:2|3:2,0:0:0:0:
194,81,150088,1,8,0:2:0:0:
252,84,150204,6,0,L|367:84,1,110,2|2,1:2|0:2,0:0:0:0:
227,191,150669,2,0,L|116:191,1,110,10|8,0:2|0:2,2:2:0:0:
318,346,151134,5,2,3:2:0:0:
201,345,151367,1,2,1:2:0:0:
240,307,151483,1,2,0:2:0:0:
287,278,151599,1,10,0:2:0:0:
399,232,151832,1,2,3:2:0:0:
265,120,152064,6,0,L|155:121,1,110,2|10,1:2|0:2,0:0:0:0:
349,44,152530,2,0,L|462:43,1,110,2|2,0:2|1:2,2:2:0:0:
117,40,152995,6,0,P|60:113|130:204,1,220,2|10,3:2|0:2,2:2:0:0:
315,291,153692,2,0,L|316:230,1,55,10|8,3:2|0:2,2:2:0:0:
251,327,153925,2,0,L|132:327,1,110,2|2,1:2|0:2,0:0:0:0:
274,218,154390,2,0,L|386:219,1,110,10|8,0:2|1:2,2:2:0:0:
181,91,154855,5,2,3:2:0:0:
314,34,155088,2,0,L|314:99,1,55,2|0,0:2|3:0,0:0:0:0:
256,48,155320,2,0,L|134:48,1,110,2|2,0:2|3:2,0:0:0:0:
364,192,155785,2,0,L|426:191,2,55,2|0|2,0:2|2:0|0:2,0:0:0:0:
131,333,156250,1,2,0:2:0:0:
129,278,156366,1,0,0:0:0:0:
128,223,156482,1,0,0:0:0:0:
467,343,156716,5,6,0:2:0:0:
199,64,167878,6,0,L|21:63,2,165,8|8|10,0:2|0:2|0:2,2:2:0:0:
337,63,168809,2,0,L|338:190,1,110,2|10,0:2|0:2,2:2:0:0:
122,181,169274,1,10,0:2:0:0:
361,353,169739,5,8,0:2:0:0:
404,319,169855,1,8,0:3:0:0:
418,267,169971,1,8,0:3:0:0:
397,218,170087,1,4,0:3:0:0:
350,191,170204,1,8,0:2:0:0:
308,157,170320,1,8,0:3:0:0:
294,105,170436,1,10,0:2:0:0:
315,56,170552,1,8,0:3:0:0:
362,29,170669,6,0,L|476:30,1,110,10|6,0:3|0:3,0:0:0:0:
150,29,171134,1,10,0:2:0:0:
95,29,171250,1,4,0:3:0:0:
40,29,171366,1,4,0:3:0:0:
386,33,171599,6,0,L|390:160,1,121.000003692627,6|8,3:2|0:2,2:2:0:0:
329,151,171948,2,0,L|252:151,1,60.5000018463135,2|0,0:2|1:0,2:2:0:0:
427,308,172297,1,10,0:2:0:0:
193,306,172530,6,0,L|325:307,2,121.000003692627,2|10|2,3:2|0:2|1:2,0:0:0:0:
441,217,173227,2,0,L|443:145,1,60.5000018463135,10|0,0:2|2:0,2:2:0:0:
368,165,173460,6,0,L|229:165,1,121.000003692627,2|10,3:2|0:2,2:2:0:0:
30,142,173925,1,0,1:0:0:0:
29,81,174041,1,2,0:2:0:0:
28,21,174157,1,10,0:2:0:0:
249,59,174390,5,2,3:2:0:0:
129,60,174623,1,10,0:2:0:0:
349,147,174855,1,2,1:2:0:0:
350,86,174971,1,2,0:2:0:0:
351,26,175087,1,10,0:2:0:0:
21,311,175320,6,0,L|148:310,1,121.000003692627,2|8,3:2|0:2,2:2:0:0:
210,311,175669,2,0,L|134:311,1,60.5000018463135,2|0,0:2|1:0,2:2:0:0:
355,201,176018,2,0,L|356:124,1,60.5000018463135,10|2,0:2|0:2,0:0:0:0:
282,168,176250,6,0,L|156:168,1,121.000003692627,2|10,3:2|0:2,2:2:0:0:
376,55,176716,2,0,L|500:55,1,121.000003692627,2|10,1:2|0:2,2:2:0:0:
151,55,177181,5,2,3:2:0:0:
277,175,177413,1,10,0:2:0:0:
231,134,177529,1,2,0:2:0:0:
179,103,177645,1,0,1:0:0:0:
50,80,177878,1,10,0:2:0:0:
254,303,178111,5,2,3:2:0:0:
118,301,178343,2,0,L|189:302,1,60.5000018463135,10|2,0:2|0:2,0:0:0:0:
240,214,178576,2,0,L|362:213,1,121.000003692627,2|10,1:2|0:2,0:0:0:0:
26,38,179041,6,0,L|26:170,1,121.000003692627,2|8,3:2|0:2,2:2:0:0:
87,38,179390,2,0,L|152:39,1,60.5000018463135,2|0,0:2|1:0,2:2:0:0:
378,33,179739,1,10,0:2:0:0:
379,93,179855,1,2,0:2:0:0:
381,153,179971,5,2,3:2:0:0:
255,91,180204,1,10,0:2:0:0:
37,33,180436,1,2,1:2:0:0:
36,93,180552,1,2,0:2:0:0:
34,153,180668,1,10,0:2:0:0:
369,272,180902,6,0,L|497:271,1,121.000003692627,2|8,3:2|0:2,2:2:0:0:
264,274,181367,2,0,L|137:275,1,121.000003692627,2|10,1:2|0:2,0:0:0:0:
363,178,181832,6,0,L|233:179,1,121.000003692627,2|8,3:2|0:2,0:0:0:0:
36,146,182297,1,2,1:2:0:0:
34,85,182413,1,2,0:2:0:0:
32,25,182529,1,10,0:2:0:0:
359,48,182762,6,0,L|491:47,1,121.000003692627,8|8,3:2|0:2,2:2:0:0:
417,117,183111,2,0,L|351:117,1,60.5000018463135,8|0,0:2|1:0,2:2:0:0:
226,120,183460,1,10,0:2:0:0:
461,343,183692,6,0,L|463:217,1,121.000003692627,2|10,3:2|0:2,0:0:0:0:
144,332,184157,2,0,L|11:332,1,121.000003692627,10|8,1:2|0:2,0:0:0:0:
358,38,184623,5,8,3:2:0:0:
406,72,184739,1,8,0:3:0:0:
424,129,184855,1,8,0:3:0:0:
404,185,184971,1,4,0:3:0:0:
355,218,185088,1,8,1:2:0:0:
128,85,185320,2,0,L|126:163,1,60.5000018463135,10|8,0:2|0:3,0:0:0:0:
209,103,185553,6,0,L|338:103,1,121.000003692627,10|6,3:3|0:3,0:0:0:0:
92,269,186018,2,0,L|28:268,2,60.5000018463135,10|4|4,1:2|0:3|0:3,0:0:0:0:
460,354,186483,6,0,L|464:160,1,181.500005538941,6|2,3:2|0:2,2:2:0:0:
379,296,186948,2,0,L|247:293,1,121.000003692627,8|10,1:2|0:2,2:2:0:0:
410,130,187413,5,10,3:2:0:0:
205,33,187646,2,0,L|202:110,1,60.5000018463135,10|2,0:2|0:2,0:0:0:0:
267,32,187878,2,0,L|405:33,1,121.000003692627,10|10,1:2|0:2,2:2:0:0:
169,250,188343,5,8,3:2:0:0:
311,243,188576,1,8,0:2:0:0:
268,199,188692,1,0,0:0:0:0:
217,168,188808,1,8,1:2:0:0:
90,120,189041,1,8,0:2:0:0:
318,29,189274,6,0,L|320:165,1,121.000003692627,10|10,3:2|0:2,0:0:0:0:
56,204,189739,1,10,1:2:0:0:
57,269,189855,1,2,0:2:0:0:
58,335,189971,1,10,0:2:0:0:
355,260,190204,6,0,L|483:260,1,121.000003692627,10|8,3:2|0:2,2:2:0:0:
414,178,190553,2,0,L|340:177,1,60.5000018463135,0|8,2:0|1:2,2:2:0:0:
133,50,190902,2,0,L|212:50,1,60.5000018463135,10|2,0:2|0:2,0:0:0:0:
254,112,191134,6,0,L|384:111,1,121.000003692627,10|10,3:2|0:2,2:2:0:0:
142,281,191599,2,0,L|4:283,1,121.000003692627,10|10,1:2|0:2,2:2:0:0:
334,152,192064,5,8,3:2:0:0:
212,34,192297,1,8,0:2:0:0:
211,94,192413,1,0,0:0:0:0:
211,154,192529,1,8,1:2:0:0:
334,152,192762,1,8,0:2:0:0:
108,66,192995,6,0,L|239:65,1,121.000003692627,10|10,3:2|0:2,0:0:0:0:
468,165,193460,2,0,L|470:38,1,121.000003692627,10|10,1:2|0:2,0:0:0:0:
156,202,193925,5,10,3:2:0:0:
28,29,194157,1,8,0:2:0:0:
73,69,194273,1,2,0:2:0:0:
128,93,194389,1,8,1:2:0:0:
249,104,194623,1,10,0:2:0:0:
482,337,194855,6,0,L|485:203,1,121.000003692627,10|10,3:2|0:2,0:0:0:0:
248,332,195320,2,0,L|126:333,1,121.000003692627,10|10,1:2|0:2,2:2:0:0:
423,216,195785,6,0,L|301:215,1,121.000003692627,10|8,3:2|0:2,2:2:0:0:
241,214,196134,1,0,0:0:0:0:
179,210,196250,2,0,L|313:211,1,121.000003692627,10|10,1:2|0:2,0:0:0:0:
149,108,196716,6,0,L|285:108,1,121.000003692627,10|10,3:2|0:2,0:0:0:0:
478,37,197181,2,0,L|480:167,1,121.000003692627,10|10,1:2|0:2,0:0:0:0:
162,34,197646,6,0,L|41:34,1,121.000003692627,8|8,3:2|0:2,2:2:0:0:
106,110,197995,2,0,L|178:109,1,60.5000018463135,8|0,0:2|1:0,2:2:0:0:
301,110,198343,1,10,0:2:0:0:
70,321,198576,6,0,L|68:191,1,121.000003692627,10|8,3:2|0:2,0:0:0:0:
390,334,199041,1,10,1:2:0:0:
436,295,199157,1,0,0:0:0:0:
489,266,199273,1,8,0:2:0:0:
158,37,199506,5,8,3:2:0:0:
114,77,199622,1,8,0:3:0:0:
102,135,199738,1,8,0:3:0:0:
128,189,199854,1,4,0:3:0:0:
180,217,199971,2,0,L|247:218,2,60.5000018463135,8|8|10,1:2|0:3|0:2,0:0:0:0:
403,350,200436,5,10,3:3:0:0:
403,350,200552,1,8,0:3:0:0:
403,350,200668,1,4,0:3:0:0:
166,347,200902,1,10,1:2:0:0:
111,346,201018,1,4,0:3:0:0:
56,347,201134,1,4,0:3:0:0:
378,68,201367,5,4,0:2:0:0:
256,192,201599,12,0,204623,2:0:0:0:
