osu file format v14

[General]
AudioFilename: audio.mp3
AudioLeadIn: 0
PreviewTime: 45669
Countdown: 0
SampleSet: Soft
StackLeniency: 0.4
Mode: 2
LetterboxInBreaks: 0
WidescreenStoryboard: 1

[Editor]
DistanceSpacing: 0.8
BeatDivisor: 4
GridSize: 32
TimelineZoom: 1.8

[Metadata]
Title:Feel Special
TitleUnicode:Feel Special
Artist:TWICE
ArtistUnicode:트와이스
Creator:Xetopia
Version:Cup
Source:
Tags:Imai Lisa Nelly Dora- doraemonelf k-pop kpop korean korea pop jype jyp entertainment title track eight 8th ep sana jihyo dahyun nayeon jeongyeon chaeyoung momo mina tzuyu 나연 정연 모모 사나 지효 미나 다현 채영 쯔위 Hayley Aitken Michelle Min Lee Collapsedone Ollipop Park Jin-young Asiansoul 박진영
BeatmapID:2440768
BeatmapSetID:1108886

[Difficulty]
HPDrainRate:3
CircleSize:2.5
OverallDifficulty:6
ApproachRate:6
SliderMultiplier:1.4
SliderTickRate:1

[Events]
//Background and Video events
0,0,"godjihyo.jpg",0,0
//Break Periods
2,156915,166828
//Storyboard Layer 0 (Background)
//Storyboard Layer 1 (Fail)
//Storyboard Layer 2 (Pass)
//Storyboard Layer 3 (Foreground)
//Storyboard Layer 4 (Overlay)
//Storyboard Sound Samples

[TimingPoints]
437,465.116279069767,4,2,1,55,1,0
1134,-111.111111111111,4,2,2,55,0,0
1599,-111.111111111111,4,2,1,55,0,0
1832,-111.111111111111,4,2,2,55,0,0
2064,-111.111111111111,4,2,3,55,0,0
4855,-111.111111111111,4,2,2,55,0,0
5320,-111.111111111111,4,2,3,55,0,0
5553,-111.111111111111,4,2,2,55,0,0
5785,-111.111111111111,4,2,4,55,0,0
7878,-100,4,2,1,60,0,0
9506,-100,4,2,3,60,0,0
9661,-100,4,2,2,60,0,0
9971,-100,4,2,1,60,0,0
10902,-100,4,2,3,60,0,0
11134,-100,4,2,1,60,0,0
11289,-100,4,2,2,60,0,0
11367,-100,4,2,3,60,0,0
11522,-100,4,2,2,60,0,0
11832,-100,4,2,1,60,0,0
12762,-100,4,2,3,60,0,0
12995,-100,4,2,1,60,0,0
13227,-100,4,2,4,60,0,0
13460,-100,4,2,2,70,0,0
13809,-100,4,2,3,70,0,0
14157,-100,4,2,2,70,0,0
14390,-100,4,2,5,70,0,0
14506,-100,4,2,1,70,0,0
15088,-100,4,2,2,70,0,0
15320,-100,4,2,2,65,0,0
15785,-100,4,2,1,65,0,0
16483,-100,4,2,5,65,0,0
16948,-100,4,2,2,65,0,0
17646,-100,4,2,6,65,0,0
17762,-100,4,2,2,65,0,0
18576,-100,4,2,7,65,0,0
18692,-100,4,2,2,65,0,0
19506,-100,4,2,1,65,0,0
20204,-100,4,2,2,65,0,0
20436,-100,4,2,6,65,0,0
20553,-100,4,2,2,65,0,0
21367,-100,4,2,1,65,0,0
21483,-100,4,2,2,65,0,0
22297,-100,4,2,6,65,0,0
22413,-100,4,2,2,65,0,0
23227,-100,4,2,1,65,0,0
23460,-100,4,2,2,65,0,0
24157,-100,4,2,3,65,0,0
24390,-100,4,2,2,65,0,0
25088,-100,4,2,1,65,0,0
25320,-100,4,2,2,65,0,0
26018,-100,4,2,7,65,0,0
26134,-100,4,2,2,65,0,0
26948,-100,4,2,6,65,0,0
27064,-100,4,2,2,65,0,0
27878,-100,4,2,6,65,0,0
27995,-100,4,2,2,65,0,0
28692,-100,4,2,5,65,0,0
29041,-100,4,2,2,65,0,0
29274,-100,4,2,5,65,0,0
29390,-100,4,2,1,65,0,0
29623,-100,4,2,1,70,0,0
30204,-100,4,2,4,65,0,0
31134,-100,4,2,8,65,0,0
31599,-100,4,2,2,65,0,0
32995,-100,4,2,8,65,0,0
33227,-100,4,2,2,65,0,0
34855,-100,4,2,8,65,0,0
35320,-100,4,2,2,65,0,0
36716,-100,4,2,8,65,0,0
36948,-100,4,2,1,65,0,0
37646,-100,4,2,6,70,0,0
37995,-100,4,2,9,70,0,0
40902,-100,4,2,10,70,0,0
41250,-100,4,2,9,70,0,0
43227,-100,4,2,11,70,0,0
43460,-100,4,2,9,65,0,0
43692,-100,4,2,9,60,0,0
43925,-100,4,2,9,55,0,0
44157,-100,4,2,9,50,0,0
44390,-100,4,2,9,45,0,0
44623,-100,4,2,9,40,0,0
45785,-100,4,2,9,65,0,0
46948,-100,4,2,12,75,0,1
47646,-100,4,2,2,75,0,1
47878,-100,4,2,6,75,0,1
48111,-100,4,2,2,75,0,1
48343,-100,4,2,6,75,0,1
48576,-100,4,2,12,75,0,1
51367,-100,4,2,2,75,0,1
51599,-100,4,2,6,75,0,1
51832,-100,4,2,2,75,0,1
52064,-100,4,2,6,75,0,1
52297,-100,4,2,12,75,0,1
55088,-100,4,2,2,75,0,1
55320,-100,4,2,6,75,0,1
55553,-100,4,2,2,75,0,1
55785,-100,4,2,12,75,0,1
58111,-100,4,2,12,80,0,1
60088,-100,4,2,1,80,0,1
60436,-100,4,2,6,80,0,1
60553,-100,4,2,1,80,0,1
60669,-100,4,2,12,80,0,1
60785,-100,4,2,1,80,0,1
60902,-100,4,2,6,80,0,1
61018,-100,4,2,1,80,0,1
61134,-100,4,2,2,80,0,1
61367,-100,4,2,12,80,0,1
61483,-100,4,2,1,80,0,1
61832,-90.9090909090909,4,2,12,80,0,1
62064,-90.9090909090909,4,2,14,80,0,1
62297,-90.9090909090909,4,2,12,80,0,1
62530,-90.9090909090909,4,2,5,80,0,1
62762,-90.9090909090909,4,2,6,80,0,1
62995,-90.9090909090909,4,2,5,80,0,1
63227,-90.9090909090909,4,2,13,80,0,1
63460,-90.9090909090909,4,2,14,80,0,1
64157,-90.9090909090909,4,2,12,80,0,1
64390,-90.9090909090909,4,2,14,80,0,1
65088,-90.9090909090909,4,2,12,80,0,1
65320,-90.9090909090909,4,2,14,80,0,1
66018,-90.9090909090909,4,2,12,80,0,1
66250,-90.9090909090909,4,2,5,80,0,1
66483,-90.9090909090909,4,2,6,80,0,1
66716,-90.9090909090909,4,2,5,80,0,1
66948,-90.9090909090909,4,2,13,80,0,1
67181,-90.9090909090909,4,2,14,80,0,1
67878,-90.9090909090909,4,2,12,80,0,1
68111,-90.9090909090909,4,2,14,80,0,1
68809,-90.9090909090909,4,2,12,80,0,1
69041,-90.9090909090909,4,2,14,80,0,1
69739,-90.9090909090909,4,2,12,80,0,1
69971,-90.9090909090909,4,2,5,80,0,1
70204,-90.9090909090909,4,2,6,80,0,1
70436,-90.9090909090909,4,2,5,80,0,1
70669,-90.9090909090909,4,2,12,80,0,1
70902,-90.9090909090909,4,2,14,80,0,1
71599,-90.9090909090909,4,2,12,80,0,1
71832,-90.9090909090909,4,2,14,80,0,1
72530,-90.9090909090909,4,2,12,80,0,1
72762,-90.9090909090909,4,2,14,80,0,1
72995,-90.9090909090909,4,2,6,85,0,1
73227,-90.9090909090909,4,2,5,85,0,1
73343,-90.9090909090909,4,2,12,85,0,1
73692,-90.9090909090909,4,2,15,85,0,1
73925,-90.9090909090909,4,2,12,85,0,1
74157,-90.9090909090909,4,2,7,85,0,1
74390,-90.9090909090909,4,2,12,85,0,1
74623,-90.9090909090909,4,2,5,85,0,1
74855,-90.9090909090909,4,2,6,85,0,1
74971,-90.9090909090909,4,2,1,85,0,1
75320,-90.9090909090909,4,2,12,85,0,1
75436,-90.9090909090909,4,2,1,85,0,1
75553,-90.9090909090909,4,2,12,85,0,1
75669,-90.9090909090909,4,2,1,85,0,1
75785,-90.9090909090909,4,2,6,85,0,1
75902,-90.9090909090909,4,2,1,85,0,1
76250,-90.9090909090909,4,2,12,85,0,1
76367,-90.9090909090909,4,2,3,85,0,1
76716,-100,4,2,3,85,0,0
78111,-100,4,2,1,85,0,0
78576,-100,4,2,2,85,0,0
79041,-100,4,2,5,85,0,0
79506,-100,4,2,1,85,0,0
79971,-100,4,2,3,85,0,0
80436,-100,4,2,2,85,0,0
80902,-100,4,2,5,85,0,0
81367,-100,4,2,2,85,0,0
81832,-100,4,2,7,65,0,0
81948,-100,4,2,2,85,0,0
82762,-100,4,2,5,85,0,0
83227,-100,4,2,1,85,0,0
83692,-100,4,2,3,85,0,0
84157,-100,4,2,2,85,0,0
84623,-100,4,2,5,85,0,0
85088,-100,4,2,2,85,0,0
85553,-100,4,2,5,85,0,0
86018,-100,4,2,2,85,0,0
86483,-100,4,2,5,85,0,0
86948,-100,4,2,2,85,0,0
87413,-100,4,2,5,85,0,0
87878,-100,4,2,2,85,0,0
88343,-100,4,2,5,85,0,0
88809,-100,4,2,2,85,0,0
89274,-100,4,2,7,85,0,0
89390,-100,4,2,2,85,0,0
90204,-100,4,2,3,85,0,0
90669,-100,4,2,2,85,0,0
91134,-100,4,2,5,85,0,0
91599,-100,4,2,2,85,0,0
92646,-100,4,2,1,85,0,0
93460,-100,4,2,4,85,0,0
94390,-100,4,2,8,85,0,0
94855,-100,4,2,2,85,0,0
96250,-100,4,2,8,85,0,0
96483,-100,4,2,2,85,0,0
98111,-100,4,2,8,85,0,0
98576,-100,4,2,2,85,0,0
99971,-100,4,2,8,85,0,0
100204,-100,4,2,1,85,0,0
100902,-100,4,2,6,85,0,0
101250,-100,4,2,9,85,0,0
104157,-100,4,2,10,85,0,0
104506,-100,4,2,9,85,0,0
105320,-100,4,2,16,85,0,0
105436,-100,4,2,9,85,0,0
106018,-100,4,2,16,85,0,0
106367,-90.9090909090909,4,2,9,85,0,0
106483,-100,4,2,17,85,0,0
106716,-100,4,2,16,85,0,0
108111,-100,4,2,9,85,0,0
110204,-100,4,2,12,75,0,1
110436,-100,4,2,14,75,0,1
110669,-100,4,2,15,75,0,1
110902,-100,4,2,5,75,0,1
111134,-100,4,2,6,75,0,1
111367,-100,4,2,5,75,0,1
111599,-100,4,2,18,75,0,1
111832,-100,4,2,14,75,0,1
112530,-100,4,2,15,75,0,1
112762,-100,4,2,14,75,0,1
113460,-100,4,2,15,75,0,1
113692,-100,4,2,14,75,0,1
114390,-100,4,2,15,75,0,1
114623,-100,4,2,5,75,0,1
114855,-100,4,2,6,75,0,1
115088,-100,4,2,5,75,0,1
115320,-100,4,2,18,75,0,1
115553,-100,4,2,14,75,0,1
116250,-100,4,2,15,75,0,1
116483,-100,4,2,14,75,0,1
118111,-100,4,2,15,75,0,1
118343,-100,4,2,5,75,0,1
118576,-100,4,2,6,75,0,1
118809,-100,4,2,5,75,0,1
119041,-100,4,2,15,75,0,1
119274,-100,4,2,14,75,0,1
119971,-100,4,2,15,75,0,1
120204,-100,4,2,14,75,0,1
120902,-100,4,2,15,75,0,1
121134,-100,4,2,5,75,0,1
121367,-100,4,2,6,75,0,1
121599,-100,4,2,5,75,0,1
121716,-100,4,2,2,75,0,1
121832,-100,4,2,15,75,0,1
122297,-100,4,2,12,75,0,1
122530,-100,4,2,15,75,0,1
122762,-100,4,2,19,75,0,1
122995,-100,4,2,5,75,0,1
123227,-100,4,2,6,75,0,1
123343,-100,4,2,1,75,0,1
123692,-100,4,2,18,75,0,1
123809,-100,4,2,1,75,0,1
123925,-100,4,2,12,75,0,1
124041,-100,4,2,1,75,0,1
124157,-100,4,2,6,75,0,1
124274,-100,4,2,1,75,0,1
124390,-100,4,2,2,75,0,1
124623,-100,4,2,19,75,0,1
124739,-100,4,2,1,75,0,1
125088,-90.9090909090909,4,2,12,85,0,1
125320,-90.9090909090909,4,2,14,85,0,1
125553,-90.9090909090909,4,2,12,85,0,1
125785,-90.9090909090909,4,2,5,85,0,1
126018,-90.9090909090909,4,2,6,85,0,1
126250,-90.9090909090909,4,2,5,85,0,1
126483,-90.9090909090909,4,2,13,85,0,1
126716,-90.9090909090909,4,2,14,85,0,1
127413,-90.9090909090909,4,2,12,85,0,1
127646,-90.9090909090909,4,2,14,85,0,1
128343,-90.9090909090909,4,2,12,85,0,1
128576,-90.9090909090909,4,2,14,85,0,1
129274,-90.9090909090909,4,2,12,85,0,1
129506,-90.9090909090909,4,2,5,85,0,1
129739,-90.9090909090909,4,2,6,85,0,1
129971,-90.9090909090909,4,2,5,85,0,1
130204,-90.9090909090909,4,2,13,85,0,1
130436,-90.9090909090909,4,2,14,85,0,1
131134,-90.9090909090909,4,2,12,85,0,1
131367,-90.9090909090909,4,2,14,85,0,1
132064,-90.9090909090909,4,2,12,85,0,1
132297,-90.9090909090909,4,2,14,85,0,1
132995,-90.9090909090909,4,2,12,85,0,1
133227,-90.9090909090909,4,2,5,85,0,1
133460,-90.9090909090909,4,2,6,85,0,1
133692,-90.9090909090909,4,2,5,85,0,1
133925,-90.9090909090909,4,2,12,85,0,1
134157,-90.9090909090909,4,2,14,85,0,1
134855,-90.9090909090909,4,2,12,85,0,1
135088,-90.9090909090909,4,2,14,85,0,1
135785,-90.9090909090909,4,2,12,85,0,1
136018,-90.9090909090909,4,2,14,85,0,1
136250,-90.9090909090909,4,2,6,85,0,1
136483,-90.9090909090909,4,2,5,85,0,1
136599,-90.9090909090909,4,2,12,85,0,1
136948,-90.9090909090909,4,2,15,85,0,1
137181,-90.9090909090909,4,2,12,85,0,1
137413,-90.9090909090909,4,2,7,85,0,1
137646,-90.9090909090909,4,2,12,85,0,1
137878,-90.9090909090909,4,2,5,85,0,1
138111,-90.9090909090909,4,2,6,85,0,1
138227,-90.9090909090909,4,2,1,85,0,1
138576,-83.3333333333333,4,2,12,85,0,1
138692,-90.9090909090909,4,2,1,85,0,1
138809,-90.9090909090909,4,2,12,85,0,1
138925,-90.9090909090909,4,2,1,85,0,1
139041,-90.9090909090909,4,2,6,85,0,1
139157,-90.9090909090909,4,2,1,85,0,1
139506,-90.9090909090909,4,2,12,85,0,1
139623,-90.9090909090909,4,2,1,85,0,1
139971,-90.9090909090909,4,2,20,50,0,0
140126,-90.9090909090909,4,2,3,50,0,0
140436,-100,4,2,3,65,0,0
140902,-100,4,2,3,75,0,0
141057,-100,4,2,3,85,0,0
141367,-100,4,2,4,85,0,0
141832,-100,4,2,21,80,0,0
142297,-100,4,2,22,80,0,0
142374,-100,4,2,8,80,0,0
142762,-100,4,2,23,80,0,0
142840,-100,4,2,2,80,0,0
143227,-100,4,2,24,80,0,0
143343,-100,4,2,8,40,0,0
143692,-100,4,2,25,80,0,0
144157,-100,4,2,26,80,0,0
144390,-100,4,2,8,80,0,0
144623,-100,4,2,23,80,0,0
144855,-100,4,2,8,80,0,0
145088,-100,4,2,27,80,0,0
145553,-100,4,2,21,80,0,0
146018,-100,4,2,22,80,0,0
146095,-100,4,2,8,80,0,0
146483,-100,4,2,23,80,0,0
146561,-100,4,2,2,80,0,0
146948,-100,4,2,24,80,0,0
147064,-100,4,2,2,40,0,0
147181,-100,4,2,20,40,0,0
147413,-100,4,2,28,80,0,0
147491,-100,4,2,8,80,0,0
147878,-100,4,2,23,80,0,0
148111,-100,4,2,8,80,0,0
148343,-100,4,2,21,80,0,0
148460,-100,4,2,8,80,0,0
148809,-100,4,2,22,80,0,0
149041,-100,4,2,29,80,0,0
149274,-100,4,2,21,80,0,0
149739,-100,4,2,22,80,0,0
149971,-100,4,2,8,80,0,0
150204,-100,4,2,23,80,0,0
150436,-100,4,2,2,80,0,0
150669,-100,4,2,24,80,0,0
151134,-100,4,2,25,80,0,0
151367,-100,4,2,29,80,0,0
151599,-100,4,2,26,80,0,0
151832,-100,4,2,8,80,0,0
152064,-100,4,2,23,80,0,0
152297,-100,4,2,8,80,0,0
152530,-100,4,2,27,80,0,0
152762,-100,4,2,29,80,0,0
152995,-100,4,2,21,80,0,0
153460,-100,4,2,22,80,0,0
153692,-100,4,2,8,80,0,0
153925,-100,4,2,23,80,0,0
154041,-100,4,2,2,80,0,0
154390,-100,4,2,24,80,0,0
154623,-100,4,2,20,80,0,0
154855,-100,4,2,28,80,0,0
155088,-100,4,2,8,80,0,0
155320,-100,4,2,23,80,0,0
155553,-100,4,2,8,80,0,0
155785,-100,4,2,21,80,0,0
156018,-100,4,2,2,80,0,0
156250,-100,4,2,22,80,0,0
156716,-100,4,2,5,60,0,0
167878,-100,4,2,2,70,0,0
169855,-100,4,2,1,70,0,0
170204,-100,4,2,2,70,0,0
170320,-100,4,2,1,70,0,0
170436,-100,4,2,2,70,0,0
170553,-100,4,2,1,70,0,0
171134,-90.9090909090909,4,2,2,70,0,0
171599,-90.9090909090909,4,2,12,75,0,1
171832,-90.9090909090909,4,2,14,75,0,1
172064,-90.9090909090909,4,2,15,75,0,1
172297,-90.9090909090909,4,2,5,75,0,1
172530,-90.9090909090909,4,2,6,75,0,1
172762,-90.9090909090909,4,2,5,75,0,1
172995,-90.9090909090909,4,2,18,75,0,1
173227,-90.9090909090909,4,2,14,75,0,1
173925,-90.9090909090909,4,2,15,75,0,1
174157,-90.9090909090909,4,2,14,75,0,1
174855,-90.9090909090909,4,2,15,75,0,1
175088,-90.9090909090909,4,2,14,75,0,1
175785,-90.9090909090909,4,2,15,75,0,1
176018,-90.9090909090909,4,2,5,75,0,1
176250,-90.9090909090909,4,2,6,75,0,1
176483,-90.9090909090909,4,2,5,75,0,1
176716,-90.9090909090909,4,2,18,75,0,1
176948,-90.9090909090909,4,2,14,75,0,1
177646,-90.9090909090909,4,2,15,75,0,1
177878,-90.9090909090909,4,2,14,75,0,1
178576,-90.9090909090909,4,2,15,75,0,1
178809,-90.9090909090909,4,2,14,75,0,1
179506,-90.9090909090909,4,2,15,75,0,1
179739,-90.9090909090909,4,2,5,75,0,1
179971,-90.9090909090909,4,2,6,75,0,1
180204,-90.9090909090909,4,2,5,75,0,1
180436,-90.9090909090909,4,2,15,75,0,1
180669,-90.9090909090909,4,2,14,75,0,1
181367,-90.9090909090909,4,2,15,75,0,1
181599,-90.9090909090909,4,2,14,75,0,1
182297,-90.9090909090909,4,2,15,75,0,1
182530,-90.9090909090909,4,2,5,75,0,1
182762,-90.9090909090909,4,2,6,75,0,1
182995,-90.9090909090909,4,2,5,75,0,1
183111,-90.9090909090909,4,2,2,75,0,1
183227,-90.9090909090909,4,2,15,75,0,1
183692,-90.9090909090909,4,2,12,75,0,1
183925,-90.9090909090909,4,2,15,75,0,1
184157,-90.9090909090909,4,2,19,75,0,1
184390,-90.9090909090909,4,2,5,75,0,1
184623,-90.9090909090909,4,2,6,75,0,1
184739,-90.9090909090909,4,2,1,75,0,1
185088,-90.9090909090909,4,2,18,75,0,1
185204,-90.9090909090909,4,2,1,75,0,1
185320,-90.9090909090909,4,2,12,75,0,1
185436,-90.9090909090909,4,2,1,75,0,1
185553,-90.9090909090909,4,2,6,75,0,1
185669,-90.9090909090909,4,2,1,75,0,1
185785,-90.9090909090909,4,2,2,75,0,1
186018,-90.9090909090909,4,2,19,75,0,1
186134,-90.9090909090909,4,2,1,75,0,1
186483,-90.9090909090909,4,2,14,85,0,1
186948,-90.9090909090909,4,2,13,85,0,1
187181,-90.9090909090909,4,2,5,85,0,1
187413,-90.9090909090909,4,2,13,85,0,1
187646,-90.9090909090909,4,2,5,85,0,1
187878,-90.9090909090909,4,2,13,85,0,1
188111,-90.9090909090909,4,2,5,85,0,1
188343,-90.9090909090909,4,2,10,85,0,1
188576,-90.9090909090909,4,2,5,85,0,1
188809,-90.9090909090909,4,2,13,85,0,1
189041,-90.9090909090909,4,2,5,85,0,1
189274,-90.9090909090909,4,2,13,85,0,1
189390,-90.9090909090909,4,2,5,85,0,1
189739,-90.9090909090909,4,2,13,85,0,1
189855,-90.9090909090909,4,2,5,85,0,1
190204,-90.9090909090909,4,2,13,85,0,1
190436,-90.9090909090909,4,2,5,85,0,1
190669,-90.9090909090909,4,2,13,85,0,1
190902,-90.9090909090909,4,2,5,85,0,1
191134,-90.9090909090909,4,2,13,85,0,1
191367,-90.9090909090909,4,2,5,85,0,1
191599,-90.9090909090909,4,2,13,85,0,1
191832,-90.9090909090909,4,2,5,85,0,1
192064,-90.9090909090909,4,2,10,85,0,1
192297,-90.9090909090909,4,2,5,85,0,1
192530,-90.9090909090909,4,2,13,85,0,1
192762,-90.9090909090909,4,2,5,85,0,1
192995,-90.9090909090909,4,2,13,85,0,1
193111,-90.9090909090909,4,2,5,85,0,1
193460,-90.9090909090909,4,2,13,85,0,1
193576,-90.9090909090909,4,2,5,85,0,1
193925,-90.9090909090909,4,2,13,85,0,1
194157,-90.9090909090909,4,2,5,85,0,1
194390,-90.9090909090909,4,2,13,85,0,1
194623,-90.9090909090909,4,2,5,85,0,1
194855,-90.9090909090909,4,2,13,85,0,1
195088,-90.9090909090909,4,2,5,85,0,1
195320,-90.9090909090909,4,2,13,85,0,1
195436,-90.9090909090909,4,2,5,85,0,1
195785,-90.9090909090909,4,2,13,85,0,1
196018,-90.9090909090909,4,2,5,85,0,1
196250,-90.9090909090909,4,2,13,85,0,1
196367,-90.9090909090909,4,2,5,85,0,1
196716,-90.9090909090909,4,2,13,85,0,1
196948,-90.9090909090909,4,2,5,85,0,1
197181,-90.9090909090909,4,2,13,85,0,1
197297,-90.9090909090909,4,2,5,85,0,1
197646,-90.9090909090909,4,2,11,85,0,1
197878,-90.9090909090909,4,2,5,85,0,1
197995,-90.9090909090909,4,2,12,85,0,1
198343,-90.9090909090909,4,2,29,85,0,1
198576,-90.9090909090909,4,2,13,85,0,1
198809,-90.9090909090909,4,2,7,85,0,1
199041,-90.9090909090909,4,2,30,85,0,1
199274,-90.9090909090909,4,2,5,85,0,1
199506,-90.9090909090909,4,2,11,85,0,1
199623,-90.9090909090909,4,2,1,85,0,1
199971,-90.9090909090909,4,2,12,85,0,1
200088,-90.9090909090909,4,2,1,85,0,1
200204,-90.9090909090909,4,2,2,85,0,1
200320,-90.9090909090909,4,2,1,85,0,1
200436,-90.9090909090909,4,2,9,85,0,1
200553,-90.9090909090909,4,2,1,85,0,1
200902,-90.9090909090909,4,2,30,85,0,1
201018,-90.9090909090909,4,2,3,85,0,1
201367,-100,4,2,3,85,0,0
204623,-100,4,2,3,5,0,0

[Colours]
Combo1 : 216,186,16
Combo2 : 255,0,0
Combo3 : 255,255,128
Combo4 : 192,192,192
Combo5 : 255,128,64

[HitObjects]
103,45,437,5,2,2:0:0:0:
349,45,1134,2,0,L|494:44,2,125.999996154785,2|2|2,2:0|2:0|2:0,0:0:0:0:
45,234,3460,5,2,2:0:0:0:
44,222,3925,1,2,2:0:0:0:
325,42,4855,6,0,L|178:42,2,125.999996154785,2|2|2,2:0|2:0|2:0,0:0:0:0:
78,46,6716,2,0,L|77:126,1,62.9999980773926,2|0,2:0|2:0,2:2:0:0:
141,176,7181,2,0,L|226:177,1,62.9999980773926,2|0,2:0|2:0,0:0:0:0:
422,339,7878,6,0,L|424:182,1,140,2|0,2:0|1:0,2:2:0:0:
348,341,8576,2,0,L|209:340,2,140,8|10|10,2:0|2:0|2:0,0:0:0:0:
410,339,9661,5,2,2:0:0:0:
259,242,9971,1,8,2:0:0:0:
194,242,10204,2,0,L|155:179,2,70,0|8|0,1:0|2:0|2:0,2:2:0:0:
275,98,10902,5,10,2:0:0:0:
48,51,11367,1,10,2:0:0:0:
120,50,11599,2,0,L|261:50,1,140,0|0,2:0|1:0,2:2:0:0:
351,51,12297,5,8,2:0:0:0:
174,310,12762,2,0,L|172:221,1,70,10|0,2:0|1:0,0:0:0:0:
246,237,13227,1,10,2:0:0:0:
383,232,13460,6,0,L|499:233,2,105,0|0|0,1:0|1:0|1:0,0:0:0:0:
287,73,14390,2,0,L|126:73,1,140,2|4,1:2|2:0,2:2:0:0:
352,317,15320,5,4,3:2:0:0:
245,318,15669,2,0,L|244:268,1,35,0|0,3:0|1:0,2:2:0:0:
369,217,16018,2,0,L|365:102,1,105,0|0,3:0|3:0,2:2:0:0:
243,64,16716,1,2,3:2:0:0:
38,223,17181,6,0,L|34:68,1,140,2|2,2:0|1:2,0:0:0:0:
147,81,17878,2,0,L|286:81,1,140,2|2,2:0|2:0,2:2:0:0:
87,46,18809,1,2,3:2:0:0:
289,44,19274,6,0,L|411:44,2,105,0|0|0,3:0|3:0|3:0,0:0:0:0:
182,46,20204,2,0,L|180:202,1,140,2|2,2:0|3:2,0:0:0:0:
325,163,20902,5,2,2:0:0:0:
408,165,21134,2,0,L|410:111,1,35,2|2,3:2|2:0,2:2:0:0:
265,305,21483,1,2,3:2:0:0:
221,307,21599,2,0,L|374:308,1,140,2|0,2:0|2:0,2:2:0:0:
434,310,22297,1,2,1:2:0:0:
220,35,22762,6,0,L|217:143,1,105,2|2,3:2|3:2,2:2:0:0:
322,97,23460,1,2,3:2:0:0:
452,255,23809,2,0,L|453:200,1,35,0|0,3:0|2:0,2:2:0:0:
377,182,24157,1,0,3:0:0:0:
170,58,24623,5,2,2:0:0:0:
286,60,24971,1,2,2:0:0:0:
138,93,25320,2,0,P|139:118|212:199,1,140,2|2,2:0|2:0,0:0:0:0:
313,201,26018,2,0,L|316:114,1,70,2|2,1:2|3:2,2:2:0:0:
230,324,26483,6,0,L|388:322,2,140,2|2|2,2:0|1:2|3:2,2:2:0:0:
101,324,27646,2,0,L|100:246,1,70,0|2,2:0|1:2,2:2:0:0:
339,83,28343,6,0,L|462:84,2,105,0|0|2,1:0|1:0|1:2,2:2:0:0:
213,83,29274,2,0,L|68:84,1,140,2|6,1:2|2:3,0:0:0:0:
298,259,30204,5,4,3:2:0:0:
71,337,31134,2,0,L|69:180,1,140,2|2,1:2|3:2,2:2:0:0:
218,99,32064,1,0,3:0:0:0:
470,61,32995,6,0,L|315:62,2,140,2|2|0,1:2|2:0|3:0,2:2:0:0:
180,320,34855,6,0,L|177:179,1,140,2|2,1:2|3:2,2:2:0:0:
395,274,35785,2,0,L|237:273,2,140,2|2|2,3:2|2:0|1:2,2:2:0:0:
206,175,37181,2,0,L|205:98,1,70,2|0,2:1|2:0,0:0:0:0:
296,97,37646,6,0,L|448:98,1,140,4|0,3:2|3:0,2:2:0:0:
359,184,38343,1,2,1:2:0:0:
239,101,38576,2,0,L|90:100,1,140,2|2,3:2|1:2,2:2:0:0:
318,311,39506,5,0,3:0:0:0:
202,313,39855,2,0,L|201:262,1,35,0|0,1:0|3:0,2:2:0:0:
348,212,40204,1,2,1:2:0:0:
422,208,40436,2,0,L|423:51,1,140,2|2,3:2|1:2,2:2:0:0:
217,67,41367,6,0,L|70:67,1,140,0|0,3:0|3:0,2:2:0:0:
179,152,42064,2,0,L|270:151,2,70,2|2|2,1:2|3:2|2:0,2:2:0:0:
94,340,42762,2,0,L|93:190,1,140,2|2,1:2|1:2,0:0:0:0:
311,53,43692,6,0,L|469:53,2,140,2|2|2,1:2|1:2|1:2,2:2:0:0:
238,51,44855,1,2,2:0:0:0:
76,61,46483,1,10,2:0:0:0:
284,350,46948,6,0,L|285:204,1,140,6|0,3:2|3:0,2:2:0:0:
198,309,47646,2,0,L|106:310,1,70,2|2,2:0|3:2,2:2:0:0:
42,197,48111,2,0,L|191:197,1,140,2|2,2:0|2:0,2:2:0:0:
292,194,48809,6,0,L|455:194,1,140,2|0,3:2|3:0,2:2:0:0:
225,73,49739,1,2,3:2:0:0:
405,38,50204,2,0,L|406:124,1,70,2|2,3:2|2:0,0:0:0:0:
275,182,50669,6,0,L|132:183,1,140,2|0,3:2|3:0,2:2:0:0:
327,343,51599,2,0,L|409:342,2,70,2|2|2,3:2|2:0|3:2,2:2:0:0:
128,299,52530,6,0,L|123:147,1,140,2|0,3:2|3:0,2:2:0:0:
325,118,53460,2,0,L|469:118,1,140,2|2,3:2|3:2,0:0:0:0:
250,46,54390,6,0,P|211:110|264:154,1,140,2|0,3:2|3:0,2:2:0:0:
360,221,55088,2,0,L|361:139,1,70,2|2,2:0|3:2,0:0:0:0:
144,304,55785,2,0,L|59:304,1,70,2|2,3:2|2:0,2:2:0:0:
164,306,56250,6,0,L|310:306,2,140,2|2|2,3:2|3:2|3:2,2:2:0:0:
335,205,57646,1,2,3:2:0:0:
126,54,58111,6,0,L|123:202,1,140,8|0,3:2|3:0,2:2:0:0:
223,108,58809,2,0,L|307:109,1,70,10|2,2:0|3:2,0:0:0:0:
86,288,59506,1,10,3:2:0:0:
269,286,59971,6,0,L|423:286,2,140,8|8|10,3:2|3:2|3:0,2:2:0:0:
80,199,61367,2,0,L|80:107,1,70,10|4,3:2|2:3,2:2:0:0:
213,66,61832,6,0,L|386:66,1,154.000004699707,6|0,3:2|1:0,2:2:0:0:
448,157,62530,2,0,L|366:157,1,77.0000023498536,10|2,2:0|3:2,2:2:0:0:
249,315,62995,2,0,L|248:159,1,154.000004699707,10|10,2:0|2:0,2:2:0:0:
359,168,63692,5,2,3:2:0:0:
129,317,64157,2,0,L|127:158,1,154.000004699707,0|2,1:0|3:2,2:2:0:0:
322,58,65088,2,0,L|405:58,1,77.0000023498536,2|10,1:2|2:0,0:0:0:0:
264,58,65553,6,0,L|103:59,1,154.000004699707,2|0,3:2|1:0,2:2:0:0:
322,204,66483,2,0,L|333:290,2,77.0000023498536,2|10|2,3:2|2:0|1:2,2:2:0:0:
121,174,67413,6,0,L|280:174,1,154.000004699707,2|0,3:2|1:0,2:2:0:0:
443,26,68343,2,0,L|447:183,1,154.000004699707,2|2,3:2|1:2,0:0:0:0:
218,69,69274,6,0,L|59:69,1,154.000004699707,2|0,3:2|1:0,2:2:0:0:
255,215,70204,2,0,L|421:215,1,154.000004699707,2|2,3:2|1:2,0:0:0:0:
204,333,71134,6,0,L|199:176,1,154.000004699707,2|2,3:2|1:2,2:2:0:0:
358,114,72064,2,0,L|452:114,1,77.0000023498536,2|10,3:2|2:0,0:0:0:0:
319,59,72530,6,0,L|161:61,1,154.000004699707,2|8,1:2|3:2,2:2:0:0:
322,331,73343,2,0,L|323:284,1,38.5000011749268,8|0,2:0|1:0,2:2:0:0:
119,323,73925,2,0,L|116:158,1,154.000004699707,2|10,3:2|1:2,0:0:0:0:
350,68,74855,6,0,L|444:70,2,77.0000023498536,8|8|8,3:2|2:3|1:2,0:0:0:0:
176,69,75785,2,0,L|21:70,2,154.000004699707,10|10|4,3:0|1:2|0:2,2:2:0:0:
256,192,77181,12,4,78111,2:0:0:0:
111,37,78576,6,0,L|109:185,1,140,4|2,3:2|3:2,2:2:0:0:
302,327,79506,2,0,L|379:326,2,70,0|0|0,3:0|2:0|3:0,2:2:0:0:
100,329,80436,6,0,L|257:327,2,140,2|0|0,3:2|3:0|3:0,2:2:0:0:
294,58,81832,2,0,L|298:198,1,140,2|0,3:2|3:0,2:2:0:0:
111,51,82762,5,2,3:2:0:0:
329,334,83227,2,0,L|474:335,1,140,0|0,3:0|3:0,2:2:0:0:
266,154,84157,6,0,L|103:156,1,140,2|0,3:2|3:0,2:2:0:0:
197,72,84855,1,2,2:0:0:0:
389,72,85320,2,0,L|472:71,1,70,2|2,2:0|3:2,0:0:0:0:
258,309,86018,6,0,L|183:310,2,70,2|0|2,3:2|2:0|3:2,2:2:0:0:
433,304,86948,2,0,L|282:306,1,140,2|0,3:2|3:0,2:2:0:0:
102,196,87878,5,2,3:2:0:0:
101,126,88110,1,0,2:0:0:0:
100,56,88343,1,2,3:2:0:0:
261,116,88809,1,2,3:2:0:0:
55,31,89274,6,0,L|206:31,1,140,2|0,3:2|3:0,2:2:0:0:
347,32,90204,1,0,3:0:0:0:
139,334,90669,2,0,L|137:179,1,140,2|0,3:2|3:0,0:0:0:0:
331,213,91599,6,0,L|446:213,2,105,0|0|2,1:0|3:0|1:2,2:2:0:0:
243,101,92530,2,0,L|90:100,1,140,2|4,3:2|2:3,0:0:0:0:
316,342,93460,5,4,3:2:0:0:
47,336,94390,2,0,L|201:335,2,140,2|2|0,1:2|3:2|3:0,2:2:0:0:
335,158,96250,6,0,L|181:157,2,140,2|2|0,1:2|2:0|3:0,2:2:0:0:
56,49,98111,6,0,L|55:202,1,140,2|2,1:2|3:2,2:2:0:0:
253,41,99041,2,0,L|414:41,2,140,2|2|2,3:2|2:0|1:2,2:2:0:0:
425,236,100436,2,0,L|425:152,1,70,2|0,2:1|2:0,0:0:0:0:
331,235,100902,6,0,L|176:236,1,140,4|0,3:2|3:0,2:2:0:0:
375,102,101832,2,0,L|217:102,1,140,2|2,3:2|1:2,2:2:0:0:
81,97,102762,5,0,3:0:0:0:
215,98,103111,2,0,L|278:98,1,35,0|0,1:0|3:0,2:2:0:0:
106,333,103460,1,2,1:2:0:0:
34,277,103692,2,0,L|198:277,1,140,2|2,3:2|1:2,2:2:0:0:
369,350,104623,6,0,L|370:199,1,140,0|0,3:0|3:0,0:0:0:0:
213,111,105553,2,0,L|129:111,1,70,2|2,3:2|3:2,2:2:0:0:
245,111,106018,2,0,L|397:110,1,140,2|2,1:2|1:2,0:0:0:0:
175,257,106948,6,0,L|329:257,2,140,2|2|2,1:2|1:2|1:2,2:2:0:0:
95,257,108111,1,2,3:2:0:0:
443,186,109739,1,10,2:0:0:0:
227,31,110204,6,0,L|226:185,1,140,6|0,3:2|1:0,2:2:0:0:
300,267,110902,2,0,L|387:267,1,70,10|2,2:0|3:2,0:0:0:0:
169,333,111599,2,0,L|76:334,1,70,2|10,1:2|2:0,2:2:0:0:
183,334,112064,6,0,L|349:336,2,140,2|0|2,3:2|1:0|3:2,2:2:0:0:
383,87,113460,2,0,L|383:166,1,70,2|10,1:2|2:0,0:0:0:0:
308,84,113925,6,0,L|142:86,1,140,2|0,3:2|1:0,2:2:0:0:
85,152,114623,2,0,L|83:62,1,70,10|2,2:0|3:2,0:0:0:0:
253,288,115320,1,2,1:2:0:0:
57,201,115785,6,0,L|222:201,1,140,2|0,3:2|1:0,2:2:0:0:
399,341,116716,2,0,L|394:197,1,140,2|2,3:2|1:2,0:0:0:0:
197,340,117646,6,0,L|194:198,1,140,2|0,3:2|1:0,2:2:0:0:
288,169,118343,2,0,L|379:166,1,70,10|2,2:0|3:2,0:0:0:0:
178,44,119041,2,0,L|95:45,1,70,2|10,1:2|2:0,2:2:0:0:
206,88,119506,6,0,L|355:85,1,140,2|2,3:2|1:2,2:2:0:0:
170,217,120436,2,0,L|98:219,2,70,2|8|2,3:2|2:0|1:2,0:0:0:0:
379,352,121367,6,0,L|380:209,1,140,8|0,3:2|1:0,2:2:0:0:
292,321,122064,2,0,L|201:323,1,70,10|2,2:0|3:2,0:0:0:0:
397,117,122762,1,10,1:2:0:0:
204,45,123227,6,0,L|40:46,2,140,8|8|10,3:2|1:2|3:0,2:2:0:0:
372,44,124623,2,0,L|373:131,1,70,10|4,1:2|2:3,2:2:0:0:
267,173,125088,6,0,L|101:175,1,154.000004699707,6|0,3:2|1:0,2:2:0:0:
191,257,125785,2,0,L|275:258,1,77.0000023498536,10|2,2:0|3:2,0:0:0:0:
81,339,126483,1,2,1:2:0:0:
306,349,126948,6,0,L|307:189,1,154.000004699707,2|0,3:2|1:0,2:2:0:0:
127,92,127878,2,0,L|40:92,2,77.0000023498536,2|10|2,3:2|2:0|1:2,0:0:0:0:
345,93,128809,6,0,L|180:93,1,154.000004699707,2|0,3:2|1:0,2:2:0:0:
107,209,129506,2,0,L|194:209,1,77.0000023498536,10|2,2:0|3:2,0:0:0:0:
364,338,130204,1,2,1:2:0:0:
143,335,130669,6,0,L|142:163,1,154.000004699707,2|0,3:2|1:0,2:2:0:0:
238,268,131367,2,0,L|323:267,1,77.0000023498536,10|2,2:0|3:2,2:2:0:0:
120,87,132064,2,0,L|24:90,1,77.0000023498536,2|10,1:2|2:0,0:0:0:0:
145,87,132530,6,0,L|331:83,1,154.000004699707,2|0,3:2|1:0,2:2:0:0:
394,144,133227,2,0,L|395:62,1,77.0000023498536,10|2,2:0|3:2,0:0:0:0:
191,337,133925,2,0,L|190:255,1,77.0000023498536,2|10,1:2|2:0,2:2:0:0:
287,316,134390,6,0,L|456:314,2,154.000004699707,2|2|2,3:2|1:2|3:2,2:2:0:0:
86,172,135785,2,0,L|82:87,1,77.0000023498536,2|10,1:2|2:0,0:0:0:0:
167,104,136250,6,0,L|326:104,1,154.000004699707,8|0,3:2|1:0,2:2:0:0:
113,272,137181,2,0,L|293:271,1,154.000004699707,2|10,3:2|1:2,0:0:0:0:
472,329,138111,5,8,3:2:0:0:
472,252,138343,1,8,2:3:0:0:
473,175,138576,1,8,1:2:0:0:
267,54,139041,2,0,L|425:54,2,154.000004699707,10|10|6,3:0|1:2|2:0,2:2:0:0:
80,43,140436,6,0,L|75:203,1,140,2|2,2:3|2:3,2:2:0:0:
125,186,141057,1,6,2:3:0:0:
243,333,141367,2,0,L|396:332,1,140,6|2,2:3|3:2,2:2:0:0:
208,198,142297,6,0,L|350:198,2,140,2|2|10,2:0|1:2|2:0,0:0:0:0:
367,40,143692,6,0,L|370:182,1,140,2|10,3:2|2:0,2:2:0:0:
283,244,144390,2,0,L|211:245,1,70,2|2,3:2|1:2,2:2:0:0:
394,345,145088,2,0,L|245:345,1,140,10|2,2:0|3:2,2:2:0:0:
70,247,146018,6,0,L|221:244,1,140,10|2,2:0|1:2,0:0:0:0:
389,66,146948,2,0,L|389:139,1,70,10|8,2:0|1:2,0:0:0:0:
289,61,147413,6,0,L|142:61,2,140,2|10|2,3:2|2:0|1:2,2:2:0:0:
111,300,148809,2,0,L|109:218,1,70,2|2,2:0|1:2,2:2:0:0:
206,301,149274,6,0,L|345:300,1,140,2|10,3:2|2:0,2:2:0:0:
276,191,149971,2,0,L|195:191,1,70,10|2,3:2|1:2,0:0:0:0:
369,52,150669,1,10,2:0:0:0:
186,56,151134,6,0,L|185:132,1,70,2|2,3:2|1:2,0:0:0:0:
275,136,151599,2,0,L|276:288,1,140,10|2,2:0|1:2,0:0:0:0:
169,296,152297,2,0,L|86:296,1,70,10|2,2:0|2:0,2:2:0:0:
288,182,152995,6,0,L|443:183,1,140,2|10,3:2|2:0,2:2:0:0:
267,39,153925,2,0,L|191:38,1,70,2|2,1:2|2:0,0:0:0:0:
96,244,154390,2,0,L|94:92,1,140,10|2,2:0|3:2,2:2:0:0:
196,249,155088,6,0,L|273:248,1,70,2|2,2:0|2:0,0:0:0:0:
438,334,155785,2,0,L|437:260,1,70,2|2,2:0|2:0,0:0:0:0:
332,336,156250,2,0,L|190:335,1,140,2|6,2:0|2:0,2:2:0:0:
208,113,167878,6,0,L|317:114,2,105,8|8|10,2:0|2:0|2:0,2:2:0:0:
100,108,168809,2,0,L|19:110,2,70,2|10|10,0:2|2:0|2:0,2:2:0:0:
291,305,169739,6,0,L|438:308,2,140,8|8|10,2:0|2:0|2:3,0:0:0:0:
87,41,171134,2,0,L|86:131,1,77.0000023498536,10|4,2:0|2:3,0:0:0:0:
225,36,171599,6,0,L|393:35,1,154.000004699707,6|0,3:2|1:0,2:2:0:0:
297,131,172297,2,0,L|206:131,1,77.0000023498536,10|2,2:0|3:2,0:0:0:0:
425,351,172995,2,0,L|426:264,1,77.0000023498536,2|10,1:2|2:0,2:2:0:0:
328,316,173460,6,0,L|165:317,2,154.000004699707,2|0|2,3:2|1:0|3:2,2:2:0:0:
135,169,174855,2,0,L|133:80,1,77.0000023498536,2|10,1:2|2:0,0:0:0:0:
226,55,175320,6,0,L|392:55,1,154.000004699707,2|0,3:2|1:0,2:2:0:0:
463,153,176018,2,0,L|464:73,1,77.0000023498536,10|2,2:0|3:2,0:0:0:0:
281,320,176716,1,2,1:2:0:0:
467,242,177181,6,0,L|298:242,1,154.000004699707,2|0,3:2|1:0,2:2:0:0:
134,51,178111,2,0,L|133:210,1,154.000004699707,2|2,3:2|1:2,0:0:0:0:
321,51,179041,6,0,L|479:50,1,154.000004699707,2|0,3:2|1:0,2:2:0:0:
391,157,179739,2,0,L|297:157,1,77.0000023498536,10|2,2:0|3:2,0:0:0:0:
140,332,180436,2,0,L|138:245,1,77.0000023498536,2|10,1:2|2:0,2:2:0:0:
241,330,180902,6,0,L|239:173,1,154.000004699707,2|2,3:2|1:2,2:2:0:0:
138,100,181599,2,0,L|55:102,1,77.0000023498536,10|2,2:0|3:2,0:0:0:0:
239,96,182297,2,0,L|406:93,1,154.000004699707,2|8,1:2|3:2,2:2:0:0:
487,191,182995,6,0,L|405:187,1,77.0000023498536,8|0,2:0|1:0,0:0:0:0:
219,343,183692,2,0,L|216:184,1,154.000004699707,2|10,3:2|1:2,0:0:0:0:
393,50,184623,6,0,L|480:49,2,77.0000023498536,8|8|8,3:2|2:3|1:2,0:0:0:0:
206,46,185553,2,0,L|47:47,1,154.000004699707,10|10,3:0|1:2,0:0:0:0:
255,332,186483,6,0,P|297:275|256:211,1,154.000004699707,6|8,3:2|1:2,2:2:0:0:
181,181,187181,1,10,2:0:0:0:
340,88,187646,2,0,L|426:88,1,77.0000023498536,10|10,2:0|1:2,0:0:0:0:
225,40,188343,6,0,L|384:39,2,154.000004699707,8|8|10,3:2|1:2|3:2,2:2:0:0:
411,358,189739,2,0,L|411:266,1,77.0000023498536,10|10,1:2|2:0,0:0:0:0:
291,311,190204,6,0,L|132:310,1,154.000004699707,10|8,3:2|1:2,2:2:0:0:
226,209,190902,1,10,2:0:0:0:
44,112,191367,2,0,L|43:27,1,77.0000023498536,10|10,2:0|1:2,2:2:0:0:
239,64,192064,6,0,L|397:63,2,154.000004699707,8|8|10,3:2|1:2|3:2,2:2:0:0:
434,342,193460,2,0,L|435:262,1,77.0000023498536,10|10,1:2|2:0,0:0:0:0:
321,231,193925,6,0,L|155:233,1,154.000004699707,10|8,3:2|1:2,2:2:0:0:
256,132,194623,1,10,2:0:0:0:
67,50,195088,2,0,L|67:131,1,77.0000023498536,10|10,2:0|1:2,0:0:0:0:
293,49,195785,6,0,L|126:49,2,154.000004699707,10|10|10,3:2|1:2|3:2,2:2:0:0:
101,329,197181,2,0,L|99:249,1,77.0000023498536,10|10,1:2|2:0,0:0:0:0:
214,329,197646,6,0,L|379:329,1,154.000004699707,8|0,3:2|1:0,2:2:0:0:
162,212,198576,2,0,L|2:213,1,154.000004699707,10|10,3:2|1:2,0:0:0:0:
221,45,199506,6,0,L|225:132,1,77.0000023498536,8|8,3:2|2:3,0:0:0:0:
96,45,199971,2,0,L|100:132,1,77.0000023498536,8|10,1:2|2:0,0:0:0:0:
224,213,200436,2,0,L|383:216,2,154.000004699707,10|10|4,3:0|1:2|0:2,2:2:0:0:
256,192,201832,12,0,204623,2:0:0:0:
