osu file format v14

[General]
AudioFilename: audio.mp3
AudioLeadIn: 0
PreviewTime: 108944
Countdown: 1
SampleSet: Soft
StackLeniency: 0.3
Mode: 0
LetterboxInBreaks: 0
WidescreenStoryboard: 0

[Editor]
DistanceSpacing: 1.8
BeatDivisor: 4
GridSize: 4
TimelineZoom: 1

[Metadata]
Title:Feel Special
TitleUnicode:Feel Special
Artist:TWICE
ArtistUnicode:트와이스
Creator:Chibitania
Version:Homogeneous
Source:
Tags:jypentertainment nayeon jeongyeon momo sana jihyo mina dahyun chaeyoung tzuyu kpop
BeatmapID:2177190
BeatmapSetID:1041737

[Difficulty]
HPDrainRate:6.8
CircleSize:4
OverallDifficulty:7.4
ApproachRate:9.3
SliderMultiplier:2
SliderTickRate:1

[Events]
//Background and Video events
Video,-1276,"ezgif-4-e888e21e0ec3.mp4"
0,0,"tzuyubg.jpg",0,0
//Break Periods
//Storyboard Layer 0 (Background)
//Storyboard Layer 1 (Fail)
//Storyboard Layer 2 (Pass)
//Storyboard Layer 3 (Foreground)
//Storyboard Layer 4 (Overlay)
//Storyboard Sound Samples

[TimingPoints]
378.954198473282,465.116279069767,4,2,0,40,1,0
1309,-133.333333333333,4,2,0,40,0,0
9681,-200,4,2,0,40,0,0
10844,-133.333333333333,4,2,0,40,0,0
13402,-66.6666666666667,4,2,0,40,0,0
15262,-100,4,2,0,40,0,0
32006,-500,4,2,0,40,0,0
32937,-100,4,2,0,40,0,0
33867,-500,4,2,0,40,0,0
34332,-100,4,2,0,40,0,0
37588,-80,4,2,0,40,0,0
46425,-200,4,2,0,20,0,0
46890,-66.6666666666667,4,2,0,40,0,1
61541,-66.6666666666667,4,2,0,40,0,0
61774,-66.6666666666667,4,2,0,40,0,1
76658,-370.37037037037,4,2,0,10,0,0
78053,-100,4,2,0,10,0,0
78518,-100,4,2,0,40,0,0
91541,-66.6666666666667,4,2,0,40,0,0
93402,-100,4,2,0,40,0,0
95262,-500,4,2,0,40,0,0
95727,-100,4,2,0,40,0,0
97123,-500,4,2,0,40,0,0
97588,-100,4,2,0,40,0,0
100844,-80,4,2,0,40,0,0
109681,-200,4,2,0,40,0,0
110146,-66.6666666666667,4,2,0,40,0,1
124797,-100,4,2,0,40,0,0
125030,-100,4,2,0,40,0,1
139913,-100,4,2,0,40,0,0
171541,-100,4,2,0,40,0,1
186192,-100,4,2,0,40,0,0
186425,-100,4,2,0,40,0,1
201309,-100,4,2,0,40,0,0

[Colours]
Combo1 : 79,255,206
Combo2 : 0,17,223
Combo3 : 255,218,106
Combo4 : 255,145,247

[HitObjects]
176,104,378,5,0,0:0:0:0:
52,136,1076,1,0,0:0:0:0:
68,132,1192,1,0,0:0:0:0:
176,104,1309,2,0,P|216:96|256:108,1,75.0000028610231
364,200,1774,2,0,P|324:208|284:196,1,75.0000028610231
292,200,3402,5,0,0:0:0:0:
68,132,3867,1,0,0:0:0:0:
184,96,4797,1,0,0:0:0:0:
172,100,4913,1,0,0:0:0:0:
68,132,5030,2,0,L|68:212,1,75.0000028610231
180,280,5495,2,0,L|180:200,1,75.0000028610231
180,205,6658,5,0,0:0:0:0:
248,237,6890,1,0,0:0:0:0:
320,236,7123,1,0,0:0:0:0:
388,204,7355,2,0,P|420:224|376:272,1,112.500004291535
320,236,7820,6,0,L|208:236,1,112.500004291535
144,164,8285,2,0,P|152:124|144:92,1,75.0000028610231
48,184,8634,1,0,0:0:0:0:
48,184,8751,2,0,P|40:224|48:256,1,75.0000028610231
176,320,9216,2,0,L|92:320,1,75.0000028610231
212,232,9681,6,0,P|236:232|261:236,1,50
356,256,10146,2,0,P|356:231|360:206,1,50
388,112,10611,1,0,0:0:0:0:
316,320,10844,6,0,L|468:320,1,150.000005722046
508,172,11541,2,0,P|516:216|504:256,1,75.0000028610231
388,112,12006,2,0,P|432:104|472:116,1,75.0000028610231
388,208,12355,1,0,0:0:0:0:
388,208,12471,2,0,P|344:216|304:204,1,75.0000028610231
176,128,12937,2,0,L|176:204,1,75.0000028610231
112,72,13402,6,0,P|176:44|248:80,1,150.000005722046
240,184,13751,2,0,P|176:212|104:176,1,150.000005722046
176,128,14099,1,0,0:0:0:0:
364,44,14332,5,0,0:0:0:0:
396,88,14448,1,0,0:0:0:0:
396,144,14565,1,0,0:0:0:0:
364,188,14681,1,0,0:0:0:0:
312,200,14797,2,0,B|248:192|240:268|240:268|232:192|168:200,1,225.000008583069
80,228,15262,6,0,L|92:120,1,100
104,40,15611,2,0,L|203:28,1,100
288,80,15960,6,0,P|340:68|392:84,1,100
432,172,16309,2,0,P|380:184|328:168,1,100
250,113,16658,2,0,L|293:75,1,50
120,84,16890,6,0,L|188:160,1,100
402,246,17355,2,0,L|334:170,1,100
268,104,17704,6,0,P|320:80|376:88,1,100
452,140,18053,2,0,P|476:192|468:248,1,100
412,308,18402,1,0,0:0:0:0:
404,316,18518,2,0,L|352:312,1,50
208,296,18751,6,0,P|200:228|212:196,1,100
361,82,19216,2,0,P|369:150|357:182,1,100
276,248,19565,6,0,L|172:248,1,100
104,176,19913,2,0,L|104:76,1,100
176,20,20262,1,0,0:0:0:0:
216,40,20378,1,0,0:0:0:0:
264,40,20495,1,0,0:0:0:0:
308,16,20611,6,0,P|360:8|424:24,1,100
488,224,21076,2,0,P|436:232|372:216,1,100
288,188,21425,6,0,L|188:204,1,100
72,220,21774,2,0,L|56:116,1,100
40,28,22123,1,0,0:0:0:0:
88,36,22239,1,0,0:0:0:0:
136,44,22355,1,0,0:0:0:0:
184,52,22471,1,0,0:0:0:0:
232,60,22588,1,0,0:0:0:0:
280,68,22704,6,0,L|280:172,1,100
328,260,23053,2,0,P|280:244|228:264,1,100
160,344,23402,6,0,P|208:360|260:340,1,100
328,260,23751,2,0,L|436:260,1,100
512,168,24099,2,0,L|508:224,1,50
448,72,24332,6,0,P|400:56|348:76,1,100
220,232,24797,2,0,P|172:248|120:228,1,100
64,160,25146,6,0,L|64:56,1,100
168,16,25495,2,0,L|168:120,1,100
168,216,25844,1,0,0:0:0:0:
212,200,25960,1,0,0:0:0:0:
260,208,26076,1,0,0:0:0:0:
296,240,26192,6,0,P|340:268|400:272,1,100
258,82,26658,2,0,P|208:88|167:115,1,100
104,200,27006,6,0,L|116:312,1,100
212,344,27355,2,0,L|222:244,1,100
232,152,27704,1,0,0:0:0:0:
276,144,27820,1,0,0:0:0:0:
320,136,27937,1,0,0:0:0:0:
364,128,28053,1,0,0:0:0:0:
408,120,28169,1,0,0:0:0:0:
452,112,28285,6,0,P|468:64|448:8,1,100
336,64,28634,1,0,0:0:0:0:
328,68,28751,2,0,P|281:52|233:64,1,100
92,224,29216,5,0,0:0:0:0:
129,268,29332,1,0,0:0:0:0:
185,283,29448,1,0,0:0:0:0:
240,263,29565,1,0,0:0:0:0:
288,208,29681,5,0,0:0:0:0:
356,183,29798,1,0,0:0:0:0:
426,201,29914,1,0,0:0:0:0:
473,256,30030,1,0,0:0:0:0:
480,328,30146,6,0,P|468:360|468:312,1,150
473,256,30611,2,0,L|476:228,3,25
480,200,30844,5,0,0:0:0:0:
352,84,31076,2,0,P|280:60|228:88,1,133.333333333333
232,232,31541,2,0,P|304:256|356:228,1,133.333333333333
232,84,32006,2,0,L|160:84,1,66.6666666666667
76,188,32937,6,0,L|64:52,1,133.333333333333
204,168,33402,2,0,L|188:320,1,150
76,188,33867,2,0,P|68:164|68:152,1,35
72,140,34332,6,0,L|72:108,3,25
72,84,34642,5,0,0:0:0:0:
236,140,34797,2,0,B|284:120|284:120|384:148,1,133.333333333333
492,296,35262,2,0,B|444:316|444:316|344:288,1,133.333333333333
192,212,35727,5,0,0:0:0:0:
192,212,36037,1,0,0:0:0:0:
440,108,36192,1,0,0:0:0:0:
440,108,36502,1,0,0:0:0:0:
200,288,36658,6,0,P|136:264|132:168,1,150
184,136,37123,2,0,P|248:160|252:256,1,150
200,288,37588,6,0,L|72:288,1,125
16,188,37937,1,0,0:0:0:0:
16,188,38053,2,0,L|144:188,1,125
196,96,38402,1,0,0:0:0:0:
196,96,38518,6,0,P|228:92|264:96,1,62.5
332,200,38751,2,0,P|300:204|264:200,1,62.5
392,120,38983,2,0,B|432:140|488:120|488:120|440:144|472:184,1,125
288,280,39448,6,0,P|224:296|156:272,1,125
232,176,39797,1,0,0:0:0:0:
232,176,39913,2,0,P|296:160|364:184,1,125
420,268,40262,1,0,0:0:0:0:
420,268,40378,6,0,L|412:340,1,62.5
504,216,40611,2,0,L|496:144,1,62.5
480,36,40844,2,0,P|428:72|340:60,1,125
256,32,41192,1,0,0:0:0:0:
256,32,41309,6,0,P|194:33|144:68,1,125
192,200,41658,1,0,0:0:0:0:
192,200,41774,2,0,P|253:198|303:163,1,125
320,32,42123,1,0,0:0:0:0:
320,32,42239,6,0,L|384:40,1,62.5
496,124,42471,2,0,L|432:116,1,62.5
303,163,42704,2,0,L|365:170,1,62.5
472,264,42937,1,0,0:0:0:0:
468,280,43053,1,0,0:0:0:0:
464,296,43169,5,0,0:0:0:0:
416,329,43286,1,0,0:0:0:0:
358,329,43402,1,0,0:0:0:0:
310,296,43518,1,0,0:0:0:0:
288,244,43634,5,0,0:0:0:0:
240,211,43750,1,0,0:0:0:0:
182,211,43866,1,0,0:0:0:0:
134,244,43983,1,0,0:0:0:0:
108,292,44099,5,0,0:0:0:0:
104,264,44216,1,0,0:0:0:0:
100,236,44332,1,0,0:0:0:0:
96,208,44448,1,0,0:0:0:0:
48,156,44565,5,0,0:0:0:0:
51,133,44681,1,0,0:0:0:0:
54,111,44797,1,0,0:0:0:0:
57,88,44914,1,0,0:0:0:0:
57,88,46425,6,0,P|93:96|133:88,1,75
280,60,46890,6,0,P|241:51|205:60,1,75.0000028610231
244,152,47123,1,0,0:0:0:0:
248,160,47239,2,0,P|286:168|323:160,1,75.0000028610231
424,124,47471,1,0,0:0:0:0:
436,116,47588,5,0,0:0:0:0:
431,166,47704,1,0,0:0:0:0:
426,211,47820,2,0,L|326:206,1,75.0000028610231
260,296,48053,2,0,L|360:301,1,75.0000028610231
256,204,48285,2,0,L|156:199,1,75.0000028610231
108,108,48518,2,0,L|208:113,1,75.0000028610231
264,56,48751,6,0,P|336:32|404:72,1,150.000005722046
480,160,49099,1,0,0:0:0:0:
488,172,49216,2,0,P|416:196|348:156,1,150.000005722046
108,101,49681,6,0,L|192:113,1,75.0000028610231
132,192,49913,2,0,L|48:180,1,75.0000028610231
184,112,50146,1,0,0:0:0:0:
224,120,50262,1,0,0:0:0:0:
264,128,50378,1,0,0:0:0:0:
304,136,50495,1,0,0:0:0:0:
344,148,50611,6,0,L|336:68,1,75.0000028610231
428,120,50844,1,0,0:0:0:0:
436,124,50960,2,0,L|428:198,1,75.0000028610231
420,292,51192,1,0,0:0:0:0:
416,304,51309,5,0,0:0:0:0:
368,320,51425,1,0,0:0:0:0:
320,304,51541,2,0,P|284:296|240:308,1,75.0000028610231
164,208,51774,2,0,P|200:216|244:204,1,75.0000028610231
296,112,52006,2,0,P|260:104|216:116,1,75.0000028610231
316,196,52239,2,0,P|352:204|396:192,1,75.0000028610231
440,108,52471,6,0,L|428:24,1,75.0000028610231
388,196,52704,1,0,0:0:0:0:
392,212,52820,2,0,L|404:296,1,75.0000028610231
288,96,53169,2,0,P|328:116|360:120,1,75.0000028610231
260,192,53402,6,0,P|220:172|188:168,1,75.0000028610231
244,320,53634,1,0,0:0:0:0:
252,312,53751,1,0,0:0:0:0:
260,304,53867,5,0,0:0:0:0:
308,308,53983,1,0,0:0:0:0:
360,312,54099,1,0,0:0:0:0:
412,316,54216,1,0,0:0:0:0:
464,320,54332,6,0,L|456:240,1,75.0000028610231
368,160,54565,1,0,0:0:0:0:
360,156,54681,2,0,L|368:236,1,75.0000028610231
436,116,54913,1,0,0:0:0:0:
444,104,55030,5,0,0:0:0:0:
416,60,55146,1,0,0:0:0:0:
368,40,55262,2,0,P|328:32|288:40,1,75.0000028610231
204,132,55495,2,0,P|244:140|284:132,1,75.0000028610231
176,36,55727,1,0,0:0:0:0:
132,28,55844,1,0,0:0:0:0:
92,32,55960,2,0,P|84:68|96:108,1,75.0000028610231
128,184,56192,6,0,P|176:216|160:120,1,225.000008583069
52,168,56658,2,0,L|60:252,1,75.0000028610231
132,356,56890,2,0,L|124:272,1,75.0000028610231
212,176,57123,6,0,P|272:152|364:184,1,150.000005722046
464,256,57471,1,0,0:0:0:0:
464,256,57588,2,0,P|440:196|472:104,1,150.000005722046
304,40,58053,6,0,L|148:40,1,150.000005722046
76,144,58402,2,0,L|232:144,1,150.000005722046
324,208,58751,2,0,P|360:200|408:212,1,75.0000028610231
228,272,58983,2,0,P|192:280|144:268,1,75.0000028610231
236,180,59216,6,0,P|228:144|240:96,1,75.0000028610231
308,292,59448,2,0,P|316:328|304:376,1,75.0000028610231
156,272,59681,1,0,0:0:0:0:
156,260,59797,1,0,0:0:0:0:
156,248,59913,5,0,0:0:0:0:
200,240,60030,1,0,0:0:0:0:
248,232,60146,1,0,0:0:0:0:
296,224,60262,1,0,0:0:0:0:
344,216,60378,5,0,0:0:0:0:
360,192,60494,1,0,0:0:0:0:
360,163,60610,1,0,0:0:0:0:
344,139,60727,1,0,0:0:0:0:
276,104,60844,5,0,0:0:0:0:
244,152,60960,1,0,0:0:0:0:
244,210,61076,1,0,0:0:0:0:
276,258,61193,1,0,0:0:0:0:
328,276,61309,5,0,0:0:0:0:
352,280,61425,1,0,0:0:0:0:
376,284,61541,1,0,0:0:0:0:
398,288,61658,1,0,0:0:0:0:
424,296,61774,6,0,L|424:212,1,75.0000028610231
496,132,62006,1,0,0:0:0:0:
496,144,62123,2,0,L|496:236,1,75.0000028610231
392,136,62355,1,0,0:0:0:0:
384,128,62471,5,0,0:0:0:0:
328,136,62588,1,0,0:0:0:0:
276,144,62704,2,0,P|284:104|272:64,1,75.0000028610231
144,112,62937,2,0,P|136:152|148:192,1,75.0000028610231
276,216,63169,2,0,P|284:176|272:136,1,75.0000028610231
152,272,63402,2,0,P|192:280|232:268,1,75.0000028610231
356,220,63634,6,0,L|432:232,1,75.0000028610231
504,144,63867,1,0,0:0:0:0:
468,124,63983,1,0,0:0:0:0:
432,108,64099,2,0,L|356:120,1,75.0000028610231
256,136,64332,1,0,0:0:0:0:
72,264,64565,6,0,P|124:276|140:292,1,75.0000028610231
288,288,64797,2,0,P|317:265|354:261,1,75.0000028610231
244,364,65030,1,0,0:0:0:0:
212,316,65146,1,0,0:0:0:0:
212,258,65262,1,0,0:0:0:0:
244,210,65379,1,0,0:0:0:0:
296,184,65495,6,0,L|372:184,1,75.0000028610231
436,88,65727,1,0,0:0:0:0:
444,80,65844,2,0,L|360:80,1,75.0000028610231
244,80,66076,1,0,0:0:0:0:
232,80,66192,5,0,0:0:0:0:
220,132,66309,1,0,0:0:0:0:
208,184,66425,2,0,P|212:224|200:264,1,75.0000028610231
48,208,66658,2,0,P|88:204|128:216,1,75.0000028610231
236,332,66890,2,0,P|196:336|156:324,1,75.0000028610231
296,224,67123,2,0,P|336:220|376:232,1,75.0000028610231
484,300,67355,6,0,L|468:224,1,75.0000028610231
444,96,67588,1,0,0:0:0:0:
440,84,67704,2,0,L|424:160,1,75.0000028610231
353,302,67937,2,0,L|369:226,1,75.0000028610231
280,44,68285,6,0,P|288:92|276:128,1,75.0000028610231
148,160,68518,2,0,P|140:112|152:76,1,75.0000028610231
280,116,68751,1,0,0:0:0:0:
272,164,68867,1,0,0:0:0:0:
260,212,68983,1,0,0:0:0:0:
252,260,69099,1,0,0:0:0:0:
244,308,69216,6,0,L|168:308,1,75.0000028610231
80,216,69448,1,0,0:0:0:0:
92,216,69565,2,0,L|172:216,1,75.0000028610231
316,216,69797,1,0,0:0:0:0:
328,216,69913,5,0,0:0:0:0:
340,168,70030,1,0,0:0:0:0:
328,120,70146,2,0,P|320:80|328:44,1,75.0000028610231
476,84,70378,2,0,P|436:92|400:84,1,75.0000028610231
500,164,70611,1,0,0:0:0:0:
488,212,70727,1,0,0:0:0:0:
476,260,70844,2,0,L|400:264,1,75.0000028610231
288,268,71076,6,0,B|167:285|207:196|67:225,1,225.000008583069
144,300,71541,2,0,P|172:260|176:228,1,75.0000028610231
43,158,71774,2,0,P|51:194|75:223,1,75.0000028610231
188,148,72006,6,0,L|264:156,1,75.0000028610231
218,307,72239,2,0,L|142:299,1,75.0000028610231
312,244,72471,2,0,P|380:208|492:296,1,225.000008583069
392,308,72937,6,0,L|432:160,1,150.000005722046
300,72,73285,1,0,0:0:0:0:
288,64,73402,2,0,L|328:212,1,150.000005722046
168,40,73867,6,0,P|128:32|80:48,1,75.0000028610231
56,140,74099,2,0,P|96:148|144:132,1,75.0000028610231
264,96,74332,1,0,0:0:0:0:
312,80,74448,1,0,0:0:0:0:
360,96,74565,2,0,P|400:104|448:88,1,75.0000028610231
416,216,74797,5,0,0:0:0:0:
368,208,74913,1,0,0:0:0:0:
320,200,75030,1,0,0:0:0:0:
272,192,75146,1,0,0:0:0:0:
196,184,75262,5,0,0:0:0:0:
202,220,75378,1,0,0:0:0:0:
208,256,75495,1,0,0:0:0:0:
214,292,75611,1,0,0:0:0:0:
220,328,75727,5,0,0:0:0:0:
268,360,75843,1,0,0:0:0:0:
326,360,75959,1,0,0:0:0:0:
374,328,76076,1,0,0:0:0:0:
384,272,76192,5,0,0:0:0:0:
324,232,76308,1,0,0:0:0:0:
251,232,76424,1,0,0:0:0:0:
191,272,76541,1,0,0:0:0:0:
168,340,76658,6,0,P|128:360|152:300,1,148.500003625488
146,297,78053,6,0,P|108:343|168:340,1,150
244,284,78518,6,0,P|296:272|352:288,1,100
412,192,78867,2,0,P|360:204|304:188,1,100
240,128,79216,6,0,L|136:128,1,100
192,40,79565,2,0,L|296:40,1,100
372,116,79913,2,0,P|368:88|376:64,1,50
444,184,80146,6,0,P|456:232|444:284,1,100
252,336,80611,2,0,P|240:288|252:236,1,100
312,152,80960,6,0,L|312:48,1,100
212,0,81309,2,0,L|212:104,1,100
212,208,81658,1,0,0:0:0:0:
168,196,81774,1,0,0:0:0:0:
124,204,81890,1,0,0:0:0:0:
92,232,82006,6,0,P|80:284|96:336,1,100
308,208,82471,2,0,P|256:196|204:212,1,100
292,292,82820,6,0,L|400:280,1,100
464,192,83169,2,0,L|476:84,1,100
392,8,83518,1,0,0:0:0:0:
348,16,83634,1,0,0:0:0:0:
304,28,83751,1,0,0:0:0:0:
260,40,83867,6,0,L|260:148,1,100
304,292,84332,2,0,P|256:280|200:296,1,100
136,208,84681,2,0,P|184:220|240:204,1,100
332,148,85030,6,0,L|432:160,1,100
488,68,85378,1,0,0:0:0:0:
444,60,85495,1,0,0:0:0:0:
400,52,85611,1,0,0:0:0:0:
356,44,85727,1,0,0:0:0:0:
312,36,85844,1,0,0:0:0:0:
268,28,85960,6,0,P|236:36|196:28,2,75
326,128,86425,1,0,0:0:0:0:
268,28,86599,1,0,0:0:0:0:
210,128,86774,1,0,0:0:0:0:
326,128,86890,6,0,L|428:128,1,100
376,288,87355,1,0,0:0:0:0:
326,128,87588,2,0,P|334:104|334:80,1,50
276,192,87820,6,0,P|312:208|352:204,2,75
260,92,88285,1,0,0:0:0:0:
276,192,88460,1,0,0:0:0:0:
292,292,88634,1,0,0:0:0:0:
384,228,88751,6,0,L|440:232,1,50
496,152,88983,2,0,L|440:148,1,50
348,140,89216,1,0,0:0:0:0:
307,124,89332,1,0,0:0:0:0:
280,88,89448,6,0,L|172:88,1,100
80,232,89913,2,0,L|188:232,1,100
268,284,90262,2,0,P|320:272|376:284,1,100
456,328,90611,6,0,L|448:244,2,75
365,279,91076,1,0,0:0:0:0:
372,232,91192,1,0,0:0:0:0:
380,184,91309,2,0,L|372:128,1,50
356,36,91541,6,0,B|268:4|284:68|204:36,1,150.000005722046
112,0,91890,2,0,B|80:88|144:72|112:152,1,150.000005722046
72,240,92239,2,0,P|128:232|156:248,1,75.0000028610231
224,312,92471,5,0,0:0:0:0:
271,335,92587,1,0,0:0:0:0:
325,325,92703,1,0,0:0:0:0:
364,286,92820,1,0,0:0:0:0:
377,245,92936,5,0,0:0:0:0:
405,215,93053,1,0,0:0:0:0:
444,207,93169,1,0,0:0:0:0:
481,225,93285,1,0,0:0:0:0:
504,260,93402,6,0,P|508:304|416:320,1,150
396,304,93867,2,0,P|376:300|360:300,3,25
344,300,94099,5,0,0:0:0:0:
140,224,94332,2,0,L|140:84,1,133.333333333333
344,166,94797,2,0,L|344:306,1,133.333333333333
140,90,95262,2,0,P|176:86|200:92,1,60
344,299,96192,6,0,P|402:268|431:209,1,133.333333333333
256,64,96658,2,0,P|197:94|164:180,1,150
431,209,97123,6,0,L|431:177,1,30
444,148,97588,2,0,P|448:132|448:120,3,25
315,138,98053,6,0,L|455:122,1,133.333333333333
220,76,98518,2,0,L|236:216,1,133.333333333333
384,308,98983,5,0,0:0:0:0:
384,308,99293,1,0,0:0:0:0:
160,160,99448,1,0,0:0:0:0:
160,160,99758,1,0,0:0:0:0:
412,380,99913,6,0,P|452:336|444:264,1,133.333333333333
352,236,100378,2,0,P|310:285|318:349,1,133.333333333333
445,266,100844,6,0,L|433:142,1,125
328,76,101192,1,0,0:0:0:0:
320,72,101309,2,0,L|308:196,1,125
212,292,101658,1,0,0:0:0:0:
212,292,101774,6,0,P|176:284|144:284,1,62.5
44,184,102006,2,0,P|80:192|112:192,1,62.5
228,140,102239,2,0,P|252:80|168:128,1,187.5
228,140,102704,6,0,P|287:155|347:139,1,125
296,24,103053,1,0,0:0:0:0:
288,16,103169,2,0,P|228:0|168:16,1,125
72,104,103518,1,0,0:0:0:0:
72,104,103634,6,0,L|72:180,1,62.5
152,268,103867,2,0,L|152:192,1,62.5
236,96,104099,2,0,L|236:228,1,125
328,328,104448,1,0,0:0:0:0:
328,328,104565,6,0,P|360:320|392:320,1,62.5
472,216,104797,2,0,P|440:224|408:224,1,62.5
328,132,105030,2,0,P|360:124|392:124,1,62.5
468,44,105262,1,0,0:0:0:0:
452,36,105378,1,0,0:0:0:0:
440,28,105495,6,0,L|368:36,1,62.5
265,138,105727,2,0,L|337:130,1,62.5
204,56,105960,2,0,L|132:64,1,62.5
64,164,106192,1,0,0:0:0:0:
68,180,106309,1,0,0:0:0:0:
72,192,106425,5,0,0:0:0:0:
132,150,106542,1,0,0:0:0:0:
204,150,106658,1,0,0:0:0:0:
264,192,106774,1,0,0:0:0:0:
292,257,106890,5,0,0:0:0:0:
352,298,107006,1,0,0:0:0:0:
424,298,107122,1,0,0:0:0:0:
484,257,107239,1,0,0:0:0:0:
504,184,107355,5,0,0:0:0:0:
471,113,107472,1,0,0:0:0:0:
405,75,107588,1,0,0:0:0:0:
328,83,107704,1,0,0:0:0:0:
269,127,107820,5,0,0:0:0:0:
193,132,107936,1,0,0:0:0:0:
128,94,108052,1,0,0:0:0:0:
93,25,108169,1,0,0:0:0:0:
93,25,109681,6,0,L|93:105,1,75
180,144,110146,6,0,L|180:44,1,75.0000028610231
344,116,110378,1,0,0:0:0:0:
352,120,110495,2,0,L|352:204,1,75.0000028610231
248,300,110727,1,0,0:0:0:0:
240,288,110844,5,0,0:0:0:0:
196,296,110960,1,0,0:0:0:0:
148,288,111076,2,0,P|112:284|72:288,1,75.0000028610231
204,188,111309,2,0,P|240:192|280:188,1,75.0000028610231
156,88,111541,2,0,P|120:84|80:88,1,75.0000028610231
278,188,111774,2,0,P|242:192|202:188,1,75.0000028610231
400,92,112006,6,0,L|388:176,1,75.0000028610231
