osu file format v14

[General]
AudioFilename: audio.mp3
AudioLeadIn: 0
PreviewTime: 85573
Countdown: 0
SampleSet: Soft
StackLeniency: 0.3
Mode: 0
LetterboxInBreaks: 0
WidescreenStoryboard: 1

[Editor]
Bookmarks: 119,14664,29209,43755,58300,72846,87391,101937,116482,131028,145573,160119,176482,191028,205573
DistanceSpacing: 1.6
BeatDivisor: 4
GridSize: 8
TimelineZoom: 2.599999

[Metadata]
Title:FANCY
TitleUnicode:FANCY
Artist:TWICE
ArtistUnicode:트와이스
Creator:Fragmented
Version:Hoki's Insane
Source:
Tags:charmcaster dora- doraemonelf funnya [_l_u_k_a_s_] lukas hokichi irreversible iyiyo jyp entertainment korea korean kpop k-pop comeback 7th mini album fancy you nayeon jeongyeon momo sana jihyo mina dahyun chaeyoung tzuyu 나연 정연 모모 사나 지효 미나 다현 채영 쯔위
BeatmapID:2014059
BeatmapSetID:960258

[Difficulty]
HPDrainRate:5
CircleSize:3.6
OverallDifficulty:6.7
ApproachRate:8.7
SliderMultiplier:1.6
SliderTickRate:1

[Events]
//Background and Video events
0,0,"nayeon.jpg",0,0
Video,-1774,"TWICE FANCY MV.mp4"
//Break Periods
2,159870,166752
2,174415,175843
//Storyboard Layer 0 (Background)
//Storyboard Layer 1 (Fail)
//Storyboard Layer 2 (Pass)
//Storyboard Layer 3 (Foreground)
//Storyboard Layer 4 (Overlay)
//Storyboard Sound Samples

[TimingPoints]
125,454.545454545455,4,2,1,60,1,0
352,-166.666666666667,4,2,1,60,0,0
3306,-333.333333333334,4,2,1,60,0,0
3534,-333.333333333334,4,2,1,5,0,0
3761,-333.333333333334,4,2,1,60,0,0
3988,-166.666666666667,4,2,1,60,0,0
7397,-125,4,2,1,65,0,0
10579,-250,4,2,1,65,0,0
10806,-250,4,2,1,5,0,0
11034,-250,4,2,1,65,0,0
11261,-125,4,2,1,65,0,0
14670,-166.666666666667,4,2,2,60,0,0
16715,-166.666666666667,4,2,2,5,0,0
16829,-166.666666666667,4,2,2,60,0,0
17056,-166.666666666667,4,2,2,5,0,0
17170,-166.666666666667,4,2,2,60,0,0
18193,-166.666666666667,4,2,2,5,0,0
18306,-166.666666666667,4,2,2,60,0,0
20352,-166.666666666667,4,2,2,5,0,0
20465,-166.666666666667,4,2,2,60,0,0
20693,-166.666666666667,4,2,2,5,0,0
20806,-166.666666666667,4,2,2,60,0,0
27397,-166.666666666667,4,2,1,65,0,0
27852,-125,4,2,1,65,0,0
28761,-100,4,2,1,65,0,0
28875,-100,4,2,1,5,0,0
28988,-100,4,2,1,65,0,0
29102,-100,4,2,1,5,0,0
29215,-100,4,2,6,65,0,0
42852,-100,4,2,1,65,0,0
43306,-100,4,2,1,65,0,0
43420,-100,4,2,1,5,0,0
43534,-100,4,2,1,65,0,0
43647,-100,4,2,1,5,0,0
43761,-100,4,2,2,60,0,0
45579,-142.857142857143,4,2,2,60,0,0
50352,-142.857142857143,4,2,66,60,0,0
50579,-142.857142857143,4,2,2,60,0,0
50806,-142.857142857143,4,2,66,60,0,0
51034,-142.857142857143,4,2,2,65,0,0
51488,-111.111111111111,4,2,2,65,0,0
54670,-111.111111111111,4,2,2,70,0,0
55579,-111.111111111111,4,2,2,100,0,0
56488,-111.111111111111,4,2,2,90,0,0
57852,-200,4,2,2,90,0,0
58306,-83.3333333333333,4,2,3,75,0,1
60011,-83.3333333333333,4,2,3,5,0,1
60125,-83.3333333333333,4,2,3,75,0,1
64670,-66.6666666666667,4,2,3,75,0,1
64784,-66.6666666666667,4,2,3,5,0,1
64897,-66.6666666666667,4,2,3,75,0,1
65011,-66.6666666666667,4,2,3,5,0,1
65125,-66.6666666666667,4,2,3,75,0,1
65579,-83.3333333333333,4,2,3,75,0,1
67284,-83.3333333333333,4,2,3,5,0,1
67397,-83.3333333333333,4,2,3,75,0,1
71034,-83.3333333333333,4,2,1,85,0,1
72397,-83.3333333333333,4,2,1,85,0,0
72852,-83.3333333333333,4,2,3,75,0,1
73534,-100,4,2,3,75,0,1
85579,-50,4,2,33,75,0,0
85693,-50,4,2,33,5,0,0
85806,-200,4,2,33,75,0,0
86034,-200,4,2,33,5,0,0
86715,-200,4,2,33,75,0,0
86829,-200,4,2,33,5,0,0
86943,-66.6666666666667,4,2,33,75,0,0
87284,-66.6666666666667,4,2,33,5,0,0
87397,-142.857142857143,4,2,4,65,0,0
101034,-142.857142857143,4,2,1,75,0,0
101829,-142.857142857143,4,2,1,5,0,0
101943,-111.111111111111,4,2,6,65,0,0
115579,-111.111111111111,4,2,1,65,0,0
116147,-111.111111111111,4,2,1,5,0,0
116261,-111.111111111111,4,2,1,65,0,0
116375,-111.111111111111,4,2,1,5,0,0
116488,-111.111111111111,4,2,2,65,0,0
118306,-142.857142857143,4,2,2,65,0,0
123079,-142.857142857143,4,2,66,60,0,0
123306,-142.857142857143,4,2,2,60,0,0
123534,-142.857142857143,4,2,66,60,0,0
123761,-142.857142857143,4,2,2,70,0,0
124215,-111.111111111111,4,2,2,70,0,0
128306,-111.111111111111,4,2,2,85,0,0
129215,-111.111111111111,4,2,2,95,0,0
130579,-200,4,2,2,95,0,0
131034,-83.3333333333333,4,2,3,75,0,1
132738,-83.3333333333333,4,2,3,5,0,1
132852,-83.3333333333333,4,2,3,75,0,1
137397,-66.6666666666667,4,2,3,75,0,1
137511,-66.6666666666667,4,2,3,5,0,1
137625,-66.6666666666667,4,2,3,75,0,1
137738,-66.6666666666667,4,2,3,5,0,1
137852,-66.6666666666667,4,2,3,75,0,1
138306,-83.3333333333333,4,2,3,75,0,1
140011,-83.3333333333333,4,2,3,5,0,1
140125,-83.3333333333333,4,2,3,75,0,1
143761,-83.3333333333333,4,2,1,85,0,1
145125,-83.3333333333333,4,2,1,85,0,0
145579,-83.3333333333333,4,2,3,75,0,1
146261,-100,4,2,3,75,0,1
158306,-100,4,2,3,75,0,0
158761,-166.666666666667,4,2,3,75,0,0
167397,-166.666666666667,4,2,2,65,0,0
171034,-166.666666666667,4,2,2,75,0,0
171943,-125,4,2,2,90,0,0
172852,-125,4,2,2,95,0,0
173761,-200,4,2,2,100,0,0
174102,-200,4,2,2,5,0,0
174215,-200,4,2,2,100,0,0
176488,-83.3333333333333,4,2,3,75,0,1
178193,-83.3333333333333,4,2,3,5,0,1
178306,-83.3333333333333,4,2,3,75,0,1
182852,-66.6666666666667,4,2,3,75,0,1
182965,-66.6666666666667,4,2,3,5,0,1
183079,-66.6666666666667,4,2,3,75,0,1
183193,-66.6666666666667,4,2,3,5,0,1
183306,-83.3333333333333,4,2,3,75,0,1
183761,-83.3333333333333,4,2,3,75,0,1
185465,-83.3333333333333,4,2,3,5,0,1
185579,-83.3333333333333,4,2,3,75,0,1
189215,-83.3333333333333,4,2,1,85,0,1
190579,-83.3333333333333,4,2,1,85,0,0
191033,-83.3333333333333,4,2,3,75,0,0
191034,-83.3333333333333,4,2,3,75,0,1
191715,-100,4,2,3,75,0,1
203761,-50,4,2,33,75,0,0
203875,-50,4,2,33,5,0,0
203988,-200,4,2,33,75,0,0
204215,-200,4,2,33,5,0,0
204897,-200,4,2,33,75,0,0
205011,-200,4,2,33,5,0,0
205125,-66.6666666666667,4,2,33,75,0,0
205465,-66.6666666666667,4,2,33,5,0,0
205579,-66.6666666666667,4,2,1,60,0,0
205806,-166.666666666667,4,2,1,60,0,0
208761,-333.333333333333,4,2,1,60,0,0
208988,-333.333333333333,4,2,1,5,0,0
209215,-333.333333333333,4,2,1,60,0,0
209443,-166.666666666667,4,2,1,60,0,0

[Colours]
Combo1 : 255,128,128
Combo2 : 128,0,255
Combo3 : 255,0,255
Combo4 : 255,198,255
Combo5 : 70,0,140
Combo6 : 255,0,0
SliderBorder : 246,172,207
SliderTrackOverride : 30,30,30

[HitObjects]
34,70,125,5,2,2:0:0:0:
96,154,352,2,0,L|212:149,1,95.9999970703126,0|0,2:0|2:0,2:0:0:0:
191,149,1715,5,2,2:0:0:0:
247,240,1943,1,0,2:0:0:0:
230,132,2170,2,0,L|225:69,2,47.9999985351563,2|2|0,2:0|2:0|2:0,2:0:0:0:
185,215,2852,1,2,2:0:0:0:
108,260,3079,1,2,2:0:0:0:
31,216,3306,6,0,L|30:185,1,23.9999992675781,2|0,2:0|2:0,2:0:0:0:
49,231,3761,5,2,2:0:0:0:
109,123,3988,2,0,L|204:117,1,95.9999970703126,0|0,2:0|2:0,2:0:0:0:
204,116,5352,5,2,2:0:0:0:
270,220,5579,2,0,L|323:211,1,47.9999985351563,0|2,2:0|2:0,2:0:0:0:
381,133,6034,2,0,P|384:114|381:78,1,47.9999985351563,2|0,2:0|2:0,2:0:0:0:
340,228,6488,2,0,L|345:284,2,47.9999985351563,2|2|2,2:0|2:0|2:0,2:0:0:0:
324,208,7397,6,0,L|251:204,1,64,2|8,2:0|2:0,2:0:0:0:
197,142,7738,1,0,2:0:0:0:
181,128,7852,2,0,P|173:82|177:62,1,64,0|8,2:0|2:0,2:0:0:0:
178,225,8306,2,0,L|174:298,1,64,0|8,2:0|2:0,2:0:0:0:
234,360,8647,1,0,2:0:0:0:
256,349,8761,2,0,B|290:336|290:336|334:342,1,64,0|10,2:0|2:0,2:0:0:0:
408,257,9215,6,0,P|400:219|407:192,1,64,0|10,2:0|2:0,2:0:0:0:
346,104,9556,1,0,2:0:0:0:
330,125,9670,2,0,P|292:133|265:126,1,64,2|8,2:0|2:0,2:0:0:0:
103,75,10125,2,0,L|178:69,1,64,2|10,2:0|2:0,2:0:0:0:
255,111,10465,1,0,2:0:0:0:
272,115,10579,6,0,L|268:153,1,32,2|8,2:0|2:0,2:0:0:0:
170,285,11034,5,2,2:0:0:0:
82,232,11261,2,0,P|77:197|84:166,1,64,8|0,2:0|2:0,2:0:0:0:
224,254,11715,2,0,P|196:275|165:285,1,64,8|0,2:0|2:0,2:0:0:0:
173,121,12170,2,0,P|205:134|229:155,1,64,8|0,2:0|2:0,2:0:0:0:
82,232,12625,1,8,2:0:0:0:
226,153,12852,5,8,2:3:0:0:
258,150,12965,1,8,2:3:0:0:
290,148,13079,1,8,2:3:0:0:
322,146,13193,1,8,2:3:0:0:
354,144,13306,2,0,L|349:89,1,32,8|8,2:3|2:3,2:0:0:0:
424,221,13534,5,0,3:2:0:0:
442,247,13647,1,8,2:3:0:0:
449,278,13761,1,8,2:3:0:0:
444,309,13875,1,8,2:3:0:0:
429,337,13988,2,0,L|372:338,1,32,8|8,2:3|2:3,2:0:0:0:
247,324,14215,5,8,2:1:0:0:
157,307,14443,1,0,3:2:0:0:
56,219,14670,6,0,P|55:254|67:289,2,71.9999978027344,0|0|8,3:2|3:2|2:3,2:0:0:0:
159,88,15579,2,0,L|164:166,2,71.9999978027344,0|2|2,2:0|2:0|2:0,2:0:0:0:
232,260,16488,6,0,L|300:256,1,47.9999985351563,0|0,3:2|2:0,2:0:0:0:
303,225,16829,2,0,L|371:229,1,47.9999985351563,0|0,3:2|2:0,2:0:0:0:
381,261,17170,1,0,3:2:0:0:
370,89,17397,1,0,2:0:0:0:
370,89,17852,2,0,P|321:97|286:95,1,71.9999978027344,0|0,2:0|2:0,2:0:0:0:
258,81,18306,6,0,L|258:10,2,71.9999978027344,0|0|8,3:2|3:2|2:3,2:0:0:0:
137,179,19215,2,0,P|129:225|137:263,2,71.9999978027344,0|2|2,2:0|2:0|2:0,2:0:0:0:
291,311,20125,6,0,P|267:314|243:312,1,47.9999985351563,0|0,3:2|2:0,2:0:0:0:
214,283,20465,2,0,P|210:259|212:235,1,47.9999985351563,0|0,3:2|2:0,2:0:0:0:
237,203,20806,1,0,3:2:0:0:
84,189,21034,1,0,2:0:0:0:
84,189,21488,1,0,2:0:0:0:
158,134,21715,1,0,2:0:0:0:
292,200,21943,6,0,P|237:213|209:217,2,71.9999978027344,0|0|8,3:2|3:2|2:3,2:0:0:0:
370,88,22852,2,0,P|405:94|440:103,2,71.9999978027344,0|2|2,2:0|2:0|2:0,2:0:0:0:
301,208,23761,6,0,L|301:302,1,71.9999978027344,0|0,3:2|3:2,2:0:0:0:
246,125,24443,1,0,3:2:0:0:
246,125,24897,1,0,2:0:0:0:
340,89,25125,1,0,2:0:0:0:
419,153,25352,1,0,2:0:0:0:
404,254,25579,6,0,P|362:255|325:244,2,71.9999978027344,0|0|8,3:2|3:2|2:3,2:0:0:0:
191,155,26715,2,0,L|237:146,1,23.9999992675781,0|2,2:0|2:0,2:0:0:0:
172,177,26943,2,0,L|172:238,1,47.9999985351563,0|2,2:0|2:0,2:0:0:0:
246,324,27397,5,8,2:3:0:0:
280,313,27511,1,8,2:3:0:0:
316,308,27625,1,8,2:3:0:0:
352,307,27738,1,8,2:3:0:0:
387,311,27852,2,0,L|379:252,1,32,8|8,2:3|2:3,2:0:0:0:
293,139,28079,5,0,3:2:0:0:
286,118,28193,1,8,2:3:0:0:
279,97,28306,5,8,2:3:0:0:
317,90,28420,1,8,2:3:0:0:
353,107,28534,1,8,2:3:0:0:
372,142,28647,1,8,2:3:0:0:
367,181,28761,2,0,L|432:175,1,40,8|0,2:1|2:0,2:0:0:0:
297,280,28988,2,0,L|232:273,1,40,0|0,3:2|2:0,2:0:0:0:
112,168,29215,6,0,P|156:161|211:174,1,80,2|0,3:2|2:0,2:0:0:0:
236,254,29556,1,0,2:0:0:0:
257,276,29670,2,0,L|246:365,1,80,8|2,3:2|2:0,2:0:0:0:
359,219,30125,2,0,L|348:130,1,80,2|0,3:2|2:0,2:0:0:0:
281,61,30465,1,2,2:0:0:0:
262,49,30579,1,8,3:2:0:0:
263,217,30806,1,2,2:0:0:0:
366,114,31034,6,0,P|421:98|467:104,1,80,2|0,3:2|2:0,2:0:0:0:
428,208,31375,1,2,2:0:0:0:
407,233,31488,2,0,L|303:223,1,80,8|2,3:2|2:0,2:0:0:0:
221,147,31943,2,0,L|163:153,1,40,2|0,3:2|2:0,2:0:0:0:
90,236,32170,2,0,L|113:182,1,40,0|0,2:0|2:0,2:0:0:0:
78,78,32397,2,0,L|112:125,1,40,8|0,3:2|2:0,2:0:0:0:
192,229,32625,1,2,2:0:0:0:
208,253,32738,1,0,2:0:0:0:
224,277,32852,6,0,P|271:262|319:266,1,80,2|0,3:2|2:0,2:0:0:0:
394,218,33193,1,2,2:0:0:0:
411,196,33306,2,0,P|417:155|405:94,1,80,8|2,3:2|2:0,2:0:0:0:
223,152,33761,2,0,L|333:149,1,80,2|0,3:2|2:0,2:0:0:0:
363,80,34102,1,2,2:0:0:0:
372,62,34215,1,8,3:2:0:0:
226,32,34443,1,2,2:0:0:0:
81,145,34670,6,0,P|70:195|75:242,1,80,2|0,3:2|2:0,2:0:0:0:
139,295,35011,1,2,2:0:0:0:
170,293,35125,1,8,3:2:0:0:
246,155,35352,1,2,2:0:0:0:
325,289,35579,2,0,P|361:294|396:293,1,40,2|0,3:2|2:0,2:0:0:0:
327,173,35806,2,0,P|304:201|288:232,1,40,0|0,2:0|2:0,2:0:0:0:
428,231,36034,2,0,P|414:197|395:167,1,40,8|0,3:2|2:0,2:0:0:0:
229,273,36261,2,0,L|177:277,1,40,2|0,2:0|2:0,2:0:0:0:
109,194,36488,6,0,P|113:141|98:98,1,80,2|0,3:2|2:0,2:0:0:0:
165,33,36829,1,2,2:0:0:0:
197,24,36943,1,8,3:2:0:0:
314,125,37170,1,2,2:0:0:0:
170,225,37397,2,0,L|70:217,1,80,2|0,3:2|2:0,2:0:0:0:
32,136,37738,2,0,P|31:94|34:79,1,40,2|8,2:0|3:2,2:0:0:0:
39,282,38079,1,2,2:0:0:0:
182,157,38306,6,0,P|256:142|294:157,1,80,2|0,3:2|2:0,2:0:0:0:
351,268,38761,1,10,3:2:0:0:
450,136,38988,2,0,L|440:28,1,80,2|0,2:0|3:2,2:0:0:0:
437,247,39443,1,2,2:0:0:0:
285,165,39670,1,10,3:2:0:0:
252,164,39784,1,0,2:0:0:0:
219,165,39897,2,0,L|225:112,1,40,2|0,2:0|2:0,2:0:0:0:
150,226,40125,6,0,P|146:273|170:308,1,80,2|0,3:2|2:0,2:0:0:0:
275,336,40465,2,0,L|330:330,1,40,2|8,2:0|3:2,2:0:0:0:
377,158,40806,1,0,2:0:0:0:
412,284,41034,2,0,L|498:275,1,80,0|2,3:2|2:0,2:0:0:0:
239,168,41488,1,10,3:2:0:0:
199,163,41602,1,0,2:0:0:0:
159,159,41715,1,2,2:0:0:0:
303,225,41943,6,0,P|326:178|319:145,1,80,2|0,3:2|2:0,2:0:0:0:
233,77,42284,2,0,L|186:75,1,40,2|8,2:0|3:2,2:0:0:0:
72,244,42625,1,2,2:0:0:0:
286,244,42852,2,0,L|383:243,1,80,0|8,3:2|2:3,2:0:0:0:
401,162,43193,1,8,2:3:0:0:
414,146,43306,2,0,L|490:148,1,40,8|0,2:1|2:0,2:0:0:0:
262,132,43534,2,0,L|186:134,1,40,0|0,3:2|2:0,2:0:0:0:
89,93,43761,5,8,3:1:0:0:
188,47,43988,1,0,2:0:0:0:
278,110,44215,1,8,3:1:0:0:
285,135,44670,1,8,3:1:0:0:
171,167,44897,1,0,2:0:0:0:
292,160,45125,1,8,3:1:0:0:
178,192,45352,1,0,2:0:0:0:
281,268,45579,6,0,L|357:265,1,55.9999982910157,8|0,3:1|2:0,2:0:0:0:
490,206,46034,2,0,L|414:203,1,55.9999982910157,8|0,3:1|2:0,2:0:0:0:
413,341,46488,2,0,L|416:265,1,55.9999982910157,8|0,3:1|2:0,2:0:0:0:
351,132,46943,2,0,L|354:208,1,55.9999982910157,8|0,3:1|2:0,2:0:0:0:
442,75,47397,5,8,3:1:0:0:
347,33,47625,1,0,2:0:0:0:
264,95,47852,1,8,3:1:0:0:
270,124,48306,1,8,3:1:0:0:
165,154,48534,1,0,2:0:0:0:
243,229,48761,1,8,3:1:0:0:
193,72,48988,6,0,P|154:67|117:81,1,55.9999982910157,0|8,2:0|3:1,2:0:0:0:
66,146,49443,1,0,2:0:0:0:
150,280,49670,2,0,L|146:212,1,55.9999982910157,8|0,3:1|2:0,2:0:0:0:
253,117,50125,1,8,3:1:0:0:
361,137,50352,1,8,2:3:0:0:
341,245,50579,1,8,3:1:0:0:
233,225,50806,1,4,2:3:0:0:
447,214,51034,5,10,3:1:0:0:
452,316,51261,1,2,2:1:0:0:
367,372,51488,2,0,P|330:357|283:353,1,71.9999978027344,10|2,3:1|2:1,2:0:0:0:
172,319,51943,1,10,3:1:0:0:
269,226,52170,2,0,P|300:201|327:162,1,71.9999978027344,2|10,2:1|3:1,2:0:0:0:
182,57,52625,1,2,2:1:0:0:
179,84,52738,1,2,2:1:0:0:
174,113,52852,6,0,L|183:198,1,71.9999978027344,10|2,3:1|2:1,2:0:0:0:
261,289,53306,1,10,3:1:0:0:
306,170,53534,1,2,2:1:0:0:
291,181,53647,1,2,2:1:0:0:
274,195,53761,2,0,P|219:210|185:204,1,71.9999978027344,10|2,3:1|2:1,2:0:0:0:
38,194,54215,1,10,3:1:0:0:
32,344,54443,1,2,2:1:0:0:
57,344,54556,1,2,2:1:0:0:
80,344,54670,6,0,L|133:335,1,35.9999989013672,10|2,3:1|2:1,2:0:0:0:
271,264,54897,2,0,L|218:255,1,35.9999989013672,2|2,3:1|2:1,2:0:0:0:
80,201,55125,2,0,L|133:192,1,35.9999989013672,10|2,3:1|2:1,2:0:0:0:
253,119,55352,2,0,L|200:110,1,35.9999989013672,2|2,3:1|2:1,2:0:0:0:
131,41,55579,6,0,P|134:58|134:76,1,35.9999989013672,10|2,3:1|2:1,2:0:0:0:
205,258,55806,2,0,P|202:241|207:197,1,35.9999989013672,2|2,3:1|2:1,2:0:0:0:
253,119,56034,2,0,L|316:110,1,35.9999989013672,10|2,3:1|2:1,2:0:0:0:
340,239,56261,2,0,L|277:230,1,35.9999989013672,2|2,3:1|2:1,2:0:0:0:
118,234,56488,5,0,3:1:0:0:
68,207,56602,1,0,3:1:0:0:
66,149,56715,1,0,3:1:0:0:
114,119,56829,1,0,3:1:0:0:
165,146,56943,1,0,3:1:0:0:
214,115,57056,1,0,3:1:0:0:
212,59,57170,1,0,3:1:0:0:
161,32,57284,1,0,3:1:0:0:
113,61,57397,1,0,3:1:0:0:
113,61,57852,6,0,L|114:110,1,40,0|0,2:0|2:0,2:0:0:0:
260,188,58306,6,0,P|183:192|141:209,1,95.9999970703126,6|2,3:2|2:0,2:0:0:0:
60,232,58647,1,0,2:0:0:0:
39,208,58761,2,0,L|41:149,1,47.9999985351563,0|0,1:2|2:0,2:0:0:0:
114,82,58988,2,0,P|170:93|235:78,1,95.9999970703126,2|0,2:0|3:2,2:0:0:0:
267,162,59329,2,0,P|314:157|361:168,1,95.9999970703126,2|0,2:0|2:0,2:0:0:0:
303,278,59670,2,0,L|140:271,1,143.999995605469,2|0,1:2|2:0,2:0:0:0:
81,180,60125,5,0,3:2:0:0:
92,349,60352,1,2,2:0:0:0:
202,186,60579,2,0,P|212:130|199:75,1,95.9999970703126,2|2,1:2|2:0,2:0:0:0:
0,194,61034,1,2,3:2:0:0:
153,332,61261,1,2,2:0:0:0:
110,130,61488,1,2,1:2:0:0:
26,318,61715,1,2,2:0:0:0:
204,215,61943,6,0,P|270:203|337:215,1,95.9999970703126,2|0,3:2|2:0,2:0:0:0:
378,246,62284,1,0,2:0:0:0:
399,266,62397,1,0,1:2:0:0:
178,329,62625,1,2,2:0:0:0:
87,117,62852,2,0,L|206:104,1,95.9999970703126,0|0,3:2|2:0,2:0:0:0:
379,247,63306,2,0,L|260:234,1,95.9999970703126,2|0,1:2|2:0,2:0:0:0:
65,108,63761,5,0,3:2:0:0:
152,311,63988,1,2,2:0:0:0:
235,106,64215,1,2,1:2:0:0:
32,193,64443,1,0,2:0:0:0:
238,276,64670,2,0,L|337:262,1,60.0000022888184,2|0,3:2|2:0,2:0:0:0:
452,151,64897,2,0,L|353:137,1,60.0000022888184,2|0,2:0|2:0,2:0:0:0:
204,76,65125,5,2,1:2:0:0:
190,199,65352,1,2,2:0:0:0:
392,142,65579,6,0,L|290:138,1,95.9999970703126,2|0,3:2|2:0,2:0:0:0:
176,155,65920,1,2,2:0:0:0:
167,120,66034,2,0,L|176:44,1,47.9999985351563,0|0,1:2|2:0,2:0:0:0:
67,156,66261,2,0,P|55:207|77:258,1,95.9999970703126,2|0,2:0|3:2,2:0:0:0:
141,312,66602,2,0,P|192:324|243:302,1,95.9999970703126,2|0,2:0|2:0,2:0:0:0:
279,214,66943,2,0,P|325:177|330:243,1,143.999995605469,2|0,1:2|2:0,2:0:0:0:
184,241,67397,5,0,3:2:0:0:
220,86,67625,1,2,2:0:0:0:
75,198,67852,2,0,L|-22:188,1,95.9999970703126,2|2,1:2|2:0,2:0:0:0:
233,102,68306,2,0,L|330:92,1,95.9999970703126,2|2,3:2|2:0,2:0:0:0:
439,213,68761,1,2,1:2:0:0:
416,75,68988,1,2,2:0:0:0:
286,225,69215,6,0,P|232:246|158:240,1,95.9999970703126,2|0,3:2|2:0,2:0:0:0:
117,190,69556,1,0,2:0:0:0:
97,165,69670,1,0,1:2:0:0:
99,303,69897,1,2,2:0:0:0:
220,144,70125,2,0,L|340:135,1,95.9999970703126,0|0,3:2|2:0,2:0:0:0:
212,338,70579,2,0,P|191:277|203:224,1,95.9999970703126,2|0,1:2|2:0,2:0:0:0:
417,159,71034,5,8,2:3:0:0:
381,154,71147,1,8,2:3:0:0:
345,150,71261,1,10,2:3:0:0:
309,146,71375,1,8,2:3:0:0:
273,142,71488,2,0,L|283:83,1,47.9999985351563,10|8,2:3|2:3,2:0:0:0:
229,79,71715,5,0,3:2:0:0:
172,76,71829,1,8,2:3:0:0:
132,117,71943,1,8,2:3:0:0:
135,174,72056,1,8,2:3:0:0:
178,211,72170,1,8,2:3:0:0:
235,203,72284,1,8,2:3:0:0:
268,156,72397,5,8,2:1:0:0:
229,79,72625,1,0,3:2:0:0:
211,324,72852,5,6,3:2:0:0:
250,318,72965,1,2,2:0:0:0:
290,312,73079,1,2,2:0:0:0:
329,307,73193,1,2,2:0:0:0:
369,301,73306,1,2,1:2:0:0:
437,152,73534,2,0,L|431:242,1,80,2|0,2:0|3:2,2:0:0:0:
301,119,73988,1,2,2:0:0:0:
149,220,74215,2,0,P|207:226|253:215,1,80,2|2,1:2|2:0,2:0:0:0:
123,124,74670,5,2,3:2:0:0:
87,141,74784,1,2,2:0:0:0:
62,172,74897,1,2,2:0:0:0:
51,210,75011,1,2,2:0:0:0:
56,250,75125,1,2,1:2:0:0:
237,135,75352,1,2,2:0:0:0:
421,296,75579,2,0,P|359:308|316:298,1,80,2|2,3:2|2:0,2:0:0:0:
237,135,76034,2,0,P|299:123|342:133,1,80,2|2,1:2|2:0,2:0:0:0:
197,269,76488,5,2,3:2:0:0:
163,163,76715,1,2,2:0:0:0:
262,345,76943,1,2,1:2:0:0:
296,239,77170,1,2,2:0:0:0:
91,235,77397,1,2,3:2:0:0:
197,269,77625,1,2,2:0:0:0:
269,129,77852,1,2,1:2:0:0:
163,163,78079,1,2,2:0:0:0:
296,239,78306,5,2,3:2:0:0:
332,224,78420,1,2,2:0:0:0:
372,229,78534,1,2,2:0:0:0:
404,251,78647,1,2,2:0:0:0:
422,287,78761,1,2,1:2:0:0:
233,339,78988,2,0,L|130:325,1,80,2|2,2:0|3:2,2:0:0:0:
45,202,79443,1,2,2:0:0:0:
171,44,79670,2,0,P|177:113|166:148,1,80,2|2,1:2|2:0,2:0:0:0:
330,233,80125,5,2,3:2:0:0:
373,210,80238,1,2,2:0:0:0:
389,163,80352,1,2,2:0:0:0:
369,119,80465,1,2,2:0:0:0:
324,100,80579,1,2,1:2:0:0:
134,210,80806,2,0,L|237:200,1,80,2|0,2:0|3:2,2:0:0:0:
446,176,81261,1,2,2:0:0:0:
351,335,81488,2,0,L|248:325,1,80,2|2,1:2|2:0,2:0:0:0:
123,135,81943,5,2,3:2:0:0:
156,99,82056,1,2,2:0:0:0:
204,86,82170,1,2,2:0:0:0:
251,101,82284,1,2,2:0:0:0:
283,139,82397,1,2,1:2:0:0:
225,331,82625,2,0,P|205:272|217:227,1,80,2|2,2:0|3:2,2:0:0:0:
363,122,83079,1,2,2:0:0:0:
145,181,83306,2,0,L|35:165,1,80,2|2,1:2|2:0,2:0:0:0:
206,255,83761,5,2,3:2:0:0:
319,235,83988,1,2,2:0:0:0:
475,145,84215,1,2,1:2:0:0:
362,125,84443,1,2,2:0:0:0:
383,333,84670,1,2,3:2:0:0:
403,220,84897,1,2,2:0:0:0:
207,126,85125,1,2,1:2:0:0:
227,239,85352,1,2,2:0:0:0:
400,152,85579,6,0,B|416:136|416:136|416:96|416:96|400:80,1,80,2|0,2:1|2:0,2:0:0:0:
320,96,85806,6,0,L|320:136,1,40,0|0,2:0|2:0,2:0:0:0:
320,136,86715,6,0,L|320:168,1,20,2|0,2:0|2:0,2:0:0:0:
322,244,86943,6,0,P|281:231|345:143,1,180.000006866455,4|0,2:0|2:0,2:0:0:0:
336,265,87397,6,0,L|234:278,2,83.9999974365235,2|2|0,3:2|3:2|3:2,2:0:0:0:
414,167,88306,1,8,2:0:0:0:
334,93,88534,1,0,2:0:0:0:
242,169,88761,2,0,P|198:170|165:163,1,55.9999982910157,2|0,2:0|3:2,2:0:0:0:
71,115,89215,6,0,L|68:51,1,55.9999982910157,2|8,2:0|2:0,2:0:0:0:
83,35,89518,1,2,2:0:0:0:
174,35,89670,2,0,L|245:27,2,37.3333321940105,2|2|2,2:0|2:0|2:0,2:0:0:0:
66,59,90125,2,0,P|65:87|71:115,1,55.9999982910157,10|0,2:0|2:0,2:0:0:0:
166,190,90579,1,10,2:0:0:0:
266,179,90806,2,0,L|259:215,1,27.9999991455078,0|0,3:2|3:2,2:0:0:0:
256,159,91034,6,0,L|148:149,2,83.9999974365235,2|2|0,3:2|3:2|3:2,2:0:0:0:
379,118,91943,1,8,2:0:0:0:
455,210,92170,1,0,2:0:0:0:
368,326,92397,2,0,P|357:259|356:247,1,55.9999982910157,2|0,2:0|3:2,2:0:0:0:
257,174,92852,5,2,2:0:0:0:
257,174,92965,2,0,L|251:247,1,55.9999982910157,0|0,2:0|2:0,2:0:0:0:
164,310,93306,1,2,2:0:0:0:
164,310,93419,2,0,L|158:237,1,55.9999982910157,0|0,2:0|2:0,2:0:0:0:
112,168,93760,1,10,2:0:0:0:
208,167,93988,1,0,2:0:0:0:
159,254,94215,1,10,2:0:0:0:
154,77,94443,2,0,L|200:65,1,27.9999991455078,0|0,3:2|3:2,2:0:0:0:
127,82,94670,6,0,P|79:71|41:81,2,83.9999974365235,2|2|0,3:2|3:2|3:2,2:0:0:0:
214,196,95579,1,8,2:0:0:0:
350,137,95806,1,0,2:0:0:0:
435,240,96034,2,0,L|434:311,1,55.9999982910157,2|0,2:0|3:2,2:0:0:0:
360,151,96488,6,0,L|405:144,2,37.3333321940105,2|2|2,2:0|2:0|2:0,2:0:0:0:
281,247,96943,2,0,L|236:240,2,37.3333321940105,2|2|2,2:0|2:0|2:0,2:0:0:0:
381,286,97397,1,10,2:0:0:0:
381,286,97852,1,10,2:0:0:0:
375,202,98003,1,2,2:0:0:0:
369,118,98155,1,2,2:0:0:0:
353,213,98306,6,0,P|259:225|240:222,1,111.999996582031,2|2,3:2|2:0,2:0:0:0:
121,96,99215,5,10,3:2:0:0:
58,164,99367,1,10,3:2:0:0:
29,76,99518,1,10,3:2:0:0:
122,123,99670,5,10,3:2:0:0:
33,152,99822,1,10,3:2:0:0:
52,61,99973,1,10,3:2:0:0:
109,148,100125,6,0,B|101:188|109:212|109:212|117:236|109:268,1,111.999996582031,2|0,3:2|2:0,2:0:0:0:
110,258,101034,1,8,2:3:0:0:
135,244,101147,1,8,2:3:0:0:
162,238,101261,1,8,2:3:0:0:
190,240,101374,1,0,3:2:0:0:
216,251,101488,2,0,L|213:149,1,83.9999974365235,4|0,2:3|2:0,2:0:0:0:
281,93,101943,6,0,P|333:83|375:99,1,71.9999978027344,2|0,3:2|2:0,2:0:0:0:
327,214,102284,2,0,L|324:156,1,35.9999989013672,2|8,2:0|3:2,2:0:0:0:
446,104,102625,1,0,2:0:0:0:
512,250,102852,1,0,3:2:0:0:
351,228,103079,1,2,2:0:0:0:
180,322,103306,2,0,P|231:330|270:319,1,71.9999978027344,10|2,3:2|2:0,2:0:0:0:
219,171,103761,6,0,L|224:232,2,47.9999985351563,2|2|2,3:2|2:0|2:0,2:0:0:0:
83,88,104215,2,0,L|78:149,2,47.9999985351563,10|2|2,3:2|2:0|2:0,2:0:0:0:
225,25,104670,2,0,L|287:18,1,35.9999989013672,2|0,3:2|2:0,2:0:0:0:
423,110,104897,2,0,L|361:103,1,35.9999989013672,0|0,2:0|2:0,2:0:0:0:
261,140,105125,1,10,3:2:0:0:
279,242,105352,1,2,2:0:0:0:
458,188,105579,6,0,P|390:173|364:182,1,71.9999978027344,2|0,3:2|2:0,2:0:0:0:
361,256,105920,2,0,L|362:313,1,35.9999989013672,2|8,2:0|3:2,2:0:0:0:
317,162,106261,1,0,2:0:0:0:
239,295,106488,1,0,3:2:0:0:
402,262,106715,1,2,2:0:0:0:
244,198,106943,2,0,L|151:189,1,71.9999978027344,10|2,3:2|2:0,2:0:0:0:
343,99,107397,5,2,3:2:0:0:
343,99,107511,2,0,L|444:91,1,71.9999978027344,2|0,2:0|2:0,2:0:0:0:
503,212,107852,1,10,3:2:0:0:
503,212,107966,2,0,L|402:204,1,71.9999978027344,2|0,2:0|2:0,2:0:0:0:
308,182,108306,1,2,3:2:0:0:
314,338,108534,1,2,2:0:0:0:
431,206,108761,2,0,P|450:153|449:114,1,71.9999978027344,10|0,3:2|2:0,2:0:0:0:
291,70,109215,6,0,P|296:105|311:138,1,71.9999978027344,2|0,3:2|2:0,2:0:0:0:
306,42,109556,2,0,L|250:40,1,35.9999989013672,2|8,2:0|3:2,2:0:0:0:
217,214,109897,1,0,2:0:0:0:
199,66,110125,1,0,3:2:0:0:
326,174,110352,1,2,2:0:0:0:
146,151,110579,2,0,L|62:157,1,71.9999978027344,10|2,3:2|2:0,2:0:0:0:
218,286,111034,6,0,P|222:245|220:211,2,47.9999985351563,2|2|2,3:2|2:0|2:0,2:0:0:0:
317,146,111488,2,0,P|313:105|315:71,2,47.9999985351563,10|2|2,3:2|2:0|2:0,2:0:0:0:
422,242,111943,2,0,L|470:237,1,35.9999989013672,2|0,3:2|2:0,2:0:0:0:
321,326,112171,2,0,L|369:331,1,35.9999989013672,0|0,2:0|2:0,2:0:0:0:
199,214,112398,1,10,3:2:0:0:
235,351,112624,1,2,2:0:0:0:
308,197,112852,6,0,P|306:135|279:94,1,107.999996704102,2|0,3:2|2:0,2:0:0:0:
180,66,113306,1,8,3:2:0:0:
252,274,113534,1,2,2:0:0:0:
290,278,113647,1,2,2:0:0:0:
329,263,113761,2,0,L|327:215,1,35.9999989013672,2|0,3:2|2:0,2:0:0:0:
256,102,113988,1,2,2:0:0:0:
224,104,114102,1,2,2:0:0:0:
192,106,114215,1,10,3:2:0:0:
261,262,114443,1,2,2:0:0:0:
367,101,114670,6,0,B|357:160|357:160|373:209,1,107.999996704102,2|0,3:2|2:0,2:0:0:0:
485,270,115125,1,8,3:2:0:0:
341,291,115352,1,2,2:0:0:0:
440,135,115579,2,0,P|447:80|428:51,1,71.9999978027344,0|8,3:2|2:3,2:0:0:0:
333,26,115920,1,8,2:3:0:0:
305,32,116034,2,0,L|257:41,1,35.9999989013672,8|0,2:1|2:0,2:0:0:0:
121,169,116261,2,0,L|169:178,1,35.9999989013672,0|0,3:2|2:0,2:0:0:0:
247,121,116488,5,8,3:1:0:0:
351,104,116715,1,0,2:0:0:0:
455,87,116943,1,8,3:1:0:0:
475,74,117397,1,8,3:1:0:0:
432,163,117625,1,0,2:0:0:0:
475,252,117852,1,8,3:1:0:0:
432,341,118079,1,0,2:0:0:0:
277,242,118306,6,0,P|328:235|354:237,1,55.9999982910157,8|0,3:1|2:0,2:0:0:0:
472,148,118761,2,0,P|421:155|395:153,1,55.9999982910157,8|0,3:1|2:0,2:0:0:0:
327,97,119215,2,0,P|334:148|332:174,1,55.9999982910157,8|0,3:1|2:0,2:0:0:0:
421,292,119670,2,0,P|414:241|416:215,1,55.9999982910157,8|0,3:1|2:0,2:0:0:0:
439,136,120125,5,8,3:1:0:0:
352,177,120352,1,0,2:0:0:0:
273,123,120579,1,8,3:1:0:0:
274,102,121034,1,8,3:1:0:0:
187,167,121261,1,0,2:0:0:0:
252,254,121488,1,8,3:1:0:0:
275,81,121715,6,0,L|204:79,1,55.9999982910157,0|8,2:0|3:1,2:0:0:0:
122,45,122170,1,0,2:0:0:0:
152,204,122397,2,0,P|162:164|158:142,1,55.9999982910157,8|0,3:1|2:0,2:0:0:0:
75,293,122852,1,8,3:1:0:0:
206,330,123079,1,8,2:3:0:0:
243,199,123306,1,8,3:1:0:0:
112,162,123534,1,4,2:3:0:0:
290,282,123761,5,10,3:1:0:0:
385,233,123988,1,2,2:1:0:0:
308,81,124215,2,0,P|302:135|311:175,1,71.9999978027344,10|2,3:1|2:1,2:0:0:0:
450,129,124670,2,0,P|445:93|432:59,1,71.9999978027344,10|2,3:1|2:1,2:0:0:0:
363,237,125125,2,0,L|441:231,1,71.9999978027344,10|2,3:1|2:1,2:0:0:0:
361,332,125465,1,2,2:1:0:0:
342,345,125579,6,0,L|264:339,1,71.9999978027344,10|2,3:1|2:1,2:0:0:0:
203,173,126034,2,0,P|213:239|205:265,1,71.9999978027344,10|2,3:1|2:1,2:0:0:0:
131,309,126375,1,2,2:1:0:0:
101,309,126488,1,10,3:1:0:0:
34,178,126715,1,2,2:1:0:0:
181,159,126943,2,0,L|272:151,1,71.9999978027344,10|2,3:1|2:1,2:0:0:0:
334,82,127284,1,2,2:1:0:0:
351,99,127397,6,0,L|356:157,1,35.9999989013672,10|2,3:1|2:1,2:0:0:0:
347,300,127625,2,0,L|352:242,1,35.9999989013672,2|2,3:1|2:1,2:0:0:0:
250,95,127852,2,0,L|255:153,1,35.9999989013672,10|2,3:1|2:1,2:0:0:0:
246,296,128080,2,0,L|251:238,1,35.9999989013672,2|2,3:1|2:1,2:0:0:0:
116,330,128306,6,0,P|154:350|178:348,1,35.9999989013672,10|2,3:1|2:1,2:0:0:0:
223,174,128534,2,0,P|206:180|192:192,1,35.9999989013672,2|2,3:1|2:1,2:0:0:0:
271,317,128761,2,0,P|309:337|333:335,1,35.9999989013672,10|2,3:1|2:1,2:0:0:0:
378,161,128989,2,0,P|361:167|347:179,1,35.9999989013672,2|2,3:1|2:1,2:0:0:0:
192,296,129215,5,0,3:1:0:0:
134,296,129329,1,0,3:1:0:0:
105,246,129442,1,0,3:1:0:0:
134,196,129556,1,0,3:1:0:0:
192,196,129670,1,0,3:1:0:0:
220,246,129783,1,0,3:1:0:0:
277,246,129897,1,0,3:1:0:0:
306,196,130011,1,0,3:1:0:0:
277,146,130125,1,0,3:1:0:0:
277,146,130579,6,0,L|326:119,1,40,0|0,2:0|2:0,2:0:0:0:
302,236,131034,6,0,P|276:163|285:108,1,95.9999970703126,6|2,3:2|2:0,2:0:0:0:
197,89,131375,1,0,2:0:0:0:
179,77,131488,2,0,L|123:78,1,47.9999985351563,0|0,1:2|2:0,2:0:0:0:
82,174,131715,2,0,P|100:245|85:281,1,95.9999970703126,2|0,2:0|3:2,2:0:0:0:
205,372,132056,2,0,P|187:301|202:265,1,95.9999970703126,2|0,2:0|2:0,2:0:0:0:
330,251,132397,2,0,B|363:264|363:264|261:317,1,143.999995605469,2|0,1:2|2:0,2:0:0:0:
188,256,132852,5,0,3:2:0:0:
354,130,133079,1,2,2:0:0:0:
159,160,133306,2,0,L|289:164,1,95.9999970703126,2|2,1:2|2:0,2:0:0:0:
341,37,133761,1,2,3:2:0:0:
381,225,133988,1,2,2:0:0:0:
317,64,134215,1,2,1:2:0:0:
287,252,134442,1,2,2:0:0:0:
134,165,134670,6,0,P|182:154|228:165,1,95.9999970703126,2|0,3:2|2:0,2:0:0:0:
287,230,135010,1,0,2:0:0:0:
287,252,135124,1,0,1:2:0:0:
163,316,135352,1,2,2:0:0:0:
110,152,135579,2,0,L|89:41,1,95.9999970703126,0|0,3:2|2:0,2:0:0:0:
288,265,136034,2,0,L|267:376,1,95.9999970703126,2|0,1:2|2:0,2:0:0:0:
305,132,136488,5,0,3:2:0:0:
162,203,136715,1,2,2:0:0:0:
380,274,136943,2,0,P|290:264|251:286,1,95.9999970703126,2|0,1:2|2:0,2:0:0:0:
65,326,137397,6,0,L|139:317,1,60.0000022888184,2|0,3:2|2:0,2:0:0:0:
209,206,137625,2,0,L|136:201,1,60.0000022888184,2|0,2:0|2:0,2:0:0:0:
289,157,137852,5,2,1:2:0:0:
291,252,138079,1,2,2:0:0:0:
361,99,138306,6,0,P|323:68|264:73,1,95.9999970703126,2|0,3:2|2:0,2:0:0:0:
192,135,138647,1,2,2:0:0:0:
192,135,138761,2,0,P|201:173|203:202,1,47.9999985351563,0|0,1:2|2:0,2:0:0:0:
172,277,138988,2,0,L|54:272,1,95.9999970703126,2|0,2:0|3:2,2:0:0:0:
4,182,139329,2,0,L|122:177,1,95.9999970703126,2|0,2:0|2:0,2:0:0:0:
192,135,139670,2,0,P|229:88|173:88,1,143.999995605469,2|0,1:2|2:0,2:0:0:0:
221,252,140125,5,0,3:2:0:0:
341,75,140352,1,2,2:0:0:0:
347,288,140579,2,0,L|457:278,1,95.9999970703126,2|2,1:2|2:0,2:0:0:0:
512,161,141034,2,0,L|402:151,1,95.9999970703126,2|2,3:2|2:0,2:0:0:0:
333,83,141488,1,2,1:2:0:0:
364,228,141715,1,2,2:0:0:0:
253,160,141943,6,0,P|176:149|143:161,1,95.9999970703126,2|0,3:2|2:0,2:0:0:0:
110,242,142284,1,0,2:0:0:0:
108,274,142397,1,0,1:2:0:0:
334,284,142625,1,2,2:0:0:0:
252,69,142852,2,0,P|244:139|271:180,1,95.9999970703126,0|0,3:2|2:0,2:0:0:0:
418,47,143306,2,0,L|318:22,1,95.9999970703126,2|0,1:2|2:0,2:0:0:0:
62,99,143761,5,8,2:3:0:0:
108,87,143874,1,8,2:3:0:0:
155,75,143988,1,10,2:3:0:0:
201,64,144101,1,8,2:3:0:0:
248,52,144215,2,0,L|242:122,1,47.9999985351563,10|8,2:3|2:3,2:0:0:0:
309,223,144443,5,0,3:2:0:0:
274,177,144556,1,8,2:3:0:0:
217,173,144670,1,8,2:3:0:0:
176,214,144783,1,8,2:3:0:0:
178,270,144897,1,8,2:3:0:0:
222,307,145011,1,8,2:3:0:0:
278,298,145124,5,8,2:1:0:0:
309,223,145352,1,0,3:2:0:0:
79,156,145579,5,6,3:2:0:0:
118,150,145692,1,2,2:0:0:0:
158,144,145806,1,2,2:0:0:0:
197,139,145920,1,2,2:0:0:0:
237,133,146033,1,2,1:2:0:0:
419,107,146261,2,0,B|439:141|413:197,1,80,2|0,2:0|3:2,2:0:0:0:
261,183,146715,1,2,2:0:0:0:
241,38,146942,2,0,L|345:33,1,80,2|2,1:2|2:0,2:0:0:0:
240,231,147397,5,2,3:2:0:0:
234,191,147510,1,2,2:0:0:0:
228,151,147624,1,2,2:0:0:0:
222,112,147737,1,2,2:0:0:0:
216,72,147851,1,2,1:2:0:0:
358,151,148079,1,2,2:0:0:0:
240,231,148306,2,0,P|178:243|135:233,1,80,2|2,3:2|2:0,2:0:0:0:
144,80,148761,2,0,P|206:68|249:78,1,80,2|2,1:2|2:0,2:0:0:0:
351,202,149215,5,2,3:2:0:0:
334,100,149443,1,2,2:0:0:0:
446,284,149670,1,2,1:2:0:0:
463,182,149898,1,2,2:0:0:0:
249,219,150125,1,2,3:2:0:0:
351,202,150353,1,2,2:0:0:0:
167,314,150580,1,2,1:2:0:0:
269,331,150806,1,2,2:0:0:0:
441,211,151033,5,2,3:2:0:0:
423,175,151147,1,2,2:0:0:0:
391,153,151260,1,2,2:0:0:0:
351,148,151374,1,2,2:0:0:0:
315,163,151488,1,2,1:2:0:0:
162,327,151715,2,0,P|203:342|241:337,1,80,2|2,2:0|3:2,2:0:0:0:
362,256,152170,1,2,2:0:0:0:
216,90,152397,2,0,L|211:194,1,80,2|2,1:2|2:0,2:0:0:0:
330,233,152852,5,2,3:2:0:0:
373,210,152965,1,2,2:0:0:0:
389,163,153079,1,2,2:0:0:0:
369,119,153192,1,2,2:0:0:0:
324,100,153306,1,2,1:2:0:0:
145,79,153534,2,0,L|143:186,1,80,2|0,2:0|3:2,2:0:0:0:
175,311,153988,1,2,2:0:0:0:
325,217,154215,2,0,L|222:207,1,80,2|2,1:2|2:0,2:0:0:0:
145,79,154670,5,2,3:2:0:0:
184,75,154783,1,2,2:0:0:0:
224,71,154897,1,2,2:0:0:0:
264,68,155010,1,2,2:0:0:0:
304,64,155124,1,2,1:2:0:0:
243,241,155352,2,0,P|223:182|235:137,1,80,2|2,2:0|3:2,2:0:0:0:
375,97,155806,1,2,2:0:0:0:
393,263,156033,2,0,L|280:287,1,80,2|2,1:2|2:0,2:0:0:0:
124,100,156488,5,2,3:2:0:0:
139,202,156715,1,2,2:0:0:0:
317,119,156943,1,2,1:2:0:0:
215,134,157170,1,2,2:0:0:0:
297,326,157397,1,2,3:2:0:0:
282,224,157624,1,2,2:0:0:0:
104,307,157852,1,2,1:2:0:0:
206,292,158079,1,2,2:0:0:0:
206,292,158761,6,0,L|206:209,1,71.9999978027344,0|0,2:0|2:0,2:0:0:0:
217,198,159670,1,0,2:0:0:0:
240,104,167397,6,0,L|153:100,1,71.9999978027344,2|0,3:1|2:0,2:0:0:0:
101,160,167852,2,0,P|99:193|105:222,1,47.9999985351563,2|2,2:1|2:1,2:0:0:0:
208,317,168306,2,0,P|216:278|215:254,1,47.9999985351563,2|2,3:1|2:1,2:0:0:0:
101,207,168761,1,2,2:1:0:0:
76,207,168875,1,2,2:1:0:0:
51,207,168988,1,2,2:1:0:0:
201,116,169215,6,0,L|248:112,1,47.9999985351563,2|2,3:1|2:1,2:0:0:0:
103,97,169670,1,2,2:1:0:0:
103,74,169784,1,2,2:1:0:0:
103,51,169897,1,2,2:1:0:0:
154,184,170125,2,0,L|153:243,1,47.9999985351563,2|2,3:1|2:1,2:0:0:0:
248,313,170579,2,0,L|289:306,1,23.9999992675781,2|2,2:1|2:1,2:0:0:0:
385,233,170806,2,0,L|344:226,1,23.9999992675781,2|2,2:1|2:1,2:0:0:0:
225,189,171034,5,2,3:1:0:0:
210,165,171147,1,2,2:1:0:0:
210,137,171261,1,2,3:1:0:0:
224,114,171374,1,2,2:1:0:0:
249,102,171488,1,2,3:1:0:0:
276,104,171602,1,2,2:1:0:0:
298,121,171715,1,2,3:1:0:0:
308,147,171829,1,2,2:1:0:0:
303,175,171943,6,0,L|307:222,3,32,2|2|2|2,3:1|2:1|3:1|2:1,2:0:0:0:
405,122,172397,2,0,L|401:169,3,32,2|2|2|2,3:1|2:1|3:1|3:1,2:0:0:0:
462,44,172852,5,0,3:2:0:0:
435,31,172965,1,0,3:2:0:0:
405,27,173079,1,0,3:2:0:0:
375,32,173192,1,0,3:2:0:0:
349,46,173306,1,0,3:2:0:0:
328,67,173420,1,0,3:2:0:0:
314,93,173533,1,0,3:2:0:0:
310,123,173647,1,0,3:2:0:0:
316,153,173761,6,0,P|325:199|317:228,1,60,4|0,3:0|2:0,2:0:0:0:
243,298,174215,1,4,3:0:0:0:
375,190,176488,6,0,L|244:197,1,95.9999970703126,6|2,3:2|2:0,2:0:0:0:
227,112,176829,1,0,2:0:0:0:
227,112,176943,2,0,P|218:60|225:32,1,47.9999985351563,0|0,1:2|2:0,2:0:0:0:
279,195,177170,2,0,L|266:330,1,95.9999970703126,2|0,2:0|3:2,2:0:0:0:
190,345,177510,2,0,P|172:274|187:238,1,95.9999970703126,2|0,2:0|2:0,2:0:0:0:
310,255,177852,2,0,B|330:280|356:287|356:287|318:279|253:294,1,143.999995605469,2|0,1:2|2:0,2:0:0:0:
402,182,178306,5,0,3:2:0:0:
381,354,178534,1,2,2:0:0:0:
241,208,178761,2,0,P|314:167|365:178,1,95.9999970703126,2|2,1:2|2:0,2:0:0:0:
454,316,179215,1,2,3:2:0:0:
425,120,179443,1,2,2:0:0:0:
304,245,179670,1,2,1:2:0:0:
333,49,179898,1,2,2:0:0:0:
381,295,180124,6,0,P|398:251|388:204,1,95.9999970703126,2|0,3:2|2:0,2:0:0:0:
304,160,180464,1,0,2:0:0:0:
284,164,180578,1,0,1:2:0:0:
163,316,180806,1,2,2:0:0:0:
32,192,181033,2,0,P|8:150|17:82,1,95.9999970703126,0|0,3:2|2:0,2:0:0:0:
210,180,181488,2,0,L|121:238,1,95.9999970703126,2|0,1:2|2:0,2:0:0:0:
132,39,181942,5,0,3:2:0:0:
129,232,182169,1,2,2:0:0:0:
338,130,182397,2,0,P|248:120|209:142,1,95.9999970703126,2|0,1:2|2:0,2:0:0:0:
254,311,182852,6,0,P|275:315|326:311,1,60.0000022888184,2|0,3:2|2:0,2:0:0:0:
317,166,183079,2,0,P|295:161|250:164,1,60.0000022888184,2|0,2:0|2:0,2:0:0:0:
391,295,183306,5,2,1:2:0:0:
407,201,183533,1,2,2:0:0:0:
232,240,183761,6,0,L|341:245,1,95.9999970703126,2|0,3:2|2:0,2:0:0:0:
399,156,184101,1,2,2:0:0:0:
399,156,184215,2,0,P|395:132|388:109,1,47.9999985351563,0|0,1:2|2:0,2:0:0:0:
297,38,184442,2,0,L|179:33,1,95.9999970703126,2|0,2:0|3:2,2:0:0:0:
212,157,184783,2,0,L|330:152,1,95.9999970703126,2|0,2:0|2:0,2:0:0:0:
399,156,185124,2,0,P|441:112|386:113,1,143.999995605469,2|0,1:2|2:0,2:0:0:0:
298,226,185579,5,0,3:2:0:0:
325,59,185806,1,2,2:0:0:0:
179,147,186033,2,0,L|289:137,1,95.9999970703126,2|2,1:2|2:0,2:0:0:0:
176,283,186488,2,0,L|66:273,1,95.9999970703126,2|2,3:2|2:0,2:0:0:0:
86,87,186942,1,2,1:2:0:0:
207,272,187169,1,2,2:0:0:0:
263,163,187397,6,0,P|186:152|153:164,1,95.9999970703126,2|0,3:2|2:0,2:0:0:0:
85,113,187738,1,0,2:0:0:0:
87,80,187851,1,0,1:2:0:0:
207,272,188079,1,2,2:0:0:0:
85,113,188306,2,0,P|77:183|104:224,1,95.9999970703126,0|0,3:2|2:0,2:0:0:0:
265,153,188760,2,0,L|157:156,1,95.9999970703126,2|0,1:2|2:0,2:0:0:0:
339,236,189215,5,8,2:3:0:0:
366,196,189328,1,8,2:3:0:0:
374,149,189442,1,10,2:3:0:0:
362,103,189555,1,8,2:3:0:0:
333,66,189670,2,0,L|391:57,1,47.9999985351563,10|8,2:3|2:3,2:0:0:0:
444,205,189897,5,0,3:2:0:0:
397,261,190010,1,8,2:3:0:0:
325,274,190124,1,8,2:3:0:0:
262,236,190237,1,8,2:3:0:0:
239,166,190351,1,8,2:3:0:0:
267,99,190465,1,8,2:3:0:0:
333,66,190578,5,8,2:1:0:0:
342,168,190806,1,0,3:2:0:0:
79,156,191033,5,6,3:2:0:0:
118,150,191146,1,2,2:0:0:0:
158,144,191260,1,2,2:0:0:0:
197,139,191374,1,2,2:0:0:0:
237,133,191487,1,2,1:2:0:0:
394,227,191715,2,0,L|279:222,1,80,2|0,2:0|3:2,2:0:0:0:
218,294,192169,1,2,2:0:0:0:
158,144,192397,2,0,P|149:210|161:245,1,80,2|2,1:2|2:0,2:0:0:0:
243,99,192852,5,2,3:2:0:0:
215,70,192965,1,2,2:0:0:0:
178,54,193079,1,2,2:0:0:0:
139,55,193192,1,2,2:0:0:0:
102,70,193306,1,2,1:2:0:0:
17,187,193533,1,2,2:0:0:0:
167,233,193761,2,0,L|161:124,1,80,2|2,3:2|2:0,2:0:0:0:
278,252,194215,2,0,L|272:361,1,80,2|2,1:2|2:0,2:0:0:0:
384,126,194670,5,2,3:2:0:0:
371,35,194897,1,2,2:0:0:0:
316,216,195125,5,2,1:2:0:0:
303,307,195352,1,2,2:0:0:0:
213,128,195579,5,2,3:2:0:0:
304,141,195806,1,2,2:0:0:0:
485,196,196034,5,2,1:2:0:0:
394,209,196261,1,2,2:0:0:0:
239,307,196488,5,2,3:2:0:0:
221,270,196601,1,2,2:0:0:0:
205,234,196715,1,2,2:0:0:0:
212,195,196828,1,2,2:0:0:0:
218,155,196942,1,2,1:2:0:0:
371,87,197170,2,0,P|298:97|266:80,1,80,2|2,2:0|3:2,2:0:0:0:
220,21,197625,1,2,2:0:0:0:
164,122,197852,2,0,L|159:226,1,80,2|2,1:2|2:0,2:0:0:0:
282,355,198306,5,2,3:2:0:0:
280,315,198419,1,2,2:0:0:0:
278,275,198533,1,2,2:0:0:0:
276,235,198646,1,2,2:0:0:0:
274,195,198760,1,2,1:2:0:0:
120,131,198988,2,0,P|168:139|208:131,1,80,2|0,2:0|3:2,2:0:0:0:
328,52,199442,1,2,2:0:0:0:
434,178,199669,2,0,L|331:168,1,80,2|2,1:2|2:0,2:0:0:0:
145,79,200124,5,2,3:2:0:0:
184,75,200237,1,2,2:0:0:0:
224,71,200351,1,2,2:0:0:0:
264,68,200464,1,2,2:0:0:0:
304,64,200578,1,2,1:2:0:0:
264,258,200806,2,0,L|256:154,1,80,2|2,2:0|3:2,2:0:0:0:
411,86,201260,1,2,2:0:0:0:
409,271,201487,2,0,P|375:293|313:300,1,80,2|2,1:2|2:0,2:0:0:0:
175,144,201943,5,2,3:2:0:0:
284,126,202170,1,2,2:0:0:0:
373,283,202397,1,2,1:2:0:0:
264,265,202624,1,2,2:0:0:0:
294,95,202852,1,2,3:2:0:0:
312,204,203079,1,2,2:0:0:0:
155,293,203306,1,2,1:2:0:0:
173,184,203533,1,2,2:0:0:0:
362,253,203761,6,0,L|259:246,1,80,2|0,2:1|2:0,2:0:0:0:
232,142,203988,6,0,B|225:168|225:168|228:193,1,40,0|0,2:0|2:0,2:0:0:0:
226,180,204897,6,0,L|198:180,1,20,2|0,2:0|2:0,2:0:0:0:
269,95,205125,6,0,P|321:174|268:267,1,180.000006866455,4|0,2:0|2:0,2:0:0:0:
170,294,205579,5,6,2:0:0:0:
103,205,205806,2,0,L|112:98,1,95.9999970703126,0|0,2:0|2:0,2:0:0:0:
111,109,207170,5,2,2:0:0:0:
219,84,207397,1,0,2:0:0:0:
292,166,207625,2,0,L|354:168,2,47.9999985351563,2|2|0,2:0|2:0|2:0,2:0:0:0:
214,243,208306,5,2,2:0:0:0:
216,163,208534,1,2,2:0:0:0:
219,84,208761,2,0,L|245:84,1,23.9999992675781,2|0,2:0|2:0,2:0:0:0:
195,64,209215,5,2,2:0:0:0:
112,143,209443,2,0,P|102:183|117:243,1,95.9999970703126,0|0,2:0|2:0,2:0:0:0:
113,235,210806,5,2,2:0:0:0:
206,233,211034,1,0,2:0:0:0:
161,108,211261,2,0,L|163:166,1,47.9999985351563,2|2,2:0|2:0,2:0:0:0:
168,302,211715,1,0,2:0:0:0:
