osu file format v14

[General]
AudioFilename: audio.mp3
AudioLeadIn: 0
PreviewTime: 85573
Countdown: 0
SampleSet: Soft
StackLeniency: 0.3
Mode: 0
LetterboxInBreaks: 0
WidescreenStoryboard: 1

[Editor]
DistanceSpacing: 0.9
BeatDivisor: 4
GridSize: 4
TimelineZoom: 1.7

[Metadata]
Title:FANCY
TitleUnicode:FANCY
Artist:TWICE
ArtistUnicode:트와이스
Creator:Fragmented
Version:Hard
Source:
Tags:charmcaster dora- doraemonelf funnya [_l_u_k_a_s_] lukas hokichi irreversible iyiyo jyp entertainment korea korean kpop k-pop comeback 7th mini album fancy you nayeon jeongyeon momo sana jihyo mina dahyun chaeyoung tzuyu 나연 정연 모모 사나 지효 미나 다현 채영 쯔위
BeatmapID:2014148
BeatmapSetID:960258

[Difficulty]
HPDrainRate:4
CircleSize:3.7
OverallDifficulty:5
ApproachRate:7
SliderMultiplier:1.4
SliderTickRate:1

[Events]
//Background and Video events
Video,-1774,"TWICE FANCY MV.mp4"
0,0,"nayeon.jpg",0,0
//Break Periods
2,160125,166497
//Storyboard Layer 0 (Background)
//Storyboard Layer 1 (Fail)
//Storyboard Layer 2 (Pass)
//Storyboard Layer 3 (Foreground)
//Storyboard Layer 4 (Overlay)
//Storyboard Sound Samples

[TimingPoints]
125,454.545454545455,4,2,1,60,1,0
352,-125,4,2,1,60,0,0
7397,-111.111111111111,4,2,1,65,0,0
14670,-125,4,2,2,60,0,0
27397,-125,4,2,1,65,0,0
29215,-100,4,2,6,65,0,0
43079,-100,4,2,1,65,0,0
43761,-100,4,2,2,60,0,0
50351,-100,4,2,66,60,0,0
50579,-100,4,2,2,60,0,0
50806,-100,4,2,66,60,0,0
51034,-100,4,2,2,65,0,0
54670,-100,4,2,2,70,0,0
55579,-100,4,2,2,100,0,0
57397,-100,4,2,2,90,0,0
58306,-90.9090909090909,4,2,3,75,0,1
71034,-90.9090909090909,4,2,1,85,0,1
72397,-100,4,2,1,85,0,0
72852,-83.3333333333333,4,2,3,75,0,1
85579,-125,4,2,33,75,0,0
86943,-83.3333333333333,4,2,33,75,0,0
87284,-83.3333333333333,4,2,33,5,0,0
87397,-125,4,2,4,65,0,0
101034,-125,4,2,1,75,0,0
101943,-100,4,2,6,65,0,0
115806,-100,4,2,1,65,0,0
116488,-100,4,2,2,65,0,0
123079,-100,4,2,66,60,0,0
123306,-100,4,2,2,60,0,0
123533,-100,4,2,66,60,0,0
123761,-100,4,2,2,70,0,0
128306,-100,4,2,2,85,0,0
130125,-100,4,2,2,95,0,0
131034,-90.9090909090909,4,2,3,75,0,1
143761,-90.9090909090909,4,2,1,85,0,1
145125,-100,4,2,1,85,0,0
145579,-83.3333333333333,4,2,3,75,0,1
158306,-83.3333333333333,4,2,33,75,0,0
167397,-125,4,2,2,65,0,0
171034,-125,4,2,2,75,0,0
171943,-125,4,2,2,90,0,0
174215,-125,4,2,2,100,0,0
176488,-86.9565217391304,4,2,3,75,0,1
189215,-86.9565217391304,4,2,1,85,0,1
190579,-100,4,2,1,85,0,0
191034,-80,4,2,3,75,0,1
203761,-125,4,2,33,75,0,0
205125,-83.3333333333333,4,2,33,75,0,0
205465,-83.3333333333333,4,2,33,5,0,0
205579,-83.3333333333333,4,2,1,60,0,0
205806,-125,4,2,1,60,0,0

[Colours]
Combo1 : 255,128,128
Combo2 : 128,0,255
Combo3 : 255,0,255
Combo4 : 255,198,255
Combo5 : 70,0,140
Combo6 : 255,0,0
SliderBorder : 246,172,207
SliderTrackOverride : 30,30,30

[HitObjects]
376,112,125,5,2,2:0:0:0:
328,196,352,2,0,P|272:184|184:204,1,112,0|0,2:0|2:0,2:0:0:0:
60,320,1715,2,0,B|100:336|100:336|168:324,1,112,2|2,2:0|2:0,2:0:0:0:
260,300,2397,2,0,P|324:308|356:344,1,112,2|2,2:0|2:0,2:0:0:0:
444,304,3079,1,2,2:0:0:0:
372,248,3306,1,2,2:0:0:0:
280,104,3761,5,2,2:0:0:0:
352,40,3988,2,0,L|476:44,1,112,0|0,2:0|2:0,2:0:0:0:
344,176,5352,2,0,P|284:204|264:204,1,56,2|0,2:0|2:0,2:0:0:0:
208,176,5806,1,2,2:0:0:0:
148,252,6034,2,0,L|156:328,1,56,2|0,2:0|2:0,2:0:0:0:
56,304,6488,2,0,L|50:248,2,56,2|2|2,2:0|2:0|2:0,2:0:0:0:
92,136,7397,6,0,L|84:72,1,62.9999980773926,2|8,2:0|2:0,2:0:0:0:
112,32,7738,1,0,2:0:0:0:
112,32,7852,2,0,L|176:24,1,62.9999980773926,0|8,2:0|2:0,2:0:0:0:
260,76,8306,2,0,L|267:138,1,62.9999980773926,0|8,2:0|2:0,2:0:0:0:
239,180,8647,1,0,2:0:0:0:
240,180,8761,2,0,L|177:187,1,62.9999980773926,0|10,2:0|2:0,2:0:0:0:
112,300,9215,6,0,P|148:292|188:300,1,62.9999980773926,0|10,2:0|2:0,2:0:0:0:
212,324,9556,1,0,2:0:0:0:
212,324,9670,2,0,P|243:326|273:319,1,62.9999980773926,2|8,2:0|2:0,2:0:0:0:
336,240,10125,2,0,P|372:232|412:240,1,62.9999980773926,2|10,2:0|2:0,2:0:0:0:
436,264,10465,1,0,2:0:0:0:
436,264,10579,2,0,P|467:266|497:259,1,62.9999980773926,2|8,2:0|2:0,2:0:0:0:
460,132,11034,6,0,L|464:56,1,62.9999980773926,2|8,2:0|2:0,2:0:0:0:
372,24,11488,2,0,L|368:100,1,62.9999980773926,0|8,2:0|2:0,2:0:0:0:
276,128,11943,2,0,L|280:52,1,62.9999980773926,0|8,2:0|2:0,2:0:0:0:
188,20,12397,2,0,L|184:96,1,62.9999980773926,0|8,2:0|2:0,2:0:0:0:
72,136,12852,6,0,L|80:184,3,31.4999990386963,8|8|8|8,2:3|2:3|2:3|2:3,2:0:0:0:
56,212,13306,2,0,L|64:260,3,31.4999990386963,8|8|0|8,2:3|2:3|3:2|2:3,2:0:0:0:
60,292,13761,1,8,2:3:0:0:
80,308,13875,1,8,2:3:0:0:
100,324,13988,1,8,2:3:0:0:
120,340,14102,1,8,2:3:0:0:
140,356,14215,2,0,L|228:344,1,62.9999980773926,8|0,2:1|3:2,2:0:0:0:
328,280,14670,6,0,L|336:184,2,84,0|0|8,3:2|3:2|2:3,2:0:0:0:
248,180,15579,2,0,L|240:284,2,84,0|2|2,2:0|2:0|2:0,2:0:0:0:
160,292,16488,2,0,P|188:332|224:348,2,84,0|0|0,3:2|3:2|3:2,2:0:0:0:
160,200,17397,1,0,2:0:0:0:
36,56,18079,1,0,2:0:0:0:
40,152,18306,6,0,P|96:132|116:104,2,84,0|0|8,3:2|3:2|2:3,2:0:0:0:
184,148,19215,2,0,P|144:200|108:220,2,84,0|2|2,2:0|2:0|2:0,2:0:0:0:
180,280,20125,2,0,P|128:296|84:280,2,84,0|0|0,3:2|3:2|3:2,2:0:0:0:
248,208,21034,1,0,2:0:0:0:
408,300,21715,1,0,2:0:0:0:
464,228,21943,6,0,L|468:136,1,84,0|0,3:2|3:2,2:0:0:0:
348,192,22625,1,8,2:3:0:0:
272,132,22852,2,0,L|268:40,2,84,0|2|2,2:0|2:0|2:0,2:0:0:0:
164,220,23761,2,0,B|104:216|104:216|72:240,2,84,0|0|0,3:2|3:2|3:2,2:0:0:0:
256,320,24897,1,0,2:0:0:0:
180,376,25125,2,0,P|164:340|172:300,1,56,0|0,2:0|2:0,2:0:0:0:
268,228,25579,6,0,P|320:248|344:292,2,84,0|0|8,3:2|3:2|2:3,2:0:0:0:
192,108,26715,1,0,2:0:0:0:
288,124,26943,2,0,P|352:116|364:108,1,56,0|2,2:0|2:0,2:0:0:0:
428,72,27397,6,0,L|436:112,3,28,8|8|8|8,2:3|2:3|2:3|2:3,2:0:0:0:
464,136,27852,2,0,L|456:176,3,28,8|8|0|8,2:3|2:3|3:2|2:3,2:0:0:0:
436,204,28306,1,8,2:3:0:0:
444,232,28420,1,8,2:3:0:0:
452,264,28534,1,8,2:3:0:0:
460,296,28647,1,8,2:3:0:0:
468,328,28761,2,0,L|392:340,1,56,8|0,2:1|3:2,2:0:0:0:
292,280,29215,6,0,P|232:268|188:280,1,105,2|0,3:2|2:0,2:0:0:0:
152,304,29670,2,0,L|80:308,1,70,8|2,3:2|2:0,2:0:0:0:
24,220,30125,2,0,L|40:96,1,105,2|2,3:2|2:0,2:0:0:0:
68,80,30579,2,0,P|104:88|164:80,1,70,8|2,3:2|2:0,2:0:0:0:
260,32,31034,6,0,L|284:160,2,105,2|2|2,3:2|2:0|2:0,2:0:0:0:
196,172,31943,2,0,P|224:212|268:228,1,70,2|0,3:2|2:0,2:0:0:0:
336,204,32397,2,0,P|360:161|356:115,1,70,8|2,3:2|2:0,2:0:0:0:
480,84,32852,6,0,L|492:200,1,105,2|2,3:2|2:0,2:0:0:0:
476,232,33306,2,0,P|428:260|412:288,1,70,8|2,3:2|2:0,2:0:0:0:
348,344,33761,2,0,P|304:312|256:312,1,105,2|2,3:2|2:0,2:0:0:0:
212,300,34215,2,0,L|140:316,1,70,8|2,3:2|2:0,2:0:0:0:
32,272,34670,2,0,P|20:328|36:376,2,105,2|2|2,3:2|2:0|2:0,2:0:0:0:
120,216,35579,2,0,L|188:200,1,70,2|0,3:2|2:0,2:0:0:0:
196,104,36034,2,0,L|127:119,1,70,8|2,3:2|2:0,2:0:0:0:
256,32,36488,6,0,P|292:80|280:140,2,105,2|2|2,3:2|2:0|2:0,2:0:0:0:
368,116,37397,2,0,P|352:172|308:208,2,105,2|2|2,3:2|2:0|2:0,2:0:0:0:
464,76,38306,2,0,B|484:136|484:136|464:236,1,140,2|10,3:2|3:2,2:0:0:0:
404,284,38988,2,0,P|392:328|412:296,1,140,2|2,2:0|2:0,2:0:0:0:
384,196,39670,1,10,3:2:0:0:
384,196,39784,1,0,2:0:0:0:
384,196,39897,1,2,2:0:0:0:
280,260,40125,6,0,P|184:256|160:264,1,105,2|2,3:2|2:0,2:0:0:0:
140,280,40579,1,8,3:2:0:0:
68,208,40806,2,0,B|104:168|104:168|112:68,1,140,0|2,2:0|2:0,2:0:0:0:
200,28,41488,1,10,3:2:0:0:
200,28,41602,1,0,2:0:0:0:
200,28,41715,1,2,2:0:0:0:
276,124,41943,6,0,P|328:120|384:136,1,105,2|2,3:2|2:0,2:0:0:0:
404,168,42397,1,8,3:2:0:0:
488,256,42625,2,0,B|484:284|484:284|412:312|412:312|380:288,1,140,2|8,2:0|2:3,2:0:0:0:
356,260,43193,1,8,2:3:0:0:
356,260,43306,2,0,P|300:256|280:264,1,70,8|0,2:1|3:2,2:0:0:0:
184,336,43761,5,8,3:1:0:0:
144,248,43988,1,0,2:0:0:0:
56,292,44215,2,0,P|48:240|108:160,1,140,8|8,3:1|3:1,2:0:0:0:
188,168,44897,2,0,P|244:152|268:132,1,70,0|8,2:0|3:1,2:0:0:0:
288,56,45352,1,0,2:0:0:0:
352,168,45579,6,0,L|344:240,1,70,8|0,3:1|2:0,2:0:0:0:
444,220,46034,1,8,3:1:0:0:
428,316,46261,1,0,2:0:0:0:
332,340,46488,2,0,L|260:332,1,70,8|0,3:1|2:0,2:0:0:0:
216,252,46943,2,0,L|146:259,1,70,8|0,3:1|2:0,2:0:0:0:
244,164,47397,6,0,P|288:188|308:228,2,70,8|0|8,3:1|2:0|3:1,2:0:0:0:
112,160,48306,1,8,3:1:0:0:
48,88,48534,2,0,L|128:64,1,70,0|8,2:0|3:1,2:0:0:0:
245,28,48988,2,0,B|227:91|227:91|249:188,1,140,0|0,2:0|2:0,2:0:0:0:
316,232,49670,1,8,3:1:0:0:
400,184,49897,2,0,P|444:176|492:192,2,70,0|8|8,2:0|3:1|2:3,2:0:0:0:
328,112,50579,2,0,P|320:68|336:20,1,70,8|4,3:1|2:3,2:0:0:0:
244,160,51034,5,10,3:1:0:0:
152,132,51261,1,2,2:1:0:0:
92,208,51488,2,0,L|96:292,2,70,10|2|10,3:1|2:1|3:1,2:0:0:0:
184,256,52170,2,0,L|180:340,1,70,2|10,2:1|3:1,2:0:0:0:
272,288,52625,1,2,2:1:0:0:
272,288,52738,1,2,2:1:0:0:
272,288,52852,6,0,L|352:280,1,70,10|2,3:1|2:1,2:0:0:0:
416,216,53306,2,0,L|408:136,1,70,10|2,3:1|2:1,2:0:0:0:
400,104,53647,1,2,2:1:0:0:
400,104,53761,2,0,L|492:92,2,70,10|2|10,3:1|2:1|3:1,2:0:0:0:
316,52,54443,1,2,2:1:0:0:
316,52,54556,1,2,2:1:0:0:
316,52,54670,6,0,L|268:60,3,35,10|2|2|2,3:1|2:1|3:1|2:1,2:0:0:0:
248,92,55125,2,0,L|200:100,3,35,10|2|2|2,3:1|2:1|3:1|2:1,2:0:0:0:
184,136,55579,2,0,L|180:184,1,35,10|2,3:1|2:1,2:0:0:0:
144,196,55806,2,0,L|148:244,1,35,2|2,3:1|2:1,2:0:0:0:
180,264,56034,2,0,L|184:312,1,35,10|2,3:1|2:1,2:0:0:0:
220,324,56261,2,0,L|216:372,1,35,2|2,3:1|2:1,2:0:0:0:
256,192,56488,12,0,57397,3:1:0:0:
132,120,58306,6,0,L|240:100,1,77.0000023498536,6|2,3:2|2:0,2:0:0:0:
284,40,58761,1,0,1:2:0:0:
368,100,58988,2,0,P|360:156|376:192,1,77.0000023498536,2|0,2:0|3:2,2:0:0:0:
404,200,59329,2,0,P|411:237|401:274,1,77.0000023498536,2|0,2:0|2:0,2:0:0:0:
368,308,59670,2,0,B|267:303|267:303|208:336,1,154.000004699707,2|0,1:2|3:2,2:0:0:0:
96,296,60352,5,2,2:0:0:0:
176,240,60579,2,0,P|196:188|192:160,1,77.0000023498536,2|2,1:2|2:0,2:0:0:0:
152,76,61034,1,2,3:2:0:0:
224,16,61261,1,2,2:0:0:0:
268,104,61488,1,2,1:2:0:0:
312,192,61715,1,2,2:0:0:0:
404,152,61943,2,0,P|416:208|372:276,1,115.50000352478,2|0,3:2|2:0,2:0:0:0:
364,288,62397,1,0,1:2:0:0:
208,224,62625,6,0,L|228:380,1,154.000004699707,2|0,2:0|2:0,2:0:0:0:
132,256,63306,2,0,P|132:188|208:140,1,154.000004699707,2|0,1:2|3:2,2:0:0:0:
292,188,63988,1,2,2:0:0:0:
292,188,64102,1,0,2:0:0:0:
292,188,64215,2,0,L|384:188,1,77.0000023498536,2|0,1:2|2:0,2:0:0:0:
424,52,64670,2,0,B|436:68|436:68|436:136,2,77.0000023498536,2|2|2,3:2|2:0|1:2,2:0:0:0:
336,96,65352,1,2,2:0:0:0:
224,32,65579,6,0,P|168:52|96:16,1,115.50000352478,2|2,3:2|2:0,2:0:0:0:
76,48,66034,1,0,1:2:0:0:
40,144,66261,2,0,L|136:140,1,77.0000023498536,2|0,2:0|3:2,2:0:0:0:
152,168,66602,2,0,L|248:164,1,77.0000023498536,2|0,2:0|2:0,2:0:0:0:
264,136,66943,2,0,B|328:120|388:136|388:136|352:160,1,154.000004699707,2|0,1:2|3:2,2:0:0:0:
472,224,67625,5,2,2:0:0:0:
396,288,67852,2,0,P|352:280|320:288,1,77.0000023498536,2|2,1:2|2:0,2:0:0:0:
256,352,68306,1,2,3:2:0:0:
232,264,68534,1,2,2:0:0:0:
300,196,68761,1,2,1:2:0:0:
208,168,68988,1,2,2:0:0:0:
136,268,69215,6,0,P|140:312|184:352,1,77.0000023498536,2|0,3:2|2:0,2:0:0:0:
200,352,69556,1,0,2:0:0:0:
200,352,69670,1,0,1:2:0:0:
296,312,69897,2,0,B|328:288|328:288|392:284,2,77.0000023498536,2|0|0,2:0|3:2|2:0,2:0:0:0:
404,356,70579,2,0,P|444:300|416:232,1,115.50000352478,2|0,1:2|2:0,2:0:0:0:
416,216,71034,6,0,L|412:172,3,38.5000011749268,8|8|10|8,2:3|2:3|2:3|2:3,2:0:0:0:
384,144,71488,2,0,L|380:100,3,38.5000011749268,10|8|0|8,2:3|2:3|3:2|2:3,2:0:0:0:
352,76,71943,1,8,2:3:0:0:
332,80,72056,1,8,2:3:0:0:
310,84,72170,1,8,2:3:0:0:
288,88,72284,1,8,2:3:0:0:
264,92,72397,2,0,L|180:84,1,70,8|0,2:1|3:2,2:0:0:0:
100,192,72852,6,0,P|172:184|240:228,1,125.999996154785,6|2,3:2|2:0,2:0:0:0:
244,248,73306,2,0,L|236:340,1,83.9999974365235,2|2,1:2|2:0,2:0:0:0:
336,296,73761,1,0,3:2:0:0:
424,348,73988,1,2,2:0:0:0:
392,220,74215,2,0,P|336:196|300:208,1,83.9999974365235,2|2,1:2|2:0,2:0:0:0:
256,112,74670,6,0,L|248:56,3,41.9999987182618,2|2|2|2,3:2|2:0|2:0|2:0,2:0:0:0:
216,40,75125,2,0,L|124:48,1,83.9999974365235,2|2,1:2|2:0,2:0:0:0:
80,136,75579,2,0,B|72:176|72:176|108:232,1,83.9999974365235,2|2,3:2|2:0,2:0:0:0:
180,260,76034,2,0,B|203:296|203:296|195:336,1,83.9999974365235,2|2,1:2|2:0,2:0:0:0:
288,248,76488,6,0,L|240:180,1,83.9999974365235,2|2,3:2|2:0,2:0:0:0:
260,140,76829,1,2,2:0:0:0:
260,140,76943,2,0,L|342:132,1,83.9999974365235,2|2,1:2|2:0,2:0:0:0:
424,64,77397,1,2,3:2:0:0:
480,144,77625,1,2,2:0:0:0:
408,216,77852,1,2,1:2:0:0:
464,296,78079,1,2,2:0:0:0:
332,288,78306,6,0,L|280:296,3,41.9999987182618,2|2|2|2,3:2|2:0|2:0|2:0,2:0:0:0:
252,276,78761,1,2,1:2:0:0:
164,324,78988,2,0,B|147:220|147:220|192:160,1,167.999994873047,2|2,2:0|2:0,2:0:0:0:
168,68,79670,2,0,L|268:76,1,83.9999974365235,2|2,1:2|2:0,2:0:0:0:
376,136,80125,6,0,P|316:160|288:236,1,125.999996154785,2|2,3:2|2:0,2:0:0:0:
296,260,80579,2,0,L|316:348,1,83.9999974365235,2|2,1:2|2:0,2:0:0:0:
392,268,81034,1,0,3:2:0:0:
456,344,81261,1,2,2:0:0:0:
508,216,81488,2,0,P|512:164|496:124,1,83.9999974365235,2|2,1:2|2:0,2:0:0:0:
424,72,81943,2,0,L|364:68,3,41.9999987182618,2|2|2|2,3:2|2:0|2:0|2:0,2:0:0:0:
348,104,82397,2,0,L|240:112,1,83.9999974365235,2|2,1:2|2:0,2:0:0:0:
216,192,82852,2,0,B|168:176|168:176|112:184,1,83.9999974365235,2|2,3:2|2:0,2:0:0:0:
88,96,83306,2,0,B|40:114|40:114|3:156,1,83.9999974365235,2|2,1:2|2:0,2:0:0:0:
72,260,83761,6,0,L|80:344,1,83.9999974365235,2|2,3:2|2:0,2:0:0:0:
124,360,84102,1,2,2:0:0:0:
124,360,84215,1,2,1:2:0:0:
204,292,84443,1,2,2:0:0:0:
300,332,84670,2,0,P|312:284|292:244,1,83.9999974365235,2|2,3:2|2:0,2:0:0:0:
220,192,85125,1,2,1:2:0:0:
280,112,85352,1,2,2:0:0:0:
148,72,85579,6,0,L|88:76,1,56,2|0,2:1|2:0,2:0:0:0:
64,268,86715,1,2,2:0:0:0:
152,228,86943,2,0,B|204:212|204:212|280:220,1,125.999996154785,4|0,2:0|2:0,2:0:0:0:
320,200,87397,6,0,L|328:308,2,84,2|2|0,3:2|3:2|3:2,2:0:0:0:
264,116,88306,2,0,P|320:100|376:120,1,112,8|2,2:0|2:0,2:0:0:0:
432,192,88988,1,0,3:2:0:0:
380,274,89215,2,0,P|348:274|316:290,1,56,2|8,2:0|2:0,2:0:0:0:
292,316,89556,1,0,2:0:0:0:
292,316,89670,2,0,P|265:306|238:307,1,56,2|0,2:0|3:2,2:0:0:0:
144,344,90125,1,10,2:0:0:0:
84,228,90579,6,0,L|80:152,1,56,10|0,2:0|3:2,2:0:0:0:
96,128,90920,1,0,3:2:0:0:
96,128,91034,2,0,L|192:112,2,84,2|2|0,3:2|3:2|3:2,2:0:0:0:
128,32,91943,1,8,2:0:0:0:
256,84,92170,2,0,P|264:128|256:152,1,56,0|2,2:0|2:0,2:0:0:0:
216,224,92625,1,0,3:2:0:0:
336,196,92852,6,0,L|372:200,1,28,2|0,2:0|2:0,2:0:0:0:
436,84,93306,2,0,L|472:80,1,28,2|0,2:0|2:0,2:0:0:0:
492,204,93761,2,0,B|504:280,2,56,10|0|10,2:0|2:0|2:0,2:0:0:0:
424,280,94443,1,0,3:2:0:0:
424,280,94556,1,0,3:2:0:0:
424,280,94670,6,0,P|368:300|328:296,2,84,2|2|0,3:2|3:2|3:2,2:0:0:0:
360,196,95579,1,8,2:0:0:0:
260,276,95806,2,0,P|256:320|268:348,2,56,0|2|0,2:0|2:0|3:2,2:0:0:0:
264,176,96488,6,0,L|264:124,2,37.3333333333333,2|2|2,2:0|2:0|2:0,2:0:0:0:
188,164,96943,2,0,L|188:112,2,37.3333333333333,2|2|2,2:0|2:0|2:0,2:0:0:0:
116,88,97397,2,0,P|160:48|212:48,1,112,10|10,2:0|2:0,2:0:0:0:
312,24,98079,1,0,3:2:0:0:
312,24,98193,1,2,3:2:0:0:
312,24,98306,2,0,B|384:48|384:48|404:100,1,112,2|2,3:2|2:0,2:0:0:0:
344,216,99215,6,0,L|356:276,2,37.3333333333333,10|10|10,3:2|3:2|3:2,2:0:0:0:
260,172,99670,2,0,L|248:112,2,37.3333333333333,10|10|10,3:2|3:2|3:2,2:0:0:0:
184,236,100125,6,0,L|164:125,1,112,2|0,3:2|2:0,2:0:0:0:
280,44,101034,6,0,L|324:40,3,28,8|8|8|0,2:3|2:3|2:3|3:2,2:0:0:0:
348,60,101488,1,4,2:3:0:0:
388,148,101715,1,0,2:0:0:0:
272,212,101943,6,0,L|188:216,1,70,2|0,3:2|2:0,2:0:0:0:
164,192,102284,1,2,2:0:0:0:
164,192,102397,1,8,3:2:0:0:
100,116,102625,1,0,2:0:0:0:
48,200,102852,2,0,P|48:240|64:280,1,70,0|2,3:2|2:0,2:0:0:0:
132,332,103306,2,0,P|172:332|212:316,1,70,10|2,3:2|2:0,2:0:0:0:
288,272,103761,6,0,L|340:276,2,46.6666666666667,2|2|2,3:2|2:0|2:0,2:0:0:0:
300,200,104215,2,0,L|352:204,2,46.6666666666667,10|2|2,3:2|2:0|2:0,2:0:0:0:
312,128,104670,2,0,P|272:132|232:168,2,70,2|0|10,3:2|2:0|3:2,2:0:0:0:
408,96,105352,1,2,2:0:0:0:
280,48,105579,6,0,P|240:56|192:92,1,70,2|0,3:2|2:0,2:0:0:0:
184,100,105920,1,2,2:0:0:0:
184,100,106034,2,0,P|153:116|118:121,1,70,8|0,3:2|2:0,2:0:0:0:
28,88,106488,1,0,3:2:0:0:
40,184,106715,2,0,L|52:268,2,70,2|10|2,2:0|3:2|2:0,2:0:0:0:
140,220,107397,6,0,L|136:280,1,35,2|2,3:2|2:0,2:0:0:0:
252,176,107852,2,0,L|256:236,1,35,10|2,3:2|2:0,2:0:0:0:
356,248,108306,1,2,3:2:0:0:
432,188,108534,1,2,2:0:0:0:
444,292,108761,2,0,P|412:328|376:340,1,70,10|0,3:2|2:0,2:0:0:0:
264,304,109215,6,0,P|220:300|184:312,1,70,2|0,3:2|2:0,2:0:0:0:
164,328,109556,1,2,2:0:0:0:
164,328,109670,1,8,3:2:0:0:
84,272,109897,1,0,2:0:0:0:
44,184,110125,2,0,P|104:180|136:192,1,70,0|2,3:2|2:0,2:0:0:0:
200,132,110579,1,10,3:2:0:0:
200,232,110806,1,2,2:0:0:0:
284,180,111034,6,0,L|344:184,2,46.6666666666667,2|2|2,3:2|2:0|2:0,2:0:0:0:
304,108,111488,2,0,L|364:112,2,46.6666666666667,10|2|2,3:2|2:0|2:0,2:0:0:0:
320,36,111943,2,0,L|240:32,2,70,2|0|10,3:2|2:0|3:2,2:0:0:0:
416,44,112625,1,2,2:0:0:0:
496,152,112852,6,0,P|464:200|464:240,1,70,2|0,3:2|2:0,2:0:0:0:
464,256,113193,1,0,2:0:0:0:
468,260,113306,1,8,3:2:0:0:
392,320,113534,2,0,L|328:316,1,35,2|2,2:0|2:0,2:0:0:0:
340,272,113761,2,0,L|244:284,1,70,2|2,3:2|2:0,2:0:0:0:
232,256,114102,1,2,2:0:0:0:
232,256,114215,2,0,P|184:256|140:276,2,70,10|2|2,3:2|2:0|3:2,2:0:0:0:
296,176,114897,2,0,L|304:136,2,35,0|0|8,2:0|2:0|3:2,2:0:0:0:
256,60,115352,6,0,P|320:48|384:92,1,140,2|8,2:0|2:3,2:0:0:0:
396,128,115920,1,8,2:3:0:0:
396,128,116034,1,8,2:1:0:0:
480,184,116261,1,0,3:2:0:0:
344,220,116488,5,8,3:1:0:0:
264,168,116715,1,0,2:0:0:0:
200,240,116943,2,0,P|172:192|192:108,1,140,8|8,3:1|3:1,2:0:0:0:
272,64,117625,2,0,L|364:60,1,70,0|8,2:0|3:1,2:0:0:0:
436,104,118079,1,0,2:0:0:0:
372,216,118306,6,0,L|296:212,1,70,8|0,3:1|2:0,2:0:0:0:
224,152,118761,1,8,3:1:0:0:
148,204,118988,1,0,2:0:0:0:
112,296,119215,2,0,P|76:276|60:232,1,70,8|0,3:1|2:0,2:0:0:0:
88,156,119670,2,0,P|119:129|166:130,1,70,8|0,3:1|2:0,2:0:0:0:
204,48,120125,6,0,P|236:80|244:128,2,70,8|0|8,3:1|2:0|3:1,2:0:0:0:
344,24,121034,1,8,3:1:0:0:
404,96,121261,2,0,L|400:172,1,70,0|8,2:0|3:1,2:0:0:0:
336,280,121715,2,0,B|296:244|296:244|200:248,1,140,0|0,2:0|2:0,2:0:0:0:
132,192,122397,1,8,3:1:0:0:
60,260,122625,2,0,L|64:348,2,70,0|8|8,2:0|3:1|2:3,2:0:0:0:
76,120,123306,2,0,P|132:100|160:108,1,70,8|4,3:1|2:3,2:0:0:0:
228,152,123761,5,10,3:1:0:0:
312,104,123988,1,2,2:1:0:0:
368,184,124215,2,0,P|360:224|332:264,2,70,10|2|10,3:1|2:1|3:1,2:0:0:0:
440,108,124897,2,0,P|432:68|404:28,1,70,2|10,2:1|3:1,2:0:0:0:
324,24,125352,1,2,2:1:0:0:
324,24,125465,1,2,2:1:0:0:
324,24,125579,6,0,L|228:28,1,70,10|2,3:1|2:1,2:0:0:0:
184,100,126034,2,0,L|114:97,1,70,10|2,3:1|2:1,2:0:0:0:
76,112,126375,1,2,2:1:0:0:
76,112,126488,2,0,L|73:181,2,70,10|2|10,3:1|2:1|3:1,2:0:0:0:
160,184,127170,1,2,2:1:0:0:
160,184,127284,1,2,2:1:0:0:
160,184,127397,6,0,L|156:248,3,35,10|2|2|2,3:1|2:1|3:1|2:1,2:0:0:0:
192,252,127852,2,0,L|188:316,3,35,10|2|2|2,3:1|2:1|3:1|2:1,2:0:0:0:
224,320,128306,2,0,L|284:328,1,35,10|2,3:1|2:1,2:0:0:0:
304,308,128534,2,0,L|338:303,1,35,2|2,3:1|2:1,2:0:0:0:
380,324,128761,2,0,L|414:328,1,35,10|2,3:1|2:1,2:0:0:0:
456,304,128988,2,0,L|490:299,1,35,2|2,3:1|2:1,2:0:0:0:
256,192,129215,12,0,130125,3:1:0:0:
392,60,131034,6,0,L|376:156,1,77.0000023498536,6|2,3:2|2:0,2:0:0:0:
296,188,131488,1,0,1:2:0:0:
220,124,131715,2,0,P|184:120|128:132,1,77.0000023498536,2|0,2:0|3:2,2:0:0:0:
104,100,132056,2,0,P|73:120|38:165,1,77.0000023498536,2|0,2:0|2:0,2:0:0:0:
32,196,132397,2,0,B|44:300|44:300|108:320,1,154.000004699707,2|0,1:2|3:2,2:0:0:0:
208,256,133079,5,2,2:0:0:0:
284,312,133306,2,0,P|340:320|360:312,1,77.0000023498536,2|2,1:2|2:0,2:0:0:0:
444,264,133761,1,2,3:2:0:0:
360,216,133988,1,2,2:0:0:0:
444,180,134215,1,2,1:2:0:0:
364,124,134443,1,2,2:0:0:0:
424,48,134670,2,0,P|336:24|296:48,1,115.50000352478,2|0,3:2|2:0,2:0:0:0:
284,56,135125,1,0,1:2:0:0:
168,184,135352,6,0,L|148:24,1,154.000004699707,2|0,2:0|2:0,2:0:0:0:
80,184,136034,2,0,P|116:260|188:272,1,154.000004699707,2|0,1:2|3:2,2:0:0:0:
272,224,136715,1,2,2:0:0:0:
272,224,136829,1,0,2:0:0:0:
272,224,136943,2,0,L|280:136,1,77.0000023498536,2|0,1:2|2:0,2:0:0:0:
228,72,137397,2,0,B|244:56|244:56|324:60,2,77.0000023498536,2|2|2,3:2|2:0|1:2,2:0:0:0:
132,40,138079,1,2,2:0:0:0:
60,152,138306,6,0,P|48:204|64:276,1,115.50000352478,2|2,3:2|2:0,2:0:0:0:
80,304,138761,1,0,1:2:0:0:
168,252,138988,2,0,L|248:256,1,77.0000023498536,2|0,2:0|3:2,2:0:0:0:
272,216,139329,2,0,L|348:212,1,77.0000023498536,2|0,2:0|2:0,2:0:0:0:
388,236,139670,2,0,B|404:252|404:252|444:188|388:124,1,154.000004699707,2|0,1:2|3:2,2:0:0:0:
312,44,140352,5,2,2:0:0:0:
256,124,140579,2,0,P|200:132|176:124,1,77.0000023498536,2|2,1:2|2:0,2:0:0:0:
104,68,141034,1,2,3:2:0:0:
24,120,141261,1,2,2:0:0:0:
100,172,141488,1,2,1:2:0:0:
180,220,141715,1,2,2:0:0:0:
280,216,141943,6,0,P|276:260|244:300,1,77.0000023498536,2|0,3:2|2:0,2:0:0:0:
232,320,142284,1,0,2:0:0:0:
232,320,142397,1,0,1:2:0:0:
136,304,142625,2,0,L|24:316,2,77.0000023498536,2|0|0,2:0|3:2|2:0,2:0:0:0:
32,232,143306,2,0,L|152:220,1,115.50000352478,2|0,1:2|2:0,2:0:0:0:
184,184,143761,6,0,L|192:136,3,38.5000011749268,8|8|10|8,2:3|2:3|2:3|2:3,2:0:0:0:
224,112,144215,2,0,L|232:64,3,38.5000011749268,10|8|0|8,2:3|2:3|3:2|2:3,2:0:0:0:
268,48,144670,1,8,2:3:0:0:
292,56,144784,1,8,2:3:0:0:
320,64,144897,1,8,2:3:0:0:
344,72,145011,1,8,2:3:0:0:
372,80,145125,2,0,L|364:152,1,70,8|0,2:1|3:2,2:0:0:0:
452,248,145579,6,0,P|372:236|324:252,1,125.999996154785,6|2,3:2|2:0,2:0:0:0:
284,268,146034,2,0,L|288:360,1,83.9999974365235,2|2,1:2|2:0,2:0:0:0:
200,308,146488,1,0,3:2:0:0:
112,356,146715,1,2,2:0:0:0:
56,232,146943,2,0,P|52:184|60:136,1,83.9999974365235,2|2,1:2|2:0,2:0:0:0:
132,72,147397,6,0,L|192:64,3,41.9999987182618,2|2|2|2,3:2|2:0|2:0|2:0,2:0:0:0:
216,88,147852,2,0,P|264:92|296:76,1,83.9999974365235,2|2,1:2|2:0,2:0:0:0:
392,32,148306,2,0,L|400:120,1,83.9999974365235,2|2,3:2|2:0,2:0:0:0:
480,180,148761,2,0,L|472:268,1,83.9999974365235,2|2,1:2|2:0,2:0:0:0:
340,220,149215,6,0,B|300:208|300:208|244:224,1,83.9999974365235,2|2,3:2|2:0,2:0:0:0:
220,236,149556,1,2,2:0:0:0:
219,235,149670,2,0,B|179:247|179:247|139:235,1,83.9999974365235,2|2,1:2|2:0,2:0:0:0:
80,156,150125,1,2,3:2:0:0:
144,80,150352,1,2,2:0:0:0:
232,124,150579,1,2,1:2:0:0:
300,56,150806,1,2,2:0:0:0:
400,140,151034,6,0,L|392:200,3,41.9999987182618,2|2|2|2,3:2|2:0|2:0|2:0,2:0:0:0:
424,220,151488,1,2,1:2:0:0:
292,192,151715,2,0,B|264:224|264:224|284:352,1,167.999994873047,2|2,2:0|2:0,2:0:0:0:
188,312,152397,2,0,L|176:228,1,83.9999974365235,2|2,1:2|2:0,2:0:0:0:
72,144,152852,6,0,P|120:140|176:88,1,125.999996154785,2|2,3:2|2:0,2:0:0:0:
184,44,153306,2,0,L|288:32,1,83.9999974365235,2|2,1:2|2:0,2:0:0:0:
364,60,153761,1,0,3:2:0:0:
300,132,153988,1,2,2:0:0:0:
436,116,154215,2,0,P|448:164|440:200,1,83.9999974365235,2|2,1:2|2:0,2:0:0:0:
372,308,154670,2,0,L|328:316,3,41.9999987182618,2|2|2|2,3:2|2:0|2:0|2:0,2:0:0:0:
288,292,155125,2,0,P|236:288|192:296,1,83.9999974365235,2|2,1:2|2:0,2:0:0:0:
120,240,155579,2,0,B|108:224|108:224|108:152,1,83.9999974365235,2|2,3:2|2:0,2:0:0:0:
192,88,156034,2,0,B|204:104|204:104|204:176,1,83.9999974365235,2|2,1:2|2:0,2:0:0:0:
336,204,156488,6,0,P|388:200|420:172,1,83.9999974365235,2|2,3:2|2:0,2:0:0:0:
436,144,156829,1,2,2:0:0:0:
436,144,156943,1,2,1:2:0:0:
392,56,157170,1,2,2:0:0:0:
296,92,157397,2,0,L|212:88,1,83.9999974365235,2|2,3:2|2:0,2:0:0:0:
132,32,157852,1,2,1:2:0:0:
56,96,158079,1,2,2:0:0:0:
132,204,158306,5,2,2:1:0:0:
248,88,167397,6,0,L|324:80,2,56,2|2|2,3:1|2:1|2:1,2:0:0:0:
168,44,168079,1,2,2:1:0:0:
76,76,168306,2,0,L|0:68,2,56,2|2|2,3:1|2:1|2:1,2:0:0:0:
100,116,168875,1,2,2:1:0:0:
100,116,168988,1,2,2:1:0:0:
200,192,169215,6,0,P|204:232|192:268,1,56,2|2,3:1|2:1,2:0:0:0:
144,324,169670,2,0,L|112:328,2,28,2|2|2,2:1|2:1|2:1,2:0:0:0:
264,300,170125,2,0,P|304:296|340:308,1,56,2|2,3:1|2:1,2:0:0:0:
416,324,170579,2,0,L|448:328,3,28,2|2|2|2,2:1|2:1|2:1|2:1,2:0:0:0:
476,288,171034,6,0,L|468:236,3,28,2|2|2|2,3:1|2:1|3:1|2:1,2:0:0:0:
448,224,171488,2,0,L|440:172,3,28,2|2|2|2,3:1|2:1|3:1|2:1,2:0:0:0:
420,152,171943,2,0,L|380:156,1,28,2|2,3:1|2:1,2:0:0:0:
356,124,172170,2,0,L|328:121,1,28,2|2,3:1|2:1,2:0:0:0:
284,132,172397,1,2,3:1:0:0:
280,148,172511,1,2,2:1:0:0:
276,164,172625,1,2,3:1:0:0:
272,180,172738,1,2,3:1:0:0:
256,192,172852,12,4,174215,3:0:0:0:
368,88,176034,6,0,L|440:76,1,56,0|0,2:0|2:0,2:0:0:0:
312,28,176488,6,0,P|284:72|300:140,1,120.750002303124,6|0,3:2|2:0,2:0:0:0:
328,176,176943,1,0,1:2:0:0:
380,264,177170,2,0,L|300:276,1,80.5000015354157,2|0,2:0|3:2,2:0:0:0:
260,304,177511,2,0,L|184:274,1,80.5000015354157,2|0,2:0|2:0,2:0:0:0:
136,280,177852,2,0,B|100:192|100:192|128:132,1,161.000003070831,2|0,1:2|3:2,2:0:0:0:
244,64,178534,5,2,2:0:0:0:
320,128,178761,2,0,L|408:120,1,80.5000015354157,2|2,1:2|2:0,2:0:0:0:
460,44,179215,1,2,3:2:0:0:
496,136,179443,1,2,2:0:0:0:
436,216,179670,1,2,1:2:0:0:
340,204,179897,1,2,2:0:0:0:
264,272,180125,2,0,P|208:260|128:284,1,120.750002303124,2|0,3:2|2:0,2:0:0:0:
104,296,180579,1,0,1:2:0:0:
28,188,180806,6,0,L|16:356,1,161.000003070831,2|0,2:0|2:0,2:0:0:0:
108,212,181488,2,0,P|104:148|4:108,1,161.000003070831,2|0,1:2|3:2,2:0:0:0:
84,28,182170,1,2,2:0:0:0:
84,28,182284,1,0,2:0:0:0:
84,28,182397,2,0,P|136:52|164:80,1,80.5000015354157,2|0,1:2|2:0,2:0:0:0:
292,92,182852,2,0,B|276:112|276:112|206:135,2,80.5000015354157,2|2|2,3:2|2:0|1:2,2:0:0:0:
380,40,183534,1,2,2:0:0:0:
452,156,183761,6,0,P|440:212|456:280,1,120.750002303124,2|2,3:2|2:0,2:0:0:0:
472,316,184215,1,0,1:2:0:0:
372,292,184443,2,0,P|332:284|280:300,1,80.5000015354157,2|0,2:0|3:2,2:0:0:0:
252,312,184784,2,0,P|212:320|173:312,1,80.5000015354157,2|0,2:0|2:0,2:0:0:0:
132,288,185125,2,0,B|116:244|132:184|132:184|104:188|56:168,1,161.000003070831,2|0,1:2|3:2,2:0:0:0:
28,52,185806,5,2,2:0:0:0:
128,24,186034,2,0,L|216:28,1,80.5000015354157,2|2,1:2|2:0,2:0:0:0:
268,108,186488,1,2,3:2:0:0:
344,40,186715,1,2,2:0:0:0:
384,132,186943,1,2,1:2:0:0:
312,196,187170,1,2,2:0:0:0:
452,184,187397,6,0,P|468:139|448:84,1,80.5000015354157,2|0,3:2|2:0,2:0:0:0:
443,66,187738,1,0,2:0:0:0:
443,66,187852,1,0,1:2:0:0:
344,40,188079,2,0,P|304:48|256:44,2,80.5000015354157,2|0|0,2:0|3:2|2:0,2:0:0:0:
252,136,188761,2,0,P|196:104|176:48,1,120.750002303124,2|0,1:2|2:0,2:0:0:0:
136,32,189215,6,0,L|92:40,3,40.2500007677078,8|8|10|8,2:3|2:3|2:3|2:3,2:0:0:0:
72,80,189670,2,0,L|28:88,3,40.2500007677078,10|8|0|8,2:3|2:3|3:2|2:3,2:0:0:0:
4,128,190125,1,8,2:3:0:0:
12,156,190238,1,8,2:3:0:0:
20,188,190352,1,8,2:3:0:0:
28,220,190465,1,8,2:3:0:0:
36,252,190579,2,0,L|136:256,1,70,8|0,2:1|3:2,2:0:0:0:
240,208,191034,6,0,P|312:200|380:248,1,131.25,6|2,3:2|2:0,2:0:0:0:
400,256,191488,2,0,L|500:248,1,87.5,2|2,1:2|2:0,2:0:0:0:
512,152,191943,1,0,3:2:0:0:
436,84,192170,1,2,2:0:0:0:
344,124,192397,2,0,P|336:76|352:36,1,87.5,2|2,1:2|2:0,2:0:0:0:
240,48,192852,2,0,L|188:56,3,43.75,2|2|2|2,3:2|2:0|2:0|2:0,2:0:0:0:
152,44,193306,2,0,L|144:156,1,87.5,2|2,1:2|2:0,2:0:0:0:
76,216,193761,2,0,P|108:248|120:316,1,87.5,2|2,3:2|2:0,2:0:0:0:
216,348,194215,2,0,P|227:304|280:259,1,87.5,2|2,1:2|2:0,2:0:0:0:
304,152,194670,6,0,P|352:156|404:144,1,87.5,2|2,3:2|2:0,2:0:0:0:
428,120,195011,1,2,2:0:0:0:
428,120,195125,2,0,P|432:72|420:20,1,87.5,2|2,1:2|2:0,2:0:0:0:
328,20,195579,1,2,3:2:0:0:
248,76,195806,1,2,2:0:0:0:
156,36,196034,1,2,1:2:0:0:
164,132,196261,1,2,2:0:0:0:
72,96,196488,6,0,L|12:108,3,43.75,2|2|2|2,3:2|2:0|2:0|2:0,2:0:0:0:
4,144,196943,1,2,1:2:0:0:
12,276,197170,2,0,B|64:264|64:264|184:288,1,175,2|2,2:0|2:0,2:0:0:0:
256,216,197852,2,0,L|288:300,1,87.5,2|2,1:2|2:0,2:0:0:0:
336,168,198306,6,0,P|292:132|212:136,1,131.25,2|2,3:2|2:0,2:0:0:0:
180,152,198761,2,0,L|68:160,1,87.5,2|2,1:2|2:0,2:0:0:0:
32,80,199215,1,0,3:2:0:0:
108,20,199443,1,2,2:0:0:0:
196,64,199670,2,0,L|284:56,1,87.5,2|2,1:2|2:0,2:0:0:0:
388,24,200125,2,0,L|384:80,3,43.75,2|2|2|2,3:2|2:0|2:0|2:0,2:0:0:0:
380,116,200579,2,0,B|408:132|408:132|496:124,1,87.5,2|2,1:2|2:0,2:0:0:0:
452,224,201034,2,0,B|408:228|408:228|364:268,1,87.5,2|2,3:2|2:0,2:0:0:0:
316,336,201488,2,0,B|283:365|283:365|239:369,1,87.5,2|2,1:2|2:0,2:0:0:0:
132,296,201943,6,0,L|128:208,1,87.5,2|2,3:2|2:0,2:0:0:0:
152,168,202284,1,2,2:0:0:0:
152,168,202397,1,2,1:2:0:0:
256,184,202625,1,2,2:0:0:0:
208,96,202852,2,0,P|160:76|116:88,1,87.5,2|2,3:2|2:0,2:0:0:0:
40,132,203306,1,2,1:2:0:0:
64,228,203534,1,2,2:0:0:0:
188,284,203761,6,0,L|260:276,1,56,2|0,2:1|2:0,2:0:0:0:
388,176,204897,1,2,2:0:0:0:
416,80,205125,2,0,B|380:56|380:56|292:56,1,125.999996154785,4|0,2:0|2:0,2:0:0:0:
260,36,205579,5,6,2:0:0:0:
200,116,205806,2,0,P|128:112|64:128,1,112,0|0,2:0|2:0,2:0:0:0:
24,304,207170,2,0,B|64:316|64:316|152:292,1,112,2|2,2:0|2:0,2:0:0:0:
196,224,207852,2,0,P|248:228|300:280,1,112,2|2,2:0|2:0,2:0:0:0:
360,336,208534,1,2,2:0:0:0:
440,288,208761,1,2,2:0:0:0:
472,124,209215,5,2,2:0:0:0:
384,76,209443,2,0,L|268:80,1,112,0|0,2:0|2:0,2:0:0:0:
108,192,210806,2,0,L|112:260,1,56,2|0,2:0|2:0,2:0:0:0:
176,320,211261,1,2,2:0:0:0:
256,264,211488,2,0,P|296:264|336:276,1,56,2|0,2:0|2:0,2:0:0:0:
