osu file format v14

[General]
AudioFilename: audio.mp3
AudioLeadIn: 0
PreviewTime: 85573
Countdown: 0
SampleSet: Soft
StackLeniency: 0.6
Mode: 0
LetterboxInBreaks: 0
WidescreenStoryboard: 0

[Editor]
DistanceSpacing: 1.2
BeatDivisor: 4
GridSize: 4
TimelineZoom: 1.4

[Metadata]
Title:FANCY
TitleUnicode:FANCY
Artist:TWICE
ArtistUnicode:트와이스
Creator:Fragmented
Version:FunnyA's Normal
Source:
Tags:charmcaster dora- doraemonelf funnya [_l_u_k_a_s_] lukas hokichi irreversible iyiyo jyp entertainment korea korean kpop k-pop comeback 7th mini album fancy you nayeon jeongyeon momo sana jihyo mina dahyun chaeyoung tzuyu 나연 정연 모모 사나 지효 미나 다현 채영 쯔위
BeatmapID:2019981
BeatmapSetID:960258

[Difficulty]
HPDrainRate:3
CircleSize:3.5
OverallDifficulty:4
ApproachRate:5
SliderMultiplier:1.4
SliderTickRate:1

[Events]
//Background and Video events
Video,-1774,"TWICE FANCY MV.mp4"
0,0,"nayeon.jpg",0,0
//Break Periods
2,160325,166197
//Storyboard Layer 0 (Background)
//Storyboard Layer 1 (Fail)
//Storyboard Layer 2 (Pass)
//Storyboard Layer 3 (Foreground)
//Storyboard Layer 4 (Overlay)
//Storyboard Sound Samples

[TimingPoints]
125,454.545454545455,4,2,1,60,1,0
7397,-100,4,2,1,65,0,0
14670,-100,4,2,2,60,0,0
27397,-100,4,2,1,65,0,0
29215,-100,4,2,6,65,0,0
43079,-100,4,2,1,65,0,0
43761,-100,4,2,2,60,0,0
50352,-100,4,2,66,60,0,0
50579,-100,4,2,2,60,0,0
51034,-100,4,2,2,65,0,0
54670,-100,4,2,2,70,0,0
55806,-100,4,2,2,100,0,0
56488,-100,4,2,2,90,0,0
58306,-100,4,2,3,75,0,1
71034,-100,4,2,1,85,0,1
72397,-100,4,2,1,85,0,0
72852,-100,4,2,3,75,0,1
85579,-100,4,2,33,75,0,0
87397,-100,4,2,4,65,0,0
101034,-100,4,2,1,75,0,0
101943,-100,4,2,6,65,0,0
115806,-100,4,2,1,65,0,0
116488,-100,4,2,2,65,0,0
123079,-100,4,2,66,60,0,0
123306,-100,4,2,2,60,0,0
123761,-100,4,2,2,70,0,0
128533,-100,4,2,2,85,0,0
129215,-100,4,2,2,95,0,0
131034,-100,4,2,3,75,0,1
143761,-100,4,2,1,85,0,1
145125,-100,4,2,1,85,0,0
145579,-100,4,2,3,75,0,1
158306,-100,4,2,3,75,0,0
160125,-100,4,2,1,55,0,0
167397,-100,4,2,2,65,0,0
171034,-100,4,2,2,75,0,0
171943,-100,4,2,2,90,0,0
172852,-100,4,2,2,95,0,0
173761,-100,4,2,2,100,0,0
176488,-100,4,2,3,75,0,1
189215,-100,4,2,1,85,0,1
190579,-100,4,2,1,85,0,0
191034,-100,4,2,3,75,0,1
203761,-100,4,2,33,75,0,0
205579,-100,4,2,1,60,0,0

[Colours]
Combo1 : 255,128,128
Combo2 : 128,0,255
Combo3 : 255,0,255
Combo4 : 255,198,255
Combo5 : 70,0,140
Combo6 : 255,0,0
SliderBorder : 246,172,207
SliderTrackOverride : 30,30,30

[HitObjects]
101,49,125,5,2,2:0:0:0:
101,49,352,2,0,P|167:64|238:46,1,140,0|0,2:0|2:0,2:0:0:0:
496,259,1715,2,0,P|430:244|359:262,1,140,2|2,2:0|2:0,2:0:0:0:
295,313,2397,1,2,2:0:0:0:
131,351,2852,2,0,P|122:315|134:275,1,70,2|2,2:0|2:0,2:0:0:0:
181,217,3306,1,2,2:0:0:0:
336,152,3761,5,2,2:0:0:0:
336,152,3988,2,0,B|405:165|405:165|473:136,1,140,0|0,2:0|2:0,2:0:0:0:
145,44,5352,2,0,B|76:31|76:31|8:60,1,140,2|2,2:0|2:0,2:0:0:0:
23,141,6034,1,2,2:0:0:0:
119,278,6488,2,0,B|152:286|152:286|189:277,1,70,2|2,2:0|2:0,2:0:0:0:
255,229,6943,1,2,2:0:0:0:
339,84,7397,5,2,2:0:0:0:
339,84,7625,2,0,P|400:76|478:83,1,140,8|8,2:0|2:0,2:0:0:0:
160,194,8988,2,0,P|99:202|21:195,1,140,10|10,2:0|2:0,2:0:0:0:
4,112,9670,1,2,2:0:0:0:
155,40,10125,2,0,P|192:35|241:46,1,70,2|10,2:0|2:0,2:0:0:0:
285,96,10579,2,0,P|319:100|354:95,1,70,2|8,2:0|2:0,2:0:0:0:
411,157,11034,6,0,B|420:228|420:228|410:320,1,140,2|0,2:0|2:0,2:0:0:0:
331,320,11715,2,0,B|322:249|322:249|332:157,1,140,8|8,2:0|2:0,2:0:0:0:
247,200,12397,2,0,P|213:208|176:199,1,70,0|8,2:0|2:0,2:0:0:0:
102,235,12852,6,0,P|94:201|103:164,1,70,8|8,2:3|2:3,2:0:0:0:
68,90,13306,2,0,P|102:82|139:91,1,70,8|0,2:3|3:2,2:0:0:0:
213,55,13761,2,0,P|221:89|212:126,1,70,8|8,2:3|2:3,2:0:0:0:
179,201,14215,1,8,2:1:0:0:
102,167,14443,1,0,3:2:0:0:
55,236,14670,6,0,P|50:273|59:341,2,105,0|0|8,3:2|3:2|2:3,2:0:0:0:
132,269,15579,2,0,P|140:320|135:372,2,105,0|2|2,2:0|2:0|2:0,2:0:0:0:
179,200,16488,2,0,P|230:209|282:204,2,105,0|0|0,3:2|3:2|3:2,2:0:0:0:
102,167,17397,1,0,2:0:0:0:
232,61,17852,1,0,2:0:0:0:
375,147,18306,6,0,B|384:198|384:198|374:259,2,105,0|0|8,3:2|3:2|2:3,2:0:0:0:
294,122,19215,2,0,B|285:174|285:174|294:225,2,105,0|2|2,2:0|2:0|2:0,2:0:0:0:
351,60,20125,2,0,B|402:69|402:69|454:60,2,105,0|0|0,3:2|3:2|3:2,2:0:0:0:
269,39,21034,1,0,2:0:0:0:
83,137,21715,1,0,2:0:0:0:
83,137,21943,6,0,L|80:244,2,105,0|0|8,3:2|3:2|2:3,2:0:0:0:
163,161,22852,2,0,L|165:265,2,105,0|2|2,2:0|2:0|2:0,2:0:0:0:
228,108,23761,2,0,P|291:95|374:109,1,140,0|0,3:2|2:0,2:0:0:0:
379,188,24443,2,0,P|316:201|233:187,1,140,0|0,3:2|2:0,2:0:0:0:
180,247,25125,2,0,B|173:281|173:281|182:321,1,70,0|0,2:0|2:0,2:0:0:0:
103,348,25579,6,0,B|91:282|91:282|105:205,1,140,0|0,3:2|2:0,2:0:0:0:
164,152,26261,2,0,B|177:80|177:80|165:14,1,140,8|0,2:3|2:0,2:0:0:0:
249,19,26943,2,0,L|326:24,1,70,0|2,2:0|2:0,2:0:0:0:
402,27,27397,1,8,2:3:0:0:
508,157,27852,2,0,L|431:162,1,70,8|0,2:3|3:2,2:0:0:0:
355,165,28306,1,8,2:3:0:0:
217,262,28761,2,0,P|212:295|222:340,1,70,8|0,2:1|3:2,2:0:0:0:
140,363,29215,6,0,P|129:291|142:216,1,140,2|8,3:2|3:2,2:0:0:0:
205,173,29897,1,2,2:0:0:0:
282,206,30125,2,0,P|351:216|419:205,1,140,2|8,3:2|3:2,2:0:0:0:
494,165,30806,1,2,2:0:0:0:
491,249,31034,2,0,L|485:371,2,105,2|2|2,3:2|2:0|2:0,2:0:0:0:
419,204,31943,2,0,P|385:215|329:212,1,70,2|0,3:2|2:0,2:0:0:0:
275,181,32397,2,0,P|240:182|206:192,1,70,8|2,3:2|2:0,2:0:0:0:
125,168,32852,6,0,B|113:99|113:99|124:27,1,140,2|8,3:2|3:2,2:0:0:0:
206,13,33534,1,2,2:0:0:0:
273,63,33761,2,0,B|342:73|342:73|411:61,1,140,2|8,3:2|3:2,2:0:0:0:
482,17,34443,1,2,2:0:0:0:
484,100,34670,2,0,L|486:211,2,105,2|2|2,3:2|2:0|2:0,2:0:0:0:
411,61,35579,2,0,B|342:73|342:73|273:63,1,140,2|8,3:2|3:2,2:0:0:0:
199,104,36261,1,2,2:0:0:0:
130,152,36488,6,0,P|121:223|133:290,1,140,2|8,3:2|3:2,2:0:0:0:
206,330,37170,1,2,2:0:0:0:
275,282,37397,2,0,P|284:211|272:144,1,140,2|8,3:2|3:2,2:0:0:0:
199,104,38079,1,2,2:0:0:0:
272,63,38306,2,0,L|414:59,1,140,2|10,3:2|3:2,2:0:0:0:
412,141,38988,2,0,L|272:144,1,140,2|2,2:0|2:0,2:0:0:0:
215,207,39670,2,0,B|211:241|211:241|216:276,1,70,10|2,3:2|2:0,2:0:0:0:
248,353,40125,6,0,P|320:368|387:336,1,140,2|8,3:2|3:2,2:0:0:0:
347,266,40806,2,0,P|275:251|208:283,1,140,0|2,2:0|2:0,2:0:0:0:
131,276,41488,2,0,B|126:241|126:241|130:207,1,70,10|2,3:2|2:0,2:0:0:0:
144,123,41943,2,0,P|195:100|281:122,1,140,2|8,3:2|3:2,2:0:0:0:
296,198,42625,2,0,P|362:216|426:192,1,140,2|8,2:0|2:3,2:0:0:0:
437,109,43306,1,8,2:1:0:0:
488,269,43761,6,0,P|495:305|488:342,2,70,8|0|8,3:1|2:0|3:1,2:0:0:0:
324,307,44670,2,0,P|257:315|185:305,1,140,8|8,3:1|3:1,2:0:0:0:
102,289,45352,1,0,2:0:0:0:
68,212,45579,2,0,P|103:205|136:211,1,70,8|0,3:1|2:0,2:0:0:0:
205,162,46034,2,0,P|211:127|204:93,1,70,8|0,3:1|2:0,2:0:0:0:
127,59,46488,2,0,P|120:93|127:127,2,70,8|0|8,3:1|2:0|3:1,2:0:0:0:
196,12,47170,1,0,2:0:0:0:
271,48,47397,6,0,P|312:53|343:46,1,70,8|0,3:1|2:0,2:0:0:0:
405,99,47852,2,0,B|427:145|411:201|411:201|380:167,1,140,8|8,3:1|3:1,2:0:0:0:
309,143,48534,2,0,P|268:138|237:145,1,70,0|8,2:0|3:1,2:0:0:0:
164,180,48988,2,0,B|152:244|152:244|167:322,1,140,0|0,2:0|2:0,2:0:0:0:
244,348,49670,2,0,P|285:353|316:346,1,70,8|0,3:1|2:0,2:0:0:0:
307,263,50125,2,0,P|266:258|235:265,2,70,8|8|8,3:1|2:3|3:1,2:0:0:0:
470,301,51034,6,0,B|477:335|477:335|471:371,2,70,10|2|10,3:1|2:1|3:1,2:0:0:0:
426,138,51943,2,0,B|357:127|357:127|285:139,1,140,10|10,3:1|3:1,2:0:0:0:
217,184,52625,1,2,2:1:0:0:
155,241,52852,2,0,L|158:318,1,70,10|2,3:1|2:1,2:0:0:0:
237,338,53306,2,0,L|239:268,1,70,10|2,3:1|2:1,2:0:0:0:
318,239,53761,2,0,L|321:316,2,70,10|2|10,3:1|2:1|3:1,2:0:0:0:
314,154,54443,1,2,2:1:0:0:
375,97,54670,6,0,P|330:73|249:103,1,140,10|10,3:1|3:1,2:0:0:0:
213,176,55352,2,0,P|151:204|88:179,1,140,2|2,3:1|3:1,2:0:0:0:
50,254,56034,2,0,P|46:294|55:333,1,70,10|2,3:1|3:1,2:0:0:0:
125,361,56488,2,0,L|194:358,1,70,0|0,3:1|3:1,2:0:0:0:
263,308,56943,2,0,L|332:305,1,70,0|0,3:1|3:1,2:0:0:0:
397,251,57397,1,0,3:1:0:0:
430,86,57852,2,0,P|395:80|360:88,1,70,0|0,2:0|2:0,2:0:0:0:
294,137,58306,6,0,P|222:153|145:129,1,140,6|0,3:2|1:2,2:0:0:0:
151,53,58988,2,0,P|223:37|300:61,1,140,2|0,2:0|2:0,2:0:0:0:
362,87,59670,1,2,1:2:0:0:
445,232,60125,2,0,P|452:264|445:304,1,70,0|2,3:2|2:0,2:0:0:0:
378,350,60579,2,0,P|346:357|306:350,1,70,2|2,1:2|2:0,2:0:0:0:
241,301,61034,2,0,P|206:295|172:302,2,70,2|2|2,3:2|2:0|1:2,2:0:0:0:
291,233,61715,1,2,2:0:0:0:
334,161,61943,6,0,B|350:91|350:91|332:19,1,140,2|0,3:2|1:2,2:0:0:0:
260,67,62625,2,0,B|193:83|193:83|123:67,1,140,2|0,2:0|2:0,2:0:0:0:
50,27,63306,1,2,1:2:0:0:
124,177,63761,2,0,P|132:212|120:256,1,70,0|2,3:2|2:0,2:0:0:0:
82,317,64215,1,2,1:2:0:0:
249,314,64670,2,0,L|325:310,1,70,2|2,3:2|2:0,2:0:0:0:
358,235,65125,2,0,L|282:231,1,70,2|2,1:2|2:0,2:0:0:0:
258,152,65579,6,0,L|397:160,1,140,2|0,3:2|1:2,2:0:0:0:
372,79,66261,2,0,L|233:71,1,140,2|0,2:0|2:0,2:0:0:0:
174,131,66943,1,2,1:2:0:0:
78,268,67397,2,0,B|73:303|73:303|80:337,1,70,0|2,3:2|2:0,2:0:0:0:
161,313,67852,2,0,B|166:278|166:278|159:244,1,70,2|2,1:2|2:0,2:0:0:0:
100,184,68306,2,0,L|31:190,2,70,2|2|2,3:2|2:0|1:2,2:0:0:0:
157,122,68988,1,2,2:0:0:0:
229,78,69215,6,0,P|297:62|375:82,1,140,2|0,3:2|1:2,2:0:0:0:
433,123,69897,2,0,P|449:191|429:269,1,140,2|0,2:0|2:0,2:0:0:0:
367,310,70579,1,2,1:2:0:0:
212,242,71034,2,0,P|171:237|136:244,1,70,8|10,2:3|2:3,2:0:0:0:
80,297,71488,1,10,2:3:0:0:
23,138,71943,2,0,P|15:99|25:64,1,70,8|8,2:3|2:3,2:0:0:0:
94,27,72397,2,0,L|182:24,1,70,8|0,2:1|3:2,2:0:0:0:
239,61,72852,6,0,B|310:73|310:73|386:55,2,140,6|2|0,3:2|1:2|3:2,2:0:0:0:
185,220,74215,2,0,P|177:255|190:295,1,70,2|2,1:2|2:0,2:0:0:0:
262,254,74670,2,0,P|330:240|415:261,1,140,2|2,3:2|1:2,2:0:0:0:
476,221,75352,2,0,P|489:152|475:84,1,140,2|2,2:0|2:0,2:0:0:0:
405,37,76034,2,0,P|369:31|333:39,1,70,2|2,1:2|2:0,2:0:0:0:
268,86,76488,6,0,P|233:92|199:86,2,70,2|2|2,3:2|2:0|1:2,2:0:0:0:
321,151,77170,1,2,2:0:0:0:
354,227,77397,2,0,P|361:263|350:303,2,70,2|2|2,3:2|2:0|1:2,2:0:0:0:
429,190,78079,2,0,P|443:263|430:331,1,140,2|2,2:0|2:0,2:0:0:0:
276,261,78988,2,0,B|223:265|223:265|206:282|206:282|140:286,1,140,2|2,2:0|2:0,2:0:0:0:
68,247,79670,1,2,1:2:0:0:
171,114,80125,6,0,B|233:110|233:110|250:93|250:93|303:89,2,140,2|2|0,3:2|1:2|3:2,2:0:0:0:
68,247,81488,2,0,B|63:283|63:283|70:318,1,70,2|2,1:2|2:0,2:0:0:0:
148,345,81943,2,0,B|218:360|218:360|285:345,1,140,2|2,3:2|1:2,2:0:0:0:
325,271,82625,2,0,B|392:256|392:256|462:271,1,140,2|2,2:0|2:0,2:0:0:0:
501,197,83306,2,0,B|506:161|506:161|499:126,1,70,2|2,1:2|2:0,2:0:0:0:
441,67,83761,6,0,L|370:77,1,70,2|2,3:2|2:0,2:0:0:0:
302,28,84215,2,0,L|231:38,1,70,2|2,1:2|2:0,2:0:0:0:
187,108,84670,2,0,P|181:144|190:181,2,70,2|2|2,3:2|2:0|1:2,2:0:0:0:
271,113,85352,2,0,P|277:147|271:181,1,70,2|2,2:0|2:1,2:0:0:0:
125,351,87397,6,0,L|20:356,2,105,2|2|0,3:2|3:2|3:2,2:0:0:0:
168,278,88306,2,0,L|322:283,1,140,8|2,2:0|2:0,2:0:0:0:
351,210,88988,1,0,3:2:0:0:
384,132,89215,2,0,P|351:126|314:134,1,70,2|8,2:0|2:0,2:0:0:0:
243,176,89670,2,0,P|208:183|174:177,1,70,2|0,2:0|3:2,2:0:0:0:
104,224,90125,2,0,B|94:290|94:290|107:364,1,140,10|10,2:0|2:0,2:0:0:0:
186,335,90806,1,0,3:2:0:0:
265,306,91034,6,0,B|318:314|318:314|372:302,2,105,2|2|0,3:2|3:2|3:2,2:0:0:0:
244,224,91943,2,0,B|313:205|313:205|385:219,1,140,8|2,2:0|2:0,2:0:0:0:
441,160,92625,1,0,3:2:0:0:
374,109,92852,2,0,B|306:95|306:95|237:114,1,140,2|2,2:0|2:0,2:0:0:0:
142,252,93761,2,0,P|134:289|143:323,1,70,10|0,2:0|2:0,2:0:0:0:
219,287,94215,2,0,P|227:250|218:216,1,70,10|0,2:0|3:2,2:0:0:0:
154,166,94670,6,0,L|49:171,2,105,2|2|0,3:2|3:2|3:2,2:0:0:0:
197,93,95579,2,0,L|269:89,1,70,8|0,2:0|2:0,2:0:0:0:
320,154,96034,2,0,L|392:150,1,70,2|0,2:0|3:2,2:0:0:0:
434,221,96488,2,0,P|439:259|434:297,1,70,2|8,2:0|2:0,2:0:0:0:
388,360,96943,2,0,P|350:365|312:360,1,70,2|0,2:0|3:2,2:0:0:0:
267,295,97397,1,10,2:0:0:0:
318,134,97852,2,0,P|356:129|394:134,1,70,10|0,2:0|3:2,2:0:0:0:
417,54,98306,6,0,P|360:46|273:60,1,140,2|2,3:2|2:0,2:0:0:0:
119,113,99215,2,0,B|104:157|104:157|122:200|122:200|105:242|105:242|122:286|122:286|102:328|102:328|122:372,1,280,10|2,3:2|3:2,2:0:0:0:
401,185,101034,2,0,B|437:178|437:178|470:186,1,70,8|8,2:3|2:3,2:0:0:0:
442,265,101488,2,0,B|406:272|406:272|373:264,1,70,4|0,2:3|2:0,2:0:0:0:
309,209,101943,6,0,P|241:197|165:211,1,140,2|8,3:2|3:2,2:0:0:0:
172,124,102625,2,0,P|240:112|309:124,1,140,0|2,2:0|2:0,2:0:0:0:
382,165,103306,2,0,P|420:169|461:163,1,70,10|2,3:2|2:0,2:0:0:0:
506,229,103761,2,0,L|501:301,1,70,2|0,3:2|2:0,2:0:0:0:
420,323,104215,2,0,L|415:253,1,70,10|0,3:2|2:0,2:0:0:0:
333,274,104670,2,0,L|328:346,2,70,2|0|10,3:2|2:0|3:2,2:0:0:0:
267,221,105352,1,2,2:0:0:0:
193,261,105579,6,0,B|123:274|123:274|55:262,1,140,2|8,3:2|3:2,2:0:0:0:
55,346,106261,2,0,B|123:358|123:358|193:345,1,140,0|2,2:0|2:0,2:0:0:0:
267,306,106943,2,0,B|305:301|305:301|337:306,1,70,10|2,3:2|2:0,2:0:0:0:
403,255,107397,2,0,P|421:188|400:117,1,140,2|10,3:2|3:2,2:0:0:0:
253,44,108306,2,0,L|182:50,1,70,2|2,3:2|2:0,2:0:0:0:
123,109,108761,1,10,3:2:0:0:
210,252,109215,6,0,L|354:240,1,140,2|8,3:2|3:2,2:0:0:0:
346,324,109897,2,0,L|206:335,1,140,0|2,2:0|2:0,2:0:0:0:
134,290,110579,2,0,P|126:253|133:218,1,70,10|2,3:2|2:0,2:0:0:0:
198,170,111034,2,0,L|267:164,1,70,2|0,3:2|2:0,2:0:0:0:
236,86,111488,2,0,L|166:80,1,70,10|0,3:2|2:0,2:0:0:0:
97,128,111943,1,2,3:2:0:0:
19,277,112397,2,0,P|12:312|22:349,1,70,10|2,3:2|2:0,2:0:0:0:
96,310,112852,6,0,B|146:299|146:299|181:310|181:310|235:297,1,140,2|8,3:2|3:2,2:0:0:0:
282,230,113534,1,2,2:0:0:0:
316,153,113761,2,0,P|277:146|241:157,1,70,2|2,3:2|2:0,2:0:0:0:
170,187,114215,2,0,P|162:153|169:119,1,70,10|2,3:2|2:0,2:0:0:0:
212,46,114670,2,0,P|282:33|349:45,1,140,2|8,3:2|3:2,2:0:0:0:
395,115,115352,2,0,P|408:185|396:252,1,140,2|8,2:0|2:3,2:0:0:0:
351,323,116034,1,8,2:1:0:0:
186,289,116488,6,0,P|180:324|187:361,2,70,8|0|8,3:1|2:0|3:1,2:0:0:0:
252,134,117397,2,0,P|197:117|112:139,1,140,8|8,3:1|3:1,2:0:0:0:
62,197,118079,1,0,2:0:0:0:
67,280,118306,2,0,L|73:355,1,70,8|0,3:1|2:0,2:0:0:0:
150,318,118761,2,0,P|187:311|220:318,1,70,8|0,3:1|2:0,2:0:0:0:
294,354,119215,2,0,P|328:360|362:353,2,70,8|0|8,3:1|2:0|3:1,2:0:0:0:
326,276,119897,1,0,2:0:0:0:
360,198,120125,6,0,P|325:191|291:198,1,70,8|0,3:1|2:0,2:0:0:0:
212,226,120579,2,0,P|142:238|73:225,1,140,8|8,3:1|3:1,2:0:0:0:
12,169,121261,2,0,B|7:133|7:133|13:92,1,70,0|8,2:0|3:1,2:0:0:0:
72,41,121715,2,0,P|142:29|211:42,1,140,0|0,2:0|2:0,2:0:0:0:
272,98,122397,2,0,B|277:134|277:134|271:175,1,70,8|0,3:1|2:0,2:0:0:0:
212,226,122852,2,0,B|207:259|207:259|212:295,2,70,8|8|8,3:1|2:3|3:1,2:0:0:0:
371,278,123761,6,0,B|376:314|376:314|371:347,2,70,10|2|10,3:1|2:1|3:1,2:0:0:0:
212,226,124670,2,0,B|143:238|143:238|70:223,1,140,10|10,3:1|3:1,2:0:0:0:
25,155,125352,1,2,2:1:0:0:
63,80,125579,2,0,L|139:71,1,70,10|2,3:1|2:1,2:0:0:0:
192,130,126034,2,0,L|268:121,1,70,10|2,3:1|2:1,2:0:0:0:
310,190,126488,2,0,P|317:224|307:266,2,70,10|2|10,3:1|2:1|3:1,2:0:0:0:
233,224,127170,1,2,2:1:0:0:
174,283,127397,6,0,B|105:297|105:297|36:285,1,140,10|10,3:1|3:1,2:0:0:0:
9,205,128079,2,0,B|77:190|77:190|146:202,1,140,2|2,3:1|3:1,2:0:0:0:
174,283,128761,2,0,L|181:353,1,70,10|2,3:1|3:1,2:0:0:0:
264,363,129215,2,0,L|257:293,1,70,0|0,3:1|3:1,2:0:0:0:
336,267,129670,2,0,L|343:337,1,70,0|0,3:1|3:1,2:0:0:0:
426,344,130125,1,0,3:1:0:0:
455,178,130579,2,0,B|419:171|419:171|379:182,1,70,0|0,2:0|2:0,2:0:0:0:
302,180,131034,6,0,P|283:111|301:40,1,140,6|0,3:2|1:2,2:0:0:0:
383,46,131715,2,0,P|402:115|384:186,1,140,2|0,2:0|2:0,2:0:0:0:
345,252,132397,1,2,1:2:0:0:
186,309,132852,2,0,L|112:302,1,70,0|2,3:2|2:0,2:0:0:0:
84,224,133306,2,0,L|158:217,1,70,2|2,1:2|2:0,2:0:0:0:
193,143,133761,2,0,L|119:136,2,70,2|2|2,3:2|2:0|1:2,2:0:0:0:
269,107,134443,1,2,2:0:0:0:
343,146,134670,6,0,B|413:161|413:161|483:146,1,140,2|0,3:2|1:2,2:0:0:0:
475,62,135352,2,0,B|405:47|405:47|335:62,1,140,2|0,2:0|2:0,2:0:0:0:
269,107,136034,1,2,1:2:0:0:
160,235,136488,2,0,P|155:270|162:311,1,70,0|2,3:2|2:0,2:0:0:0:
228,352,136943,1,2,1:2:0:0:
392,319,137397,2,0,L|473:326,1,70,2|2,3:2|2:0,2:0:0:0:
443,242,137852,2,0,L|373:235,1,70,2|2,1:2|2:0,2:0:0:0:
317,172,138306,6,0,B|303:102|303:102|316:35,1,140,2|0,3:2|1:2,2:0:0:0:
399,22,138988,2,0,B|413:92|413:92|400:159,1,140,2|0,2:0|2:0,2:0:0:0:
373,235,139670,1,2,1:2:0:0:
205,245,140125,2,0,L|126:251,1,70,0|2,3:2|2:0,2:0:0:0:
64,205,140579,2,0,P|55:167|65:130,1,70,2|2,1:2|2:0,2:0:0:0:
136,100,141034,2,0,P|145:138|135:175,2,70,2|2|2,3:2|2:0|1:2,2:0:0:0:
81,36,141715,1,2,2:0:0:0:
163,20,141943,6,0,L|311:24,1,140,2|0,3:2|1:2,2:0:0:0:
276,104,142625,2,0,L|136:100,1,140,2|0,2:0|2:0,2:0:0:0:
109,179,143306,1,2,1:2:0:0:
206,315,143761,2,0,B|241:321|241:321|277:315,1,70,8|10,2:3|2:3,2:0:0:0:
334,255,144215,1,10,2:3:0:0:
370,91,144670,2,0,B|335:85|335:85|299:91,1,70,8|8,2:3|2:3,2:0:0:0:
245,154,145125,2,0,B|210:159|210:159|175:153,1,70,8|0,2:1|3:2,2:0:0:0:
122,218,145579,6,0,B|111:288|111:288|126:359,2,140,6|2|0,3:2|1:2|3:2,2:0:0:0:
276,284,146943,2,0,P|313:291|346:283,1,70,2|2,1:2|2:0,2:0:0:0:
401,223,147397,2,0,P|413:148|402:86,1,140,2|2,3:2|1:2,2:0:0:0:
329,41,148079,2,0,P|254:29|192:40,1,140,2|2,2:0|2:0,2:0:0:0:
122,88,148761,2,0,P|85:94|50:86,1,70,2|2,1:2|2:0,2:0:0:0:
16,163,149215,6,0,B|11:197|11:197|18:233,2,70,2|2|2,3:2|2:0|1:2,2:0:0:0:
93,196,149897,1,2,2:0:0:0:
170,229,150125,2,0,B|175:195|175:195|168:159,2,70,2|2|2,3:2|2:0|1:2,2:0:0:0:
197,308,150806,2,0,B|264:328|264:328|332:309,1,140,2|2,2:0|2:0,2:0:0:0:
401,156,151715,2,0,B|334:136|334:136|266:155,1,140,2|2,2:0|2:0,2:0:0:0:
186,181,152397,1,2,1:2:0:0:
25,229,152852,6,0,B|32:282|32:282|25:304|25:304|35:369,2,140,2|2|0,3:2|1:2|3:2,2:0:0:0:
117,88,154215,2,0,P|154:82|198:90,1,70,2|2,1:2|2:0,2:0:0:0:
261,123,154670,2,0,P|338:133|402:124,1,140,2|2,3:2|1:2,2:0:0:0:
473,164,155352,2,0,P|481:233|471:302,1,140,2|2,2:0|2:0,2:0:0:0:
398,344,156034,2,0,P|364:352|321:340,1,70,2|2,1:2|2:0,2:0:0:0:
253,311,156488,6,0,P|245:277|257:234,1,70,2|2,3:2|2:0,2:0:0:0:
217,166,156943,2,0,P|251:158|294:170,1,70,2|2,1:2|2:0,2:0:0:0:
362,199,157397,2,0,P|370:233|358:276,2,70,2|2|2,3:2|2:0|1:2,2:0:0:0:
398,123,158079,1,2,2:0:0:0:
256,192,158306,12,4,160125,2:0:0:0:
38,38,167397,6,0,B|27:103|27:103|41:179,1,140,2|2,3:1|2:1,2:0:0:0:
100,235,168079,1,2,2:1:0:0:
162,179,168306,2,0,P|232:168|305:176,1,140,2|2,3:1|2:1,2:0:0:0:
305,343,169215,2,0,P|235:354|162:346,2,140,2|2|2,3:1|2:1|3:1,2:0:0:0:
432,233,170579,2,0,B|439:197|439:197|429:158,1,70,2|2,2:1|2:1,2:0:0:0:
384,94,171034,6,0,L|236:107,1,140,2|2,3:1|3:1,2:0:0:0:
181,162,171715,1,2,3:1:0:0:
245,215,171943,2,0,L|393:228,1,140,2|2,3:1|3:1,2:0:0:0:
448,283,172625,1,2,3:1:0:0:
385,338,172852,2,0,L|310:344,1,70,0|0,3:2|3:2,2:0:0:0:
240,304,173306,2,0,L|165:310,1,70,0|0,3:2|3:2,2:0:0:0:
93,274,173761,1,4,3:0:0:0:
192,136,174215,1,4,3:0:0:0:
192,136,176488,6,0,P|264:120|348:164,1,140,6|0,3:2|1:2,0:0:0:0:
324,228,177170,2,0,P|252:244|168:200,1,140,2|0,2:0|2:0,0:0:0:0:
132,280,177852,1,2,1:2:0:0:
44,136,178306,2,0,P|37:104|44:64,1,70,0|2,3:2|2:0,2:0:0:0:
116,24,178761,2,0,P|148:17|188:24,1,70,2|2,1:2|2:0,2:0:0:0:
252,72,179215,2,0,P|287:78|321:71,2,70,2|2|2,3:2|2:0|1:2,2:0:0:0:
212,148,179897,1,2,2:0:0:0:
176,224,180125,6,0,B|160:294|160:294|178:366,1,140,2|0,3:2|1:2,2:0:0:0:
252,317,180806,2,0,B|319:301|319:301|389:317,1,140,2|0,2:0|2:0,2:0:0:0:
462,357,181488,1,2,1:2:0:0:
388,207,181943,2,0,P|380:172|392:128,1,70,0|2,3:2|2:0,2:0:0:0:
430,67,182397,1,2,1:2:0:0:
263,70,182852,2,0,L|187:74,1,70,2|2,3:2|2:0,2:0:0:0:
154,149,183306,2,0,L|230:153,1,70,2|2,1:2|2:0,2:0:0:0:
254,232,183761,6,0,L|115:224,1,140,2|0,3:2|1:2,2:0:0:0:
140,305,184443,2,0,L|279:313,1,140,2|0,2:0|2:0,2:0:0:0:
338,253,185125,1,2,1:2:0:0:
434,116,185579,2,0,B|439:81|439:81|432:47,1,70,0|2,3:2|2:0,2:0:0:0:
351,71,186034,2,0,B|346:106|346:106|353:140,1,70,2|2,1:2|2:0,2:0:0:0:
412,200,186488,2,0,L|481:194,2,70,2|2|2,3:2|2:0|1:2,2:0:0:0:
355,262,187170,1,2,2:0:0:0:
283,306,187397,6,0,P|215:322|137:302,1,140,2|0,3:2|1:2,2:0:0:0:
79,261,188079,2,0,P|63:193|83:115,1,140,2|0,2:0|2:0,2:0:0:0:
145,74,188761,1,2,1:2:0:0:
300,142,189215,2,0,P|341:147|376:140,1,70,8|10,2:3|2:3,2:0:0:0:
432,87,189670,1,10,2:3:0:0:
489,246,190125,2,0,P|497:285|487:320,1,70,8|8,2:3|2:3,2:0:0:0:
418,357,190579,2,0,L|330:360,1,70,8|0,2:1|3:2,2:0:0:0:
273,323,191034,6,0,B|202:311|202:311|126:329,2,140,6|2|0,3:2|1:2|3:2,2:0:0:0:
327,164,192397,2,0,P|335:129|322:89,1,70,2|2,1:2|2:0,2:0:0:0:
250,130,192852,2,0,P|182:144|97:123,1,140,2|2,3:2|1:2,2:0:0:0:
36,163,193534,2,0,P|23:232|37:300,1,140,2|2,2:0|2:0,2:0:0:0:
107,347,194215,2,0,P|143:353|179:345,1,70,2|2,1:2|2:0,2:0:0:0:
244,298,194670,6,0,P|279:292|313:298,2,70,2|2|2,3:2|2:0|1:2,2:0:0:0:
191,233,195352,1,2,2:0:0:0:
158,157,195579,2,0,P|151:121|162:81,2,70,2|2|2,3:2|2:0|1:2,2:0:0:0:
83,194,196261,2,0,P|69:121|82:53,1,140,2|2,2:0|2:0,2:0:0:0:
236,123,197170,2,0,B|289:119|289:119|306:102|306:102|372:98,1,140,2|2,2:0|2:0,2:0:0:0:
444,137,197852,1,2,1:2:0:0:
341,270,198306,6,0,B|279:274|279:274|262:291|262:291|209:295,2,140,2|2|0,3:2|1:2|3:2,2:0:0:0:
444,137,199670,2,0,B|449:101|449:101|442:66,1,70,2|2,1:2|2:0,2:0:0:0:
364,39,200125,2,0,B|294:24|294:24|227:39,1,140,2|2,3:2|1:2,2:0:0:0:
187,113,200806,2,0,B|120:128|120:128|50:113,1,140,2|2,2:0|2:0,2:0:0:0:
11,187,201488,2,0,B|6:223|6:223|13:258,1,70,2|2,1:2|2:0,2:0:0:0:
71,317,201943,6,0,L|142:307,1,70,2|2,3:2|2:0,2:0:0:0:
210,356,202397,2,0,L|281:346,1,70,2|2,1:2|2:0,2:0:0:0:
325,276,202852,2,0,P|331:240|322:203,2,70,2|2|2,3:2|2:0|1:2,2:0:0:0:
241,271,203534,2,0,P|235:237|241:203,1,70,2|2,2:0|2:1,2:0:0:0:
476,38,205579,5,6,2:0:0:0:
476,38,205806,2,0,B|408:55|408:55|337:35,1,140,0|0,2:0|2:0,2:0:0:0:
28,162,207170,2,0,B|96:145|96:145|167:165,1,140,2|2,2:0|2:0,2:0:0:0:
221,225,207852,1,2,2:0:0:0:
325,356,208306,2,0,P|360:361|396:355,1,70,2|2,2:0|2:0,2:0:0:0:
445,289,208761,1,2,2:0:0:0:
508,133,209215,5,2,2:0:0:0:
508,133,209443,2,0,P|444:117|373:139,1,140,0|0,2:0|2:0,2:0:0:0:
68,276,210806,2,0,P|132:292|203:270,1,140,2|2,2:0|2:0,2:0:0:0:
246,199,211488,2,0,B|253:165|253:165|245:123,1,70,2|0,2:0|2:0,2:0:0:0:
