osu file format v14

[General]
AudioFilename: audio.mp3
AudioLeadIn: 0
PreviewTime: 85573
Countdown: 0
SampleSet: Soft
StackLeniency: 0.3
Mode: 0
LetterboxInBreaks: 0
WidescreenStoryboard: 1

[Editor]
DistanceSpacing: 0.9
BeatDivisor: 4
GridSize: 4
TimelineZoom: 1.6

[Metadata]
Title:FANCY
TitleUnicode:FANCY
Artist:TWICE
ArtistUnicode:트와이스
Creator:Fragmented
Version:Easy
Source:
Tags:charmcaster dora- doraemonelf funnya [_l_u_k_a_s_] lukas hokichi irreversible iyiyo jyp entertainment korea korean kpop k-pop comeback 7th mini album fancy you nayeon jeongyeon momo sana jihyo mina dahyun chaeyoung tzuyu 나연 정연 모모 사나 지효 미나 다현 채영 쯔위
BeatmapID:2010513
BeatmapSetID:960258

[Difficulty]
HPDrainRate:2
CircleSize:3
OverallDifficulty:2
ApproachRate:3
SliderMultiplier:0.9
SliderTickRate:1

[Events]
//Background and Video events
Video,-1774,"TWICE FANCY MV.mp4"
0,0,"nayeon.jpg",0,0
//Break Periods
2,160119,165957
//Storyboard Layer 0 (Background)
//Storyboard Layer 1 (Fail)
//Storyboard Layer 2 (Pass)
//Storyboard Layer 3 (Foreground)
//Storyboard Layer 4 (Overlay)
//Storyboard Sound Samples

[TimingPoints]
125,454.545454545455,4,2,1,60,1,0
7397,-100,4,2,1,65,0,0
14670,-100,4,2,2,60,0,0
27397,-100,4,2,1,65,0,0
29215,-100,4,2,6,65,0,0
40579,-100,4,2,40,65,0,0
40693,-100,4,2,6,65,0,0
42397,-100,4,2,40,65,0,0
42511,-100,4,2,6,65,0,0
42852,-100,4,2,1,65,0,0
43761,-100,4,2,2,60,0,0
50352,-100,4,2,66,60,0,0
50579,-100,4,2,2,60,0,0
50806,-100,4,2,66,60,0,0
51034,-100,4,2,2,65,0,0
54670,-100,4,2,2,70,0,0
55579,-100,4,2,2,100,0,0
56488,-100,4,2,2,90,0,0
56943,-100,4,2,41,90,0,0
57056,-100,4,2,2,90,0,0
58306,-100,4,2,3,75,0,1
60125,-100,4,2,41,75,0,1
60238,-100,4,2,3,75,0,1
62397,-100,4,2,42,75,0,1
62511,-100,4,2,3,75,0,1
63761,-100,4,2,41,75,0,1
63875,-100,4,2,3,75,0,1
64215,-100,4,2,42,75,0,1
64329,-100,4,2,3,75,0,1
67397,-100,4,2,41,75,0,1
67511,-100,4,2,3,75,0,1
71034,-100,4,2,1,85,0,1
72397,-100,4,2,1,85,0,0
72852,-100,4,2,3,75,0,1
73306,-100,4,2,42,75,0,1
73420,-100,4,2,3,75,0,1
74670,-100,4,2,41,75,0,1
74784,-100,4,2,3,75,0,1
79215,-100,4,2,41,75,0,1
79329,-100,4,2,3,75,0,1
80579,-100,4,2,42,75,0,1
80693,-100,4,2,3,75,0,1
81943,-100,4,2,41,75,0,1
82056,-100,4,2,3,75,0,1
85579,-100,4,2,33,75,0,0
87397,-100,4,2,4,65,0,0
101034,-100,4,2,1,75,0,0
101943,-100,4,2,6,65,0,0
112397,-100,4,2,40,65,0,0
112511,-100,4,2,6,65,0,0
115579,-100,4,2,1,65,0,0
116488,-100,4,2,2,65,0,0
123079,-100,4,2,66,60,0,0
123306,-100,4,2,2,60,0,0
123534,-100,4,2,66,60,0,0
123761,-100,4,2,2,70,0,0
127397,-100,4,2,2,70,0,0
128306,-100,4,2,2,85,0,0
129215,-100,4,2,2,95,0,0
129216,-100,4,2,2,95,0,0
129670,-100,4,2,41,95,0,0
129784,-100,4,2,2,95,0,0
131034,-100,4,2,3,75,0,1
132852,-100,4,2,41,75,0,1
132965,-100,4,2,3,75,0,1
135125,-100,4,2,42,75,0,1
135238,-100,4,2,3,75,0,1
136488,-100,4,2,41,75,0,1
136602,-100,4,2,3,75,0,1
136943,-100,4,2,42,75,0,1
137056,-100,4,2,3,75,0,1
140125,-100,4,2,41,75,0,1
140238,-100,4,2,3,75,0,1
143761,-100,4,2,1,85,0,1
143762,-100,4,2,1,85,0,1
145125,-100,4,2,1,85,0,0
145579,-100,4,2,3,75,0,1
145580,-100,4,2,3,75,0,1
146034,-100,4,2,42,75,0,1
146147,-100,4,2,3,75,0,1
147397,-100,4,2,41,75,0,1
147511,-100,4,2,3,75,0,1
151943,-100,4,2,41,75,0,1
152056,-100,4,2,3,75,0,1
153306,-100,4,2,42,75,0,1
153420,-100,4,2,3,75,0,1
154670,-100,4,2,41,75,0,1
154784,-100,4,2,3,75,0,1
158306,-100,4,2,33,75,0,0
160125,-100,4,2,33,55,0,0
167397,-100,4,2,2,65,0,0
167852,-100,4,2,43,65,0,0
167965,-100,4,2,2,65,0,0
169670,-100,4,2,43,65,0,0
169784,-100,4,2,2,65,0,0
171034,-100,4,2,2,75,0,0
171943,-100,4,2,2,90,0,0
172852,-100,4,2,2,95,0,0
173761,-100,4,2,2,100,0,0
174215,-100,4,2,2,100,0,0
176488,-100,4,2,3,75,0,1
178306,-100,4,2,41,75,0,1
178420,-100,4,2,3,75,0,1
180579,-100,4,2,42,75,0,1
180693,-100,4,2,3,75,0,1
181943,-100,4,2,41,75,0,1
182056,-100,4,2,3,75,0,1
182397,-100,4,2,42,75,0,1
182511,-100,4,2,3,75,0,1
185579,-100,4,2,41,75,0,1
185693,-100,4,2,3,75,0,1
189215,-100,4,2,1,85,0,1
189216,-100,4,2,1,85,0,1
190579,-100,4,2,1,85,0,0
191034,-100,4,2,3,75,0,1
191488,-100,4,2,42,75,0,1
191602,-100,4,2,3,75,0,1
192852,-100,4,2,41,75,0,1
192965,-100,4,2,3,75,0,1
197397,-100,4,2,41,75,0,1
197511,-100,4,2,3,75,0,1
198761,-100,4,2,42,75,0,1
198875,-100,4,2,3,75,0,1
200125,-100,4,2,41,75,0,1
200238,-100,4,2,3,75,0,1
203761,-100,4,2,33,75,0,0
205579,-100,4,2,1,60,0,0

[Colours]
Combo1 : 255,128,128
Combo2 : 128,0,255
Combo3 : 255,0,255
Combo4 : 255,198,255
Combo5 : 70,0,140
Combo6 : 255,0,0
SliderBorder : 246,172,207
SliderTrackOverride : 30,30,30

[HitObjects]
424,108,125,6,0,P|356:100|292:128,1,135,2|0,0:0|0:0,0:0:0:0:
140,76,1715,2,0,L|168:220,1,135,2|2,0:0|0:0,0:0:0:0:
104,264,2852,2,0,P|152:292|212:280,1,90,2|2,0:0|0:0,0:0:0:0:
252,340,3761,6,0,P|344:300|408:312,1,135,2|0,0:0|0:0,0:0:0:0:
472,156,5352,2,0,P|420:144|320:176,1,135,2|2,0:0|0:0,0:0:0:0:
292,228,6488,2,0,L|176:216,1,90,2|2,0:0|0:0,0:0:0:0:
124,200,7397,6,0,P|92:176|132:48,1,180,2|0,0:0|0:0,0:0:0:0:
156,124,8761,1,0,0:0:0:0:
232,156,9215,2,0,P|300:156|336:132,1,90,0|2,0:0|0:0,0:0:0:0:
396,116,10125,2,0,L|412:228,1,90,2|2,0:0|0:0,0:0:0:0:
384,284,11034,6,0,B|296:268|296:268|212:296|212:296|100:276,1,270,2|0,0:0|0:0,0:0:0:0:
256,192,12852,12,0,14670,3:2:0:0:
240,232,16488,6,0,B|192:220|192:220|68:240,2,135,0|0|0,3:2|3:2|0:0,0:0:0:0:
296,292,18306,2,0,P|348:324|424:296,2,135,0|8|0,3:2|0:3|0:0,0:0:0:0:
360,240,20125,2,0,B|348:184|372:152|372:152|400:108|376:48,1,180,0|0,3:2|0:0,0:0:0:0:
240,140,21943,6,0,P|160:124|80:164,2,135,0|8|0,3:2|0:3|0:0,0:0:0:0:
280,212,23761,2,0,L|268:356,2,135,0|0|0,3:2|3:2|0:0,0:0:0:0:
360,212,25579,2,0,B|352:304|352:304|420:276,1,135,0|8,3:2|0:3,0:0:0:0:
460,100,27397,6,0,P|404:84|348:100,1,90,8|8,0:3|0:3,0:0:0:0:
304,128,28306,2,0,P|259:131|217:116,1,90,8|8,0:3|0:1,0:0:0:0:
152,68,29215,5,2,3:2:0:0:
76,100,29670,1,8,3:2:0:0:
96,180,30125,2,0,L|88:296,1,90,2|8,3:2|3:2,0:0:0:0:
144,332,31034,2,0,P|216:352|272:312,2,135,2|2|8,3:2|0:2|3:2,0:0:0:0:
200,272,32852,5,2,3:2:0:0:
232,200,33306,1,8,3:2:0:0:
292,144,33761,2,0,P|356:140|396:160,1,90,2|8,3:2|3:2,0:0:0:0:
452,188,34670,2,0,B|432:260|432:260|464:340,2,135,2|2|8,3:2|0:2|3:2,0:0:0:0:
504,124,36488,6,0,P|460:108|388:136,1,90,2|8,3:2|3:2,0:0:0:0:
344,148,37397,2,0,P|300:132|228:160,1,90,2|8,3:2|3:2,0:0:0:0:
184,176,38306,2,0,L|36:184,2,135,2|2|10,3:2|0:2|3:2,0:0:0:0:
256,216,40125,6,0,P|336:204|388:296,1,180,2|0,3:2|3:2,0:0:0:0:
308,280,41488,1,10,3:2:0:0:
244,332,41943,2,0,B|120:332|120:332|80:284,1,180,2|0,3:2|3:2,0:0:0:0:
40,220,43306,1,8,0:1:0:0:
100,164,43761,6,0,P|160:172|216:144,1,90,8|8,3:1|3:1,0:0:0:0:
264,136,44670,2,0,L|372:148,1,90,8|8,3:1|3:1,0:0:0:0:
412,204,45579,1,8,3:1:0:0:
372,276,46034,1,8,3:1:0:0:
452,276,46488,2,0,P|488:236|488:176,1,90,8|8,3:1|3:1,0:0:0:0:
452,132,47397,6,0,L|444:28,2,90,8|8|8,3:1|3:1|3:1,0:0:0:0:
412,204,48761,1,8,3:1:0:0:
340,168,49215,2,0,P|291:179|243:172,1,90,8|8,3:1|3:1,0:0:0:0:
212,104,50125,2,0,P|172:164|228:256,1,180,8|10,3:1|3:1,0:0:0:0:
252,176,51488,5,10,3:1:0:0:
320,224,51943,2,0,P|364:228|404:208,1,90,10|10,3:1|3:1,0:0:0:0:
420,128,52852,1,10,3:1:0:0:
372,64,53306,1,10,3:1:0:0:
300,104,53761,2,0,L|172:116,1,90,10|10,3:1|3:1,0:0:0:0:
140,72,54670,6,0,B|128:104|128:104|140:184,1,90,10|10,3:1|3:1,0:0:0:0:
80,216,55579,2,0,B|68:248|68:248|80:328,1,90,10|10,3:1|3:1,0:0:0:0:
148,344,56488,2,0,B|208:328|208:328|268:336|268:336|340:316,1,180,0|0,3:1|3:1,0:0:0:0:
284,164,58306,6,0,P|224:144|172:152,1,90,6|0,3:2|1:2,0:0:0:0:
144,208,59215,1,0,3:2:0:0:
72,168,59670,2,0,P|20:152|92:116,1,180,2|2,1:2|1:2,0:0:0:0:
156,64,61034,2,0,P|204:72|264:68,1,90,2|2,3:2|1:2,0:0:0:0:
324,44,61943,2,0,B|356:72|356:72|352:240,1,180,2|0,3:2|3:2,0:0:0:0:
272,212,63306,2,0,B|268:336|268:336|216:312|216:312|100:336,1,270,2|2,1:2|3:2,0:0:0:0:
28,204,65579,6,0,P|16:144|32:104,1,90,2|0,3:2|1:2,0:0:0:0:
88,68,66488,1,0,3:2:0:0:
152,116,66943,2,0,L|360:112,1,180,2|2,1:2|1:2,0:0:0:0:
408,144,68306,1,2,3:2:0:0:
476,188,68761,1,2,1:2:0:0:
404,224,69215,6,0,P|368:276|400:364,2,135,2|2|2,3:2|0:2|1:2,0:0:0:0:
408,144,71034,2,0,L|392:55,1,90,8|10,0:3|0:3,0:0:0:0:
312,52,71943,2,0,L|296:140,1,90,8|8,0:3|0:1,0:0:0:0:
264,216,72852,6,0,P|192:184|120:272,1,180,6|0,3:2|3:2,0:0:0:0:
200,264,74215,2,0,B|239:303|239:303|363:303,1,180,2|2,1:2|1:2,0:0:0:0:
424,248,75579,2,0,P|436:200|418:158,1,90,2|2,3:2|1:2,0:0:0:0:
368,104,76488,5,2,3:2:0:0:
296,144,76943,1,2,1:2:0:0:
228,104,77397,2,0,P|216:152|232:192,1,90,2|2,3:2|1:2,0:0:0:0:
296,236,78306,1,2,3:2:0:0:
348,300,78761,2,0,B|308:328|264:312|264:312|224:292|160:320,1,180,2|2,1:2|1:2,0:0:0:0:
116,372,80125,6,0,P|98:287|164:233,1,180,2|0,3:2|3:2,0:0:0:0:
240,264,81488,2,0,B|272:228|272:228|260:84,1,180,2|2,1:2|1:2,0:0:0:0:
324,44,82852,2,0,P|376:52|444:36,1,90,2|2,3:2|1:2,0:0:0:0:
452,120,83761,6,0,B|436:144|436:144|448:232,1,90,2|2,3:2|1:2,0:0:0:0:
404,276,84670,2,0,B|380:260|380:260|292:272,1,90,2|2,3:2|1:2,0:0:0:0:
244,236,85579,1,2,0:1:0:0:
496,32,87397,6,0,B|408:8|408:8|296:44,1,180,2|8,3:2|0:2,0:0:0:0:
168,76,89215,2,0,L|184:172,1,90,2|2,0:2|0:2,0:0:0:0:
104,188,90125,2,0,L|128:308,1,90,10|10,0:2|0:2,0:0:0:0:
172,340,91034,6,0,P|264:316|332:360,1,180,2|8,3:2|0:2,0:0:0:0:
396,212,92852,1,2,0:2:0:0:
384,132,93306,1,2,0:2:0:0:
372,52,93761,2,0,P|324:68|256:48,1,90,10|10,0:2|0:2,0:0:0:0:
212,24,94670,6,0,L|252:212,1,180,2|8,3:2|0:2,0:0:0:0:
372,304,96488,2,0,L|484:288,1,90,2|2,0:2|0:2,0:0:0:0:
464,212,97397,2,0,L|356:228,1,90,10|10,0:2|0:2,0:0:0:0:
300,256,98306,5,2,3:2:0:0:
184,144,99215,2,0,B|136:156|136:156|96:224|96:224|40:240,1,180,10|2,3:2|3:2,0:0:0:0:
164,348,101034,1,8,0:3:0:0:
204,276,101488,1,4,0:3:0:0:
248,208,101943,6,0,L|344:204,1,90,2|8,3:2|3:2,0:0:0:0:
392,144,102852,1,0,3:2:0:0:
472,136,103306,1,10,3:2:0:0:
492,56,103761,2,0,L|320:64,2,135,2|0|10,3:2|0:0|3:2,0:0:0:0:
472,136,105579,6,0,P|428:152|372:132,1,90,2|8,3:2|3:2,0:0:0:0:
320,188,106488,2,0,P|276:178|235:194,1,90,0|10,3:2|3:2,0:0:0:0:
280,264,107397,2,0,P|212:276|156:216,2,135,2|0|10,3:2|0:0|3:2,0:0:0:0:
321,192,109215,6,0,L|306:103,1,90,2|8,3:2|3:2,0:0:0:0:
248,44,110125,1,0,3:2:0:0:
180,88,110579,1,10,3:2:0:0:
100,68,111034,2,0,P|104:124|128:152,1,90,2|10,3:2|3:2,0:0:0:0:
192,192,111943,2,0,B|244:196|244:196|304:172|304:172|384:180,1,180,2|2,3:2|3:2,0:0:0:0:
452,316,113761,5,2,3:2:0:0:
380,276,114215,2,0,P|308:268|256:296,1,90,10|2,3:2|3:2,0:0:0:0:
212,288,115125,1,8,3:2:0:0:
144,332,115579,2,0,B|118:299|142:247|142:247|162:207|134:159,1,180,0|8,3:2|3:1,0:0:0:0:
68,208,116943,5,8,3:1:0:0:
8,152,117397,2,0,L|4:40,1,90,8|8,3:1|3:1,0:0:0:0:
76,20,118306,1,8,3:1:0:0:
144,68,118761,1,8,3:1:0:0:
212,24,119215,2,0,P|228:64|212:120,1,90,8|8,3:1|3:1,0:0:0:0:
164,168,120125,6,0,L|52:164,2,90,8|8|8,3:1|3:1|3:1,0:0:0:0:
228,220,121488,1,8,3:1:0:0:
296,172,121943,2,0,P|312:212|296:268,1,90,8|8,3:1|3:1,0:0:0:0:
376,296,122852,2,0,P|396:212|344:100,1,180,8|10,3:1|3:1,0:0:0:0:
296,84,124215,5,10,3:1:0:0:
228,132,124670,2,0,P|212:184|224:232,1,90,10|10,3:1|3:1,0:0:0:0:
212,300,125579,1,10,3:1:0:0:
136,268,126034,1,10,3:1:0:0:
60,292,126488,2,0,L|68:200,1,90,10|10,3:1|3:1,0:0:0:0:
52,124,127397,6,0,P|104:136|160:116,1,90,10|10,3:1|3:1,0:0:0:0:
216,100,128306,2,0,P|259:92|302:104,1,90,10|10,3:1|3:1,0:0:0:0:
376,140,129215,2,0,P|416:220|364:320,1,180,0|0,3:1|3:1,0:0:0:0:
228,276,131034,6,0,L|232:172,1,90,6|0,3:2|1:2,0:0:0:0:
248,108,131943,1,0,3:2:0:0:
316,64,132397,2,0,P|392:80|336:128,1,180,2|2,1:2|1:2,0:0:0:0:
332,212,133761,2,0,P|376:212|432:184,1,90,2|2,3:2|1:2,0:0:0:0:
484,244,134670,2,0,B|452:288|452:288|312:308,1,180,2|0,3:2|3:2,0:0:0:0:
324,224,136034,2,0,B|280:224|240:256|228:312|260:356|260:356|216:336|148:380,1,270,2|2,1:2|3:2,0:0:0:0:
64,248,138306,6,0,L|56:132,1,90,2|0,3:2|1:2,0:0:0:0:
108,96,139215,1,0,3:2:0:0:
180,128,139670,2,0,P|264:140|340:60,1,180,2|2,1:2|1:2,0:0:0:0:
392,24,141034,1,2,3:2:0:0:
464,64,141488,1,2,1:2:0:0:
436,140,141943,6,0,L|448:292,2,135,2|2|2,3:2|0:2|1:2,0:0:0:0:
356,160,143761,2,0,L|266:163,1,90,8|10,0:3|0:3,0:0:0:0:
188,188,144670,2,0,L|184:76,1,90,8|8,0:3|0:1,0:0:0:0:
116,52,145579,6,0,P|196:16|268:96,1,180,6|0,3:2|3:2,0:0:0:0:
296,140,146943,2,0,P|384:160|480:136,1,180,2|2,1:2|1:2,0:0:0:0:
500,216,148306,2,0,L|484:308,1,90,2|2,3:2|1:2,0:0:0:0:
408,336,149215,5,2,3:2:0:0:
352,276,149670,1,2,1:2:0:0:
270,294,150125,2,0,L|280:204,1,90,2|2,3:2|1:2,0:0:0:0:
216,156,151034,1,2,3:2:0:0:
256,88,151488,2,0,B|306:76|342:96|342:96|382:120|429:98,1,180,2|2,1:2|1:2,0:0:0:0:
452,20,152852,6,0,P|510:82|476:168,1,180,2|0,3:2|3:2,0:0:0:0:
420,216,154215,2,0,P|340:204|216:244,1,180,2|2,1:2|1:2,0:0:0:0:
184,280,155579,2,0,L|68:272,1,90,2|2,3:2|1:2,0:0:0:0:
20,248,156488,6,0,B|0:220|0:220|0:140,1,90,2|2,3:2|1:2,0:0:0:0:
64,112,157397,2,0,B|84:140|84:140|84:220,1,90,2|2,3:2|1:2,0:0:0:0:
148,248,158306,1,2,0:1:0:0:
176,112,167397,6,0,P|256:76|344:128,1,180,2|2,3:1|3:1,0:0:0:0:
336,276,169215,2,0,P|256:312|168:260,1,180,2|2,3:1|3:1,0:0:0:0:
256,192,171034,12,4,174215,3:3:0:0:
192,276,176488,6,0,P|147:281|102:276,1,90,6|0,3:2|1:2,0:0:0:0:
44,220,177397,1,0,3:2:0:0:
52,140,177852,2,0,P|100:92|112:176,1,180,2|2,1:2|1:2,0:0:0:0:
192,212,179215,2,0,L|304:200,1,90,2|2,3:2|1:2,0:0:0:0:
348,156,180125,2,0,B|384:240|384:240|340:340,1,180,2|0,3:2|3:2,0:0:0:0:
268,340,181488,2,0,B|180:366|180:366|204:282|204:282|180:194,1,270,2|2,1:2|3:2,0:0:0:0:
340,208,183761,6,0,L|352:116,1,90,2|0,3:2|1:2,0:0:0:0:
292,64,184670,1,0,3:2:0:0:
248,136,185125,2,0,B|208:180|208:180|88:180,1,180,2|2,1:2|1:2,0:0:0:0:
32,120,186488,1,2,3:2:0:0:
64,44,186943,1,2,1:2:0:0:
144,32,187397,6,0,P|216:44|308:16,2,135,2|2|2,3:2|0:2|1:2,0:0:0:0:
64,44,189215,2,0,P|52:100|64:144,1,90,8|10,0:3|0:3,0:0:0:0:
104,200,190125,2,0,P|160:212|204:200,1,90,8|8,0:3|0:1,0:0:0:0:
264,164,191034,6,0,B|352:192|352:192|456:168,1,180,6|0,3:2|3:2,0:0:0:0:
444,92,192397,2,0,B|356:112|356:112|252:80,1,180,2|2,1:2|1:2,0:0:0:0:
196,120,193761,2,0,P|184:168|200:216,1,90,2|2,3:2|1:2,0:0:0:0:
220,284,194670,5,2,3:2:0:0:
156,332,195125,1,2,1:2:0:0:
80,308,195579,2,0,B|60:264|60:264|60:212,1,90,2|2,3:2|1:2,0:0:0:0:
96,148,196488,1,2,3:2:0:0:
48,84,196943,2,0,B|84:56|132:76|132:76|184:96|236:52,1,180,2|2,1:2|1:2,0:0:0:0:
280,12,198306,6,0,P|300:80|220:148,1,180,2|0,3:2|3:2,0:0:0:0:
160,196,199670,2,0,P|176:284|80:332,1,180,2|2,1:2|1:2,0:0:0:0:
100,252,201034,2,0,P|80:184|92:152,1,90,2|2,3:2|1:2,0:0:0:0:
148,116,201943,6,0,B|192:104|192:104|228:56,1,90,2|2,3:2|1:2,0:0:0:0:
280,124,202852,2,0,B|306:88|306:88|350:76,1,90,2|2,3:2|1:2,0:0:0:0:
432,68,203761,1,2,0:1:0:0:
188,280,205579,6,0,P|248:308|336:272,1,135,6|0,0:0|0:0,0:0:0:0:
468,332,207170,2,0,L|440:184,1,135,2|2,0:0|0:0,0:0:0:0:
364,212,208306,2,0,P|368:168|408:128,1,90,2|2,0:0|0:0,0:0:0:0:
388,52,209215,6,0,P|304:68|240:40,1,135,2|0,0:0|0:0,0:0:0:0:
108,108,210806,1,2,0:0:0:0:
144,180,211261,2,0,L|136:260,2,45,2|2|0,0:0|0:0|0:0,0:0:0:0:
