osu file format v14

[General]
AudioFilename: audio.mp3
AudioLeadIn: 0
PreviewTime: 85573
Countdown: 0
SampleSet: Soft
StackLeniency: 0.3
Mode: 0
LetterboxInBreaks: 0
WidescreenStoryboard: 1

[Editor]
Bookmarks: 116482
DistanceSpacing: 1.6
BeatDivisor: 4
GridSize: 4
TimelineZoom: 1.7

[Metadata]
Title:FANCY
TitleUnicode:FANCY
Artist:TWICE
ArtistUnicode:트와이스
Creator:Fragmented
Version:Charm & Lukas' Insane
Source:
Tags:charmcaster dora- doraemonelf funnya [_l_u_k_a_s_] lukas hokichi irreversible iyiyo jyp entertainment korea korean kpop k-pop comeback 7th mini album fancy you nayeon jeongyeon momo sana jihyo mina dahyun chaeyoung tzuyu 나연 정연 모모 사나 지효 미나 다현 채영 쯔위
BeatmapID:2018247
BeatmapSetID:960258

[Difficulty]
HPDrainRate:6
CircleSize:3.5
OverallDifficulty:7.6
ApproachRate:9
SliderMultiplier:1.5
SliderTickRate:1

[Events]
//Background and Video events
Video,-1774,"TWICE FANCY MV.mp4"
0,0,"nayeon.jpg",0,0
//Break Periods
2,160125,166343
//Storyboard Layer 0 (Background)
//Storyboard Layer 1 (Fail)
//Storyboard Layer 2 (Pass)
//Storyboard Layer 3 (Foreground)
//Storyboard Layer 4 (Overlay)
//Storyboard Sound Samples

[TimingPoints]
125,454.545454545455,4,2,1,60,1,0
352,-125,4,2,1,60,0,0
6943,-250,4,2,1,60,0,0
7397,-111.111111111111,4,2,1,65,0,0
7852,-83.3333333333333,4,2,1,65,0,0
8306,-111.111111111111,4,2,1,65,0,0
8761,-83.3333333333333,4,2,1,65,0,0
9215,-111.111111111111,4,2,1,65,0,0
9670,-83.3333333333333,4,2,1,65,0,0
10125,-111.111111111111,4,2,1,65,0,0
10579,-83.3333333333333,4,2,1,65,0,0
11034,-111.111111111111,4,2,1,65,0,0
11488,-100,4,2,1,65,0,0
11943,-90.9090909090909,4,2,1,65,0,0
12397,-83.3333333333333,4,2,1,65,0,0
14215,-100,4,2,1,65,0,0
14670,-100,4,2,2,55,0,0
16715,-100,4,2,99,5,0,0
16829,-100,4,2,2,55,0,0
17056,-100,4,2,99,5,0,0
17170,-100,4,2,2,55,0,0
17852,-200,4,2,2,55,0,0
18192,-200,4,2,99,5,0,0
18306,-100,4,2,2,55,0,0
20352,-100,4,2,99,5,0,0
20465,-100,4,2,2,55,0,0
20692,-100,4,2,99,5,0,0
20806,-100,4,2,2,55,0,0
27283,-100,4,2,99,5,0,0
27397,-100,4,2,1,65,0,0
28761,-66.6666666666667,4,2,1,65,0,0
29215,-100,4,2,6,60,0,0
31943,-80,4,2,6,60,0,0
32056,-80,4,2,99,5,0,0
32170,-80,4,2,6,60,0,0
32283,-80,4,2,99,5,0,0
32397,-80,4,2,6,60,0,0
32852,-100,4,2,6,60,0,0
35579,-80,4,2,6,60,0,0
35692,-80,4,2,99,5,0,0
35806,-80,4,2,6,60,0,0
35919,-80,4,2,99,5,0,0
36034,-80,4,2,6,60,0,0
36488,-100,4,2,6,60,0,0
43079,-100,4,2,1,65,0,0
43419,-100,4,2,99,5,0,0
43534,-100,4,2,1,65,0,0
43647,-100,4,2,99,5,0,0
43761,-100,4,2,2,55,0,0
44897,-80,4,2,2,55,0,0
47397,-100,4,2,2,55,0,0
50238,-100,4,2,99,5,0,0
50352,-100,4,2,66,60,0,0
50579,-100,4,2,2,60,0,0
50692,-100,4,2,99,5,0,0
50806,-100,4,2,66,60,0,0
51034,-100,4,2,2,60,0,0
54670,-100,4,2,2,65,0,0
55579,-100,4,2,2,70,0,0
56488,-100,4,2,2,80,0,0
57852,-125,4,2,2,80,0,0
58306,-90.9090909090909,4,2,3,75,0,1
64670,-50,4,2,3,75,0,1
65579,-90.9090909090909,4,2,3,75,0,1
71034,-90.9090909090909,4,2,1,70,0,1
72397,-50,4,2,1,70,0,0
72852,-83.3333333333333,4,2,3,75,0,1
75465,-83.3333333333333,4,2,99,5,0,1
75579,-83.3333333333333,4,2,3,75,0,1
75692,-83.3333333333333,4,2,99,5,0,1
75806,-83.3333333333333,4,2,3,75,0,1
75919,-83.3333333333333,4,2,99,5,0,1
76034,-83.3333333333333,4,2,3,75,0,1
76147,-83.3333333333333,4,2,99,5,0,1
76261,-83.3333333333333,4,2,3,75,0,1
76374,-83.3333333333333,4,2,99,5,0,1
76488,-83.3333333333333,4,2,3,75,0,1
82738,-83.3333333333333,4,2,99,5,0,1
82852,-83.3333333333333,4,2,3,75,0,1
82965,-83.3333333333333,4,2,99,5,0,1
83079,-83.3333333333333,4,2,3,75,0,1
83192,-83.3333333333333,4,2,99,5,0,1
83306,-83.3333333333333,4,2,3,75,0,1
83419,-83.3333333333333,4,2,99,5,0,1
83534,-83.3333333333333,4,2,3,75,0,1
83647,-83.3333333333333,4,2,99,5,0,1
83761,-83.3333333333333,4,2,3,75,0,1
85579,-50,4,2,33,75,0,0
85692,-50,4,2,99,5,0,0
85806,-200,4,2,33,75,0,0
86033,-200,4,2,33,5,0,0
86715,-200,4,2,33,75,0,0
86828,-200,4,2,99,5,0,0
86943,-50,4,2,33,75,0,0
87283,-50,4,2,99,5,0,0
87397,-125,4,2,4,65,0,0
88079,-66.6666666666667,4,2,4,65,0,0
89215,-125,4,2,4,65,0,0
91034,-66.6666666666667,4,2,4,65,0,0
91943,-125,4,2,4,65,0,0
92965,-66.6666666666667,4,2,4,65,0,0
95579,-125,4,2,4,65,0,0
100125,-66.6666666666667,4,2,4,65,0,0
101034,-66.6666666666667,4,2,1,70,0,0
101943,-100,4,2,6,65,0,0
104670,-66.6666666666667,4,2,6,65,0,0
105579,-100,4,2,6,65,0,0
107511,-66.6666666666667,4,2,6,65,0,0
108192,-66.6666666666667,4,2,99,5,0,0
108306,-100,4,2,6,65,0,0
111943,-66.6666666666667,4,2,6,65,0,0
112852,-83.3333333333333,4,2,6,65,0,0
113761,-100,4,2,6,65,0,0
115806,-100,4,2,1,65,0,0
116488,-100,4,2,2,55,0,0
117625,-83.3333333333333,4,2,2,55,0,0
119215,-100,4,2,2,55,0,0
123079,-100,4,2,66,60,0,0
123306,-100,4,2,2,60,0,0
123534,-100,4,2,66,60,0,0
123761,-100,4,2,2,60,0,0
127397,-100,4,2,2,65,0,0
128306,-100,4,2,2,70,0,0
129215,-100,4,2,2,80,0,0
131034,-100,4,2,3,75,0,1
131715,-90.9090909090909,4,2,3,75,0,1
137397,-66.6666666666667,4,2,3,75,0,1
138306,-90.9090909090909,4,2,3,75,0,1
143761,-90.9090909090909,4,2,1,70,0,1
145125,-50,4,2,1,70,0,0
145579,-83.3333333333333,4,2,3,75,0,1
158306,-100,4,2,33,75,0,0
166943,-100,4,2,5,55,0,0
167397,-100,4,2,2,60,0,0
171034,-100,4,2,2,70,0,0
171943,-100,4,2,2,80,0,0
172852,-100,4,2,2,90,0,0
176488,-90.9090909090909,4,2,3,75,0,1
182852,-66.6666666666667,4,2,3,75,0,1
183761,-90.9090909090909,4,2,3,75,0,1
189215,-90.9090909090909,4,2,1,70,0,1
190579,-50,4,2,1,70,0,0
191034,-83.3333333333333,4,2,3,75,0,1
203761,-50,4,2,33,75,0,0
203874,-50,4,2,99,5,0,0
203988,-200,4,2,33,75,0,0
204215,-200,4,2,99,5,0,0
204897,-200,4,2,33,75,0,0
205010,-200,4,2,99,5,0,0
205125,-50,4,2,33,75,0,0
205465,-50,4,2,99,5,0,0
205579,-50,4,2,1,60,0,0
205806,-125,4,2,1,60,0,0

[Colours]
Combo1 : 255,128,128
Combo2 : 128,0,255
Combo3 : 255,0,255
Combo4 : 255,198,255
Combo5 : 70,0,140
Combo6 : 255,0,0
SliderBorder : 246,172,207
SliderTrackOverride : 30,30,30

[HitObjects]
480,272,125,5,2,2:0:0:0:
380,232,352,2,0,L|252:240,1,120,0|0,2:0|2:0,2:0:0:0:
56,80,1715,2,0,P|128:56|188:80,1,120,2|2,2:0|2:0,2:0:0:0:
80,200,2397,2,0,P|112:160|148:144,1,60,2|0,2:0|2:0,2:0:0:0:
144,348,2852,1,2,2:0:0:0:
52,300,3079,1,2,2:0:0:0:
256,328,3306,6,0,L|264:332,1,7.5,2|0,2:0|2:0,2:0:0:0:
288,88,3761,5,2,2:0:0:0:
372,156,3988,2,0,L|500:148,1,120,0|0,2:0|2:0,2:0:0:0:
256,328,5352,2,0,P|208:300|120:312,1,120,2|2,2:0|2:0,2:0:0:0:
164,180,6034,2,0,P|112:184|80:200,1,60,2|0,2:0|2:0,2:0:0:0:
24,116,6488,1,2,2:0:0:0:
224,96,6715,1,2,2:0:0:0:
116,20,6943,6,0,L|120:72,1,45,2|0,2:0|2:0,2:0:0:0:
156,98,7397,6,0,L|248:94,1,67.4999979400635,2|8,2:0|2:0,2:0:0:0:
304,128,7738,1,0,2:0:0:0:
304,128,7852,2,0,P|304:200|320:252,1,89.9999972534181,0|8,2:0|2:0,2:0:0:0:
212,336,8306,2,0,L|120:340,1,67.4999979400635,0|8,2:0|2:0,2:0:0:0:
64,306,8647,1,0,2:0:0:0:
64,306,8761,2,0,P|64:234|48:182,1,89.9999972534181,0|10,2:0|2:0,2:0:0:0:
184,84,9215,6,0,L|184:180,1,67.4999979400635,0|10,2:0|2:0,2:0:0:0:
240,220,9556,1,0,2:0:0:0:
240,220,9670,2,0,P|308:224|360:200,1,89.9999972534181,2|8,2:0|2:0,2:0:0:0:
492,168,10125,2,0,L|492:256,1,67.4999979400635,2|10,2:0|2:0,2:0:0:0:
436,304,10465,1,0,2:0:0:0:
436,304,10579,2,0,P|368:308|316:284,1,89.9999972534181,2|8,2:0|2:0,2:0:0:0:
400,116,11034,6,0,P|448:92|492:92,1,67.4999979400635,2|8,2:0|2:0,2:0:0:0:
296,224,11488,2,0,P|259:218|227:198,1,75,0|8,2:0|2:0,2:0:0:0:
276,16,11943,2,0,P|289:50|286:97,1,82.5000025177003,0|8,2:0|2:0,2:0:0:0:
104,148,12397,2,0,P|127:119|183:93,1,89.9999972534181,0|8,2:0|2:0,2:0:0:0:
184,272,12852,5,8,2:3:0:0:
180,280,12965,1,8,2:3:0:0:
176,288,13079,1,8,2:3:0:0:
172,300,13193,1,8,2:3:0:0:
168,312,13306,1,8,2:3:0:0:
128,328,13420,1,8,2:3:0:0:
80,324,13534,1,0,3:2:0:0:
44,288,13647,1,8,2:3:0:0:
40,236,13761,5,8,2:3:0:0:
76,164,13875,1,8,2:3:0:0:
152,144,13988,1,8,2:3:0:0:
228,168,14102,1,8,2:3:0:0:
304,196,14215,2,0,P|372:200|396:196,1,75,8|0,2:1|3:2,2:0:0:0:
488,36,14670,6,0,P|392:56|372:68,2,112.5,0|0|8,3:2|3:2|2:3,2:0:0:0:
252,40,15579,2,0,L|244:168,2,112.5,0|2|2,2:0|2:0|2:0,2:0:0:0:
144,328,16488,2,0,L|132:224,1,75,0|0,3:2|2:0,2:0:0:0:
76,192,16829,2,0,L|64:88,1,75,0|0,3:2|2:0,2:0:0:0:
96,32,17170,1,0,3:2:0:0:
252,160,17397,1,0,2:0:0:0:
252,160,17852,6,0,L|316:152,1,56.25,0|0,2:0|2:0,2:0:0:0:
384,124,18306,6,0,L|376:236,2,112.5,0|0|8,3:2|3:2|2:3,2:0:0:0:
288,360,19215,2,0,P|264:308|284:248,2,112.5,0|2|2,2:0|2:0|2:0,2:0:0:0:
180,220,20125,2,0,P|136:216|88:228,1,75,0|0,3:2|2:0,2:0:0:0:
180,144,20465,2,0,P|136:140|88:152,1,75,0|0,3:2|2:0,2:0:0:0:
184,64,20806,1,0,3:2:0:0:
392,180,21034,1,0,2:0:0:0:
280,36,21261,5,0,2:0:0:0:
284,44,21375,1,0,2:0:0:0:
368,16,21715,1,0,2:0:0:0:
353,251,21943,6,0,P|297:247|233:251,2,112.5,0|0|8,3:2|3:2|2:3,2:0:0:0:
156,152,22852,2,0,B|116:168|116:168|12:156,2,112.5,0|2|2,2:0|2:0|2:0,2:0:0:0:
432,40,23761,6,0,L|424:132,1,75,0|0,3:2|2:0,2:0:0:0:
340,140,24102,2,0,L|356:268,1,112.5,0|0,3:2|3:2,2:0:0:0:
80,328,24897,5,0,2:0:0:0:
88,300,25125,1,0,2:0:0:0:
108,324,25352,1,0,2:0:0:0:
124,128,25579,6,0,P|72:136|4:120,2,112.5,0|0|8,3:2|3:2|2:3,2:0:0:0:
316,48,26715,1,0,2:0:0:0:
280,68,26829,2,0,L|192:64,1,75,2|0,2:0|2:0,2:0:0:0:
296,152,27170,2,0,L|232:148,1,37.5,2|0,2:0|2:0,2:0:0:0:
320,232,27397,5,8,2:3:0:0:
348,224,27511,1,8,2:3:0:0:
376,216,27625,1,8,2:3:0:0:
404,208,27738,1,8,2:3:0:0:
408,296,27852,5,8,2:3:0:0:
380,304,27965,1,8,2:3:0:0:
352,312,28079,1,0,3:2:0:0:
324,320,28193,1,8,2:3:0:0:
244,284,28306,5,8,2:3:0:0:
196,280,28420,1,8,2:3:0:0:
148,276,28534,1,8,2:3:0:0:
100,268,28647,1,8,2:3:0:0:
52,260,28761,2,0,P|56:212|76:172,1,56.2500021457673,8|0,2:1|2:0,2:0:0:0:
180,116,28988,2,0,P|176:164|156:204,1,56.2500021457673,0|0,3:2|2:0,2:0:0:0:
24,36,29215,6,0,L|152:28,1,112.5,2|0,3:2|2:0,2:0:0:0:
216,40,29670,1,8,3:2:0:0:
152,192,29897,1,2,2:0:0:0:
440,140,30125,2,0,L|312:132,1,112.5,2|2,3:2|2:0,2:0:0:0:
248,144,30579,1,8,3:2:0:0:
312,296,30806,1,2,2:0:0:0:
100,276,31034,6,0,P|172:288|224:264,1,112.5,2|2,3:2|2:0,2:0:0:0:
272,224,31488,1,8,3:2:0:0:
432,264,31715,1,2,2:0:0:0:
296,96,31943,6,0,L|236:100,1,46.875,2|0,3:2|2:0,2:0:0:0:
232,128,32170,2,0,L|292:124,1,46.875,0|0,2:0|2:0,2:0:0:0:
316,16,32397,2,0,L|216:24,1,93.75,8|2,3:2|2:0,2:0:0:0:
72,224,32852,6,0,L|208:236,1,112.5,2|2,3:2|2:0,2:0:0:0:
248,296,33306,1,8,3:2:0:0:
276,128,33534,1,2,2:0:0:0:
480,224,33761,6,0,L|344:236,1,112.5,2|2,3:2|2:0,2:0:0:0:
304,296,34215,1,8,3:2:0:0:
276,128,34443,1,2,2:0:0:0:
112,64,34670,6,0,B|96:72|96:72|92:184,2,112.5,2|2|2,3:2|2:0|2:0,2:0:0:0:
188,232,35579,6,0,L|192:304,1,46.875,2|0,3:2|2:0,2:0:0:0:
224,288,35806,2,0,L|220:216,1,46.875,0|0,2:0|2:0,2:0:0:0:
96,212,36034,2,0,L|104:316,1,93.75,8|2,3:2|2:0,2:0:0:0:
336,336,36488,6,0,P|356:296|352:248,1,75,2|0,3:2|2:0,2:0:0:0:
392,176,36829,2,0,L|336:188,1,37.5,2|8,2:0|3:2,2:0:0:0:
252,64,37170,1,2,2:0:0:0:
176,336,37397,2,0,P|156:296|160:248,1,75,2|0,3:2|2:0,2:0:0:0:
120,176,37738,2,0,L|176:188,1,37.5,2|8,2:0|3:2,2:0:0:0:
336,100,38079,1,2,2:0:0:0:
124,80,38306,6,0,P|76:92|36:128,1,75,2|0,3:2|2:0,2:0:0:0:
16,180,38647,1,0,2:0:0:0:
16,180,38761,1,10,3:2:0:0:
176,316,38988,2,0,P|125:306|177:302,1,150,2|2,2:0|2:0,2:0:0:0:
344,232,39670,1,10,3:2:0:0:
336,288,39784,1,0,2:0:0:0:
328,344,39897,1,2,2:0:0:0:
160,132,40125,6,0,L|280:120,1,112.5,2|2,3:2|2:0,2:0:0:0:
360,100,40579,2,0,L|348:204,1,75,8|0,3:2|2:0,2:0:0:0:
248,304,41034,1,0,3:2:0:0:
444,216,41261,1,2,2:0:0:0:
260,208,41488,1,10,3:2:0:0:
216,216,41602,1,0,2:0:0:0:
172,224,41715,1,2,2:0:0:0:
0,64,41943,6,0,P|64:60|124:88,1,112.5,2|2,3:2|2:0,2:0:0:0:
176,132,42397,1,8,3:2:0:0:
48,344,42625,2,0,B|28:316|28:316|44:192,1,150,2|8,2:0|2:3,2:0:0:0:
132,240,43193,1,8,2:3:0:0:
132,240,43306,2,0,L|204:236,1,37.5,8|0,2:1|2:0,2:0:0:0:
228,328,43534,2,0,L|156:324,1,37.5,0|0,3:2|2:0,2:0:0:0:
320,208,43761,5,8,3:1:0:0:
380,284,43988,1,0,2:0:0:0:
504,176,44215,2,0,L|508:88,1,75,8|0,3:1|2:0,2:0:0:0:
416,16,44670,1,8,3:1:0:0:
244,128,44897,6,0,P|188:132|252:80,1,187.5,0|0,2:0|2:0,2:0:0:0:
8,208,45579,5,8,3:1:0:0:
60,36,45806,1,0,2:0:0:0:
4,184,46034,5,8,3:1:0:0:
48,324,46261,1,0,2:0:0:0:
264,276,46488,5,8,3:1:0:0:
68,348,46715,1,0,2:0:0:0:
272,248,46943,5,8,3:1:0:0:
412,308,47170,1,0,2:0:0:0:
204,192,47397,6,0,P|232:168|284:164,1,75,8|0,3:1|2:0,2:0:0:0:
440,252,47852,2,0,L|432:332,1,75,8|0,3:1|2:0,2:0:0:0:
408,92,48306,1,8,3:1:0:0:
276,216,48534,5,0,2:0:0:0:
304,244,48761,1,8,3:1:0:0:
316,204,48988,2,0,L|304:116,1,75,0|8,2:0|3:1,2:0:0:0:
112,68,49443,1,0,2:0:0:0:
324,100,49670,1,8,3:1:0:0:
64,152,49897,1,0,2:0:0:0:
152,324,50125,6,0,L|160:260,1,37.5,8|0,3:1|2:0,2:0:0:0:
172,200,50352,1,8,2:3:0:0:
240,352,50579,2,0,L|248:288,1,37.5,8|0,3:1|2:0,2:0:0:0:
260,228,50806,1,4,2:3:0:0:
424,72,51034,6,0,L|436:176,2,75,10|2|10,3:1|2:1|3:1,2:0:0:0:
224,68,51715,1,2,2:1:0:0:
416,32,51943,1,10,3:1:0:0:
232,164,52170,1,2,2:1:0:0:
324,24,52397,1,10,3:1:0:0:
292,252,52625,1,2,2:1:0:0:
292,252,52738,1,2,2:1:0:0:
292,252,52852,5,10,3:1:0:0:
88,216,53079,1,2,2:1:0:0:
256,348,53306,1,10,3:1:0:0:
208,188,53534,1,2,2:1:0:0:
208,188,53647,1,2,2:1:0:0:
208,188,53761,1,10,3:1:0:0:
88,324,53988,1,2,2:1:0:0:
100,104,54215,1,10,3:1:0:0:
36,232,54443,1,2,2:1:0:0:
36,232,54556,1,2,2:1:0:0:
36,232,54670,6,0,L|24:296,1,37.5,10|2,3:1|2:1,2:0:0:0:
124,188,54897,2,0,L|112:252,1,37.5,2|2,3:1|2:1,2:0:0:0:
214,151,55125,2,0,L|202:215,1,37.5,10|2,3:1|2:1,2:0:0:0:
303,119,55352,2,0,L|291:183,1,37.5,2|2,3:1|2:1,2:0:0:0:
268,292,55579,6,0,L|340:288,1,37.5,10|2,3:1|2:1,2:0:0:0:
456,232,55806,2,0,L|384:228,1,37.5,2|2,3:1|2:1,2:0:0:0:
297,156,56034,2,0,L|369:152,1,37.5,10|2,3:1|2:1,2:0:0:0:
488,80,56261,2,0,L|416:76,1,37.5,2|2,3:1|2:1,2:0:0:0:
312,32,56488,5,0,3:1:0:0:
272,65,56602,1,0,3:1:0:0:
222,81,56715,1,0,3:1:0:0:
170,76,56829,1,0,3:1:0:0:
124,52,56943,1,0,3:1:0:0:
139,110,57056,1,0,3:1:0:0:
136,169,57170,1,0,3:1:0:0:
115,225,57284,1,0,3:1:0:0:
79,273,57397,5,0,3:1:0:0:
88,296,57852,2,0,L|152:292,1,60,0|0,2:0|2:0,2:0:0:0:
380,148,58306,6,0,P|368:208|376:264,1,82.5000025177003,6|2,3:2|2:0,2:0:0:0:
404,312,58647,1,0,2:0:0:0:
404,312,58761,1,0,1:2:0:0:
236,188,58988,2,0,P|196:196|148:180,1,82.5000025177003,2|0,2:0|3:2,2:0:0:0:
116,96,59329,2,0,P|156:88|204:104,1,82.5000025177003,2|0,2:0|2:0,2:0:0:0:
60,168,59670,2,0,P|28:120|68:24,1,165.000005035401,2|0,1:2|3:2,2:0:0:0:
336,28,60352,2,0,L|328:96,1,41.2500012588501,2|0,2:0|2:0,2:0:0:0:
368,156,60579,6,0,L|484:132,1,82.5000025177003,2|2,1:2|2:0,2:0:0:0:
296,272,61034,2,0,L|232:264,1,41.2500012588501,2|0,3:2|2:0,2:0:0:0:
132,332,61261,2,0,L|196:340,1,41.2500012588501,2|0,2:0|2:0,2:0:0:0:
160,236,61488,1,2,1:2:0:0:
32,348,61715,1,2,2:0:0:0:
128,116,61943,6,0,L|240:100,1,82.5000025177003,2|0,3:2|2:0,2:0:0:0:
292,140,62284,1,0,2:0:0:0:
292,140,62397,1,0,1:2:0:0:
32,216,62625,2,0,L|40:40,1,165.000005035401,2|0,2:0|2:0,2:0:0:0:
136,260,63306,2,0,P|128:280|72:320,1,82.5000025177003,2|0,1:2|2:0,2:0:0:0:
280,228,63761,2,0,L|384:236,1,82.5000025177003,0|2,3:2|2:0,2:0:0:0:
432,308,64102,2,0,L|376:328,1,41.2500012588501,0|2,2:0|1:2,2:0:0:0:
488,172,64443,1,0,2:0:0:0:
284,48,64670,6,0,P|324:88|276:56,2,150,2|2|2,3:2|2:0|1:2,2:0:0:0:
156,32,65352,1,2,2:0:0:0:
48,224,65579,6,0,L|156:212,1,82.5000025177003,2|0,3:2|2:0,2:0:0:0:
204,148,65920,1,2,2:0:0:0:
204,148,66034,1,0,1:2:0:0:
372,320,66261,2,0,L|272:312,1,82.5000025177003,2|0,2:0|3:2,2:0:0:0:
428,236,66602,2,0,L|328:228,1,82.5000025177003,2|0,2:0|2:0,2:0:0:0:
476,152,66943,2,0,L|376:144,2,82.5000025177003,2|0|0,1:2|2:0|3:2,2:0:0:0:
208,32,67625,6,0,L|232:100,1,41.2500012588501,2|0,2:0|2:0,2:0:0:0:
264,160,67852,1,2,1:2:0:0:
48,224,68079,1,2,2:0:0:0:
264,256,68306,1,2,3:2:0:0:
92,312,68534,1,2,2:0:0:0:
144,128,68761,1,2,1:2:0:0:
224,368,68988,1,2,2:0:0:0:
396,228,69215,6,0,P|412:172|396:124,1,82.5000025177003,2|0,3:2|2:0,2:0:0:0:
360,64,69556,1,0,2:0:0:0:
360,64,69670,1,0,1:2:0:0:
272,224,69897,2,0,L|280:332,2,82.5000025177003,2|0|0,2:0|3:2|2:0,2:0:0:0:
168,32,70579,6,0,P|84:24|24:44,1,123.75000377655,2|0,1:2|2:0,2:0:0:0:
8,120,71034,5,8,2:3:0:0:
12,160,71147,1,8,2:3:0:0:
16,204,71261,1,10,2:3:0:0:
20,244,71375,1,8,2:3:0:0:
96,296,71488,5,10,2:3:0:0:
137,263,71602,1,8,2:3:0:0:
178,230,71715,1,0,3:2:0:0:
219,197,71829,1,8,2:3:0:0:
240,104,71943,2,0,P|268:108|300:125,1,41.2500012588501,8|8,2:3|2:3,2:0:0:0:
444,172,72170,2,0,P|415:167|383:150,1,41.2500012588501,8|8,2:3|2:3,2:0:0:0:
288,300,72397,6,0,B|336:272|336:272|440:284,1,150,8|0,2:1|3:2,2:0:0:0:
84,172,72852,6,0,B|68:128|68:128|92:28,1,134.999995880127,6|2,3:2|2:0,2:0:0:0:
188,32,73306,2,0,L|168:132,1,89.9999972534181,2|2,1:2|2:0,2:0:0:0:
288,328,73761,1,0,3:2:0:0:
128,216,73988,1,2,2:0:0:0:
284,100,74215,1,2,1:2:0:0:
172,324,74443,1,2,2:0:0:0:
416,264,74670,5,2,3:2:0:0:
408,224,74784,1,2,2:0:0:0:
400,188,74897,1,2,2:0:0:0:
392,148,75011,1,2,2:0:0:0:
384,112,75125,1,2,1:2:0:0:
108,80,75352,6,0,P|136:92|172:88,1,44.999998626709,2|0,2:0|2:0,2:0:0:0:
304,80,75579,2,0,P|276:68|240:72,1,44.999998626709,2|0,3:2|2:0,2:0:0:0:
116,224,75806,2,0,P|145:215|170:188,1,44.999998626709,2|0,2:0|2:0,2:0:0:0:
266,98,76034,2,0,P|236:106|211:133,1,44.999998626709,2|0,1:2|2:0,2:0:0:0:
236,288,76261,2,0,P|252:262|254:225,1,44.999998626709,2|0,2:0|2:0,2:0:0:0:
342,149,76488,6,0,P|370:184|380:227,1,89.9999972534181,2|2,3:2|2:0,2:0:0:0:
332,312,76829,1,2,2:0:0:0:
332,312,76943,1,2,1:2:0:0:
99,262,77170,2,0,L|167:254,1,44.999998626709,2|0,2:0|2:0,2:0:0:0:
227,202,77397,2,0,P|243:254|231:298,1,89.9999972534181,2|2,3:2|2:0,2:0:0:0:
72,140,77852,2,0,P|56:88|68:44,1,89.9999972534181,2|2,1:2|2:0,2:0:0:0:
304,60,78306,5,2,3:2:0:0:
344,56,78420,1,2,2:0:0:0:
384,52,78534,1,2,2:0:0:0:
428,48,78647,1,2,2:0:0:0:
464,44,78761,1,2,1:2:0:0:
228,176,78988,2,0,P|172:128|172:16,1,179.999994506836,2|2,2:0|2:0,2:0:0:0:
116,200,79670,2,0,P|160:244|192:260,1,89.9999972534181,2|2,1:2|2:0,2:0:0:0:
436,148,80125,6,0,B|460:176|460:176|448:280,1,134.999995880127,2|2,3:2|2:0,2:0:0:0:
364,324,80579,2,0,L|352:227,1,89.9999972534181,2|2,1:2|2:0,2:0:0:0:
144,108,81034,1,0,3:2:0:0:
348,200,81261,1,2,2:0:0:0:
228,312,81488,1,2,1:2:0:0:
316,88,81715,1,2,2:0:0:0:
96,204,81943,5,2,3:2:0:0:
88,240,82056,1,2,2:0:0:0:
80,280,82170,1,2,2:0:0:0:
72,320,82284,1,2,2:0:0:0:
64,356,82397,1,2,1:2:0:0:
232,280,82625,6,0,P|280:276|312:284,1,44.999998626709,2|0,2:0|2:0,2:0:0:0:
488,256,82852,2,0,P|440:252|408:260,1,44.999998626709,2|0,3:2|2:0,2:0:0:0:
252,184,83079,2,0,P|299:188|330:201,1,44.999998626709,2|0,2:0|2:0,2:0:0:0:
456,152,83306,2,0,P|408:156|377:169,1,44.999998626709,2|0,1:2|2:0,2:0:0:0:
292,92,83534,2,0,P|338:104|365:123,1,44.999998626709,2|0,2:0|2:0,2:0:0:0:
168,200,83761,6,0,P|108:204|72:184,1,89.9999972534181,2|2,3:2|2:0,2:0:0:0:
24,116,84102,1,2,2:0:0:0:
24,116,84215,1,2,1:2:0:0:
144,16,84443,1,2,2:0:0:0:
260,200,84670,2,0,L|248:308,1,89.9999972534181,2|2,3:2|2:0,2:0:0:0:
388,112,85125,2,0,L|400:4,1,89.9999972534181,2|2,1:2|2:0,2:0:0:0:
500,288,85579,6,0,B|464:300|464:300|392:292,1,75,2|0,2:1|2:0,2:0:0:0:
328,276,85806,6,0,L|336:324,1,37.5,0|0,2:0|2:0,2:0:0:0:
124,152,86715,6,0,L|120:184,1,18.75,2|0,2:0|2:0,2:0:0:0:
40,124,86943,6,0,P|124:64|212:152,1,225,4|0,2:0|2:0,2:0:0:0:
200,216,87397,6,0,L|192:296,1,60,2|0,3:2|2:0,2:0:0:0:
292,172,87738,2,0,L|284:252,1,60,2|0,3:2|2:0,2:0:0:0:
444,312,88079,2,0,B|408:296|408:296|316:316,1,112.500004291535,0|8,3:2|2:2,2:0:0:0:
492,228,88534,1,0,2:2:0:0:
332,336,88761,1,2,1:2:0:0:
432,104,88988,1,0,1:2:0:0:
200,216,89215,6,0,L|136:224,2,40,2|2|2,2:2|2:2|2:2,2:0:0:0:
308,140,89670,2,0,L|347:135,2,40,2|2|2,2:2|2:2|2:2,2:0:0:0:
144,104,90125,2,0,L|138:44,1,60,10|0,2:2|1:2,2:0:0:0:
96,260,90579,2,0,L|88:344,1,60,10|0,1:2|3:2,2:0:0:0:
168,360,90920,1,0,3:2:0:0:
248,320,91034,6,0,B|308:300|308:300|412:324,2,168.750006437302,2|2|0,3:2|3:2|3:2,2:0:0:0:
488,248,91943,2,0,L|420:232,1,60,8|0,1:2|2:2,2:0:0:0:
376,84,92397,1,2,1:2:0:0:
412,248,92625,1,0,1:2:0:0:
188,176,92852,1,2,2:2:0:0:
188,176,92965,2,0,B|148:164|108:180|108:180|68:196|16:172,1,168.750006437302,0|2,2:2|2:2,2:0:0:0:
23,175,93420,2,0,B|63:163|103:179|103:179|143:195|195:171,1,168.750006437302,0|10,2:2|2:2,2:0:0:0:
320,48,93988,1,0,2:2:0:0:
224,260,94215,1,10,2:2:0:0:
476,180,94443,5,0,3:2:0:0:
408,128,94556,1,0,3:2:0:0:
396,220,94670,2,0,L|416:356,1,112.500004291535,2|0,3:2|2:2,2:0:0:0:
320,164,95011,2,0,B|304:212|304:212|320:336,1,168.750006437302,2|0,3:2|3:2,2:0:0:0:
148,204,95579,2,0,P|112:216|80:208,1,60,8|0,2:2|2:2,2:0:0:0:
12,56,96034,1,2,2:2:0:0:
72,228,96261,1,0,3:2:0:0:
228,104,96488,5,2,2:2:0:0:
322,183,96640,1,2,2:2:0:0:
206,226,96791,1,2,2:2:0:0:
236,120,96943,5,2,2:2:0:0:
330,199,97094,1,2,2:2:0:0:
214,242,97246,1,2,2:2:0:0:
372,188,97397,2,0,L|404:192,2,30,10|0|0,2:2|2:0|1:2,2:0:0:0:
296,336,97852,5,10,2:2:0:0:
160,312,98003,1,2,2:2:0:0:
280,360,98155,1,2,2:2:0:0:
156,220,98306,2,0,P|112:232|72:300,1,120,2|0,3:2|2:0,2:0:0:0:
284,148,98988,2,0,L|280:92,1,30,0|0,3:2|2:0,2:0:0:0:
202,100,99215,5,10,3:2:0:0:
45,125,99367,1,10,3:2:0:0:
145,248,99518,1,10,3:2:0:0:
117,67,99670,5,10,3:2:0:0:
60,216,99821,1,10,3:2:0:0:
217,191,99973,1,10,3:2:0:0:
276,328,100125,6,0,B|321:346|321:346|333:338|333:338|433:338|433:338|445:346|445:346|489:330,1,225.000008583069,2|0,3:2|2:0,2:0:0:0:
176,316,101034,5,8,2:3:0:0:
188,264,101147,1,8,2:3:0:0:
200,212,101261,1,8,2:3:0:0:
212,160,101375,1,0,3:2:0:0:
224,112,101488,2,0,L|360:104,1,112.500004291535,4|0,2:3|2:0,2:0:0:0:
492,328,101943,6,0,P|440:316|400:320,1,75,2|0,3:2|2:0,2:0:0:0:
368,236,102284,2,0,P|316:251|284:275,1,75,2|0,2:0|2:0,2:0:0:0:
220,216,102625,1,0,2:0:0:0:
40,320,102852,2,0,L|52:224,1,75,0|2,3:2|2:0,2:0:0:0:
120,56,103306,2,0,L|108:152,1,75,10|2,3:2|2:0,2:0:0:0:
208,240,103761,5,2,3:2:0:0:
335,212,103912,1,2,2:0:0:0:
294,336,104064,1,2,2:0:0:0:
216,220,104215,5,10,3:2:0:0:
345,232,104367,1,2,2:0:0:0:
268,337,104518,1,2,2:0:0:0:
404,348,104670,6,0,B|435:351|459:323|459:323|471:275,2,112.500004291535,2|0|10,3:2|2:0|3:2,2:0:0:0:
408,156,105352,1,2,2:0:0:0:
180,212,105579,6,0,L|268:204,1,75,2|0,3:2|2:0,2:0:0:0:
236,116,105920,1,2,2:0:0:0:
236,116,106034,2,0,L|161:122,1,75,8|0,3:2|2:0,2:0:0:0:
8,236,106488,1,0,3:2:0:0:
160,92,106715,1,2,2:0:0:0:
120,288,106943,1,10,3:2:0:0:
28,112,107170,1,2,2:0:0:0:
236,228,107397,5,2,3:2:0:0:
236,228,107511,2,0,P|256:272|156:280,1,168.750006437302,2|10,2:0|3:2,2:0:0:0:
288,152,107965,2,0,P|332:132|412:160,1,112.500004291535,2|0,2:0|2:0,2:0:0:0:
360,304,108306,2,0,L|344:196,2,75,2|2|10,3:2|2:0|3:2,2:0:0:0:
424,104,108988,1,0,2:0:0:0:
184,88,109215,6,0,P|144:80|88:100,1,75,2|0,3:2|2:0,2:0:0:0:
152,180,109556,1,2,2:0:0:0:
152,180,109670,2,0,P|192:188|248:168,1,75,8|0,3:2|2:0,2:0:0:0:
332,32,110125,1,0,3:2:0:0:
232,216,110352,1,2,2:0:0:0:
436,140,110579,1,10,3:2:0:0:
224,88,110806,1,2,2:0:0:0:
464,72,111034,5,2,3:2:0:0:
362,153,111185,1,2,2:0:0:0:
484,200,111337,1,2,2:0:0:0:
460,88,111488,5,10,3:2:0:0:
373,185,111640,1,2,2:0:0:0:
501,210,111791,1,2,2:0:0:0:
396,308,111943,6,0,B|408:340|408:340|448:360|512:328,2,112.500004291535,2|0|10,3:2|2:0|3:2,2:0:0:0:
256,256,112625,1,2,2:0:0:0:
92,48,112852,6,0,L|104:184,1,134.999995880127,2|0,3:2|2:0,2:0:0:0:
72,264,113306,1,8,3:2:0:0:
184,116,113534,1,2,2:0:0:0:
256,68,113647,1,2,2:0:0:0:
260,156,113761,2,0,L|364:160,1,75,2|2,3:2|2:0,2:0:0:0:
420,128,114102,1,2,2:0:0:0:
420,128,114215,2,0,L|424:192,1,37.5,10|0,3:2|2:0,2:0:0:0:
372,276,114443,2,0,L|368:212,1,37.5,2|0,2:0|2:0,2:0:0:0:
504,192,114670,2,0,P|512:232|496:288,1,75,2|0,3:2|2:0,2:0:0:0:
272,352,115125,1,8,3:2:0:0:
272,352,115352,6,0,B|236:308|236:308|236:208,1,150,2|8,2:0|2:3,2:0:0:0:
272,128,115920,1,8,2:3:0:0:
272,128,116034,2,0,L|368:120,1,75,8|0,2:1|3:2,2:0:0:0:
422,336,116488,5,8,3:1:0:0:
422,336,116715,1,0,2:0:0:0:
422,336,116943,2,0,L|425:232,1,75,8|0,3:1|2:0,2:0:0:0:
296,343,117397,1,8,3:1:0:0:
207,155,117625,6,0,P|164:222|180:333,1,179.999994506836,0|0,2:0|2:0,2:0:0:0:
351,247,118306,5,8,3:1:0:0:
351,247,118534,1,0,2:0:0:0:
174,319,118761,5,8,3:1:0:0:
174,319,118988,1,0,2:0:0:0:
240,129,119215,6,0,L|255:221,1,75,8|0,3:1|2:0,2:0:0:0:
68,153,119670,2,0,L|83:245,1,75,8|0,3:1|2:0,2:0:0:0:
98,47,120125,6,0,P|27:44|2:58,1,75,8|0,3:1|2:0,2:0:0:0:
242,79,120579,2,0,P|209:16|184:1,1,75,8|0,3:1|2:0,2:0:0:0:
328,168,121034,1,8,3:1:0:0:
366,105,121261,2,0,P|353:139|327:167,1,75,0|8,2:0|3:1,2:0:0:0:
219,270,121715,1,0,2:0:0:0:
432,304,121943,6,0,L|346:313,1,75,8|0,3:1|2:0,2:0:0:0:
219,384,122397,2,0,L|144:376,1,75,8|0,3:1|2:0,2:0:0:0:
70,210,122852,1,8,3:1:0:0:
256,223,123079,1,8,2:3:0:0:
70,210,123306,1,8,3:1:0:0:
152,293,123534,1,4,2:3:0:0:
154,35,123761,6,0,L|166:125,1,75,10|2,3:1|2:1,2:0:0:0:
269,26,124215,2,0,L|278:100,1,75,10|2,3:1|2:1,2:0:0:0:
380,176,124670,1,10,3:1:0:0:
500,5,124897,2,0,L|490:79,1,75,2|10,2:1|3:1,2:0:0:0:
467,287,125352,5,2,2:1:0:0:
467,287,125465,1,2,2:1:0:0:
467,287,125579,2,0,L|378:278,1,75,10|2,3:1|2:1,2:0:0:0:
202,188,126034,2,0,L|291:179,1,75,10|2,3:1|2:1,2:0:0:0:
276,180,126375,1,2,2:1:0:0:
276,180,126488,1,10,3:1:0:0:
117,280,126715,1,2,2:1:0:0:
275,66,126943,1,10,3:1:0:0:
423,266,127170,5,2,2:1:0:0:
423,266,127284,1,2,2:1:0:0:
423,266,127397,2,0,L|386:272,1,37.5,10|2,3:1|2:1,2:0:0:0:
308,331,127625,2,0,L|244:319,1,37.5,2|2,3:1|2:1,2:0:0:0:
201,250,127852,2,0,L|164:256,1,37.5,10|2,3:1|2:1,2:0:0:0:
86,315,128079,2,0,L|22:303,1,37.5,2|2,3:1|2:1,2:0:0:0:
9,225,128306,6,0,L|6:187,1,37.5,10|2,3:1|2:1,2:0:0:0:
58,91,128534,2,0,L|55:53,1,37.5,2|2,3:1|2:1,2:0:0:0:
150,255,128761,2,0,L|147:217,1,37.5,10|2,3:1|2:1,2:0:0:0:
199,121,128988,2,0,L|196:83,1,37.5,2|2,3:1|2:1,2:0:0:0:
325,49,129215,5,0,3:1:0:0:
345,106,129329,1,0,3:1:0:0:
346,164,129443,1,0,3:1:0:0:
313,218,129556,1,0,3:1:0:0:
276,268,129670,5,0,3:1:0:0:
278,339,129784,1,0,3:1:0:0:
340,384,129897,1,0,3:1:0:0:
414,369,130011,1,0,3:1:0:0:
444,299,130125,1,0,3:1:0:0:
460,300,130579,6,0,L|472:224,1,75,0|0,2:0|2:0,2:0:0:0:
263,356,131034,6,0,B|279:315|279:315|267:240,1,112.5,6|0,3:2|2:0,2:0:0:0:
252,160,131488,1,0,1:2:0:0:
95,326,131715,2,0,P|55:334|7:318,1,82.5000025177003,2|0,2:0|3:2,2:0:0:0:
22,216,132056,2,0,P|62:208|110:224,1,82.5000025177003,2|0,2:0|2:0,2:0:0:0:
169,285,132397,2,0,P|137:237|177:141,1,165.000005035401,2|0,1:2|3:2,2:0:0:0:
336,98,133079,6,0,L|268:90,1,41.2500012588501,2|0,2:0|2:0,2:0:0:0:
185,26,133306,2,0,L|301:2,1,82.5000025177003,2|2,1:2|2:0,2:0:0:0:
128,216,133761,1,2,3:2:0:0:
185,26,133988,1,2,2:0:0:0:
255,248,134215,1,2,1:2:0:0:
23,152,134443,1,2,2:0:0:0:
248,99,134670,6,0,L|360:83,1,82.5000025177003,2|0,3:2|2:0,2:0:0:0:
512,62,135125,1,0,1:2:0:0:
322,252,135352,2,0,L|330:76,1,165.000005035401,2|0,2:0|2:0,2:0:0:0:
85,17,136034,2,0,L|99:135,1,82.5000025177003,2|0,1:2|2:0,2:0:0:0:
125,252,136488,1,0,3:2:0:0:
221,89,136715,1,2,2:0:0:0:
221,89,136829,1,0,2:0:0:0:
221,89,136943,2,0,L|302:98,1,82.5000025177003,2|0,1:2|2:0,2:0:0:0:
445,197,137397,6,0,P|485:237|407:220,1,168.750006437302,2|0,3:2|2:0,2:0:0:0:
512,343,137852,5,2,1:2:0:0:
512,343,138079,1,2,2:0:0:0:
248,301,138306,6,0,L|167:311,1,82.5000025177003,2|0,3:2|2:0,2:0:0:0:
102,265,138647,1,2,2:0:0:0:
102,265,138761,1,0,1:2:0:0:
328,359,138988,2,0,P|345:307|336:259,1,82.5000025177003,2|0,2:0|3:2,2:0:0:0:
292,199,139329,2,0,L|192:191,1,82.5000025177003,2|0,2:0|2:0,2:0:0:0:
355,134,139670,2,0,L|519:120,1,165.000005035401,2|0,1:2|3:2,2:0:0:0:
235,16,140352,5,2,2:0:0:0:
231,38,140465,1,0,2:0:0:0:
230,62,140579,1,2,1:2:0:0:
357,136,140806,1,2,2:0:0:0:
114,26,141034,1,2,3:2:0:0:
106,238,141261,1,2,2:0:0:0:
224,144,141488,1,2,1:2:0:0:
22,198,141715,1,2,2:0:0:0:
160,322,141943,6,0,P|200:319|238:334,1,82.5000025177003,2|0,3:2|2:0,2:0:0:0:
279,368,142284,1,0,2:0:0:0:
279,368,142397,1,0,1:2:0:0:
344,205,142625,2,0,L|337:122,2,82.5000025177003,2|0|0,2:0|3:2|2:0,2:0:0:0:
160,322,143306,2,0,P|99:333|38:323,1,123.75000377655,2|0,1:2|2:0,2:0:0:0:
0,244,143761,5,8,2:3:0:0:
0,211,143875,1,8,2:3:0:0:
0,177,143988,1,10,2:3:0:0:
0,142,144102,1,8,2:3:0:0:
79,105,144215,5,10,2:3:0:0:
83,164,144329,1,8,2:3:0:0:
90,224,144443,1,0,3:2:0:0:
94,281,144556,1,8,2:3:0:0:
207,252,144670,6,0,L|271:240,1,41.2500012588501,8|8,2:3|2:3,2:0:0:0:
328,104,144897,2,0,L|392:116,1,41.2500012588501,8|8,2:3|2:3,2:0:0:0:
507,258,145125,6,0,B|463:257|463:257|426:273|426:273|355:268,1,150,8|0,2:1|3:2,2:0:0:0:
91,59,145579,6,0,B|107:127|107:127|83:203,1,134.999995880127,6|2,3:2|2:0,2:0:0:0:
87,189,146034,2,0,P|134:182|195:201,1,89.9999972534181,2|2,1:2|2:0,2:0:0:0:
288,361,146488,1,0,3:2:0:0:
315,147,146715,1,2,2:0:0:0:
158,321,146943,1,2,1:2:0:0:
388,272,147170,1,2,2:0:0:0:
172,187,147397,5,2,3:2:0:0:
164,147,147511,1,2,2:0:0:0:
156,111,147625,1,2,2:0:0:0:
148,71,147738,1,2,2:0:0:0:
140,35,147852,1,2,1:2:0:0:
93,226,148079,1,2,2:0:0:0:
266,63,148306,5,2,3:2:0:0:
59,100,148534,1,2,2:0:0:0:
300,155,148761,1,2,1:2:0:0:
93,226,148988,1,2,2:0:0:0:
260,240,149215,6,0,B|319:235|319:235|343:255,1,89.9999972534181,2|2,3:2|2:0,2:0:0:0:
392,280,149556,1,2,2:0:0:0:
392,280,149670,1,2,1:2:0:0:
380,134,149897,1,2,2:0:0:0:
363,367,150125,2,0,P|407:373|448:357,1,89.9999972534181,2|2,3:2|2:0,2:0:0:0:
380,133,150579,2,0,P|335:126|294:142,1,89.9999972534181,2|2,1:2|2:0,2:0:0:0:
159,309,151034,5,2,3:2:0:0:
155,269,151147,1,2,2:0:0:0:
151,229,151261,1,2,2:0:0:0:
147,185,151375,1,2,2:0:0:0:
143,149,151488,1,2,1:2:0:0:
25,90,151715,2,0,P|73:34|185:34,1,179.999994506836,2|2,2:0|2:0,2:0:0:0:
243,85,152397,2,0,P|274:129|319:145,1,89.9999972534181,2|2,1:2|2:0,2:0:0:0:
440,3,152852,6,0,B|425:70|425:70|453:130,1,134.999995880127,2|2,3:2|2:0,2:0:0:0:
453,130,153306,2,0,P|410:129|365:150,1,89.9999972534181,2|2,1:2|2:0,2:0:0:0:
173,232,153761,1,0,3:2:0:0:
410,248,153988,1,2,2:0:0:0:
203,335,154215,1,2,1:2:0:0:
367,147,154443,1,2,2:0:0:0:
316,384,154670,5,2,3:2:0:0:
324,348,154784,1,2,2:0:0:0:
332,308,154897,1,2,2:0:0:0:
340,268,155011,1,2,2:0:0:0:
348,232,155125,1,2,1:2:0:0:
241,157,155352,1,2,2:0:0:0:
462,317,155579,5,2,3:2:0:0:
213,295,155806,1,2,2:0:0:0:
403,376,156034,1,2,1:2:0:0:
367,130,156261,1,2,2:0:0:0:
211,294,156488,6,0,P|151:298|115:278,1,89.9999972534181,2|2,3:2|2:0,2:0:0:0:
64,231,156829,1,2,2:0:0:0:
64,231,156943,1,2,1:2:0:0:
165,110,157170,1,2,2:0:0:0:
211,294,157397,2,0,L|199:402,1,89.9999972534181,2|2,3:2|2:0,2:0:0:0:
165,110,157852,2,0,L|177:2,1,89.9999972534181,2|2,1:2|2:0,2:0:0:0:
371,167,158306,6,0,B|335:179|335:179|263:171,1,75,2|0,2:1|2:0,2:0:0:0:
125,129,166943,5,8,2:0:0:0:
125,129,167056,1,0,2:0:0:0:
125,129,167170,5,0,2:0:0:0:
190,188,167397,2,0,L|266:179,1,75,2|2,3:1|2:1,2:0:0:0:
201,277,167852,2,0,L|277:268,1,75,2|2,2:1|2:1,2:0:0:0:
454,362,168306,2,0,L|301:344,1,150,2|2,3:1|2:1,2:0:0:0:
260,342,168875,1,2,2:1:0:0:
260,342,168988,1,2,2:1:0:0:
395,208,169215,5,2,3:1:0:0:
395,208,169443,1,2,2:1:0:0:
395,208,169670,2,0,L|391:141,1,37.5,2|2,2:1|2:1,2:0:0:0:
387,94,169897,1,2,2:1:0:0:
285,242,170125,2,0,L|279:135,1,75,2|2,3:1|2:1,2:0:0:0:
154,29,170579,2,0,L|158:96,1,37.5,2|2,2:1|2:1,2:0:0:0:
105,177,170806,2,0,L|102:139,1,37.5,2|2,2:1|2:1,2:0:0:0:
16,83,171034,5,2,3:1:0:0:
14,101,171147,1,2,2:1:0:0:
12,118,171261,1,2,3:1:0:0:
9,137,171375,1,2,2:1:0:0:
105,177,171488,5,2,3:1:0:0:
103,195,171602,1,2,2:1:0:0:
101,212,171715,1,2,3:1:0:0:
98,231,171829,1,2,2:1:0:0:
151,310,171943,6,0,L|212:303,1,37.5,2|2,3:1|2:1,2:0:0:0:
300,225,172170,2,0,L|262:220,1,37.5,2|2,3:1|2:1,2:0:0:0:
125,339,172397,2,0,L|186:332,1,37.5,2|2,3:1|2:1,2:0:0:0:
311,193,172625,2,0,L|273:188,1,37.5,2|2,3:1|3:1,2:0:0:0:
377,366,172852,5,0,3:2:0:0:
409,326,172965,1,0,3:2:0:0:
421,267,173079,1,0,3:2:0:0:
404,209,173193,1,0,3:2:0:0:
354,172,173306,1,0,3:2:0:0:
311,115,173420,1,0,3:2:0:0:
306,51,173534,1,0,3:2:0:0:
339,10,173647,1,0,3:2:0:0:
451,2,173761,2,0,L|308:12,1,112.5,4|0,3:0|2:0,2:0:0:0:
417,100,174215,1,4,3:0:0:0:
432,108,176488,6,0,B|416:149|416:149|428:244,1,123.75000377655,6|0,3:2|2:0,2:0:0:0:
432,276,176943,1,0,1:2:0:0:
252,346,177170,2,0,P|212:354|164:338,1,82.5000025177003,2|0,2:0|3:2,2:0:0:0:
97,384,177511,2,0,P|89:344|105:296,1,82.5000025177003,2|0,2:0|2:0,2:0:0:0:
176,246,177852,2,0,P|128:278|32:238,1,165.000005035401,2|0,1:2|3:2,2:0:0:0:
137,26,178534,5,2,2:0:0:0:
194,111,178761,1,2,1:2:0:0:
91,124,178988,1,2,2:0:0:0:
238,24,179215,1,2,3:2:0:0:
138,205,179443,1,2,2:0:0:0:
27,32,179670,1,2,1:2:0:0:
238,24,179897,1,2,2:0:0:0:
308,271,180125,6,0,L|318:353,1,82.5000025177003,2|0,3:2|2:0,2:0:0:0:
204,199,180579,1,0,1:2:0:0:
196,364,180806,2,0,L|204:200,1,165.000005035401,2|0,2:0|2:0,2:0:0:0:
21,327,181488,2,0,L|102:315,1,82.5000025177003,2|0,1:2|2:0,2:0:0:0:
204,199,181943,1,0,3:2:0:0:
324,368,182170,1,2,2:0:0:0:
324,368,182284,1,0,2:0:0:0:
324,368,182397,2,0,L|333:287,1,82.5000025177003,2|0,1:2|2:0,2:0:0:0:
417,53,182852,6,0,P|457:93|379:76,1,168.750006437302,2|0,3:2|2:0,2:0:0:0:
337,41,183306,5,2,1:2:0:0:
382,229,183534,1,2,2:0:0:0:
168,173,183761,6,0,L|87:183,1,82.5000025177003,2|0,3:2|2:0,2:0:0:0:
45,190,184102,1,2,2:0:0:0:
45,190,184215,1,0,1:2:0:0:
254,230,184443,2,0,P|271:178|262:130,1,82.5000025177003,2|0,2:0|3:2,2:0:0:0:
257,96,184784,2,0,L|157:88,1,82.5000025177003,2|0,2:0|2:0,2:0:0:0:
62,21,185125,2,0,L|226:7,1,165.000005035401,2|0,1:2|3:2,2:0:0:0:
349,26,185806,5,2,2:0:0:0:
345,48,185920,1,0,2:0:0:0:
344,72,186034,1,2,1:2:0:0:
416,176,186261,1,2,2:0:0:0:
512,23,186488,1,2,3:2:0:0:
397,248,186715,1,2,2:0:0:0:
264,27,186943,1,2,1:2:0:0:
439,107,187170,1,2,2:0:0:0:
261,221,187397,6,0,P|223:205|182:208,1,82.5000025177003,2|0,3:2|2:0,2:0:0:0:
143,228,187738,1,0,2:0:0:0:
143,228,187852,1,0,1:2:0:0:
212,384,188079,2,0,L|205:301,2,82.5000025177003,2|0|0,2:0|3:2|2:0,2:0:0:0:
339,384,188761,2,0,P|400:373|461:383,1,123.75000377655,2|0,1:2|2:0,2:0:0:0:
472,298,189215,5,8,2:3:0:0:
480,275,189329,1,8,2:3:0:0:
479,246,189443,1,10,2:3:0:0:
466,220,189556,1,8,2:3:0:0:
384,161,189670,5,10,2:3:0:0:
363,220,189784,1,8,2:3:0:0:
363,280,189897,1,0,3:2:0:0:
387,333,190011,1,8,2:3:0:0:
294,334,190125,6,0,L|230:322,1,41.2500012588501,8|8,2:3|2:3,2:0:0:0:
189,174,190352,2,0,L|125:186,1,41.2500012588501,8|8,2:3|2:3,2:0:0:0:
0,331,190579,6,0,B|73:313|73:313|152:341,1,150,8|0,2:1|3:2,2:0:0:0:
289,370,191034,6,0,B|297:226,1,134.999995880127,6|2,3:2|2:0,2:0:0:0:
296,235,191488,2,0,P|343:228|404:247,1,89.9999972534181,2|2,1:2|2:0,2:0:0:0:
205,291,191943,1,0,3:2:0:0:
398,145,192170,1,2,2:0:0:0:
212,205,192397,1,2,1:2:0:0:
379,328,192625,1,2,2:0:0:0:
277,83,192852,5,2,3:2:0:0:
241,91,192965,1,2,2:0:0:0:
201,99,193079,1,2,2:0:0:0:
165,107,193193,1,2,2:0:0:0:
125,115,193306,1,2,1:2:0:0:
258,0,193534,1,2,2:0:0:0:
170,236,193761,5,2,3:2:0:0:
150,0,193988,1,2,2:0:0:0:
273,267,194215,1,2,1:2:0:0:
49,224,194443,1,2,2:0:0:0:
243,111,194670,6,0,B|348:111,1,89.9999972534181,2|2,3:2|2:0,2:0:0:0:
380,116,195011,1,2,2:0:0:0:
380,116,195125,1,2,1:2:0:0:
244,199,195352,1,2,2:0:0:0:
453,60,195579,2,0,P|469:101|463:145,1,89.9999972534181,2|2,3:2|2:0,2:0:0:0:
253,287,196034,2,0,P|237:245|244:201,1,89.9999972534181,2|2,1:2|2:0,2:0:0:0:
349,367,196488,5,2,3:2:0:0:
309,371,196602,1,2,2:0:0:0:
269,375,196715,1,2,2:0:0:0:
225,379,196829,1,2,2:0:0:0:
189,383,196943,1,2,1:2:0:0:
41,220,197170,2,0,P|89:164|201:164,1,179.999994506836,2|2,2:0|2:0,2:0:0:0:
273,26,197852,2,0,P|304:70|349:86,1,89.9999972534181,2|2,1:2|2:0,2:0:0:0:
493,12,198306,6,0,B|478:79|478:79|506:139,1,134.999995880127,2|2,3:2|2:0,2:0:0:0:
506,139,198761,2,0,P|463:138|418:159,1,89.9999972534181,2|2,1:2|2:0,2:0:0:0:
275,272,199215,1,0,3:2:0:0:
484,241,199443,1,2,2:0:0:0:
284,143,199670,1,2,1:2:0:0:
379,323,199897,1,2,2:0:0:0:
420,156,200125,5,2,3:2:0:0:
428,120,200238,1,2,2:0:0:0:
436,80,200352,1,2,2:0:0:0:
444,40,200465,1,2,2:0:0:0:
452,4,200579,1,2,1:2:0:0:
304,79,200806,1,2,2:0:0:0:
512,118,201034,5,2,3:2:0:0:
260,0,201261,1,2,2:0:0:0:
512,118,201488,1,2,1:2:0:0:
267,181,201715,1,2,2:0:0:0:
422,183,201943,6,0,P|426:243|406:279,1,89.9999972534181,2|2,3:2|2:0,2:0:0:0:
380,310,202284,1,2,2:0:0:0:
380,310,202397,1,2,1:2:0:0:
257,199,202625,1,2,2:0:0:0:
376,97,202852,2,0,L|484:109,1,89.9999972534181,2|2,3:2|2:0,2:0:0:0:
257,199,203306,2,0,L|269:91,1,89.9999972534181,2|2,1:2|2:0,2:0:0:0:
180,275,203761,6,0,B|144:287|144:287|72:279,1,75,2|0,2:1|2:0,2:0:0:0:
26,264,203988,6,0,L|34:312,1,37.5,0|0,2:0|2:0,2:0:0:0:
127,166,204897,6,0,L|130:148,1,18.75,2|0,2:0|2:0,2:0:0:0:
45,124,205125,6,0,P|129:64|217:152,1,225,4|0,2:0|2:0,2:0:0:0:
226,214,205579,5,6,2:0:0:0:
293,124,205806,2,0,L|285:-4,1,120,0|0,2:0|2:0,2:0:0:0:
6,284,207170,2,0,B|66:264|66:264|138:284,1,120,2|2,2:0|2:0,2:0:0:0:
204,332,207852,2,0,L|198:258,1,60,2|0,2:0|2:0,2:0:0:0:
191,190,208306,1,2,2:0:0:0:
280,231,208534,1,2,2:0:0:0:
96,238,208761,6,0,L|104:242,1,7.5,2|0,2:0|2:0,2:0:0:0:
360,38,209215,5,2,2:0:0:0:
305,96,209443,2,0,P|322:153|313:224,1,120,0|0,2:0|2:0,2:0:0:0:
316,212,210806,2,0,L|180:196,1,120,2|2,2:0|2:0,2:0:0:0:
116,288,211488,2,0,L|198:275,1,60,2|0,2:0|2:0,2:0:0:0:
