osu file format v14

[General]
AudioFilename: audio.mp3
AudioLeadIn: 0
PreviewTime: 53884
Countdown: 0
SampleSet: Soft
StackLeniency: 0.3
Mode: 0
LetterboxInBreaks: 0
WidescreenStoryboard: 0

[Editor]
DistanceSpacing: 1.2
BeatDivisor: 4
GridSize: 16
TimelineZoom: 2.1

[Metadata]
Title:CRY FOR ME
TitleUnicode:CRY FOR ME
Artist:TWICE
ArtistUnicode:트와이스
Creator:Nabori
Version:Rainfall
Source:
Tags:kpop k-pop Korean Pop jyp entertainment ent tzuyu sana jihyo dahyun nayeon jeongyeon chaeyoung momo mina 쯔위 나연 정연 모모 사나 지효 미나 다현 채영 쯔위 fragmented charmcaster kim jennie im girl group single
BeatmapID:2729553
BeatmapSetID:1317379

[Difficulty]
HPDrainRate:5
CircleSize:4
OverallDifficulty:9
ApproachRate:9.3
SliderMultiplier:1.8
SliderTickRate:1

[Events]
//Background and Video events
0,0,"bg.jpg",0,0
//Break Periods
2,149360,161847
//Storyboard Layer 0 (Background)
//Storyboard Layer 1 (Fail)
//Storyboard Layer 2 (Pass)
//Storyboard Layer 3 (Foreground)
//Storyboard Layer 4 (Overlay)
//Storyboard Sound Samples

[TimingPoints]
8556,413.793103448276,4,2,0,70,1,0
11781,413.793103448276,4,2,0,70,1,0
13022,-100,4,2,0,70,0,0
13436,-66.6666666666667,4,2,1,70,0,0
14160,-66.6666666666667,4,2,1,5,0,0
14264,-1000,4,2,1,70,0,0
14988,-1000,4,2,1,5,0,0
15090,-1000,4,2,1,70,0,0
15298,-100,4,2,1,70,0,0
15401,-100,4,2,1,5,0,0
15505,-100,4,2,1,70,0,0
15712,-100,4,2,2,70,0,0
16022,-100,4,2,2,5,0,0
16126,-1000,4,2,2,70,0,0
16332,-1000,4,2,1,70,0,0
16539,-1000,4,2,2,70,0,0
16745,-66.6666666666667,4,2,1,70,0,0
17469,-66.6666666666667,4,2,1,5,0,0
17574,-1000,4,2,2,70,0,0
17987,-1000,4,2,1,70,0,0
18298,-1000,4,2,1,5,0,0
18402,-1000,4,2,1,70,0,0
18608,-100,4,2,2,70,0,0
18711,-100,4,2,2,5,0,0
18815,-100,4,2,1,70,0,0
19332,-100,4,2,1,5,0,0
19436,-1000,4,2,2,70,0,0
19642,-1000,4,2,1,70,0,0
19849,-1000,4,2,2,70,0,0
20057,-66.6666666666667,4,2,1,70,0,0
20781,-66.6666666666667,4,2,1,5,0,0
20884,-1000,4,2,2,70,0,0
21298,-1000,4,2,1,70,0,0
21608,-1000,4,2,1,5,0,0
21712,-1000,4,2,1,70,0,0
21918,-100,4,2,1,70,0,0
22021,-100,4,2,1,5,0,0
22125,-100,4,2,1,70,0,0
22642,-100,4,2,1,5,0,0
22746,-1000,4,2,2,70,0,0
22952,-1000,4,2,1,70,0,0
23159,-1000,4,2,2,70,0,0
23367,-66.6666666666667,4,2,1,70,0,0
24195,-1000,4,2,2,70,0,0
24505,-1000,4,2,2,5,0,0
24608,-1000,4,2,1,70,0,0
24918,-1000,4,2,1,5,0,0
25022,-50,4,2,1,70,0,0
25228,-50,4,2,2,70,0,0
25850,-50,4,2,1,70,0,0
25953,-100,4,2,1,70,0,0
26056,-100,4,2,2,70,0,0
26677,-66.6666666666667,4,2,1,70,0,0
27194,-66.6666666666667,4,2,1,5,0,0
27298,-66.6666666666667,4,2,1,70,0,0
27505,-83.3333333333333,4,2,1,70,0,0
29263,-83.3333333333333,4,2,1,5,0,0
29367,-83.3333333333333,4,2,1,70,0,0
29988,-66.6666666666667,4,2,1,70,0,0
30505,-66.6666666666667,4,2,1,5,0,0
30608,-66.6666666666667,4,2,1,70,0,0
30815,-83.3333333333333,4,2,1,70,0,0
33298,-66.6666666666667,4,2,1,70,0,0
33712,-41.6666666666667,4,2,1,70,0,0
33918,-83.3333333333333,4,2,1,70,0,0
34436,-83.3333333333333,4,2,1,5,0,0
34539,-83.3333333333333,4,2,1,70,0,0
36608,-250,4,2,1,70,0,0
38264,-83.3333333333333,4,2,1,70,0,0
38574,-83.3333333333333,4,2,2,70,0,0
38988,-83.3333333333333,4,2,3,70,0,0
39402,-83.3333333333333,4,2,4,70,0,0
39919,-50,4,2,2,70,0,0
40126,-71.4285714285714,4,2,2,70,0,0
40746,-71.4285714285714,4,2,1,70,0,0
40953,-71.4285714285714,4,2,2,70,0,0
41574,-71.4285714285714,4,2,1,70,0,0
42608,-71.4285714285714,4,2,2,70,0,0
43229,-50,4,2,1,70,0,0
43436,-71.4285714285714,4,2,1,70,0,0
44264,-71.4285714285714,4,2,2,70,0,0
44884,-71.4285714285714,4,2,1,70,0,0
45918,-71.4285714285714,4,2,2,70,0,0
46539,-71.4285714285714,4,2,1,70,0,0
46849,-71.4285714285714,4,2,1,5,0,0
46953,-1000,4,2,1,70,0,0
47263,-1000,4,2,1,5,0,0
47367,-71.4285714285714,4,2,1,70,0,0
47470,-71.4285714285714,4,2,1,5,0,0
47574,-71.4285714285714,4,2,2,70,0,0
47677,-71.4285714285714,4,2,2,5,0,0
47781,-1000,4,2,2,70,0,0
48091,-1000,4,2,2,5,0,0
48195,-71.4285714285714,4,2,1,70,0,0
48505,-71.4285714285714,4,2,1,5,0,0
48608,-71.4285714285714,4,2,1,70,0,0
49229,-71.4285714285714,4,2,2,70,0,0
49849,-250,4,2,1,70,0,0
51505,-250,4,2,5,70,0,0
51608,-250,4,2,1,70,0,0
51815,-250,4,2,2,70,0,0
52229,-250,4,2,3,70,0,0
52643,-250,4,2,4,70,0,0
53160,-45.4545454545455,4,2,6,70,0,1
53470,-45.4545454545455,4,2,6,5,0,1
53574,-58.8235294117647,4,2,7,70,0,1
53884,-58.8235294117647,4,2,7,5,0,1
53988,-58.8235294117647,4,2,7,70,0,1
54402,-58.8235294117647,4,2,8,70,0,1
54505,-58.8235294117647,4,2,8,5,0,1
54608,-58.8235294117647,4,2,9,70,0,1
54711,-58.8235294117647,4,2,9,5,0,1
54815,-58.8235294117647,4,2,7,70,0,1
55125,-58.8235294117647,4,2,7,5,0,1
55229,-45.4545454545455,4,2,10,70,0,1
55539,-45.4545454545455,4,2,10,5,0,1
55643,-45.4545454545455,4,2,7,70,0,1
55850,-58.8235294117647,4,2,10,70,0,1
55953,-58.8235294117647,4,2,10,5,0,1
56057,-58.8235294117647,4,2,7,70,0,1
56367,-58.8235294117647,4,2,7,5,0,1
56470,-45.4545454545455,4,2,11,70,0,1
56780,-45.4545454545455,4,2,11,5,0,1
56884,-58.8235294117647,4,2,7,70,0,1
56987,-58.8235294117647,4,2,7,5,0,1
57091,-58.8235294117647,4,2,7,70,0,1
57712,-58.8235294117647,4,2,12,70,0,1
57815,-58.8235294117647,4,2,12,5,0,1
57919,-58.8235294117647,4,2,13,70,0,1
58022,-58.8235294117647,4,2,13,5,0,1
58126,-58.8235294117647,4,2,7,70,0,1
58436,-58.8235294117647,4,2,7,5,0,1
58539,-58.8235294117647,4,2,13,70,0,1
58642,-58.8235294117647,4,2,13,5,0,1
58746,-58.8235294117647,4,2,7,70,0,1
58849,-58.8235294117647,4,2,7,5,0,1
58953,-58.8235294117647,4,2,7,70,0,1
59160,-58.8235294117647,4,2,14,70,0,1
59367,-58.8235294117647,4,2,7,70,0,1
59677,-58.8235294117647,4,2,7,5,0,1
59781,-45.4545454545455,4,2,15,70,0,1
60091,-45.4545454545455,4,2,15,5,0,1
60195,-58.8235294117647,4,2,7,70,0,1
60505,-58.8235294117647,4,2,7,5,0,1
60608,-58.8235294117647,4,2,7,70,0,1
60711,-58.8235294117647,4,2,7,5,0,1
60815,-58.8235294117647,4,2,7,70,0,1
61022,-58.8235294117647,4,2,16,70,0,1
61125,-58.8235294117647,4,2,16,5,0,1
61229,-58.8235294117647,4,2,17,70,0,1
61332,-58.8235294117647,4,2,17,5,0,1
61436,-58.8235294117647,4,2,7,70,0,1
61746,-58.8235294117647,4,2,7,5,0,1
61850,-45.4545454545455,4,2,18,70,0,1
62160,-45.4545454545455,4,2,18,5,0,1
62264,-1000,4,2,7,70,0,1
62470,-1000,4,2,18,70,0,1
62574,-1000,4,2,18,5,0,1
62677,-1000,4,2,7,70,0,1
62987,-1000,4,2,7,5,0,1
63091,-45.4545454545455,4,2,19,70,0,1
63402,-45.4545454545455,4,2,3,70,0,1
63712,-58.8235294117647,4,2,3,70,0,1
63919,-58.8235294117647,4,2,20,70,0,1
64333,-58.8235294117647,4,2,7,70,0,1
64746,-45.4545454545455,4,2,21,70,0,0
64849,-45.4545454545455,4,2,1,70,0,0
65160,-50,4,2,22,70,0,0
65263,-50,4,2,2,70,0,0
65366,-50,4,2,23,70,0,0
65471,-50,4,2,2,70,0,0
65574,-50,4,2,24,70,0,0
65677,-50,4,2,3,70,0,0
65781,-50,4,2,25,70,0,0
65884,-50,4,2,3,70,0,0
65988,-50,4,2,26,70,0,0
66195,-50,4,2,4,70,0,0
66401,-58.8235294117647,4,2,2,70,0,1
66505,-58.8235294117647,4,2,2,5,0,1
66608,-58.8235294117647,4,2,7,70,0,1
67022,-58.8235294117647,4,2,1,70,0,1
67125,-58.8235294117647,4,2,1,5,0,1
67228,-58.8235294117647,4,2,7,70,0,1
67643,-58.8235294117647,4,2,3,70,0,1
67746,-58.8235294117647,4,2,3,5,0,1
67850,-58.8235294117647,4,2,4,70,0,1
67953,-58.8235294117647,4,2,4,5,0,1
68057,-58.8235294117647,4,2,4,70,0,1
68367,-58.8235294117647,4,2,4,5,0,1
68471,-58.8235294117647,4,2,9,70,0,1
68574,-58.8235294117647,4,2,9,5,0,1
68677,-58.8235294117647,4,2,7,70,0,1
69091,-58.8235294117647,4,2,10,70,0,1
69194,-58.8235294117647,4,2,10,5,0,1
69298,-58.8235294117647,4,2,7,70,0,1
69401,-58.8235294117647,4,2,7,5,0,1
69505,-58.8235294117647,4,2,7,70,0,1
69712,-58.8235294117647,4,2,11,70,0,1
69815,-58.8235294117647,4,2,11,5,0,1
69918,-58.8235294117647,4,2,7,70,0,1
70021,-58.8235294117647,4,2,7,5,0,1
70125,-58.8235294117647,4,2,7,70,0,1
70228,-58.8235294117647,4,2,7,5,0,1
70332,-58.8235294117647,4,2,7,70,0,1
70642,-58.8235294117647,4,2,7,5,0,1
70745,-58.8235294117647,4,2,7,70,0,1
70952,-58.8235294117647,4,2,12,70,0,1
71055,-58.8235294117647,4,2,12,5,0,1
71159,-58.8235294117647,4,2,13,70,0,1
71262,-58.8235294117647,4,2,13,5,0,1
71366,-58.8235294117647,4,2,13,70,0,1
71676,-58.8235294117647,4,2,13,5,0,1
71780,-58.8235294117647,4,2,13,70,0,1
71883,-58.8235294117647,4,2,13,5,0,1
71987,-58.8235294117647,4,2,7,70,0,1
72401,-58.8235294117647,4,2,14,70,0,1
72504,-58.8235294117647,4,2,14,5,0,1
72608,-58.8235294117647,4,2,3,70,0,1
73022,-45.4545454545455,4,2,15,70,0,1
73228,-45.4545454545455,4,2,7,70,0,1
73435,-58.8235294117647,4,2,7,70,0,1
73538,-58.8235294117647,4,2,7,5,0,1
73642,-58.8235294117647,4,2,7,70,0,1
73745,-58.8235294117647,4,2,7,5,0,1
73849,-58.8235294117647,4,2,7,70,0,1
73952,-58.8235294117647,4,2,7,5,0,1
74056,-58.8235294117647,4,2,7,70,0,1
74263,-58.8235294117647,4,2,16,70,0,1
74366,-58.8235294117647,4,2,16,5,0,1
74470,-58.8235294117647,4,2,17,70,0,1
74573,-58.8235294117647,4,2,17,5,0,1
74676,-58.8235294117647,4,2,17,70,0,1
74986,-58.8235294117647,4,2,17,5,0,1
75090,-58.8235294117647,4,2,17,70,0,1
75193,-58.8235294117647,4,2,17,5,0,1
75297,-58.8235294117647,4,2,7,70,0,1
75711,-58.8235294117647,4,2,18,70,0,1
75814,-58.8235294117647,4,2,18,5,0,1
75918,-58.8235294117647,4,2,18,70,0,1
76228,-58.8235294117647,4,2,18,5,0,1
76332,-58.8235294117647,4,2,5,70,0,1
76435,-58.8235294117647,4,2,7,70,0,1
77159,-71.4285714285714,4,2,23,70,0,1
77262,-71.4285714285714,4,2,7,70,0,1
77987,-71.4285714285714,4,2,6,70,0,1
78090,-71.4285714285714,4,2,1,70,0,1
78401,-71.4285714285714,4,2,28,70,0,1
78504,-71.4285714285714,4,2,2,70,0,1
78815,-71.4285714285714,4,2,7,70,0,1
78918,-71.4285714285714,4,2,3,70,0,1
79228,-71.4285714285714,4,2,26,70,0,1
79332,-71.4285714285714,4,2,4,70,0,1
79435,-71.4285714285714,4,2,29,70,0,1
79643,-1000,4,2,30,70,0,0
80780,-1000,4,2,30,5,0,0
80884,-1000,4,2,30,70,0,0
82487,-1000,4,2,30,5,0,0
82539,-40,4,2,1,70,0,0
82849,-40,4,2,1,5,0,0
82952,-1000,4,2,1,70,0,0
83262,-1000,4,2,1,5,0,0
83366,-1000,4,2,1,70,0,0
83676,-1000,4,2,1,5,0,0
83781,-100,4,2,1,70,0,0
83832,-100,4,2,1,5,0,0
84194,-100,4,2,1,70,0,0
84298,-1000,4,2,1,70,0,0
84504,-1000,4,2,1,5,0,0
84608,-1000,4,2,1,70,0,0
84918,-1000,4,2,1,5,0,0
85022,-1000,4,2,1,70,0,0
85229,-1000,4,2,2,70,0,0
85436,-66.6666666666667,4,2,2,70,0,0
85849,-66.6666666666667,4,2,1,70,0,0
86056,-66.6666666666667,4,2,2,70,0,0
86263,-1000,4,2,1,70,0,0
86573,-1000,4,2,1,5,0,0
86677,-1000,4,2,1,70,0,0
86987,-1000,4,2,1,5,0,0
87092,-100,4,2,2,70,0,0
87143,-100,4,2,2,5,0,0
87505,-100,4,2,1,70,0,0
87609,-1000,4,2,1,70,0,0
87815,-1000,4,2,1,5,0,0
87918,-1000,4,2,1,70,0,0
88125,-1000,4,2,2,70,0,0
88332,-1000,4,2,1,70,0,0
88746,-66.6666666666667,4,2,1,70,0,0
88952,-66.6666666666667,4,2,2,70,0,0
89159,-66.6666666666667,4,2,1,70,0,0
89366,-66.6666666666667,4,2,2,70,0,0
89574,-1000,4,2,1,70,0,0
89884,-1000,4,2,1,5,0,0
89987,-200,4,2,1,70,0,0
90297,-200,4,2,1,5,0,0
90401,-100,4,2,2,70,0,0
90452,-100,4,2,2,5,0,0
90815,-200,4,2,1,70,0,0
91125,-200,4,2,1,5,0,0
91229,-200,4,2,1,70,0,0
91539,-200,4,2,1,5,0,0
91643,-200,4,2,1,70,0,0
92056,-66.6666666666667,4,2,1,70,0,0
92262,-66.6666666666667,4,2,2,70,0,0
92469,-66.6666666666667,4,2,1,70,0,0
92676,-66.6666666666667,4,2,2,70,0,0
92884,-1000,4,2,1,70,0,0
93194,-1000,4,2,1,5,0,0
93298,-200,4,2,1,70,0,0
93608,-200,4,2,1,5,0,0
93712,-100,4,2,2,70,0,0
93763,-100,4,2,2,5,0,0
94125,-200,4,2,1,70,0,0
94435,-200,4,2,1,5,0,0
94539,-50,4,2,1,70,0,0
94745,-50,4,2,2,70,0,0
94952,-50,4,2,1,70,0,0
95470,-100,4,2,1,70,0,0
95573,-100,4,2,7,70,0,0
95676,-100,4,2,7,5,0,0
95781,-100,4,2,7,70,0,0
96194,-66.6666666666667,4,2,1,70,0,0
96711,-66.6666666666667,4,2,1,5,0,0
96815,-66.6666666666667,4,2,1,70,0,0
97022,-83.3333333333333,4,2,1,70,0,0
97332,-83.3333333333333,4,2,1,5,0,0
97436,-83.3333333333333,4,2,1,70,0,0
98159,-83.3333333333333,4,2,1,5,0,0
98263,-83.3333333333333,4,2,1,70,0,0
98780,-83.3333333333333,4,2,1,5,0,0
98884,-83.3333333333333,4,2,1,70,0,0
99505,-66.6666666666667,4,2,1,70,0,0
100022,-66.6666666666667,4,2,1,5,0,0
100125,-66.6666666666667,4,2,1,70,0,0
100332,-83.3333333333333,4,2,1,70,0,0
100849,-83.3333333333333,4,2,1,5,0,0
100953,-83.3333333333333,4,2,1,70,0,0
101263,-83.3333333333333,4,2,1,5,0,0
101367,-83.3333333333333,4,2,1,70,0,0
101470,-83.3333333333333,4,2,1,5,0,0
101574,-83.3333333333333,4,2,1,70,0,0
102090,-83.3333333333333,4,2,1,5,0,0
102194,-83.3333333333333,4,2,1,70,0,0
102815,-66.6666666666667,4,2,1,70,0,0
103125,-66.6666666666667,4,2,1,5,0,0
103229,-41.6666666666667,4,2,1,70,0,0
103436,-83.3333333333333,4,2,1,70,0,0
103539,-83.3333333333333,4,2,1,5,0,0
103643,-83.3333333333333,4,2,1,70,0,0
103953,-83.3333333333333,4,2,1,5,0,0
104056,-1000,4,2,1,70,0,0
104366,-1000,4,2,1,5,0,0
104470,-1000,4,2,1,70,0,0
104780,-1000,4,2,1,5,0,0
104884,-1000,4,2,1,70,0,0
105194,-1000,4,2,1,5,0,0
105298,-1000,4,2,1,70,0,0
105608,-1000,4,2,1,5,0,0
105712,-1000,4,2,1,70,0,0
106022,-1000,4,2,1,5,0,0
106125,-250,4,2,1,70,0,0
107781,-83.3333333333333,4,2,1,70,0,0
108091,-83.3333333333333,4,2,2,70,0,0
108505,-83.3333333333333,4,2,3,70,0,0
108919,-83.3333333333333,4,2,4,70,0,0
109436,-50,4,2,2,70,0,0
109643,-71.4285714285714,4,2,2,70,0,0
110263,-71.4285714285714,4,2,1,70,0,0
110470,-71.4285714285714,4,2,2,70,0,0
111091,-71.4285714285714,4,2,1,70,0,0
112125,-71.4285714285714,4,2,2,70,0,0
112746,-50,4,2,1,70,0,0
112953,-71.4285714285714,4,2,1,70,0,0
113781,-71.4285714285714,4,2,2,70,0,0
114401,-71.4285714285714,4,2,1,70,0,0
115436,-71.4285714285714,4,2,2,70,0,0
116056,-71.4285714285714,4,2,1,70,0,0
116366,-71.4285714285714,4,2,1,5,0,0
116470,-1000,4,2,1,70,0,0
116884,-71.4285714285714,4,2,1,70,0,0
116987,-71.4285714285714,4,2,1,5,0,0
117091,-71.4285714285714,4,2,2,70,0,0
117194,-71.4285714285714,4,2,2,5,0,0
117298,-1000,4,2,2,70,0,0
117608,-1000,4,2,2,5,0,0
117712,-71.4285714285714,4,2,1,70,0,0
118022,-71.4285714285714,4,2,1,5,0,0
118125,-71.4285714285714,4,2,1,70,0,0
118746,-71.4285714285714,4,2,2,70,0,0
119367,-250,4,2,1,70,0,0
121022,-250,4,2,5,70,0,0
121125,-250,4,2,1,70,0,0
121332,-250,4,2,2,70,0,0
121746,-250,4,2,3,70,0,0
122160,-250,4,2,4,70,0,0
122677,-45.4545454545455,4,2,6,70,0,1
122987,-45.4545454545455,4,2,6,5,0,1
123091,-58.8235294117647,4,2,7,70,0,1
123401,-58.8235294117647,4,2,7,5,0,1
123505,-58.8235294117647,4,2,7,70,0,1
123918,-58.8235294117647,4,2,8,70,0,1
124021,-58.8235294117647,4,2,8,5,0,1
124125,-58.8235294117647,4,2,9,70,0,1
124228,-58.8235294117647,4,2,9,5,0,1
124332,-58.8235294117647,4,2,7,70,0,1
124642,-58.8235294117647,4,2,7,5,0,1
124746,-45.4545454545455,4,2,10,70,0,1
125056,-45.4545454545455,4,2,10,5,0,1
125160,-45.4545454545455,4,2,7,70,0,1
125367,-58.8235294117647,4,2,10,70,0,1
125470,-58.8235294117647,4,2,10,5,0,1
125574,-58.8235294117647,4,2,7,70,0,1
125884,-58.8235294117647,4,2,7,5,0,1
125987,-45.4545454545455,4,2,11,70,0,1
126297,-45.4545454545455,4,2,11,5,0,1
126401,-58.8235294117647,4,2,7,70,0,1
126504,-58.8235294117647,4,2,7,5,0,1
126608,-58.8235294117647,4,2,7,70,0,1
127125,-58.8235294117647,4,2,7,5,0,1
127229,-58.8235294117647,4,2,12,70,0,1
127332,-58.8235294117647,4,2,12,5,0,1
127435,-58.8235294117647,4,2,13,70,0,1
127538,-58.8235294117647,4,2,13,5,0,1
127642,-58.8235294117647,4,2,7,70,0,1
127952,-58.8235294117647,4,2,7,5,0,1
128056,-58.8235294117647,4,2,13,70,0,1
128159,-58.8235294117647,4,2,13,5,0,1
128263,-58.8235294117647,4,2,7,70,0,1
128366,-58.8235294117647,4,2,7,5,0,1
128470,-58.8235294117647,4,2,7,70,0,1
128677,-58.8235294117647,4,2,14,70,0,1
128884,-58.8235294117647,4,2,7,70,0,1
129194,-58.8235294117647,4,2,7,5,0,1
129298,-45.4545454545455,4,2,15,70,0,1
129608,-45.4545454545455,4,2,15,5,0,1
129712,-58.8235294117647,4,2,7,70,0,1
130022,-58.8235294117647,4,2,7,5,0,1
130125,-58.8235294117647,4,2,7,70,0,1
130228,-58.8235294117647,4,2,7,5,0,1
130332,-58.8235294117647,4,2,7,70,0,1
130539,-58.8235294117647,4,2,16,70,0,1
130642,-58.8235294117647,4,2,16,5,0,1
130746,-58.8235294117647,4,2,17,70,0,1
130849,-58.8235294117647,4,2,17,5,0,1
130953,-58.8235294117647,4,2,7,70,0,1
131263,-58.8235294117647,4,2,7,5,0,1
131367,-45.4545454545455,4,2,18,70,0,1
131677,-45.4545454545455,4,2,18,5,0,1
131781,-1000,4,2,7,70,0,1
131987,-1000,4,2,18,70,0,1
132091,-1000,4,2,18,5,0,1
132194,-1000,4,2,7,70,0,1
132504,-1000,4,2,7,5,0,1
132608,-45.4545454545455,4,2,19,70,0,1
132919,-45.4545454545455,4,2,3,70,0,1
133229,-58.8235294117647,4,2,3,70,0,1
133436,-58.8235294117647,4,2,20,70,0,1
133850,-58.8235294117647,4,2,7,70,0,1
134263,-45.4545454545455,4,2,31,70,0,0
134366,-45.4545454545455,4,2,1,70,0,0
134677,-50,4,2,22,70,0,0
134780,-50,4,2,2,70,0,0
134883,-50,4,2,23,70,0,0
134988,-50,4,2,2,70,0,0
135091,-50,4,2,24,70,0,0
135194,-50,4,2,3,70,0,0
135298,-50,4,2,25,70,0,0
135401,-50,4,2,3,70,0,0
135505,-50,4,2,26,70,0,0
135712,-50,4,2,4,70,0,0
135918,-58.8235294117647,4,2,2,70,0,1
136021,-58.8235294117647,4,2,2,5,0,1
136124,-58.8235294117647,4,2,7,70,0,1
136539,-58.8235294117647,4,2,1,70,0,1
136642,-58.8235294117647,4,2,1,5,0,1
136745,-58.8235294117647,4,2,7,70,0,1
137160,-58.8235294117647,4,2,3,70,0,1
137263,-58.8235294117647,4,2,3,5,0,1
137367,-58.8235294117647,4,2,4,70,0,1
137470,-58.8235294117647,4,2,4,5,0,1
137574,-58.8235294117647,4,2,4,70,0,1
137884,-58.8235294117647,4,2,4,5,0,1
137988,-58.8235294117647,4,2,9,70,0,1
138091,-58.8235294117647,4,2,9,5,0,1
138194,-58.8235294117647,4,2,7,70,0,1
138608,-58.8235294117647,4,2,10,70,0,1
138711,-58.8235294117647,4,2,10,5,0,1
138815,-58.8235294117647,4,2,7,70,0,1
138918,-58.8235294117647,4,2,7,5,0,1
139022,-58.8235294117647,4,2,7,70,0,1
139228,-58.8235294117647,4,2,11,70,0,1
139331,-58.8235294117647,4,2,11,5,0,1
139436,-58.8235294117647,4,2,7,70,0,1
139539,-58.8235294117647,4,2,7,5,0,1
139643,-58.8235294117647,4,2,7,70,0,1
139746,-58.8235294117647,4,2,7,5,0,1
139849,-58.8235294117647,4,2,7,70,0,1
140159,-58.8235294117647,4,2,7,5,0,1
140262,-58.8235294117647,4,2,7,70,0,1
140470,-58.8235294117647,4,2,12,70,0,1
140573,-58.8235294117647,4,2,12,5,0,1
140677,-58.8235294117647,4,2,13,70,0,1
140780,-58.8235294117647,4,2,13,5,0,1
140883,-58.8235294117647,4,2,13,70,0,1
141193,-58.8235294117647,4,2,13,5,0,1
141297,-58.8235294117647,4,2,13,70,0,1
141400,-58.8235294117647,4,2,13,5,0,1
141504,-58.8235294117647,4,2,7,70,0,1
141918,-58.8235294117647,4,2,14,70,0,1
142021,-58.8235294117647,4,2,14,5,0,1
142125,-58.8235294117647,4,2,3,70,0,1
142539,-45.4545454545455,4,2,15,70,0,1
142745,-45.4545454545455,4,2,7,70,0,1
142953,-58.8235294117647,4,2,7,70,0,1
143056,-58.8235294117647,4,2,7,5,0,1
143160,-58.8235294117647,4,2,7,70,0,1
143263,-58.8235294117647,4,2,7,5,0,1
143367,-58.8235294117647,4,2,7,70,0,1
143470,-58.8235294117647,4,2,7,5,0,1
143573,-58.8235294117647,4,2,7,70,0,1
143781,-58.8235294117647,4,2,16,70,0,1
143884,-58.8235294117647,4,2,16,5,0,1
143987,-58.8235294117647,4,2,17,70,0,1
144090,-58.8235294117647,4,2,17,5,0,1
144194,-58.8235294117647,4,2,17,70,0,1
144504,-58.8235294117647,4,2,17,5,0,1
144608,-58.8235294117647,4,2,17,70,0,1
144711,-58.8235294117647,4,2,17,5,0,1
144814,-58.8235294117647,4,2,7,70,0,1
145228,-58.8235294117647,4,2,18,70,0,1
145331,-58.8235294117647,4,2,18,5,0,1
145435,-58.8235294117647,4,2,18,70,0,1
145745,-58.8235294117647,4,2,18,5,0,1
145849,-58.8235294117647,4,2,23,70,0,1
145952,-58.8235294117647,4,2,7,70,0,1
146677,-71.4285714285714,4,2,23,70,0,1
146780,-71.4285714285714,4,2,7,70,0,1
147505,-71.4285714285714,4,2,6,70,0,1
147608,-71.4285714285714,4,2,1,70,0,1
147919,-71.4285714285714,4,2,28,70,0,1
148022,-71.4285714285714,4,2,2,70,0,1
148333,-71.4285714285714,4,2,7,70,0,1
148436,-71.4285714285714,4,2,3,70,0,1
148746,-71.4285714285714,4,2,26,70,0,1
148850,-71.4285714285714,4,2,4,70,0,1
148953,-71.4285714285714,4,2,29,70,0,0
149160,-71.4285714285714,4,2,7,70,0,1
149263,-71.4285714285714,4,2,7,70,0,0
162401,-1000,4,2,33,70,0,0
163952,-1000,4,2,32,5,0,0
164056,-1000,4,2,34,70,0,0
165607,-1000,4,2,34,5,0,0
165712,-1000,4,2,35,70,0,0
167263,-1000,4,2,35,5,0,0
167367,-1000,4,2,36,70,0,0
168918,-1000,4,2,36,5,0,0
169022,-1000,4,2,37,70,0,0
170573,-1000,4,2,37,5,0,0
170677,-1000,4,2,38,70,0,0
172228,-1000,4,2,38,5,0,0
172332,-133.333333333333,4,2,39,70,0,0
173574,-50,4,2,39,70,0,0
173884,-50,4,2,39,5,0,0
173987,-50,4,2,1,70,0,0
174402,-50,4,2,2,70,0,0
174816,-50,4,2,3,70,0,0
175228,-50,4,2,4,70,0,0
175643,-45.4545454545455,4,2,40,70,0,1
175953,-45.4545454545455,4,2,40,5,0,1
176056,-58.8235294117647,4,2,25,70,0,1
176262,-58.8235294117647,4,2,25,5,0,1
176367,-58.8235294117647,4,2,25,70,0,1
176470,-58.8235294117647,4,2,7,70,0,1
176574,-58.8235294117647,4,2,1,70,0,1
176677,-58.8235294117647,4,2,41,70,0,1
176780,-58.8235294117647,4,2,41,5,0,1
176884,-58.8235294117647,4,2,42,70,0,1
176987,-58.8235294117647,4,2,42,5,0,1
177091,-58.8235294117647,4,2,43,70,0,1
177194,-58.8235294117647,4,2,43,5,0,1
177298,-58.8235294117647,4,2,7,70,0,1
177608,-58.8235294117647,4,2,7,5,0,1
177712,-58.8235294117647,4,2,44,70,0,1
177918,-58.8235294117647,4,2,1,70,0,1
178125,-58.8235294117647,4,2,41,70,0,1
178332,-58.8235294117647,4,2,45,70,0,1
178435,-58.8235294117647,4,2,45,5,0,1
178539,-58.8235294117647,4,2,7,70,0,1
178746,-58.8235294117647,4,2,25,70,0,1
178849,-58.8235294117647,4,2,25,5,0,1
178953,-45.4545454545455,4,2,46,70,0,1
179263,-45.4545454545455,4,2,46,5,0,1
179367,-58.8235294117647,4,2,25,70,0,1
179573,-58.8235294117647,4,2,41,70,0,1
179677,-58.8235294117647,4,2,1,70,0,1
179781,-58.8235294117647,4,2,41,70,0,1
180090,-58.8235294117647,4,2,41,5,0,1
180194,-58.8235294117647,4,2,47,70,0,1
180297,-58.8235294117647,4,2,47,5,0,1
180401,-58.8235294117647,4,2,48,70,0,1
180504,-58.8235294117647,4,2,48,5,0,1
180608,-58.8235294117647,4,2,41,70,0,1
180918,-58.8235294117647,4,2,41,5,0,1
181022,-58.8235294117647,4,2,48,70,0,1
181125,-58.8235294117647,4,2,48,5,0,1
181229,-58.8235294117647,4,2,41,70,0,1
181332,-58.8235294117647,4,2,1,70,0,1
181436,-58.8235294117647,4,2,41,70,0,1
181643,-58.8235294117647,4,2,49,70,0,1
181746,-58.8235294117647,4,2,49,5,0,1
181849,-58.8235294117647,4,2,7,70,0,1
182056,-58.8235294117647,4,2,50,70,0,1
182263,-45.4545454545455,4,2,50,70,0,1
182573,-45.4545454545455,4,2,50,5,0,1
182677,-58.8235294117647,4,2,25,70,0,1
183090,-58.8235294117647,4,2,41,70,0,1
183401,-58.8235294117647,4,2,41,5,0,1
183505,-58.8235294117647,4,2,51,70,0,1
183608,-58.8235294117647,4,2,51,5,0,1
183712,-58.8235294117647,4,2,52,70,0,1
183815,-58.8235294117647,4,2,52,5,0,1
183919,-58.8235294117647,4,2,7,70,0,1
184229,-58.8235294117647,4,2,7,5,0,1
184332,-58.8235294117647,4,2,53,70,0,1
184538,-58.8235294117647,4,2,1,70,0,1
184746,-58.8235294117647,4,2,41,70,0,1
184954,-58.8235294117647,4,2,54,70,0,1
185057,-58.8235294117647,4,2,54,5,0,1
185160,-58.8235294117647,4,2,7,70,0,1
185366,-58.8235294117647,4,2,25,70,0,1
185470,-58.8235294117647,4,2,25,5,0,1
185574,-58.8235294117647,4,2,55,70,0,1
185677,-58.8235294117647,4,2,1,70,0,1
186402,-100,4,2,56,70,0,1
186505,-100,4,2,7,70,0,1
187229,-50,4,2,57,70,0,0
187332,-50,4,2,1,70,0,0
187643,-71.4285714285714,4,2,58,70,0,0
187746,-71.4285714285714,4,2,2,70,0,0
187849,-71.4285714285714,4,2,59,70,0,0
187952,-71.4285714285714,4,2,2,70,0,0
188056,-71.4285714285714,4,2,60,70,0,0
188264,-71.4285714285714,4,2,7,70,0,0
188366,-71.4285714285714,4,2,7,5,0,0
188470,-71.4285714285714,4,2,61,70,0,0
188677,-71.4285714285714,4,2,4,70,0,0
188884,-58.8235294117647,4,2,25,70,0,1
188987,-58.8235294117647,4,2,25,5,0,1
189090,-58.8235294117647,4,2,7,70,0,1
189297,-58.8235294117647,4,2,62,70,0,1
189505,-58.8235294117647,4,2,1,70,0,1
189712,-58.8235294117647,4,2,7,70,0,1
189815,-58.8235294117647,4,2,1,70,0,1
189918,-58.8235294117647,4,2,41,70,0,1
190021,-58.8235294117647,4,2,41,5,0,1
190125,-58.8235294117647,4,2,27,70,0,1
190228,-58.8235294117647,4,2,27,5,0,1
190332,-58.8235294117647,4,2,29,70,0,1
190435,-58.8235294117647,4,2,29,5,0,1
190539,-58.8235294117647,4,2,3,70,0,1
190849,-58.8235294117647,4,2,3,5,0,1
190953,-58.8235294117647,4,2,43,70,0,1
191056,-58.8235294117647,4,2,43,5,0,1
191160,-58.8235294117647,4,2,41,70,0,1
191263,-58.8235294117647,4,2,1,70,0,1
191574,-58.8235294117647,4,2,45,70,0,1
191677,-58.8235294117647,4,2,45,5,0,1
191781,-58.8235294117647,4,2,7,70,0,1
191987,-58.8235294117647,4,2,41,70,0,1
192194,-58.8235294117647,4,2,46,70,0,1
192297,-58.8235294117647,4,2,46,5,0,1
192401,-58.8235294117647,4,2,7,70,0,1
192504,-58.8235294117647,4,2,7,5,0,1
192608,-58.8235294117647,4,2,62,70,0,1
192711,-58.8235294117647,4,2,62,5,0,1
192815,-58.8235294117647,4,2,41,70,0,1
192918,-58.8235294117647,4,2,1,70,0,1
193022,-58.8235294117647,4,2,41,70,0,1
193332,-58.8235294117647,4,2,41,5,0,1
193436,-58.8235294117647,4,2,47,70,0,1
193539,-58.8235294117647,4,2,47,5,0,1
193643,-58.8235294117647,4,2,48,70,0,1
193953,-58.8235294117647,4,2,48,5,0,1
194056,-58.8235294117647,4,2,48,70,0,1
194366,-58.8235294117647,4,2,48,5,0,1
194470,-58.8235294117647,4,2,41,70,0,1
194573,-58.8235294117647,4,2,1,70,0,1
194884,-58.8235294117647,4,2,49,70,0,1
194987,-58.8235294117647,4,2,49,5,0,1
195091,-58.8235294117647,4,2,25,70,0,1
195505,-58.8235294117647,4,2,50,70,0,1
195608,-58.8235294117647,4,2,50,5,0,1
195712,-58.8235294117647,4,2,7,70,0,1
195815,-58.8235294117647,4,2,7,5,0,1
195918,-58.8235294117647,4,2,62,70,0,1
196021,-58.8235294117647,4,2,62,5,0,1
196125,-58.8235294117647,4,2,41,70,0,1
196228,-58.8235294117647,4,2,1,70,0,1
196332,-58.8235294117647,4,2,41,70,0,1
196642,-58.8235294117647,4,2,41,5,0,1
196746,-58.8235294117647,4,2,51,70,0,1
196849,-58.8235294117647,4,2,51,5,0,1
196953,-58.8235294117647,4,2,52,70,0,1
197056,-58.8235294117647,4,2,52,5,0,1
197160,-58.8235294117647,4,2,52,70,0,1
197470,-58.8235294117647,4,2,52,5,0,1
197574,-58.8235294117647,4,2,52,70,0,1
197781,-58.8235294117647,4,2,41,70,0,1
197884,-58.8235294117647,4,2,1,70,0,1
198195,-58.8235294117647,4,2,54,70,0,1
198298,-58.8235294117647,4,2,54,5,0,1
198401,-58.8235294117647,4,2,25,70,0,1
198815,-58.8235294117647,4,2,30,70,0,0
198918,-58.8235294117647,4,2,7,70,0,0
199643,-71.4285714285714,4,2,30,70,0,0
199746,-71.4285714285714,4,2,7,70,0,0
200470,-71.4285714285714,4,2,8,70,0,0
200574,-71.4285714285714,4,2,1,70,0,0
200885,-71.4285714285714,4,2,23,70,0,0
200988,-71.4285714285714,4,2,2,70,0,0
201299,-71.4285714285714,4,2,9,70,0,0
201402,-71.4285714285714,4,2,3,70,0,0
201711,-71.4285714285714,4,2,4,70,0,0
201918,-71.4285714285714,4,2,29,70,0,0

[Colours]
Combo1 : 39,0,227
Combo2 : 102,138,162
Combo3 : 163,120,167
Combo4 : 107,148,107
Combo5 : 184,63,63

[HitObjects]
256,192,8555,12,0,13022,2:0:0:0:
73,112,13436,54,0,B|25:105|4:54|34:7|103:-5|137:39|136:101|76:178|76:178|11:262|87:321,1,472.500018024445,2|0,1:2|2:0,2:0:0:0:
132,248,14264,6,0,L|163:250,1,31.5,10|0,2:0|2:0,2:0:0:0:
173,255,15090,5,0,3:0:0:0:
89,137,15298,2,0,L|84:186,1,45,2|0,2:0|2:0,2:0:0:0:
90,191,15505,1,2,1:2:0:0:
72,56,15712,2,0,L|115:59,1,45,2|0,1:2|2:0,2:0:0:0:
209,160,15919,2,0,L|165:163,1,45,10|0,2:0|2:0,2:0:0:0:
221,73,16126,54,0,L|229:74,2,9,2|2|2,1:2|3:2|1:2,2:0:0:0:
378,210,16745,54,0,B|319:279|319:279|303:97|303:97|299:97|299:97|303:97|303:97|294:2|294:2|374:69,1,472.500018024445,2|0,1:2|2:0,2:0:0:0:
412,136,17574,6,0,L|380:138,1,31.5,10|0,1:2|2:0,2:0:0:0:
370,142,18402,5,2,3:2:0:0:
491,109,18608,2,0,L|496:158,1,45,2|0,1:2|2:0,2:0:0:0:
490,163,18815,1,2,1:2:0:0:
505,25,19022,2,0,L|462:28,1,45,2|0,2:0|2:0,2:0:0:0:
370,142,19229,2,0,L|414:145,1,45,10|0,2:0|2:0,2:0:0:0:
332,43,19436,54,0,L|324:41,2,9,2|2|2,1:2|3:2|1:2,2:0:0:0:
232,188,20057,54,0,B|269:225|255:270|255:270|320:205|256:141|256:141|195:80|254:14|254:14|240:69|276:105,1,472.500018024445,2|0,1:2|2:0,2:0:0:0:
332,43,20884,6,0,L|364:45,1,31.5,10|0,1:2|2:0,2:0:0:0:
382,44,21712,5,2,3:2:0:0:
342,179,21918,2,0,L|337:130,1,45,2|0,2:0|2:0,2:0:0:0:
343,125,22125,1,2,1:2:0:0:
415,223,22332,2,0,L|458:226,1,45,2|0,2:0|2:0,2:0:0:0:
427,41,22539,2,0,L|383:44,1,45,10|0,2:0|2:0,2:0:0:0:
473,128,22746,54,0,L|479:129,2,9,2|2|2,1:2|3:2|1:2,2:0:0:0:
292,30,23367,54,0,B|233:79|233:79|304:269,1,270.000010299683,2|2,1:2|3:2,2:0:0:0:
428,197,23988,5,2,2:0:0:0:
480,295,24195,2,0,L|481:280,1,13.5,10|0,1:2|2:0,2:0:0:0:
428,197,24608,2,0,L|429:211,1,13.5,2|0,3:2|2:0,2:0:0:0:
341,263,25022,54,0,B|411:269|411:269|440:244|440:244|512:251,2,180,0|0|0,3:0|1:0|1:0,2:0:0:0:
273,220,25539,21,0,2:0:0:0:
499,63,25850,5,2,3:2:0:0:
509,73,25953,2,0,L|501:163,1,90,0|0,2:0|2:0,2:0:0:0:
394,91,26264,2,0,L|418:133,1,45,2|0,2:0|2:0,2:0:0:0:
337,184,26471,2,0,L|351:193,4,15,0|0|0|0|0,1:0|2:0|2:0|2:0|2:0,2:0:0:0:
273,220,26677,22,0,B|304:183|350:192|350:192|288:149|234:203|234:203|175:263|117:224,1,337.500012874604,2|0,1:2|2:0,2:0:0:0:
62,178,27298,21,0,1:0:0:0:
203,0,27505,2,0,L|213:114,1,107.999996704102,10|0,1:2|3:0,2:0:0:0:
157,169,27815,1,0,2:0:0:0:
167,164,27919,2,0,B|214:140|214:140|268:153,1,107.999996704102,0|0,3:0|3:0,2:0:0:0:
233,357,28333,1,0,3:0:0:0:
223,217,28539,2,0,L|227:270,1,53.9999983520508,8|0,3:2|2:0,2:0:0:0:
233,357,28746,1,0,1:0:0:0:
356,236,28953,22,0,P|383:233|414:248,1,53.9999983520508,2|0,3:2|2:0,2:0:0:0:
385,381,29160,2,0,P|357:383|326:368,1,53.9999983520508,10|0,3:2|2:0,2:0:0:0:
373,306,29367,1,2,1:2:0:0:
512,384,29574,1,2,3:2:0:0:
444,237,29781,1,2,1:2:0:0:
444,237,29884,1,0,2:0:0:0:
444,237,29988,6,0,B|471:186|536:202|566:242|518:316|472:295|427:250|427:250|382:205|329:242,1,337.500012874604,2|0,1:2|2:0,2:0:0:0:
330,244,30608,21,0,1:0:0:0:
397,36,30815,2,0,L|407:153,1,107.999996704102,10|0,1:2|3:0,2:0:0:0:
401,158,31126,1,0,2:0:0:0:
414,143,31229,2,0,L|404:35,1,107.999996704102,0|0,3:0|3:0,2:0:0:0:
277,239,31643,22,0,L|339:244,1,53.9999983520508,0|0,3:0|2:0,2:0:0:0:
283,102,31850,2,0,L|220:107,1,53.9999983520508,8|0,3:2|2:0,2:0:0:0:
277,239,32057,2,0,L|388:248,1,107.999996704102,0|0,1:0|3:0,2:0:0:0:
402,243,32367,1,0,2:0:0:0:
402,243,32471,1,10,3:2:0:0:
344,58,32677,1,2,1:2:0:0:
219,143,32884,1,2,3:2:0:0:
118,61,33091,1,2,1:2:0:0:
113,66,33195,1,0,2:0:0:0:
108,71,33298,6,0,B|69:115|69:115|123:248,1,202.500007724762,2|0,1:2|2:0,2:0:0:0:
185,308,33712,22,0,B|205:288|205:288|207:257,2,53.9999983520508,2|0|0,3:2|2:0|2:0,2:0:0:0:
60,306,33918,2,0,B|77:328|77:328|107:333,1,53.9999983520508,2|0,1:2|2:0,2:0:0:0:
123,248,34126,2,0,B|69:114|69:114|87:96,1,161.999995056153,10|0,1:2|2:0,2:0:0:0:
91,92,34539,1,2,3:2:0:0:
212,192,34746,1,2,3:2:0:0:
232,37,34953,22,0,L|284:41,1,53.9999983520508,2|0,3:2|2:0,2:0:0:0:
178,107,35160,1,8,3:2:0:0:
50,0,35366,1,2,1:2:0:0:
53,168,35574,2,0,L|-5:173,1,53.9999983520508,2|0,3:2|2:0,2:0:0:0:
178,107,35781,2,0,L|236:112,1,53.9999983520508,10|0,3:2|2:0,2:0:0:0:
172,246,35988,1,2,1:2:0:0:
133,175,36195,1,2,3:2:0:0:
43,310,36402,1,2,3:2:0:0:
48,305,36505,1,0,2:0:0:0:
53,300,36608,22,0,L|76:304,7,18,2|0|0|0|0|0|0|0,1:2|3:0|3:0|3:0|3:0|3:0|3:0|3:0,2:0:0:0:
130,372,37436,2,0,L|154:369,3,18,2|0|0|0,3:2|3:0|3:0|3:0,2:0:0:0:
179,298,37850,2,0,L|223:305,1,36,2|2,2:0|2:3,2:0:0:0:
242,329,38160,5,2,2:3:0:0:
252,334,38264,2,0,L|304:324,1,53.9999983520508,2|2,2:3|2:3,2:0:0:0:
344,134,38574,5,2,2:3:0:0:
344,134,38677,1,2,2:3:0:0:
344,134,38781,1,2,2:3:0:0:
499,276,38988,5,2,2:3:0:0:
499,276,39091,1,2,2:0:0:0:
499,276,39195,1,2,2:3:0:0:
305,323,39402,37,2,2:3:0:0:
279,295,39505,1,2,2:0:0:0:
279,257,39608,1,2,2:3:0:0:
304,229,39712,1,0,2:0:0:0:
497,359,39919,6,0,P|511:316|496:273,1,90,6|0,1:2|2:0,2:0:0:0:
377,314,40126,2,0,P|411:324|444:312,1,62.9999980773926,2|0,2:0|2:0,2:0:0:0:
405,194,40333,1,10,2:0:0:0:
405,194,40539,1,8,2:0:0:0:
305,345,40746,6,0,P|296:315|319:269,1,62.9999980773926,2|0,3:2|2:0,2:0:0:0:
436,316,40953,2,0,P|406:323|377:314,1,62.9999980773926,2|0,1:2|2:0,2:0:0:0:
405,194,41160,1,10,2:0:0:0:
405,194,41367,1,0,1:0:0:0:
232,279,41574,37,2,1:2:0:0:
237,284,41677,1,2,2:0:0:0:
242,289,41781,2,0,L|307:284,1,62.9999980773926,2|0,2:0|2:0,2:0:0:0:
267,163,41988,1,10,2:0:0:0:
267,163,42195,1,8,2:0:0:0:
304,284,42401,6,0,L|242:289,1,62.9999980773926,2|0,3:2|2:0,2:0:0:0:
131,185,42608,2,0,L|166:236,1,62.9999980773926,2|0,1:2|2:0,2:0:0:0:
163,332,42815,1,10,2:0:0:0:
163,332,43022,1,0,1:0:0:0:
267,163,43229,6,0,P|305:141|353:152,1,90,2|0,1:2|2:0,2:0:0:0:
366,300,43436,2,0,P|340:282|331:246,1,62.9999980773926,2|0,2:0|2:0,2:0:0:0:
432,217,43643,1,10,2:0:0:0:
267,163,43849,38,0,P|292:145|325:141,1,62.9999980773926,8|0,2:0|2:0,2:0:0:0:
242,254,44056,2,0,P|211:259|178:248,1,62.9999980773926,2|0,3:2|2:0,2:0:0:0:
156,145,44264,1,2,1:2:0:0:
114,297,44471,1,10,2:0:0:0:
114,297,44677,1,0,1:0:0:0:
74,106,44884,6,0,B|68:172,1,62.9999980773926,2|2,1:2|2:0,2:0:0:0:
114,297,45091,2,0,B|108:235,1,62.9999980773926,2|0,2:0|2:0,2:0:0:0:
156,145,45298,1,10,2:0:0:0:
156,145,45505,1,8,2:0:0:0:
313,284,45712,6,0,L|244:276,1,62.9999980773926,2|0,3:2|2:0,2:0:0:0:
343,155,45918,2,0,L|371:216,1,62.9999980773926,2|0,1:2|2:0,2:0:0:0:
215,190,46125,2,0,L|254:134,1,62.9999980773926,10|0,2:0|2:0,2:0:0:0:
313,284,46332,2,0,L|244:276,1,62.9999980773926,8|0,1:2|2:0,2:0:0:0:
8,325,46539,38,0,B|85:317|85:317|116:342|116:342|200:335,1,188.999994232178,2|0,1:2|2:0,2:0:0:0:
135,247,46953,54,0,L|137:263,1,13.5,10|0,2:0|2:0,2:0:0:0:
162,180,47367,22,0,P|130:174|89:190,1,62.9999980773926,2|0,3:2|2:0,2:0:0:0:
115,329,47574,2,0,P|147:333|187:314,1,62.9999980773926,0|0,1:0|2:0,2:0:0:0:
135,247,47781,38,0,L|137:263,1,13.5,10|0,2:0|2:0,2:0:0:0:
175,323,48195,22,0,B|134:351|82:327|94:299|47:268|0:298,1,188.999994232178,2|0,1:2|2:0,2:0:0:0:
32,367,48608,5,10,2:0:0:0:
60,211,48815,1,10,2:0:0:0:
175,323,49022,2,0,L|240:318,1,62.9999980773926,2|0,3:2|2:0,2:0:0:0:
122,215,49229,2,0,L|57:210,1,62.9999980773926,2|0,1:2|2:0,2:0:0:0:
88,297,49436,1,10,2:0:0:0:
152,132,49643,1,2,1:2:0:0:
212,241,49849,22,0,L|189:237,3,18,2|0|0|0,1:2|3:0|3:0|3:0,2:0:0:0:
292,263,50263,2,0,L|288:286,3,18,2|0|0|0,3:2|3:0|3:0|3:0,2:0:0:0:
324,186,50677,2,0,L|347:190,3,18,2|0|0|0,3:2|3:0|3:0|3:0,2:0:0:0:
242,174,51091,2,0,L|246:151,3,18,2|0|2|2,3:2|3:0|2:3|2:3,2:0:0:0:
251,187,51505,37,2,2:0:0:0:
251,187,51608,1,2,2:3:0:0:
389,9,51815,37,2,2:3:0:0:
389,9,51919,1,2,2:3:0:0:
389,9,52022,1,2,2:3:0:0:
475,229,52229,5,2,2:3:0:0:
475,229,52333,1,2,2:0:0:0:
475,229,52436,1,2,2:3:0:0:
369,105,52643,5,2,2:3:0:0:
346,127,52746,1,2,2:3:0:0:
369,149,52850,1,2,2:3:0:0:
391,127,52953,1,0,2:0:0:0:
71,331,53160,6,0,B|18:374|18:374|32:203|32:203|72:250,1,297.000009063721,6|0,1:2|2:0,2:0:0:0:
336,320,53574,2,0,B|280:342|280:342|188:266|188:266|133:291,1,229.500004377365,8|0,1:2|2:0,2:0:0:0:
171,363,53988,21,2,1:2:0:0:
269,89,54195,1,2,2:0:0:0:
414,384,54402,2,0,L|420:307,1,76.5000014591217,10|0,1:2|2:0,2:0:0:0:
385,168,54608,2,0,L|377:249,1,76.5000014591217,2|0,1:2|2:0,2:0:0:0:
414,384,54815,2,0,B|420:307|420:307|378:245|378:245|386:164,1,229.500004377365,2|0,1:2|2:0,2:0:0:0:
447,9,55229,6,0,B|482:51|482:51|396:77|396:77|311:37|311:37|359:-2,1,297.000009063721,10|0,1:2|2:0,2:0:0:0:
377,244,55643,5,2,1:2:0:0:
245,3,55850,2,0,B|230:40|230:40|247:80,1,76.5000014591217,2|0,1:2|2:0,2:0:0:0:
432,165,56057,2,0,B|352:150|352:150|302:197|302:197|213:182,1,229.500004377365,10|0,1:2|2:0,2:0:0:0:
63,127,56470,38,0,B|111:86|111:86|95:261|95:261|52:210,1,297.000009063721,2|0,1:2|2:0,2:0:0:0:
88,17,56884,2,0,B|130:12|130:12|166:34,1,76.5000014591217,8|0,1:2|2:0,2:0:0:0:
63,127,57091,5,2,2:0:0:0:
363,94,57298,2,0,B|322:40|249:53|249:53|234:109|176:119,1,229.500004377365,2|0,1:2|2:0,2:0:0:0:
435,63,57712,2,0,P|445:99|431:138,1,76.5000014591217,10|0,1:2|2:0,2:0:0:0:
386,267,57919,2,0,P|376:231|389:189,1,76.5000014591217,2|0,1:2|2:0,2:0:0:0:
435,63,58126,2,0,B|470:112|417:183|394:152|352:218|388:270,1,229.500004377365,2|0,1:2|2:0,2:0:0:0:
512,370,58539,2,0,P|486:339|443:331,1,76.5000014591217,10|0,1:2|2:0,2:0:0:0:
297,384,58746,2,0,P|336:377|364:343,1,76.5000014591217,10|0,2:0|2:0,2:0:0:0:
454,232,58953,1,2,1:2:0:0:
183,384,59160,1,2,1:2:0:0:
163,124,59367,2,0,B|219:102|219:102|311:178|311:178|369:156,1,229.500004377365,10|0,1:2|2:0,2:0:0:0:
120,50,59781,6,0,B|67:103|67:103|153:315,1,297.000009063721,2|0,1:2|2:0,2:0:0:0:
330,384,60195,2,0,B|298:321|221:330|221:330|201:388|132:381,1,229.500004377365,8|0,1:2|2:0,2:0:0:0:
264,260,60608,38,0,P|301:266|343:288,1,76.5000014591217,2|0,1:2|2:0,2:0:0:0:
427,384,60815,1,2,2:0:0:0:
444,177,61022,2,0,P|422:207|407:252,1,76.5000014591217,10|0,1:2|2:0,2:0:0:0:
264,260,61229,2,0,P|301:266|343:288,1,76.5000014591217,2|0,1:2|2:0,2:0:0:0:
397,88,61436,2,0,P|338:175|216:158,1,229.500004377365,2|0,1:2|2:0,2:0:0:0:
62,51,61850,6,0,B|115:8|115:8|101:179|101:179|61:132,1,297.000009063721,10|0,1:2|2:0,2:0:0:0:
188,15,62264,38,0,L|187:28,1,13.5,2|0,1:2|2:0,2:0:0:0:
175,189,62677,2,0,L|176:175,1,13.5,10|0,1:2|2:0,2:0:0:0:
182,103,63091,38,0,B|257:96|257:96|291:136|291:136|370:129,1,198.000006042481,2|0,1:2|2:0,2:0:0:0:
439,103,63402,1,8,2:0:0:0:
439,103,63505,1,8,2:0:0:0:
422,303,63712,2,0,L|429:217,1,76.5000014591217,0|8,2:0|2:0,2:0:0:0:
512,60,63919,1,10,1:2:0:0:
485,23,64022,1,8,2:0:0:0:
440,12,64126,1,8,2:0:0:0:
396,23,64229,1,0,2:0:0:0:
365,57,64333,2,0,P|352:94|364:135,1,76.5000014591217,10|0,2:0|2:0,2:0:0:0:
512,291,64539,1,0,2:0:0:0:
466,285,64643,1,8,2:0:0:0:
425,312,64746,38,0,B|304:329|371:226|250:244,1,198.000006042481,2|2,1:2|2:3,2:0:0:0:
162,330,65057,1,2,2:3:0:0:
192,321,65160,2,0,P|218:239|156:176,1,180,2|2,1:2|2:0,2:0:0:0:
62,95,65471,1,2,2:3:0:0:
96,112,65574,1,2,1:2:0:0:
134,99,65677,1,2,2:3:0:0:
159,67,65781,1,2,2:0:0:0:
198,53,65884,1,2,2:3:0:0:
236,68,65988,1,2,1:2:0:0:
146,255,66195,1,2,2:3:0:0:
392,131,66402,6,0,L|399:215,1,76.5000014591217,6|0,1:0|2:0,2:0:0:0:
358,314,66608,1,2,2:0:0:0:
114,185,66815,1,10,1:2:0:0:
399,122,67022,6,0,L|406:206,1,76.5000014591217,2|0,2:1|2:0,2:0:0:0:
365,305,67228,1,2,1:2:0:0:
121,176,67435,1,2,2:0:0:0:
407,115,67643,38,0,L|414:199,1,76.5000014591217,10|0,1:0|2:0,2:0:0:0:
273,334,67850,2,0,L|280:250,1,76.5000014591217,2|0,1:0|2:0,2:0:0:0:
407,115,68057,2,0,L|426:346,1,229.500004377365,0|0,1:0|2:0,2:0:0:0:
256,183,68471,6,0,P|293:177|333:199,1,76.5000014591217,10|0,1:2|2:0,2:0:0:0:
273,334,68677,1,2,2:0:0:0:
298,105,68884,1,0,1:0:0:0:
273,334,69091,2,0,P|236:340|196:318,1,76.5000014591217,2|0,1:2|2:0,2:0:0:0:
148,186,69298,2,0,P|163:220|152:264,1,76.5000014591217,10|0,1:2|2:0,2:0:0:0:
102,384,69505,1,2,2:0:0:0:
10,185,69712,6,0,P|31:155|75:142,1,76.5000014591217,2|0,1:2|2:0,2:0:0:0:
156,258,69918,2,0,P|163:220|148:187,1,76.5000014591217,2|0,2:0|2:0,2:0:0:0:
8,283,70125,2,0,P|36:307|73:311,1,76.5000014591217,10|0,1:2|2:0,2:0:0:0:
77,228,70332,1,2,2:0:0:0:
251,370,70539,2,0,L|162:376,1,76.5000014591217,2|0,1:2|2:0,2:0:0:0:
273,255,70745,1,2,2:0:0:0:
441,384,70952,2,0,L|434:307,1,76.5000014591217,10|0,1:2|2:0,2:0:0:0:
333,98,71159,2,0,L|326:174,1,76.5000014591217,2|0,1:2|2:0,2:0:0:0:
481,224,71366,2,0,B|398:216|398:216|358:263|358:263|270:255,1,229.500004377365,0|0,1:0|2:0,2:0:0:0:
333,98,71780,38,0,L|326:174,1,76.5000014591217,10|0,1:2|2:0,2:0:0:0:
274,256,71987,1,10,2:0:0:0:
448,131,72194,1,0,1:0:0:0:
391,353,72401,2,0,L|315:346,1,76.5000014591217,2|0,1:2|2:0,2:0:0:0:
448,131,72608,2,0,B|478:161|478:161|445:268,1,153.000002918243,8|0,1:2|2:0,2:0:0:0:
445,266,73022,6,0,B|478:161|478:161|407:90,1,198.000006042481,2|2,1:2|2:0,2:0:0:0:
285,182,73332,1,0,2:0:0:0:
295,187,73435,2,0,B|331:199|331:199|370:186,1,76.5000014591217,8|0,1:2|2:0,2:0:0:0:
317,9,73642,2,0,B|323:86,1,76.5000014591217,2|0,2:0|2:0,2:0:0:0:
325,14,73849,2,0,B|331:91,1,76.5000014591217,2|0,1:2|2:0,2:0:0:0:
285,182,74056,1,2,2:0:0:0:
76,91,74263,2,0,L|-3:97,1,76.5000014591217,10|0,1:2|2:0,2:0:0:0:
208,176,74470,2,0,L|287:182,1,76.5000014591217,2|0,1:2|2:0,2:0:0:0:
148,27,74676,2,0,B|155:119|155:119|130:150|130:150|139:255,1,229.500004377365,0|0,1:0|2:0,2:0:0:0:
289,384,75090,6,0,L|295:308,1,76.5000014591217,10|0,1:2|2:0,2:0:0:0:
240,159,75297,1,2,2:0:0:0:
448,354,75504,1,0,1:0:0:0:
417,80,75711,2,0,L|409:163,1,76.5000014591217,2|0,1:2|2:0,2:0:0:0:
240,159,75918,2,0,B|364:146|301:264|436:245,1,229.500004377365,8|0,1:2|2:0,2:0:0:0:
417,80,76332,37,6,1:0:0:0:
392,124,76435,1,0,3:0:0:0:
428,159,76539,1,2,3:2:0:0:
472,135,76642,1,0,3:0:0:0:
465,87,76745,1,2,3:2:0:0:
417,80,76849,1,0,3:0:0:0:
392,124,76952,1,2,3:2:0:0:
345,143,77056,1,0,3:0:0:0:
295,122,77159,6,0,L|301:60,1,62.9999980773926,2|0,1:0|3:0,2:0:0:0:
154,182,77366,2,0,L|160:244,1,62.9999980773926,2|0,3:2|3:0,2:0:0:0:
295,122,77573,6,0,L|301:60,1,62.9999980773926,2|0,3:2|3:0,2:0:0:0:
154,182,77780,2,0,L|160:244,1,62.9999980773926,2|0,3:2|3:0,2:0:0:0:
295,122,77987,37,2,1:0:0:0:
295,122,78090,1,2,2:3:0:0:
226,341,78297,5,2,2:3:0:0:
226,341,78401,1,2,1:2:0:0:
226,341,78504,1,2,2:3:0:0:
449,287,78711,5,2,2:3:0:0:
449,287,78815,1,2,1:0:0:0:
449,287,78918,1,2,2:3:0:0:
314,224,79125,37,2,2:3:0:0:
295,249,79228,1,2,1:2:0:0:
321,267,79332,1,2,2:3:0:0:
339,242,79435,1,2,2:0:0:0:
160,155,79643,54,0,L|151:204,1,49.5,2|0,2:0|2:0,2:0:0:0:
134,286,80884,6,0,L|132:295,2,9,0|0|0,2:0|2:0|2:0,2:0:0:0:
151,203,81505,54,0,L|157:161,1,42.75,0|0,2:0|2:0,2:0:0:0:
230,126,82539,54,0,B|203:75|146:81|146:81|211:38|252:91|252:91|299:154|364:117,1,337.5,2|0,2:1|2:0,2:0:0:0:
317,35,82952,6,0,L|319:46,1,13.5,0|0,1:0|2:0,2:0:0:0:
408,78,83366,1,2,3:2:0:0:
417,65,83470,2,0,L|419:53,1,9,2|0,2:0|2:0,2:0:0:0:
305,156,83781,54,0,L|307:178,1,22.5,10|0,2:0|2:0,2:0:0:0:
408,78,84194,5,2,3:2:0:0:
417,65,84298,2,0,L|419:53,1,9,2|0,2:0|2:0,2:0:0:0:
305,156,84608,2,0,L|307:169,1,13.5,2|0,3:2|2:0,2:0:0:0:
309,185,85022,5,2,1:2:0:0:
215,153,85229,1,2,1:2:0:0:
298,319,85436,38,0,L|309:182,3,135.000005149842,10|2|2|2,2:0|1:2|3:2|1:2,2:0:0:0:
184,265,86263,6,0,L|195:263,1,13.5,2|0,1:2|2:0,2:0:0:0:
239,195,86677,1,2,3:2:0:0:
226,186,86781,2,0,L|214:184,1,9,2|0,2:0|2:0,2:0:0:0:
296,285,87092,54,0,L|318:283,1,22.5,10|0,1:2|2:0,2:0:0:0:
239,195,87505,5,2,3:2:0:0:
226,186,87609,2,0,L|214:184,1,9,2|0,2:0|2:0,2:0:0:0:
296,285,87918,1,2,3:2:0:0:
296,285,88125,1,0,1:0:0:0:
361,234,88332,1,2,1:2:0:0:
372,316,88539,1,2,2:0:0:0:
328,163,88746,54,0,B|383:157|383:157|405:176|405:176|461:171,3,135.000005149842,10|2|2|2,2:0|1:2|3:2|1:2,2:0:0:0:
447,85,89574,6,0,L|445:101,1,13.5,2|0,1:2|2:0,2:0:0:0:
427,7,89987,6,0,P|461:3|498:21,1,67.5,2|0,3:2|2:0,2:0:0:0:
445,107,90401,38,0,L|447:78,1,22.5,10|0,1:2|2:0,2:0:0:0:
340,7,90815,38,0,P|307:-5|267:3,1,67.5,2|0,3:2|2:0,2:0:0:0:
266,75,91229,2,0,P|299:87|339:79,1,67.5,2|0,3:2|2:0,2:0:0:0:
396,53,91643,5,2,1:2:0:0:
345,161,91849,1,2,2:0:0:0:
209,24,92056,6,0,B|178:54|178:54|209:157,3,135.000005149842,10|2|2|2,2:0|1:2|3:2|1:2,2:0:0:0:
281,71,92884,6,0,L|265:74,1,13.5,2|0,1:2|2:0,2:0:0:0:
356,99,93298,6,0,B|364:67|364:67|352:34,1,67.5,2|0,3:2|2:0,2:0:0:0:
281,71,93712,38,0,L|252:78,1,22.5,10|0,1:2|2:0,2:0:0:0:
393,177,94125,6,0,B|423:161|423:161|436:129,1,67.5,2|0,3:2|2:0,2:0:0:0:
339,123,94539,54,0,B|303:158|303:158|350:288,2,180,2|0|0,3:2|1:0|1:0,2:0:0:0:
397,67,95056,1,0,3:0:0:0:
312,348,95367,37,0,3:0:0:0:
323,355,95470,2,0,B|367:360|367:360|411:331,1,90,0|0,3:0|2:0,2:0:0:0:
328,229,95781,6,0,L|340:275,1,45,0|0,3:0|3:0,2:0:0:0:
250,292,95988,38,0,L|246:308,4,15,0|0|0|0|0,1:0|2:0|2:0|2:0|2:0,2:0:0:0:
163,338,96194,38,0,B|195:377|195:377|204:280|204:280|171:241|171:241|179:149|179:149|213:189,1,337.500012874604,2|0,1:2|2:0,2:0:0:0:
215,196,96815,37,0,1:0:0:0:
153,10,97022,2,0,B|52:0|108:75|1:63,1,161.999995056153,8|0,1:2|2:0,2:0:0:0:
0,58,97436,5,2,3:2:0:0:
166,105,97643,1,2,3:2:0:0:
0,58,97850,1,2,3:2:0:0:
57,216,98056,2,0,L|53:163,1,53.9999983520508,10|0,3:2|2:0,2:0:0:0:
166,105,98263,1,2,1:2:0:0:
33,290,98470,2,0,P|59:296|92:286,1,53.9999983520508,2|0,3:2|2:0,2:0:0:0:
79,142,98677,2,0,P|51:137|19:149,1,53.9999983520508,10|0,3:2|2:0,2:0:0:0:
57,216,98884,1,2,1:2:0:0:
166,105,99091,1,2,3:2:0:0:
256,200,99298,1,2,1:2:0:0:
256,200,99401,1,0,2:0:0:0:
256,200,99505,6,0,B|226:238|244:281|244:281|189:229|237:157|237:157|276:94|228:46,1,337.500012874604,2|0,1:2|2:0,2:0:0:0:
330,248,100125,21,0,1:0:0:0:
405,65,100332,2,0,L|514:74,1,107.999996704102,8|0,1:2|3:0,2:0:0:0:
402,278,100746,22,0,B|412:251|412:251|401:210,1,53.9999983520508,2|0,3:2|2:0,2:0:0:0:
330,248,100953,1,2,3:2:0:0:
429,357,101160,2,0,B|401:365|401:365|372:356,1,53.9999983520508,2|0,3:2|2:0,2:0:0:0:
279,249,101367,2,0,B|306:240|306:240|335:249,1,53.9999983520508,10|0,3:2|2:0,2:0:0:0:
308,321,101574,1,2,1:2:0:0:
380,171,101781,2,0,B|434:175,1,53.9999983520508,2|0,3:2|2:0,2:0:0:0:
279,249,101987,2,0,B|224:253,1,53.9999983520508,10|0,3:2|2:0,2:0:0:0:
244,86,102194,1,2,1:2:0:0:
156,225,102401,1,2,3:2:0:0:
48,72,102608,1,2,1:2:0:0:
53,67,102712,1,0,2:0:0:0:
58,62,102815,6,0,B|131:55|131:55|169:94|169:94|250:85,1,202.500007724762,2|0,1:2|2:0,2:0:0:0:
293,18,103229,38,0,B|316:34|316:34|323:64,2,53.9999983520508,0|0|0,3:0|2:0|2:0,2:0:0:0:
277,164,103436,2,0,B|303:154|303:154|318:127,1,53.9999983520508,0|0,1:0|2:0,2:0:0:0:
243,85,103643,2,0,B|169:94|169:94|131:55|131:55|85:59,1,161.999995056153,8|0,1:2|2:0,2:0:0:0:
25,0,104056,38,0,L|22:15,1,13.5,2|0,3:2|2:0,2:0:0:0:
98,57,104470,2,0,L|100:73,1,13.5,2|0,3:2|2:0,2:0:0:0:
24,113,104884,2,0,L|21:128,1,13.5,2|0,1:2|2:0,2:0:0:0:
98,57,105298,2,0,L|100:73,1,13.5,10|0,3:2|2:0,2:0:0:0:
25,0,105712,2,0,L|22:15,1,13.5,2|0,3:2|2:0,2:0:0:0:
24,113,106125,6,0,L|20:136,3,18,2|0|0|0,1:2|3:0|3:0|3:0,2:0:0:0:
116,89,106539,2,0,L|98:74,3,18,2|0|0|0,3:2|3:0|3:0|3:0,2:0:0:0:
90,180,106953,2,0,L|111:171,3,18,2|0|0|0,3:2|3:0|3:0|3:0,2:0:0:0:
192,96,107367,2,0,L|236:103,1,36,2|2,2:0|2:3,2:0:0:0:
255,127,107677,5,2,2:3:0:0:
265,132,107781,2,0,L|317:122,1,53.9999983520508,2|2,2:3|2:3,2:0:0:0:
298,327,108091,5,2,2:3:0:0:
298,327,108194,1,2,2:3:0:0:
298,327,108298,1,2,2:3:0:0:
453,200,108505,37,2,2:3:0:0:
453,200,108608,1,2,2:0:0:0:
453,200,108712,1,2,2:3:0:0:
265,132,108919,5,2,2:3:0:0:
239,160,109022,1,2,2:0:0:0:
239,198,109125,1,2,2:3:0:0:
264,226,109229,1,0,2:0:0:0:
382,37,109436,6,0,P|337:26|296:45,1,90,6|2,1:2|2:0,2:0:0:0:
347,160,109643,2,0,P|353:125|339:93,1,62.9999980773926,2|0,2:0|2:0,2:0:0:0:
221,67,109850,1,10,2:0:0:0:
221,67,110056,1,8,2:0:0:0:
121,218,110263,38,0,P|112:188|135:142,1,62.9999980773926,2|0,3:2|2:0,2:0:0:0:
252,189,110470,2,0,P|222:196|193:187,1,62.9999980773926,2|0,1:2|2:0,2:0:0:0:
221,67,110677,1,10,2:0:0:0:
221,67,110884,1,0,1:0:0:0:
322,230,111091,5,2,1:2:0:0:
327,225,111194,1,2,2:0:0:0:
332,220,111298,2,0,L|327:155,1,62.9999980773926,2|0,2:0|2:0,2:0:0:0:
191,186,111505,1,10,2:0:0:0:
191,186,111712,1,8,2:0:0:0:
124,357,111918,6,0,L|186:362,1,62.9999980773926,2|0,3:2|2:0,2:0:0:0:
127,229,112125,2,0,L|91:280,1,62.9999980773926,2|0,1:2|2:0,2:0:0:0:
18,384,112332,1,10,2:0:0:0:
18,384,112539,1,0,1:0:0:0:
179,283,112746,38,0,P|221:271|266:293,1,90,2|0,1:2|2:0,2:0:0:0:
392,374,112953,2,0,P|360:379|329:360,1,62.9999980773926,2|0,2:0|2:0,2:0:0:0:
381,248,113160,1,10,2:0:0:0:
381,248,113367,1,8,2:0:0:0:
179,283,113574,6,0,P|165:311|175:344,1,62.9999980773926,2|0,3:2|2:0,2:0:0:0:
291,384,113781,1,2,1:2:0:0:
229,199,113988,1,10,2:0:0:0:
229,199,114194,1,0,1:0:0:0:
368,328,114401,6,0,B|434:334,1,62.9999980773926,2|0,1:2|2:0,2:0:0:0:
365,197,114608,2,0,B|303:203,1,62.9999980773926,2|0,2:0|2:0,2:0:0:0:
217,297,114815,1,10,2:0:0:0:
217,297,115022,1,8,2:0:0:0:
138,125,115229,38,0,L|69:131,1,62.9999980773926,2|0,3:2|2:0,2:0:0:0:
154,292,115436,2,0,L|219:297,1,62.9999980773926,2|0,1:2|2:0,2:0:0:0:
216,149,115643,2,0,L|210:83,1,62.9999980773926,10|0,2:0|2:0,2:0:0:0:
83,254,115849,2,0,L|77:315,1,62.9999980773926,10|0,1:2|2:0,2:0:0:0:
314,55,116056,6,0,B|283:29|283:29|289:101|289:101|297:107|297:107|304:181,1,188.999994232178,2|0,1:2|2:0,2:0:0:0:
415,86,116470,38,0,L|413:99,1,13.5,10|0,2:0|2:0,2:0:0:0:
376,163,116884,6,0,B|405:174|405:174|449:167,1,62.9999980773926,2|0,3:2|2:0,2:0:0:0:
450,19,117091,2,0,B|419:8|419:8|375:17,1,62.9999980773926,0|0,1:0|2:0,2:0:0:0:
414,99,117298,54,0,L|415:85,1,13.5,10|0,2:0|2:0,2:0:0:0:
450,19,117712,6,0,B|418:8|418:8|369:19|369:19|308:37|308:37|262:22,1,188.999994232178,2|0,1:2|2:0,2:0:0:0:
258,19,118125,5,10,2:0:0:0:
180,195,118332,1,10,2:0:0:0:
89,36,118539,2,0,L|84:101,1,62.9999980773926,2|0,3:2|2:0,2:0:0:0:
180,195,118746,2,0,L|175:130,1,62.9999980773926,2|0,1:2|2:0,2:0:0:0:
89,36,118953,1,10,2:0:0:0:
35,210,119160,1,2,1:2:0:0:
66,124,119367,6,0,L|88:128,3,18,2|0|0|0,1:2|3:0|3:0|3:0,2:0:0:0:
180,195,119781,2,0,L|202:191,3,18,2|0|0|0,3:2|3:0|3:0|3:0,2:0:0:0:
66,124,120194,38,0,L|88:128,3,18,2|0|0|0,3:2|3:0|3:0|3:0,2:0:0:0:
180,195,120608,2,0,L|202:191,3,18,2|0|2|2,3:2|3:0|2:3|2:3,2:0:0:0:
219,187,121022,5,2,2:0:0:0:
219,187,121125,1,2,2:3:0:0:
305,384,121332,5,2,2:3:0:0:
305,384,121436,1,2,2:3:0:0:
305,384,121539,1,2,2:3:0:0:
494,296,121746,37,2,2:3:0:0:
494,296,121850,1,2,2:0:0:0:
494,296,121953,1,2,2:3:0:0:
419,105,122160,5,2,2:3:0:0:
396,127,122263,1,2,2:3:0:0:
419,149,122367,1,2,2:3:0:0:
441,127,122470,1,0,2:0:0:0:
126,341,122677,22,0,B|154:374|154:374|161:289|161:289|141:266|141:266|149:178|149:178|183:219,1,297.000009063721,6|0,1:2|2:0,2:0:0:0:
425,288,123091,2,0,B|360:295|338:235|338:235|265:212|229:278,1,229.500004377365,8|0,1:2|2:0,2:0:0:0:
296,309,123505,53,2,1:2:0:0:
326,19,123712,1,2,2:0:0:0:
131,291,123918,2,0,P|167:301|206:287,1,76.5000014591217,10|0,1:2|2:0,2:0:0:0:
334,242,124125,2,0,P|298:231|256:246,1,76.5000014591217,2|0,1:2|2:0,2:0:0:0:
131,291,124332,2,0,B|180:326|251:273|220:250|286:208|338:244,1,229.500004377365,2|0,1:2|2:0,2:0:0:0:
512,384,124746,2,0,B|469:340|469:340|513:173|513:173|461:121,1,297.000009063721,10|0,1:2|2:0,2:0:0:0:
335,242,125160,37,2,1:2:0:0:
468,58,125367,2,0,B|483:95|483:95|466:135,1,76.5000014591217,2|0,1:2|2:0,2:0:0:0:
188,76,125574,2,0,B|268:61|268:61|318:108|318:108|407:93,1,229.500004377365,10|0,1:2|2:0,2:0:0:0:
138,6,125987,6,0,B|85:59|85:59|171:271,1,297.000009063721,2|0,1:2|2:0,2:0:0:0:
264,63,126401,2,0,B|188:76,1,76.5000014591217,8|0,1:2|2:0,2:0:0:0:
247,180,126608,1,2,2:0:0:0:
429,23,126815,6,0,B|449:255,1,229.500004377365,2|0,1:2|2:0,2:0:0:0:
296,307,127229,2,0,L|373:301,1,76.5000014591217,10|0,1:2|2:0,2:0:0:0:
512,336,127435,2,0,L|431:344,1,76.5000014591217,2|0,1:2|2:0,2:0:0:0:
296,307,127642,2,0,B|373:301|373:301|435:343|435:343|516:335,1,229.500004377365,2|0,1:2|2:0,2:0:0:0:
226,275,128056,2,0,P|217:312|232:353,1,76.5000014591217,10|0,1:2|2:0,2:0:0:0:
297,210,128263,2,0,P|306:173|290:131,1,76.5000014591217,10|0,2:0|2:0,2:0:0:0:
226,275,128470,1,2,1:2:0:0:
84,22,128677,1,2,1:2:0:0:
39,274,128884,2,0,B|66:209|140:225|140:225|170:281|235:274,1,229.500004377365,10|0,1:2|2:0,2:0:0:0:
348,44,129298,38,0,P|221:54|221:204,1,297.000009063721,2|0,1:2|2:0,2:0:0:0:
414,172,129712,2,0,B|284:169|359:273|224:274,1,229.500004377365,8|0,1:2|2:0,2:0:0:0:
38,130,130125,6,0,L|31:206,1,76.5000014591217,2|0,1:2|2:0,2:0:0:0:
86,303,130332,1,2,2:0:0:0:
231,70,130539,2,0,L|308:63,1,76.5000014591217,10|0,1:2|2:0,2:0:0:0:
202,206,130746,2,0,L|125:212,1,76.5000014591217,2|0,1:2|2:0,2:0:0:0:
231,70,130953,6,0,B|306:63|306:63|350:107|350:107|442:99,1,229.500004377365,2|0,1:2|2:0,2:0:0:0:
193,0,131367,2,0,B|140:53|140:53|226:265,1,297.000009063721,10|0,1:2|2:0,2:0:0:0:
306,304,131781,22,0,L|309:291,1,13.5,2|0,1:2|2:0,2:0:0:0:
162,327,132194,2,0,L|171:336,1,13.5,10|0,1:2|2:0,2:0:0:0:
306,304,132608,6,0,B|343:156|343:156|304:117,1,198.000006042481,2|0,1:2|2:0,2:0:0:0:
254,74,132919,1,8,2:0:0:0:
254,74,133022,1,8,2:0:0:0:
342,371,133229,2,0,P|305:383|259:364,1,76.5000014591217,0|8,2:0|2:0,2:0:0:0:
154,234,133436,1,10,1:2:0:0:
181,197,133539,1,8,2:0:0:0:
226,186,133643,1,8,2:0:0:0:
270,197,133746,1,0,2:0:0:0:
301,231,133850,2,0,P|314:268|302:309,1,76.5000014591217,10|0,2:0|2:0,2:0:0:0:
111,368,134056,1,0,2:0:0:0:
124,340,134160,1,8,2:0:0:0:
150,326,134263,6,0,B|270:303|209:399|332:384,1,198.000006042481,2|2,1:2|2:3,2:0:0:0:
358,145,134574,1,2,2:3:0:0:
332,152,134677,2,0,P|280:214|309:306,1,180,2|2,1:2|2:0,2:0:0:0:
512,295,134988,1,2,2:3:0:0:
476,281,135091,1,2,1:2:0:0:
439,297,135194,1,2,2:3:0:0:
417,331,135298,1,2,2:0:0:0:
380,348,135401,1,2,2:3:0:0:
341,337,135505,1,2,1:2:0:0:
405,111,135712,1,2,2:3:0:0:
100,283,135918,6,0,B|81:248|81:248|96:199,1,76.5000014591217,6|0,1:0|2:0,2:0:0:0:
124,103,136124,1,2,2:0:0:0:
372,239,136331,1,10,1:2:0:0:
92,285,136539,38,0,B|73:250|73:250|88:201,1,76.5000014591217,2|0,2:1|2:0,2:0:0:0:
116,105,136745,1,2,1:2:0:0:
364,241,136952,1,2,2:0:0:0:
296,0,137160,6,0,L|289:84,1,76.5000014591217,10|0,1:0|2:0,2:0:0:0:
364,241,137367,2,0,L|357:157,1,76.5000014591217,2|0,1:0|2:0,2:0:0:0:
296,0,137574,2,0,B|283:160|283:160|286:117|324:97,1,229.500004377365,0|0,1:0|2:0,2:0:0:0:
488,17,137988,6,0,P|451:11|411:33,1,76.5000014591217,10|0,1:2|2:0,2:0:0:0:
475,132,138194,1,2,2:0:0:0:
296,0,138401,1,0,1:0:0:0:
440,216,138608,2,0,P|477:227|520:212,1,76.5000014591217,2|0,1:2|2:0,2:0:0:0:
399,87,138815,2,0,P|383:122|398:163,1,76.5000014591217,10|0,1:2|2:0,2:0:0:0:
512,300,139022,1,2,2:0:0:0:
223,202,139228,38,0,L|144:229,1,76.5000014591217,2|0,1:2|2:0,2:0:0:0:
321,105,139436,2,0,L|336:23,1,76.5000014591217,2|0,2:0|2:0,2:0:0:0:
361,236,139643,2,0,L|423:290,1,76.5000014591217,10|0,1:2|2:0,2:0:0:0:
301,184,139849,1,2,2:0:0:0:
112,367,140056,2,0,L|36:373,1,76.5000014591217,2|0,1:2|2:0,2:0:0:0:
67,255,140262,1,2,2:0:0:0:
272,367,140470,2,0,L|347:373,1,76.5000014591217,10|0,1:2|2:0,2:0:0:0:
261,238,140677,2,0,L|185:244,1,76.5000014591217,2|0,1:2|2:0,2:0:0:0:
272,367,140883,6,0,B|348:374|348:374|393:328|393:328|483:336,1,229.500004377365,0|0,1:0|2:0,2:0:0:0:
462,138,141297,2,0,L|455:214,1,76.5000014591217,10|0,1:2|2:0,2:0:0:0:
481,335,141504,1,10,2:0:0:0:
373,174,141712,1,0,1:0:0:0:
272,367,141918,2,0,L|348:374,1,76.5000014591217,2|0,1:2|2:0,2:0:0:0:
250,227,142125,2,0,B|157:203|191:283|100:261,1,153.000002918243,8|0,1:2|2:0,2:0:0:0:
110,263,142539,6,0,B|157:276|181:233|187:232|187:232|205:218|257:213|291:257,1,198.000006042481,2|2,1:2|2:0,2:0:0:0:
425,379,142849,1,0,2:0:0:0:
413,379,142953,2,0,P|376:370|351:331,1,76.5000014591217,8|0,1:2|2:0,2:0:0:0:
371,174,143160,2,0,P|390:206|380:251,1,76.5000014591217,2|0,2:0|2:0,2:0:0:0:
379,171,143367,2,0,P|397:203|390:250,1,76.5000014591217,2|0,1:2|2:0,2:0:0:0:
274,333,143573,1,2,2:0:0:0:
207,48,143781,2,0,P|170:37|130:50,1,76.5000014591217,10|0,1:2|2:0,2:0:0:0:
234,221,143987,2,0,P|271:232|311:219,1,76.5000014591217,2|0,1:2|2:0,2:0:0:0:
207,48,144194,2,0,B|160:20|116:62|116:62|52:126|-5:86,1,229.500004377365,0|0,1:0|2:0,2:0:0:0:
277,13,144608,38,0,P|288:50|275:89,1,76.5000014591217,10|0,1:2|2:0,2:0:0:0:
169,115,144814,1,2,2:0:0:0:
390,0,145021,1,0,1:0:0:0:
439,271,145228,2,0,L|431:188,1,76.5000014591217,2|0,1:2|2:0,2:0:0:0:
456,105,145435,2,0,B|326:89|385:204|251:180,1,229.500004377365,8|0,1:2|2:0,2:0:0:0:
145,0,145849,5,2,1:0:0:0:
175,32,145952,1,0,3:0:0:0:
183,77,146056,1,2,3:2:0:0:
170,121,146159,1,0,3:0:0:0:
136,150,146262,1,2,3:2:0:0:
117,192,146366,1,0,3:0:0:0:
122,237,146469,1,2,3:2:0:0:
152,273,146573,1,0,3:0:0:0:
187,287,146677,6,0,L|249:281,1,62.9999980773926,2|0,1:0|3:0,2:0:0:0:
97,71,146884,2,0,L|34:76,1,62.9999980773926,2|0,3:2|3:0,2:0:0:0:
187,287,147091,38,0,L|249:281,1,62.9999980773926,2|0,3:2|3:0,2:0:0:0:
97,71,147298,2,0,L|34:76,1,62.9999980773926,2|0,3:2|3:0,2:0:0:0:
187,287,147505,5,2,1:0:0:0:
187,287,147608,1,2,2:3:0:0:
235,63,147815,5,2,2:3:0:0:
235,63,147919,1,2,1:2:0:0:
235,63,148022,1,2,2:3:0:0:
414,229,148229,37,2,2:3:0:0:
414,229,148333,1,2,1:0:0:0:
414,229,148436,1,2,2:3:0:0:
258,162,148643,5,2,2:3:0:0:
239,187,148746,1,2,1:2:0:0:
266,204,148850,1,2,2:3:0:0:
282,178,148953,1,2,2:0:0:0:
0,384,149160,5,6,2:0:0:0:
204,188,162401,22,0,P|174:202|139:196,1,67.5,10|0,2:0|2:0,2:0:0:0:
104,133,164056,6,0,P|106:100|129:72,1,67.5,2|0,2:0|2:0,2:0:0:0:
202,67,165712,54,0,P|229:85|241:119,1,67.5,2|0,2:0|2:0,2:0:0:0:
165,136,167367,6,0,L|96:129,1,67.5,2|0,2:0|2:0,2:0:0:0:
65,64,169022,54,0,L|106:7,1,67.5,2|0,2:0|2:0,2:0:0:0:
177,17,170677,6,0,L|206:80,1,67.5,2|0,2:0|2:0,2:0:0:0:
165,136,172332,6,0,L|96:129,5,67.5,2|0|0|0|0|0,2:0|2:0|2:0|2:0|2:0|2:0,2:0:0:0:
249,0,173574,22,0,L|273:269,1,270,0|0,2:0|2:0,2:0:0:0:
239,333,173987,53,2,2:3:0:0:
239,333,174091,1,2,2:3:0:0:
95,173,174298,37,2,2:3:0:0:
95,173,174402,1,2,2:3:0:0:
95,173,174505,1,2,2:3:0:0:
14,384,174712,5,2,2:3:0:0:
14,384,174816,1,2,2:3:0:0:
14,384,174919,1,2,2:3:0:0:
123,267,175125,53,2,2:3:0:0:
146,289,175228,1,2,2:3:0:0:
123,311,175332,1,2,2:3:0:0:
101,289,175435,1,2,2:3:0:0:
500,332,175643,38,0,B|460:378|460:378|451:272|451:272|475:244|475:244|467:151,1,297.000009063721,2|0,1:2|2:0,2:0:0:0:
250,213,176056,2,0,B|291:238|291:238|397:204,1,153.000002918243,8|0,1:2|2:0,2:0:0:0:
454,0,176367,53,8,2:3:0:0:
420,2,176470,1,2,2:0:0:0:
393,24,176574,1,8,2:3:0:0:
383,57,176677,2,0,L|397:138,1,76.5000014591217,10|0,1:2|2:0,2:0:0:0:
213,73,176884,2,0,L|276:19,1,76.5000014591217,10|0,1:2|2:0,2:0:0:0:
306,213,177091,2,0,L|228:184,1,76.5000014591217,2|0,1:2|2:0,2:0:0:0:
383,57,177298,54,0,L|423:285,1,229.500004377365,10|0,2:0|2:0,2:0:0:0:
310,359,177712,2,0,B|316:288|316:288|300:269|300:269|306:208,1,153.000002918243,10|8,1:2|2:3,2:0:0:0:
245,3,178022,1,8,2:3:0:0:
279,2,178125,1,10,2:0:0:0:
307,21,178229,1,0,2:0:0:0:
320,53,178332,2,0,L|313:134,1,76.5000014591217,10|0,1:2|2:0,2:0:0:0:
135,211,178539,2,0,B|164:143|236:158|236:158|261:215|323:211,1,229.500004377365,10|0,2:0|2:0,2:0:0:0:
154,92,178953,54,0,P|60:202|100:338,1,297.000009063721,2|0,1:2|2:0,2:0:0:0:
260,170,179367,2,0,P|183:160|135:211,1,153.000002918243,8|10,1:2|2:0,2:0:0:0:
231,384,179677,1,8,2:3:0:0:
228,350,179781,1,10,2:0:0:0:
225,316,179884,1,0,2:0:0:0:
222,282,179987,2,0,L|302:274,1,76.5000014591217,10|0,1:2|2:0,2:0:0:0:
440,309,180194,2,0,L|359:316,1,76.5000014591217,10|0,1:2|2:0,2:0:0:0:
222,282,180401,2,0,L|302:274,1,76.5000014591217,2|0,1:2|2:0,2:0:0:0:
440,309,180608,6,0,B|364:315|364:315|297:275|297:275|216:282,1,229.500004377365,2|0,2:0|2:0,2:0:0:0:
37,384,181022,2,0,B|74:367|74:367|89:329,1,76.5000014591217,10|0,1:2|2:0,2:0:0:0:
56,132,181229,2,0,B|41:170|41:170|58:207,1,76.5000014591217,10|8,2:0|2:3,2:0:0:0:
220,324,181436,1,10,2:0:0:0:
234,293,181539,1,0,2:0:0:0:
224,260,181643,2,0,B|200:230|200:230|157:224,1,76.5000014591217,10|0,1:2|2:0,2:0:0:0:
87,333,181849,1,10,2:0:0:0:
56,132,182056,1,0,1:0:0:0:
305,345,182263,6,0,B|351:384|351:384|336:207|336:207|292:259,1,297.000009063721,2|0,1:2|2:0,2:0:0:0:
87,333,182677,2,0,B|144:328|144:328|165:305|165:305|235:300,1,153.000002918243,8|8,1:2|2:3,2:0:0:0:
444,325,182987,1,8,2:3:0:0:
408,329,183090,1,10,2:0:0:0:
374,316,183194,1,0,2:0:0:0:
353,287,183298,2,0,P|342:251|357:209,1,76.5000014591217,10|0,1:2|2:0,2:0:0:0:
402,84,183505,2,0,P|412:120|398:159,1,76.5000014591217,10|0,1:2|2:0,2:0:0:0:
353,287,183712,2,0,P|342:251|357:209,1,76.5000014591217,2|0,1:2|2:0,2:0:0:0:
402,84,183919,38,0,B|437:133|384:204|361:173|319:239|355:291,1,229.500004377365,10|0,2:0|2:0,2:0:0:0:
326,117,184332,2,0,P|253:102|193:153,1,153.000002918243,10|8,1:2|2:3,2:0:0:0:
64,330,184643,1,8,2:3:0:0:
100,334,184746,1,10,2:0:0:0:
134,321,184850,1,0,2:0:0:0:
155,292,184954,2,0,P|166:256|151:214,1,76.5000014591217,10|0,1:2|2:0,2:0:0:0:
0,171,185160,2,0,B|56:218|116:167|88:148|153:93|211:141,1,229.500004377365,10|0,2:0|2:0,2:0:0:0:
256,340,185574,5,2,1:2:0:0:
226,308,185677,1,0,3:0:0:0:
218,263,185781,1,0,3:0:0:0:
231,219,185884,1,0,3:0:0:0:
265,190,185987,1,0,3:0:0:0:
284,148,186091,1,0,3:0:0:0:
279,103,186194,1,0,3:0:0:0:
249,67,186298,1,0,3:0:0:0:
215,53,186402,6,0,L|162:57,3,45,2|0|0|0,1:2|3:0|3:0|3:0,2:0:0:0:
19,102,186815,2,0,L|108:109,1,90,2|0,3:2|3:0,2:0:0:0:
170,57,187125,1,0,3:0:0:0:
165,62,187229,38,0,B|116:110|116:110|183:306,1,270,2|2,1:2|2:3,2:0:0:0:
243,369,187643,2,0,B|268:346|268:346|274:308,1,62.9999980773926,2|2,1:2|2:3,2:0:0:0:
101,341,187849,2,0,B|112:367|112:367|143:382,1,62.9999980773926,2|2,1:2|2:3,2:0:0:0:
305,242,188056,2,0,B|238:236|238:236|200:274|200:274|128:267,1,188.999994232178,2|0,1:2|2:0,2:0:0:0:
168,186,188470,1,2,1:2:0:0:
324,384,188677,1,2,2:3:0:0:
466,37,188884,6,0,L|473:121,1,76.5000014591217,2|0,1:0|2:0,2:0:0:0:
432,220,189090,1,2,2:0:0:0:
188,91,189297,1,10,1:2:0:0:
466,37,189505,1,2,2:1:0:0:
469,75,189608,1,8,2:3:0:0:
472,113,189712,1,2,2:0:0:0:
476,151,189815,1,8,2:3:0:0:
477,189,189918,2,0,L|391:181,1,76.5000014591217,10|0,1:2|2:0,2:0:0:0:
275,37,190125,2,0,L|311:114,1,76.5000014591217,10|0,1:0|2:0,2:0:0:0:
251,290,190332,2,0,L|300:219,1,76.5000014591217,2|0,1:0|2:0,2:0:0:0:
217,158,190539,6,0,B|155:135|155:135|75:197|75:197|15:176,1,229.500004377365,8|0,2:0|2:0,2:0:0:0:
50,17,190953,2,0,L|56:92,1,76.5000014591217,10|0,1:2|2:0,2:0:0:0:
91,300,191160,1,10,2:0:0:0:
68,269,191263,1,8,2:3:0:0:
63,232,191367,1,8,2:3:0:0:
76,196,191470,1,0,2:0:0:0:
106,171,191574,2,0,L|190:177,1,76.5000014591217,10|0,1:2|2:0,2:0:0:0:
275,251,191781,1,10,2:0:0:0:
152,0,191987,1,10,1:2:0:0:
347,298,192194,38,0,P|364:265|355:224,1,76.5000014591217,2|0,1:2|2:0,2:0:0:0:
239,97,192401,2,0,P|258:128|298:141,1,76.5000014591217,2|0,2:0|2:0,2:0:0:0:
468,107,192608,2,0,P|430:108|399:136,1,76.5000014591217,10|0,1:2|2:0,2:0:0:0:
299,353,192815,1,10,2:0:0:0:
330,376,192918,1,8,2:3:0:0:
367,381,193022,1,10,2:0:0:0:
403,368,193125,1,0,2:0:0:0:
428,338,193229,2,0,P|440:301|420:257,1,76.5000014591217,10|0,1:2|2:0,2:0:0:0:
243,192,193436,2,0,P|268:221|316:230,1,76.5000014591217,10|0,1:2|2:0,2:0:0:0:
507,72,193643,6,0,B|357:54|439:165|294:151,1,229.500004377365,2|0,1:2|2:0,2:0:0:0:
324,68,194056,1,0,1:0:0:0:
477,232,194263,2,0,L|469:145,1,76.5000014591217,10|0,1:2|2:0,2:0:0:0:
274,9,194470,1,10,2:0:0:0:
251,40,194573,1,8,2:3:0:0:
246,77,194677,1,8,2:3:0:0:
259,113,194780,1,0,2:0:0:0:
289,138,194884,2,0,P|326:150|370:130,1,76.5000014591217,10|0,1:2|2:0,2:0:0:0:
175,47,195091,2,0,P|102:55|68:130,1,153.000002918243,8|0,2:0|1:0,2:0:0:0:
67,120,195505,6,0,P|77:82|118:47,1,76.5000014591217,2|0,1:2|2:0,2:0:0:0:
191,182,195712,2,0,P|154:196|102:178,1,76.5000014591217,2|0,2:0|2:0,2:0:0:0:
191,191,195918,2,0,P|154:204|101:187,1,76.5000014591217,10|0,1:2|2:0,2:0:0:0:
251,48,196125,1,10,2:0:0:0:
282,25,196228,1,8,2:3:0:0:
319,20,196332,1,10,2:0:0:0:
355,33,196435,1,0,2:0:0:0:
380,63,196539,2,0,L|374:147,1,76.5000014591217,10|0,1:2|2:0,2:0:0:0:
264,306,196746,2,0,L|258:222,1,76.5000014591217,10|0,1:2|2:0,2:0:0:0:
380,63,196953,2,0,L|374:147,1,76.5000014591217,2|0,1:2|2:0,2:0:0:0:
264,306,197160,38,0,L|247:76,1,229.500004377365,8|0,2:0|2:0,2:0:0:0:
343,0,197574,1,10,1:2:0:0:
124,169,197781,1,10,2:0:0:0:
155,192,197884,1,8,2:3:0:0:
192,197,197988,1,8,2:3:0:0:
228,184,198091,1,8,2:3:0:0:
253,154,198195,2,0,L|247:70,1,76.5000014591217,10|0,1:2|2:0,2:0:0:0:
67,111,198401,2,0,B|33:145|33:145|70:253,1,153.000002918243,8|0,2:0|1:0,2:0:0:0:
418,195,198815,5,2,1:0:0:0:
377,177,198918,1,0,3:0:0:0:
331,185,199022,1,2,3:2:0:0:
295,212,199125,1,0,3:0:0:0:
280,255,199228,1,2,3:2:0:0:
247,287,199332,1,0,3:0:0:0:
203,298,199435,1,2,3:2:0:0:
158,281,199539,1,0,3:0:0:0:
132,253,199643,6,0,L|138:191,1,62.9999980773926,2|0,1:0|3:0,2:0:0:0:
365,263,199849,2,0,L|371:325,1,62.9999980773926,2|0,3:2|3:0,2:0:0:0:
132,253,200056,38,0,L|138:191,1,62.9999980773926,2|0,3:2|3:0,2:0:0:0:
365,263,200263,2,0,L|371:333,1,62.9999980773926,2|0,3:2|3:0,2:0:0:0:
371,335,200470,1,2,2:1:0:0:
368,344,200574,1,2,2:3:0:0:
261,127,200781,5,2,2:3:0:0:
261,127,200885,1,2,2:0:0:0:
261,127,200988,1,2,2:3:0:0:
132,253,201195,5,2,2:3:0:0:
132,253,201299,1,2,2:1:0:0:
132,253,201402,1,2,2:3:0:0:
133,103,201608,37,2,2:3:0:0:
110,125,201711,1,2,2:3:0:0:
133,147,201815,1,2,2:3:0:0:
155,125,201918,1,2,2:0:0:0:
