osu file format v14

[General]
AudioFilename: audio.mp3
AudioLeadIn: 0
PreviewTime: 53884
Countdown: 0
SampleSet: Soft
StackLeniency: 0.3
Mode: 0
LetterboxInBreaks: 0
WidescreenStoryboard: 1

[Editor]
DistanceSpacing: 1
BeatDivisor: 2
GridSize: 8
TimelineZoom: 1.5

[Metadata]
Title:CRY FOR ME
TitleUnicode:CRY FOR ME
Artist:TWICE
ArtistUnicode:트와이스
Creator:Nabori
Version:Easy
Source:
Tags:kpop k-pop Korean Pop jyp entertainment ent tzuyu sana jihyo dahyun nayeon jeongyeon chaeyoung momo mina 쯔위 나연 정연 모모 사나 지효 미나 다현 채영 쯔위 fragmented charmcaster kim jennie im girl group single
BeatmapID:2797387
BeatmapSetID:1317379

[Difficulty]
HPDrainRate:3
CircleSize:2.5
OverallDifficulty:3
ApproachRate:4
SliderMultiplier:1
SliderTickRate:1

[Events]
//Background and Video events
0,0,"bg.jpg",0,0
//Break Periods
2,149360,161081
//Storyboard Layer 0 (Background)
//Storyboard Layer 1 (Fail)
//Storyboard Layer 2 (Pass)
//Storyboard Layer 3 (Foreground)
//Storyboard Layer 4 (Overlay)
//Storyboard Sound Samples

[TimingPoints]
8556,413.793103448276,4,2,0,70,1,0
11781,413.793103448276,4,2,0,5,1,0
13436,-100,4,2,1,70,0,0
17573,-100,4,2,2,70,0,0
18401,-100,4,2,1,70,0,0
18608,-100,4,2,2,70,0,0
18814,-100,4,2,1,70,0,0
20883,-100,4,2,2,70,0,0
21712,-100,4,2,1,70,0,0
22746,-100,4,2,2,70,0,0
22952,-100,4,2,1,70,0,0
24194,-100,4,2,2,70,0,0
25022,-100,4,2,1,70,0,0
25229,-100,4,2,2,70,0,0
25849,-100,4,2,1,70,0,0
39918,-100,4,2,2,70,0,0
40745,-100,4,2,1,70,0,0
51505,-100,4,2,5,70,0,0
53160,-100,4,2,6,70,0,1
53573,-100,4,2,7,70,0,1
54401,-100,4,2,8,70,0,1
54607,-100,4,2,9,70,0,1
54814,-100,4,2,7,70,0,1
55229,-100,4,2,10,70,0,1
55643,-100,4,2,7,70,0,1
55849,-100,4,2,10,70,0,1
56056,-100,4,2,7,70,0,1
56470,-100,4,2,11,70,0,1
56883,-100,4,2,7,70,0,1
57712,-100,4,2,12,70,0,1
57918,-100,4,2,13,70,0,1
58125,-100,4,2,7,70,0,1
58539,-100,4,2,13,70,0,1
58953,-100,4,2,7,70,0,1
59159,-100,4,2,14,70,0,1
59366,-100,4,2,7,70,0,1
59781,-100,4,2,15,70,0,1
60194,-100,4,2,7,70,0,1
61022,-100,4,2,16,70,0,1
61228,-100,4,2,17,70,0,1
61435,-100,4,2,7,70,0,1
61849,-100,4,2,18,70,0,1
62262,-100,4,2,7,70,0,1
63091,-100,4,2,19,70,0,1
63401,-100,4,2,3,70,0,1
63918,-100,4,2,20,70,0,1
64746,-100,4,2,21,70,0,0
65160,-100,4,2,22,70,0,0
65574,-100,4,2,24,70,0,0
65988,-100,4,2,26,70,0,0
66401,-100,4,2,2,70,0,1
66607,-100,4,2,7,70,0,1
67643,-100,4,2,3,70,0,1
67849,-100,4,2,4,70,0,1
68470,-100,4,2,9,70,0,1
68677,-100,4,2,7,70,0,1
69712,-100,4,2,11,70,0,1
69918,-100,4,2,7,70,0,1
70953,-100,4,2,12,70,0,1
71159,-100,4,2,13,70,0,1
71987,-100,4,2,7,70,0,1
73022,-100,4,2,15,70,0,1
73228,-100,4,2,7,70,0,1
74263,-100,4,2,16,70,0,1
74469,-100,4,2,17,70,0,1
75298,-100,4,2,7,70,0,1
79643,-100,4,2,30,70,0,0
82953,-100,4,2,1,70,0,0
87090,-100,4,2,2,70,0,0
87505,-100,4,2,1,70,0,0
90401,-100,4,2,2,70,0,0
90815,-100,4,2,1,70,0,0
93711,-100,4,2,2,70,0,0
94539,-100,4,2,1,70,0,0
94746,-100,4,2,2,70,0,0
94953,-100,4,2,1,70,0,0
95573,-100,4,2,7,70,0,0
96194,-100,4,2,1,70,0,0
109435,-100,4,2,2,70,0,0
110262,-100,4,2,1,70,0,0
121022,-100,4,2,5,70,0,0
122677,-100,4,2,6,70,0,1
123090,-100,4,2,7,70,0,1
123918,-100,4,2,8,70,0,1
124124,-100,4,2,9,70,0,1
124331,-100,4,2,7,70,0,1
124746,-100,4,2,10,70,0,1
125160,-100,4,2,7,70,0,1
125366,-100,4,2,10,70,0,1
125573,-100,4,2,7,70,0,1
125987,-100,4,2,11,70,0,1
126400,-100,4,2,7,70,0,1
127229,-100,4,2,12,70,0,1
127435,-100,4,2,13,70,0,1
127642,-100,4,2,7,70,0,1
128056,-100,4,2,13,70,0,1
128470,-100,4,2,7,70,0,1
128676,-100,4,2,14,70,0,1
128883,-100,4,2,7,70,0,1
129298,-100,4,2,15,70,0,1
129711,-100,4,2,7,70,0,1
130539,-100,4,2,16,70,0,1
130745,-100,4,2,17,70,0,1
130952,-100,4,2,7,70,0,1
131367,-100,4,2,18,70,0,1
131780,-100,4,2,7,70,0,1
132608,-100,4,2,19,70,0,1
132918,-100,4,2,3,70,0,1
133435,-100,4,2,20,70,0,1
134263,-100,4,2,31,70,0,0
134677,-100,4,2,22,70,0,0
135091,-100,4,2,24,70,0,0
135505,-100,4,2,26,70,0,0
135918,-100,4,2,2,70,0,1
136124,-100,4,2,7,70,0,1
137160,-100,4,2,3,70,0,1
137366,-100,4,2,4,70,0,1
137987,-100,4,2,9,70,0,1
138194,-100,4,2,7,70,0,1
139229,-100,4,2,11,70,0,1
139435,-100,4,2,7,70,0,1
140470,-100,4,2,12,70,0,1
140676,-100,4,2,13,70,0,1
141504,-100,4,2,7,70,0,1
142539,-100,4,2,15,70,0,1
142745,-100,4,2,7,70,0,1
143780,-100,4,2,16,70,0,1
143986,-100,4,2,17,70,0,1
144815,-100,4,2,7,70,0,1
149056,-100,4,2,7,70,0,0
149160,-100,4,2,7,70,0,1
149263,-100,4,2,7,70,0,0
162401,-100,4,2,33,70,0,0
164056,-100,4,2,34,70,0,0
165712,-100,4,2,35,70,0,0
167367,-100,4,2,36,70,0,0
169022,-100,4,2,37,70,0,0
170677,-100,4,2,38,70,0,0
172332,-100,4,2,39,70,0,0
175643,-100,4,2,40,70,0,1
176056,-100,4,2,25,70,0,1
176470,-100,4,2,7,70,0,1
176884,-100,4,2,42,70,0,1
177090,-100,4,2,43,70,0,1
177297,-100,4,2,7,70,0,1
177712,-100,4,2,44,70,0,1
178126,-100,4,2,41,70,0,1
178332,-100,4,2,45,70,0,1
178539,-100,4,2,7,70,0,1
178953,-100,4,2,46,70,0,1
179366,-100,4,2,25,70,0,1
179574,-100,4,2,41,70,0,1
179677,-100,4,2,1,70,0,1
179780,-100,4,2,41,70,0,1
180195,-100,4,2,47,70,0,1
180401,-100,4,2,48,70,0,1
180608,-100,4,2,41,70,0,1
181022,-100,4,2,48,70,0,1
181436,-100,4,2,41,70,0,1
181642,-100,4,2,49,70,0,1
181849,-100,4,2,7,70,0,1
182264,-100,4,2,50,70,0,1
182677,-100,4,2,25,70,0,1
183091,-100,4,2,41,70,0,1
183505,-100,4,2,51,70,0,1
183711,-100,4,2,52,70,0,1
183918,-100,4,2,7,70,0,1
184332,-100,4,2,53,70,0,1
184539,-100,4,2,1,70,0,1
184745,-100,4,2,41,70,0,1
185160,-100,4,2,7,70,0,1
185574,-100,4,2,55,70,0,1
185677,-100,4,2,1,70,0,1
186401,-100,4,2,56,70,0,1
187229,-100,4,2,57,70,0,0
187643,-100,4,2,58,70,0,0
188057,-100,4,2,60,70,0,0
188471,-100,4,2,61,70,0,0
188884,-100,4,2,25,70,0,1
189090,-100,4,2,7,70,0,1
189297,-100,4,2,62,70,0,1
190126,-100,4,2,27,70,0,1
190332,-100,4,2,29,70,0,1
190539,-100,4,2,3,70,0,1
190953,-100,4,2,43,70,0,1
191160,-100,4,2,41,70,0,1
191264,-100,4,2,1,70,0,1
191781,-100,4,2,7,70,0,1
192195,-100,4,2,46,70,0,1
192401,-100,4,2,7,70,0,1
192608,-100,4,2,62,70,0,1
193022,-100,4,2,41,70,0,1
193436,-100,4,2,47,70,0,1
193642,-100,4,2,48,70,0,1
194470,-100,4,2,41,70,0,1
194574,-100,4,2,1,70,0,1
195091,-100,4,2,25,70,0,1
195505,-100,4,2,50,70,0,1
195711,-100,4,2,7,70,0,1
195918,-100,4,2,62,70,0,1
196332,-100,4,2,41,70,0,1
196746,-100,4,2,51,70,0,1
196952,-100,4,2,52,70,0,1
197781,-100,4,2,41,70,0,1
197884,-100,4,2,1,70,0,1
198401,-100,4,2,25,70,0,1
198815,-100,4,2,25,70,0,0
202126,-100,4,2,7,70,0,0

[Colours]
Combo1 : 107,148,107
Combo2 : 102,138,162
Combo3 : 163,120,167

[HitObjects]
256,192,8555,12,0,11781,2:0:0:0:
512,73,13436,6,0,B|458:46|412:92|434:105|388:151|334:128,1,200,2|10,1:2|2:0,2:0:0:0:
50,38,15505,1,2,1:2:0:0:
136,88,15918,2,0,L|126:194,1,100,10|2,2:0|3:2,2:0:0:0:
118,287,16746,2,0,B|200:279|200:279|235:308|235:308|318:301,1,200,2|10,1:2|1:2,2:0:0:0:
435,148,18401,6,0,B|453:196|453:196|434:251,1,100,2|2,3:2|1:2,2:0:0:0:
348,195,19229,1,10,2:0:0:0:
351,95,19643,1,2,3:2:0:0:
435,148,20056,2,0,B|453:196|453:196|405:338,1,200,2|10,1:2|1:2,2:0:0:0:
205,354,21712,5,2,3:2:0:0:
140,278,22125,1,2,1:2:0:0:
205,202,22539,2,0,P|223:156|195:103,1,100,10|2,2:0|3:2,2:0:0:0:
105,101,23367,2,0,B|159:128|205:82|183:69|229:23|283:46,1,200,2|10,1:2|1:2,2:0:0:0:
417,191,25022,6,0,P|369:209|318:190,1,100,0|0,3:0|1:0,2:0:0:0:
367,104,25849,1,2,3:2:0:0:
467,104,26263,1,2,2:0:0:0:
417,191,26677,2,0,B|373:224|322:215|333:183|277:162|224:199,2,200,2|10|0,1:2|1:2|3:0,2:0:0:0:
497,131,28746,1,0,1:0:0:0:
442,47,29160,2,0,P|396:32|349:48,1,100,10|2,3:2|3:2,2:0:0:0:
330,146,29987,6,0,B|278:149|258:95|258:95|197:78|164:126,2,200,2|10|0,1:2|1:2|3:0,2:0:0:0:
403,78,32056,1,0,1:0:0:0:
482,139,32470,2,0,L|473:237,1,100,10|2,3:2|3:2,2:0:0:0:
401,308,33298,6,0,B|352:292|352:292|298:311,1,100,2|2,1:2|3:2,2:0:0:0:
216,351,34125,2,0,B|167:366|167:366|113:347,1,100,10|2,1:2|3:2,2:0:0:0:
121,250,34953,2,0,B|170:235|170:235|224:254,1,100,2|2,3:2|1:2,2:0:0:0:
301,304,35781,1,10,3:2:0:0:
385,251,36194,1,2,3:2:0:0:
256,192,36608,12,2,38263,2:3:0:0:
71,272,39918,6,0,B|32:182|32:182|71:78,1,200,6|2,1:2|3:2,2:0:0:0:
119,0,41160,1,10,2:0:0:0:
169,87,41574,2,0,B|204:182|204:182|169:275,1,200,2|2,1:2|3:2,2:0:0:0:
119,360,42815,1,10,2:0:0:0:
219,351,43229,6,0,B|300:344|300:344|328:368|328:368|411:360,1,200,2|2,1:2|3:2,2:0:0:0:
510,351,44471,1,10,2:0:0:0:
450,270,44884,2,0,B|393:136|393:136|418:86,1,200,2|2,1:2|3:2,2:0:0:0:
469,1,46126,1,10,2:0:0:0:
369,2,46539,6,0,L|270:11,2,100,2|10|2,1:2|2:0|3:2,2:0:0:0:
469,1,47781,1,10,2:0:0:0:
418,87,48194,1,2,1:2:0:0:
493,153,48608,2,0,L|484:255,1,100,10|2,2:0|3:2,2:0:0:0:
413,323,49436,1,10,2:0:0:0:
256,192,49849,12,2,51505,2:0:0:0:
442,27,53160,6,0,B|401:68|401:68|450:212,1,200,6|2,1:2|1:2,2:0:0:0:
454,302,54401,2,0,B|477:304|477:304|500:291,2,50,10|2|2,1:2|1:2|1:2,2:0:0:0:
365,255,55229,1,10,1:2:0:0:
316,342,55643,2,0,B|266:357|266:357|215:342,1,100,2|10,1:2|1:2,2:0:0:0:
130,299,56470,6,0,L|147:93,1,200,2|2,1:2|1:2,2:0:0:0:
227,39,57712,2,0,L|275:43,2,50,10|2|2,1:2|1:2|1:2,2:0:0:0:
133,4,58539,1,10,1:2:0:0:
52,63,58953,2,0,L|60:164,1,100,2|10,1:2|1:2,2:0:0:0:
70,262,59781,6,0,B|124:289|170:243|148:230|194:184|248:207,1,200,2|2,1:2|1:2,2:0:0:0:
320,272,61022,2,0,L|316:327,2,50,10|2|2,1:2|1:2|1:2,2:0:0:0:
329,172,61849,2,0,L|339:54,1,100,10|2,1:2|1:2,2:0:0:0:
425,24,62677,1,10,1:2:0:0:
474,111,63091,2,0,B|455:324,1,200,2|10,1:2|1:2,2:0:0:0:
297,189,64746,5,2,1:2:0:0:
389,150,65160,1,2,1:2:0:0:
452,228,65574,1,2,1:2:0:0:
397,312,65988,1,2,1:2:0:0:
308,264,66401,6,0,P|256:267|206:288,1,100,6|10,1:0|1:2,2:0:0:0:
150,363,67229,1,2,1:2:0:0:
72,299,67643,2,0,L|21:303,2,50,10|2|0,1:0|1:0|1:0,2:0:0:0:
136,222,68470,2,0,P|155:178|136:129,1,100,10|0,1:2|1:0,2:0:0:0:
58,70,69298,1,10,1:2:0:0:
148,27,69712,6,0,P|198:28|254:37,1,100,2|10,1:2|1:2,2:0:0:0:
325,98,70539,1,2,1:2:0:0:
415,55,70953,2,0,L|464:59,2,50,10|2|0,1:2|1:2|1:0,2:0:0:0:
408,155,71781,2,0,L|416:256,1,100,10|0,1:2|1:0,2:0:0:0:
393,352,72608,1,8,1:2:0:0:
317,287,73022,6,0,P|273:264|217:259,1,100,2|8,1:2|1:2,2:0:0:0:
149,325,73849,1,2,1:2:0:0:
56,287,74263,2,0,L|52:342,2,50,10|2|0,1:2|1:2|1:0,2:0:0:0:
116,207,75091,2,0,L|107:104,1,100,10|0,1:2|1:0,2:0:0:0:
37,36,75918,1,8,1:2:0:0:
256,192,76332,12,2,79643,2:0:0:0:
165,308,82953,6,0,B|256:351|256:351|349:303,2,200,0|10|2,1:0|2:0|3:2,2:0:0:0:
256,129,85436,1,10,2:0:0:0:
344,305,86263,6,0,B|256:351|256:351|165:308,2,200,2|10|2,1:2|1:2|3:2,2:0:0:0:
256,129,88746,1,10,2:0:0:0:
138,291,89574,6,0,B|93:318|101:387|158:421|236:370|217:316|164:262|164:262|111:209|156:145,1,400,2|2,1:2|3:2,2:0:0:0:
314,24,92056,1,10,2:0:0:0:
476,140,92884,6,0,B|422:113|376:159|398:172|352:218|298:195,1,200,2|10,1:2|1:2,2:0:0:0:
217,14,94539,2,0,B|163:68|163:68|240:289,1,300,2|0,3:2|3:0,2:0:0:0:
206,374,96194,6,0,B|260:401|306:355|284:342|330:296|384:319,1,200,2|8,1:2|1:2,2:0:0:0:
466,372,97436,1,2,3:2:0:0:
506,281,97849,2,0,P|522:236|501:190,1,100,2|2,3:2|1:2,2:0:0:0:
408,226,98677,2,0,P|392:181|413:135,1,100,10|2,3:2|3:2,2:0:0:0:
468,52,99505,2,0,B|433:6|375:24|375:24|366:78|304:86,1,200,2|8,1:2|1:2,2:0:0:0:
244,10,100746,5,2,3:2:0:0:
169,76,101160,2,0,L|177:175,1,100,2|2,3:2|1:2,2:0:0:0:
273,146,101987,2,0,L|264:245,1,100,10|2,3:2|3:2,2:0:0:0:
184,306,102815,6,0,B|266:298|266:298|301:327|301:327|384:320,2,200,2|8|2,1:2|1:2|3:2,2:0:0:0:
106,369,104884,1,2,1:2:0:0:
24,311,105298,2,0,B|6:264|6:264|25:202,1,100,10|2,3:2|3:2,2:0:0:0:
256,192,106125,12,2,107781,2:3:0:0:
62,242,109435,6,0,P|13:162|62:79,1,200,6|2,1:2|3:2,2:0:0:0:
124,0,110677,1,10,2:0:0:0:
186,79,111091,2,0,P|236:160|187:242,1,200,2|2,1:2|3:2,2:0:0:0:
124,320,112332,1,10,2:0:0:0:
208,374,112746,6,0,B|262:401|308:355|286:342|332:296|386:319,1,200,2|2,1:2|3:2,2:0:0:0:
459,384,113988,1,10,2:0:0:0:
512,300,114401,2,0,L|495:100,1,200,2|2,1:2|3:2,2:0:0:0:
419,35,115643,1,10,2:0:0:0:
354,111,116056,6,0,P|308:129|250:108,2,100,2|10|2,1:2|2:0|3:2,2:0:0:0:
419,35,117298,1,10,2:0:0:0:
494,101,117711,1,2,1:2:0:0:
427,175,118125,2,0,P|407:221|427:274,1,100,10|2,2:0|3:2,2:0:0:0:
484,345,118953,1,10,2:0:0:0:
256,192,119366,12,2,121022,2:0:0:0:
37,63,122677,6,0,B|91:36|137:82|115:95|161:141|215:118,1,200,6|2,1:2|1:2,2:0:0:0:
292,58,123918,2,0,L|286:-7,2,50,10|2|2,1:2|1:2|1:2,2:0:0:0:
366,125,124746,1,10,1:2:0:0:
452,74,125160,2,0,P|472:119|452:170,1,100,2|10,1:2|1:2,2:0:0:0:
388,238,125987,6,0,P|301:197|208:238,1,200,2|2,1:2|1:2,2:0:0:0:
143,309,127229,2,0,L|147:357,2,50,10|2|2,1:2|1:2|1:2,2:0:0:0:
114,213,128056,1,10,1:2:0:0:
33,272,128470,2,0,P|12:231|28:173,1,100,2|10,1:2|1:2,2:0:0:0:
70,92,129298,6,0,B|105:46|163:64|163:64|172:118|234:126,1,200,2|2,1:2|1:2,2:0:0:0:
301,192,130539,2,0,L|297:247,2,50,10|2|2,1:2|1:2|1:2,2:0:0:0:
350,104,131367,2,0,B|396:88|396:88|448:104,1,100,10|2,1:2|1:2,2:0:0:0:
512,178,132194,1,10,1:2:0:0:
469,268,132608,2,0,B|414:253|414:253|341:306|341:306|285:291,1,200,2|10,1:2|1:2,2:0:0:0:
160,139,134263,5,2,1:2:0:0:
68,100,134677,1,2,1:2:0:0:
5,178,135091,1,2,1:2:0:0:
60,262,135505,1,2,1:2:0:0:
156,234,135918,6,0,B|204:219|204:219|258:237,1,100,6|10,1:0|1:2,2:0:0:0:
328,299,136746,1,2,1:2:0:0:
419,257,137160,2,0,L|470:261,2,50,10|2|0,1:0|1:0|1:0,2:0:0:0:
337,199,137987,2,0,B|320:153|320:153|337:106,1,100,10|0,1:2|1:0,2:0:0:0:
394,22,138815,1,10,1:2:0:0:
449,105,139229,6,0,B|466:152|466:152|449:198,1,100,2|10,1:2|1:2,2:0:0:0:
396,284,140056,1,2,1:2:0:0:
311,231,140470,2,0,L|262:235,2,50,10|2|0,1:2|1:2|1:0,2:0:0:0:
360,143,141298,2,0,L|352:42,1,100,10|0,1:2|1:0,2:0:0:0:
260,3,142125,1,8,1:2:0:0:
212,91,142539,6,0,P|164:106|115:86,1,100,2|8,1:2|1:2,2:0:0:0:
37,32,143366,1,2,1:2:0:0:
28,132,143780,2,0,L|32:187,2,50,10|2|0,1:2|1:2|1:0,2:0:0:0:
118,89,144608,2,0,P|165:106|212:91,1,100,10|0,1:2|1:0,2:0:0:0:
286,24,145435,1,8,1:2:0:0:
256,192,145849,12,6,149160,2:0:0:0:
256,192,162401,5,10,2:0:0:0:
269,89,164056,1,2,2:0:0:0:
199,18,165712,1,2,2:0:0:0:
97,27,167367,1,2,2:0:0:0:
43,113,169022,1,2,2:0:0:0:
75,210,170677,1,2,2:0:0:0:
171,243,172332,6,0,B|251:202|320:271|287:290|356:359|437:325,1,300,2|0,2:0|2:0,2:0:0:0:
436,364,175643,6,0,B|467:333|467:333|467:222|467:222|435:190,1,200,2|2,1:2|2:0,2:0:0:0:
365,118,176884,2,0,B|315:122,2,50,10|2|10,1:2|1:2|2:0,2:0:0:0:
436,47,177712,1,10,1:2:0:0:
341,15,178126,2,0,B|240:23,1,100,10|10,2:0|2:0,2:0:0:0:
142,34,178953,6,0,B|99:77|99:77|144:217,1,200,2|10,1:2|2:0,2:0:0:0:
174,304,180195,2,0,L|191:359,2,50,10|2|2,1:2|1:2|2:0,2:0:0:0:
244,233,181022,1,10,1:2:0:0:
309,309,181436,2,0,B|355:326|355:326|414:309,1,100,10|10,2:0|2:0,2:0:0:0:
496,273,182264,6,0,L|478:74,1,200,2|10,1:2|2:0,2:0:0:0:
395,18,183505,2,0,L|340:22,2,50,10|2|10,1:2|1:2|2:0,2:0:0:0:
390,117,184332,2,0,L|290:125,1,100,10|10,1:2|2:0,2:0:0:0:
208,68,185160,1,10,2:0:0:0:
124,122,185574,2,0,P|77:199|124:291,1,200,2|2,1:2|1:2,2:0:0:0:
304,207,187229,5,2,1:2:0:0:
396,168,187643,1,2,1:2:0:0:
459,246,188057,1,2,1:2:0:0:
404,330,188471,1,2,1:2:0:0:
308,303,188884,6,0,L|208:311,1,100,2|10,1:0|1:2,2:0:0:0:
134,379,189712,1,2,2:0:0:0:
64,307,190126,2,0,L|13:311,2,50,10|2|8,1:0|1:0|2:0,2:0:0:0:
136,237,190953,2,0,L|127:137,1,100,10|8,1:2|2:3,2:0:0:0:
195,64,191781,1,10,2:0:0:0:
283,111,192195,6,0,L|386:101,1,100,2|10,1:2|1:2,2:0:0:0:
473,60,193022,1,10,2:0:0:0:
464,160,193436,2,0,L|468:209,2,50,10|2|0,1:2|1:2|2:0,2:0:0:0:
382,102,194263,2,0,L|282:110,1,100,10|8,1:2|2:3,2:0:0:0:
226,194,195091,1,8,2:0:0:0:
134,154,195505,6,0,P|118:201|140:251,1,100,2|10,1:2|1:2,2:0:0:0:
223,296,196332,1,10,2:0:0:0:
313,253,196746,2,0,L|317:308,2,50,10|2|8,1:2|1:2|2:0,2:0:0:0:
255,171,197574,2,0,P|238:127|264:73,1,100,10|8,1:2|2:3,2:0:0:0:
336,20,198401,1,8,2:0:0:0:
256,192,198815,12,2,202126,2:0:0:0:
