osu file format v14

[General]
AudioFilename: audio.mp3
AudioLeadIn: 0
PreviewTime: 53259
Countdown: 0
SampleSet: Soft
StackLeniency: 0.7
Mode: 0
LetterboxInBreaks: 0
WidescreenStoryboard: 0

[Editor]
DistanceSpacing: 1.3
BeatDivisor: 8
GridSize: 32
TimelineZoom: 2.999999

[Metadata]
Title:CHILLAX
TitleUnicode:CHILLAX
Artist:TWICE
ArtistUnicode:트와이스
Creator:DeRandom Otaku
Version:Normal
Source:
Tags:JYPE Entertainment K-Pop 지효 Jihyo 나연 Nayeon 정연 Jeongyeon 모모 Momo 사나 Sana 미나 Mina 다현 Dahyun 채영 Chaeyoung 쯔위 Tzuyu xenon- xehn reform ren female vocalist korean
BeatmapID:2048446
BeatmapSetID:975301

[Difficulty]
HPDrainRate:3.5
CircleSize:3.1
OverallDifficulty:4.6
ApproachRate:5.5
SliderMultiplier:1.7
SliderTickRate:2

[Events]
//Background and Video events
0,0,"bg.jpg",0,0
//Break Periods
2,117483,124794
//Storyboard Layer 0 (Background)
//Storyboard Layer 1 (Fail)
//Storyboard Layer 2 (Pass)
//Storyboard Layer 3 (Foreground)
//Storyboard Sound Samples

[TimingPoints]
415,550.45871559633,4,1,0,100,1,0
9222,-98.0392156862745,4,2,0,55,0,0
24635,-98.0392156862745,4,2,0,65,0,0
26837,-98.0392156862745,4,2,0,65,0,0
44451,-98.0392156862745,4,2,0,55,0,0
48855,-98.0392156862745,4,2,0,55,0,0
52158,-98.0392156862745,4,2,0,65,0,0
53259,-98.0392156862745,4,2,0,80,0,1
70598,-98.0392156862745,4,2,0,80,0,0
71974,-98.0392156862745,4,2,0,60,0,0
73075,-98.0392156862745,4,2,0,65,0,0
90690,-98.0392156862745,4,2,0,55,0,0
95094,-98.0392156862745,4,2,0,55,0,0
98397,-98.0392156862745,4,2,0,65,0,0
99497,-98.0392156862745,4,2,0,80,0,1
116837,-98.0392156862745,4,2,0,80,0,0
125919,-98.0392156862745,4,2,0,55,0,0
134726,-98.0392156862745,4,2,0,55,0,0
144635,-98.0392156862745,4,2,0,65,0,0
145736,-98.0392156862745,4,2,0,80,0,1
162800,-98.0392156862745,4,2,0,80,0,0
163350,-98.0392156862745,4,2,0,80,0,1
180827,-138.888888888889,4,2,0,60,0,0
180965,-138.888888888889,4,2,0,5,0,0
181378,-138.888888888889,4,2,0,60,0,0
181516,-138.888888888889,4,2,0,5,0,0
181791,-138.888888888889,4,2,0,60,0,0
181929,-138.888888888889,4,2,0,5,0,0
182479,-138.888888888889,4,2,0,60,0,0
182617,-138.888888888889,4,2,0,5,0,0
182892,-138.888888888889,4,2,0,60,0,0

[Colours]
Combo1 : 255,113,141
Combo2 : 255,149,98
Combo3 : 175,95,95
Combo4 : 255,244,168

[HitObjects]
460,90,9222,5,0,1:2:0:0:
370,36,9497,1,2,0:2:0:0:
293,105,9772,2,0,P|243:89|191:83,1,86.7000005291748,2|0,1:2|0:2,0:0:0:0:
105,70,10323,2,0,L|108:7,2,43.3500002645874,2|0|0,1:2|0:2|0:2,0:0:0:0:
24,135,10873,1,2,1:2:0:0:
115,185,11148,2,0,P|113:241|94:299,1,86.7000005291748,2|0,0:2|1:2,0:0:0:0:
68,368,11699,5,2,0:2:0:0:
170,350,11974,2,0,L|273:359,1,86.7000005291748,2|0,1:2|0:2,0:0:0:0:
339,294,12525,2,0,L|382:297,2,43.3500002645874,0|0|0,1:2|0:2|0:2,0:0:0:0:
256,230,13075,2,0,P|263:172|276:128,1,86.7000005291748,2|0,1:2|0:2,0:0:0:0:
335,63,13626,5,2,1:2:0:0:
266,9,13901,1,2,0:2:0:0:
198,88,14176,2,0,P|156:101|114:109,1,86.7000005291748,2|0,1:2|0:2,0:0:0:0:
10,119,14726,1,2,1:2:0:0:
10,119,14864,2,0,P|20:174|33:218,1,86.7000005291748,2|0,0:2|0:2,0:0:0:0:
51,250,15277,2,0,P|106:253|142:268,1,86.7000005291748,0|0,1:2|0:0,0:0:0:0:
220,323,15827,6,0,P|225:348|225:384,2,43.3500002645874,2|0|0,1:2|0:2|0:0,0:0:0:0:
320,296,16378,1,2,1:2:0:0:
420,324,16653,1,2,0:2:0:0:
505,269,16928,2,0,P|501:211|490:142,1,86.7000005291748,2|0,1:2|0:2,0:0:0:0:
493,130,17341,2,0,P|444:146|386:146,1,86.7000005291748,2|0,0:2|0:2,0:0:0:0:
366,118,17754,2,0,P|317:102|259:102,1,86.7000005291748,0|0,0:2|1:2,0:0:0:0:
190,148,18304,5,2,0:2:0:0:
108,83,18580,2,0,P|85:129|87:175,1,86.7000005291748,2|0,1:2|0:2,0:0:0:0:
99,266,19130,2,0,L|49:263,2,43.3500002645874,2|0|0,1:2|0:2|0:2,0:0:0:0:
184,325,19681,2,0,P|230:326|270:301,1,86.7000005291748,2|0,1:2|0:2,0:0:0:0:
321,219,20231,6,0,L|302:180,2,43.3500002645874,2|0|0,1:2|0:2|0:2,0:0:0:0:
394,292,20781,2,0,L|375:331,2,43.3500002645874,2|0|0,1:2|0:2|0:2,0:0:0:0:
467,218,21332,2,0,L|448:179,2,43.3500002645874,2|0|0,1:2|0:2|0:2,0:0:0:0:
492,263,21745,1,0,0:2:0:0:
454,363,22020,2,0,P|416:342|374:330,1,86.7000005291748,2|0,0:2|0:2,0:0:0:0:
322,330,22433,6,0,L|330:376,2,43.3500002645874,2|0|0,1:2|0:2|0:2,0:0:0:0:
303,227,22983,1,2,1:2:0:0:
303,227,23121,2,0,P|259:208|165:211,1,130.050000793762,2|2,0:2|1:2,0:0:0:0:
90,264,23809,1,2,0:2:0:0:
90,264,23947,2,0,P|71:214|72:167,1,86.7000005291748,2|2,0:2|0:2,0:0:0:0:
143,43,24635,5,2,1:2:0:0:
143,43,24772,2,0,P|180:64|222:73,2,86.7000005291748,2|0|0,0:2|0:2|0:2,0:0:0:0:
101,11,25460,1,2,0:2:0:0:
32,89,25736,1,2,1:2:0:0:
63,186,26011,2,0,P|55:227|50:264,1,43.3500002645874,10|2,0:2|0:2,0:0:0:0:
53,280,26286,1,2,1:2:0:0:
53,280,26424,2,0,P|117:264|144:260,1,86.7000005291748,2|0,0:2|0:2,0:0:0:0:
187,274,26837,5,6,1:2:0:0:
253,193,27112,1,2,0:2:0:0:
318,273,27387,2,0,P|353:298|407:309,1,86.7000005291748,2|0,1:2|0:2,0:0:0:0:
489,265,27937,2,0,B|488:190|459:214|465:127,1,130.050000793762,2|2,1:2|0:2,0:0:0:0:
484,35,28626,1,2,0:2:0:0:
484,35,28763,2,0,P|446:23|403:20,1,43.3500002645874,2|0,0:2|0:2,0:0:0:0:
397,48,29038,5,2,1:2:0:0:
300,7,29314,1,2,0:2:0:0:
267,105,29589,2,0,P|223:121|174:122,1,86.7000005291748,2|0,1:2|0:2,0:0:0:0:
100,60,30139,2,0,B|108:139|70:111|76:198,1,130.050000793762,2|2,1:2|0:2,0:0:0:0:
84,289,30827,1,2,0:2:0:0:
84,289,30965,2,0,P|114:281|145:280,1,43.3500002645874,2|0,0:2|0:2,0:0:0:0:
165,313,31240,5,10,1:2:0:0:
238,239,31515,1,2,0:2:0:0:
296,325,31791,1,2,1:2:0:0:
296,325,31928,2,0,P|345:360|423:360,2,130.050000793762,2|0|0,0:2|1:2|0:2,0:0:0:0:
238,239,33029,1,2,0:2:0:0:
238,239,33167,2,0,P|244:195|254:156,1,43.3500002645874,2|0,0:2|0:2,0:0:0:0:
269,150,33442,5,2,1:2:0:0:
347,218,33717,1,2,0:2:0:0:
390,123,33992,1,2,1:2:0:0:
390,123,34130,2,0,P|432:80|510:75,2,130.050000793762,2|0|0,0:2|1:2|0:2,0:0:0:0:
511,221,35369,1,2,0:2:0:0:
483,321,35644,6,0,P|422:299|370:292,1,86.7000005291748,2|0,1:2|0:2,0:0:0:0:
314,353,36194,2,0,P|253:375|201:382,1,86.7000005291748,2|0,1:2|0:2,0:0:0:0:
181,287,36745,2,0,P|197:208|197:141,2,130.050000793762,2|2|2,1:2|0:2|0:2,0:0:0:0:
123,373,37846,5,2,1:2:0:0:
20,356,38121,1,2,0:2:0:0:
94,287,38396,2,0,L|186:286,1,86.7000005291748,2|0,1:2|0:2,0:0:0:0:
277,248,38947,2,0,P|349:227|406:227,2,130.050000793762,2|2|2,1:2|0:2|0:2,0:0:0:0:
202,321,40048,5,10,1:2:0:0:
202,321,40185,2,0,P|182:276|186:201,1,86.7000005291748,2|0,0:2|0:2,0:0:0:0:
197,190,40598,1,2,1:2:0:0:
103,144,40873,1,2,0:2:0:0:
103,144,41011,2,0,P|83:99|99:15,1,130.050000793762,2|0,0:2|0:2,0:0:0:0:
184,75,41699,1,2,1:2:0:0:
264,9,41974,1,2,0:2:0:0:
305,104,42249,6,0,P|337:130|392:138,1,86.7000005291748,2|0,1:2|0:2,0:0:0:0:
468,82,42800,1,2,1:2:0:0:
502,180,43075,1,2,0:2:0:0:
418,242,43350,2,0,L|426:286,1,43.3500002645874,8|8,0:2|0:2,0:0:0:0:
385,318,43626,2,0,L|377:362,2,43.3500002645874,10|8|8,0:2|0:2|0:2,0:0:0:0:
311,244,44176,1,8,0:2:0:0:
250,328,44451,6,0,P|221:294|215:202,1,130.050000793762,6|2,0:2|0:2,0:0:0:0:
47,9,45552,2,0,P|46:49|37:109,1,86.7000005291748,2|0,0:2|0:2,0:0:0:0:
13,140,45965,2,0,P|14:180|23:240,1,86.7000005291748,2|2,0:2|0:2,0:0:0:0:
42,273,46378,1,2,0:2:0:0:
113,197,46653,6,0,P|155:163|233:152,1,130.050000793762,2|2,0:2|0:2,0:0:0:0:
435,309,47754,2,0,P|425:258|422:193,1,86.7000005291748,2|0,0:2|0:2,0:0:0:0:
458,186,48167,2,0,P|468:135|471:70,1,86.7000005291748,2|0,0:2|0:2,0:0:0:0:
447,53,48580,1,2,0:2:0:0:
359,109,48855,5,2,0:2:0:0:
299,23,49130,1,2,0:2:0:0:
299,23,49268,2,0,L|157:40,1,130.050000793762,2|0,0:2|0:2,0:0:0:0:
114,127,49956,1,2,0:2:0:0:
21,79,50231,1,2,0:2:0:0:
21,79,50369,2,0,P|32:126|45:215,1,130.050000793762,2|0,0:2|0:2,0:0:0:0:
117,280,51057,6,0,P|126:215|140:152,2,130.050000793762,2|0|0,1:2|0:2|0:2,0:0:0:0:
184,359,52158,2,0,L|245:353,1,43.3500002645874,8|8,0:2|0:2,0:0:0:0:
274,333,52433,2,0,L|317:337,2,43.3500002645874,8|8|8,0:2|0:2|0:2,0:0:0:0:
220,243,52983,1,8,0:2:0:0:
292,167,53259,6,0,P|334:141|401:134,1,86.7000005291748,6|0,1:2|0:2,0:0:0:0:
420,144,53671,2,0,P|407:191|406:259,1,86.7000005291748,2|0,0:2|0:2,0:0:0:0:
414,279,54084,1,2,0:2:0:0:
357,366,54359,2,0,P|310:353|242:352,1,86.7000005291748,2|2,1:2|0:2,0:0:0:0:
169,368,54910,1,2,1:2:0:0:
34,209,55460,6,0,P|68:166|121:139,1,86.7000005291748,2|0,1:2|0:2,0:0:0:0:
139,174,55873,2,0,P|148:127|169:66,1,86.7000005291748,2|0,0:2|0:2,0:0:0:0:
179,41,56286,1,2,0:2:0:0:
256,110,56561,2,0,P|315:126|370:137,1,86.7000005291748,2|2,1:2|0:2,0:0:0:0:
415,59,57112,1,2,1:2:0:0:
494,126,57387,1,0,0:2:0:0:
426,204,57662,6,0,P|420:257|421:313,1,86.7000005291748,2|0,1:2|0:2,0:0:0:0:
429,341,58075,2,0,P|383:370|324:375,1,86.7000005291748,2|0,0:2|0:2,0:0:0:0:
301,362,58488,1,2,0:2:0:0:
226,289,58763,2,0,B|120:291|175:352|42:350,1,173.40000105835,2|2,1:2|1:2,0:0:0:0:
31,144,59864,6,0,P|85:116|139:114,1,86.7000005291748,2|0,1:2|0:2,0:0:0:0:
146,149,60277,2,0,P|200:177|254:179,1,86.7000005291748,2|0,0:2|0:2,0:0:0:0:
276,175,60690,1,2,0:2:0:0:
349,101,60965,2,0,B|455:103|400:164|533:162,1,173.40000105835,2|2,1:2|1:2,0:0:0:0:
506,369,62066,6,0,P|465:348|397:337,1,86.7000005291748,2|0,1:2|0:2,0:0:0:0:
379,362,62479,2,0,P|337:351|298:331,1,86.7000005291748,2|0,0:2|0:2,0:0:0:0:
257,299,62892,1,2,0:2:0:0:
169,242,63167,2,0,P|127:253|88:273,1,86.7000005291748,2|2,1:2|0:2,0:0:0:0:
12,343,63717,1,2,1:2:0:0:
12,134,64268,6,0,P|48:120|101:114,1,86.7000005291748,2|0,1:2|0:2,0:0:0:0:
136,145,64681,2,0,P|141:95|160:48,1,86.7000005291748,2|0,0:2|0:2,0:0:0:0:
173,13,65093,1,2,0:2:0:0:
252,80,65369,2,0,P|294:99|342:102,1,86.7000005291748,2|2,1:2|0:2,0:0:0:0:
407,29,65919,1,2,1:2:0:0:
480,102,66194,1,0,0:2:0:0:
406,175,66470,6,0,P|412:230|413:301,1,86.7000005291748,2|0,1:2|0:2,0:0:0:0:
407,312,66882,2,0,P|350:297|284:294,1,86.7000005291748,2|0,0:2|0:2,0:0:0:0:
271,305,67295,1,2,0:2:0:0:
177,344,67570,2,0,B|146:243|223:277|181:143,1,173.40000105835,2|2,1:2|1:2,0:0:0:0:
33,37,68671,6,0,L|119:26,1,86.7000005291748,2|0,1:2|0:2,0:0:0:0:
161,56,69084,2,0,L|247:67,1,86.7000005291748,2|0,0:2|0:2,0:0:0:0:
296,49,69497,1,2,0:2:0:0:
393,12,69772,2,0,P|407:57|408:95,1,43.3500002645874,10|8,0:2|0:2,0:0:0:0:
379,98,70048,2,0,P|365:143|364:181,1,43.3500002645874,8|8,0:2|0:2,0:0:0:0:
396,181,70323,2,0,P|411:222|415:289,1,86.7000005291748,10|8,0:2|0:2,0:0:0:0:
210,29,71424,5,2,0:2:0:0:
62,175,71974,2,0,L|66:233,1,43.3500002645874,10|8,0:2|0:2,0:0:0:0:
96,259,72249,2,0,L|92:317,2,43.3500002645874,8|8|8,0:2|0:2|0:2,0:0:0:0:
169,185,72800,1,8,0:2:0:0:
238,262,73075,6,0,P|283:281|331:283,1,86.7000005291748,6|0,1:2|0:2,0:0:0:0:
369,267,73488,1,2,0:2:0:0:
369,267,73626,2,0,P|366:220|370:151,1,86.7000005291748,2|0,1:2|0:2,0:0:0:0:
383,77,74176,2,0,L|425:86,2,43.3500002645874,2|0|0,1:2|0:2|0:2,0:0:0:0:
287,36,74726,2,0,B|210:43|255:77|148:86,1,130.050000793762,2|0,1:2|0:2,0:0:0:0:
117,74,75277,6,0,P|130:127|131:168,1,86.7000005291748,2|0,1:2|0:2,0:0:0:0:
55,230,75827,1,2,1:2:0:0:
113,316,76103,1,2,0:2:0:0:
216,310,76378,2,0,L|204:386,2,43.3500002645874,2|0|0,1:2|0:2|0:2,0:0:0:0:
229,206,76928,1,2,1:2:0:0:
308,273,77203,1,2,0:2:0:0:
378,196,77479,6,0,P|432:168|507:165,2,130.050000793762,2|2|2,1:2|0:2|0:2,0:0:0:0:
308,273,78580,1,2,1:2:0:0:
229,206,78855,2,0,P|233:154|250:100,1,86.7000005291748,2|0,0:2|1:2,0:0:0:0:
281,24,79405,1,2,0:2:0:0:
178,44,79681,6,0,B|98:44|139:11|36:16,2,130.050000793762,2|2|2,1:2|0:2|0:2,0:0:0:0:
281,24,80781,1,2,1:2:0:0:
363,87,81057,2,0,P|381:130|385:181,1,86.7000005291748,2|0,0:2|1:2,0:0:0:0:
370,272,81607,1,2,0:2:0:0:
289,206,81882,6,0,P|248:191|203:191,1,86.7000005291748,2|0,1:2|0:2,0:0:0:0:
162,220,82295,1,2,0:2:0:0:
79,157,82570,2,0,P|59:197|63:268,1,86.7000005291748,2|2,0:2|0:2,0:0:0:0:
65,289,82983,2,0,L|22:290,2,43.3500002645874,2|0|0,1:2|0:2|0:2,0:0:0:0:
138,362,83534,1,2,1:2:0:0:
211,288,83809,1,2,0:2:0:0:
284,361,84084,6,0,P|296:317|297:251,1,86.7000005291748,2|0,1:2|0:2,0:0:0:0:
284,226,84497,2,0,P|321:199|407:195,1,130.050000793762,2|0,0:2|0:2,0:0:0:0:
451,212,85048,1,2,0:2:0:0:
451,212,85185,2,0,P|457:158|447:108,1,86.7000005291748,2|0,1:2|0:2,0:0:0:0:
381,49,85736,2,0,P|327:43|277:53,1,86.7000005291748,2|0,1:2|0:2,0:0:0:0:
221,121,86286,6,0,P|178:127|135:122,1,86.7000005291748,2|0,1:2|0:2,0:0:0:0:
84,110,86699,1,2,0:2:0:0:
16,188,86974,2,0,P|32:233|41:282,1,86.7000005291748,2|2,0:2|0:2,0:0:0:0:
55,320,87387,2,0,L|8:335,2,43.3500002645874,2|0|0,1:2|0:2|0:2,0:0:0:0:
148,365,87937,2,0,P|200:364|248:340,1,86.7000005291748,2|0,1:2|0:2,0:0:0:0:
305,277,88488,5,2,1:2:0:0:
378,350,88763,1,2,0:2:0:0:
378,350,88901,2,0,P|418:364|461:363,1,86.7000005291748,2|0,0:2|0:2,0:0:0:0:
508,339,89314,1,2,0:2:0:0:
452,251,89589,2,0,P|456:198|468:129,1,86.7000005291748,2|2,1:2|0:2,0:0:0:0:
485,63,90139,1,2,1:2:0:0:
386,97,90414,1,2,0:2:0:0:
286,66,90690,6,0,P|287:130|324:182,1,130.050000793762,6|2,0:2|0:2,0:0:0:0:
504,370,91791,2,0,P|464:369|404:360,1,86.7000005291748,2|0,0:2|0:2,0:0:0:0:
373,336,92204,2,0,P|333:337|273:346,1,86.7000005291748,2|2,0:2|0:2,0:0:0:0:
240,365,92617,1,2,0:2:0:0:
136,375,92892,6,0,P|139:306|136:212,1,130.050000793762,2|2,0:2|0:2,0:0:0:0:
0,24,93993,2,0,P|51:14|116:11,1,86.7000005291748,2|0,0:2|0:2,0:0:0:0:
114,54,94406,2,0,P|165:64|230:67,1,86.7000005291748,2|2,0:2|0:2,0:0:0:0:
243,38,94819,1,2,0:2:0:0:
335,84,95094,5,2,0:2:0:0:
424,31,95369,1,2,0:2:0:0:
424,31,95507,2,0,L|407:173,1,130.050000793762,2|0,0:2|0:2,0:0:0:0:
401,264,96195,1,2,0:2:0:0:
313,208,96470,1,2,0:2:0:0:
313,208,96608,2,0,P|266:197|177:184,1,130.050000793762,2|0,0:2|0:2,0:0:0:0:
164,286,97295,6,0,P|211:297|300:310,2,130.050000793762,2|0|0,1:2|0:2|0:2,0:0:0:0:
60,271,98396,2,0,P|68:226|69:193,1,43.3500002645874,8|8,0:2|0:2,0:0:0:0:
59,176,98671,2,0,P|14:168|-19:167,2,43.3500002645874,8|8|8,0:2|0:2|0:2,0:0:0:0:
160,200,99222,1,8,0:2:0:0:
228,121,99498,6,0,P|264:97|305:86,1,86.7000005291748,6|0,1:2|0:2,0:0:0:0:
351,111,99910,2,0,P|338:152|334:195,1,86.7000005291748,2|0,0:2|0:2,0:0:0:0:
341,247,100323,1,2,0:2:0:0:
288,336,100598,2,0,P|241:349|173:350,1,86.7000005291748,2|2,1:2|0:2,0:0:0:0:
99,344,101149,1,2,1:2:0:0:
20,151,101699,6,0,P|58:132|126:126,1,86.7000005291748,2|0,1:2|0:2,0:0:0:0:
138,161,102112,2,0,P|176:180|244:186,1,86.7000005291748,2|0,0:2|0:2,0:0:0:0:
270,179,102525,1,2,0:2:0:0:
345,107,102800,2,0,P|383:88|451:82,1,86.7000005291748,2|2,1:2|0:2,0:0:0:0:
499,154,103350,1,2,1:2:0:0:
425,227,103626,1,0,0:2:0:0:
497,301,103901,6,0,P|466:330|406:347,1,86.7000005291748,2|0,1:2|0:2,0:0:0:0:
379,319,104314,2,0,L|284:325,1,86.7000005291748,2|0,0:2|0:2,0:0:0:0:
244,344,104726,1,2,0:2:0:0:
187,256,105002,2,0,B|78:280|139:327|10:344,1,173.40000105835,2|2,1:2|1:2,0:0:0:0:
39,130,106103,6,0,P|80:112|137:106,1,86.7000005291748,2|0,1:2|0:2,0:0:0:0:
157,142,106515,2,0,P|198:160|255:166,1,86.7000005291748,2|0,0:2|0:2,0:0:0:0:
290,159,106928,1,2,0:2:0:0:
351,74,107203,2,0,B|460:98|399:145|528:162,1,173.40000105835,2|2,1:2|1:2,0:0:0:0:
498,365,108304,6,0,P|448:349|394:349,1,86.7000005291748,2|0,1:2|0:2,0:0:0:0:
365,365,108717,2,0,P|321:361|281:347,1,86.7000005291748,2|0,0:2|0:2,0:0:0:0:
232,327,109130,1,2,0:2:0:0:
158,253,109405,2,0,P|114:256|74:270,1,86.7000005291748,2|2,1:2|0:2,0:0:0:0:
4,348,109956,1,2,1:2:0:0:
4,140,110506,6,0,P|13:95|32:55,1,86.7000005291748,2|0,1:2|0:2,0:0:0:0:
54,12,110919,2,0,P|104:32|148:37,1,86.7000005291748,2|0,0:2|0:2,0:0:0:0:
188,31,111332,1,2,0:2:0:0:
290,16,111607,2,0,P|332:23|372:40,1,86.7000005291748,2|2,1:2|0:2,0:0:0:0:
455,104,112158,1,2,1:2:0:0:
362,151,112433,1,0,0:2:0:0:
448,209,112708,6,0,P|438:255|431:321,1,86.7000005291748,2|0,1:2|0:2,0:0:0:0:
442,345,113121,2,0,P|392:338|345:331,1,86.7000005291748,2|0,0:2|0:2,0:0:0:0:
304,329,113534,1,2,0:2:0:0:
234,251,113809,2,0,P|254:169|252:65,1,173.40000105835,2|2,1:2|1:2,0:0:0:0:
56,15,114910,6,0,P|39:71|38:122,1,86.7000005291748,2|0,1:2|0:2,0:0:0:0:
73,135,115323,2,0,P|90:191|91:242,1,86.7000005291748,2|0,0:2|0:2,0:0:0:0:
92,271,115736,1,2,0:2:0:0:
159,349,116011,2,0,P|190:342|206:340,1,43.3500002645874,10|8,0:2|0:2,0:0:0:0:
249,361,116286,2,0,P|270:357|291:352,1,43.3500002645874,8|8,0:2|0:2,0:0:0:0:
343,349,116561,2,0,P|337:296|341:226,1,86.7000005291748,10|8,0:2|0:2,0:0:0:0:
337,262,125919,6,0,P|297:243|196:245,2,130.050000793762,2|2|2,1:2|0:2|0:2,0:0:0:0:
421,322,127020,2,0,P|442:275|441:221,1,86.7000005291748,2|0,1:2|0:2,0:0:0:0:
405,204,127433,2,0,P|384:157|385:103,1,86.7000005291748,2|0,0:2|0:2,0:0:0:0:
384,70,127846,1,2,0:2:0:0:
291,23,128121,6,0,L|133:35,2,130.050000793762,2|2|2,1:2|0:2|0:2,0:0:0:0:
384,70,129222,2,0,P|374:115|369:155,1,86.7000005291748,2|0,1:2|0:2,0:0:0:0:
395,200,129635,2,0,P|389:242|379:285,1,86.7000005291748,2|0,0:2|0:2,0:0:0:0:
367,335,130048,1,2,0:2:0:0:
283,272,130323,6,0,P|233:259|188:261,1,86.7000005291748,2|0,1:2|0:2,0:0:0:0:
152,284,130736,2,0,P|139:232|141:182,1,86.7000005291748,2|2,0:2|0:2,0:0:0:0:
175,101,131286,2,0,P|225:88|270:90,1,86.7000005291748,2|2,0:2|0:2,0:0:0:0:
330,165,131837,2,0,P|392:182|457:183,1,130.050000793762,2|0,0:2|0:2,0:0:0:0:
508,93,132525,5,2,1:2:0:0:
423,32,132800,1,2,0:2:0:0:
423,32,132937,2,0,P|373:19|321:19,1,86.7000005291748,2|0,0:2|0:2,0:0:0:0:
259,86,133488,2,0,P|209:99|157:99,1,86.7000005291748,2|0,0:2|0:2,0:0:0:0:
91,37,134038,2,0,P|82:89|77:174,1,130.050000793762,2|2,0:2|0:2,0:0:0:0:
148,241,134726,6,0,B|71:249|104:286|15:290,2,130.050000793762,6|0|0,0:2|0:2|0:2,0:0:0:0:
252,237,135827,2,0,P|232:298|222:385,2,130.050000793762,0|0|2,0:2|0:2|0:2,0:0:0:0:
282,137,136928,5,2,1:2:0:0:
352,276,137341,2,0,B|425:270|391:229|487:225,1,130.050000793762,2|0,0:2|0:2,0:0:0:0:
506,128,138029,2,0,P|453:98|412:96,1,86.7000005291748,2|0,0:2|0:2,0:0:0:0:
387,127,138442,2,0,P|334:157|293:159,1,86.7000005291748,2|0,0:2|0:2,0:0:0:0:
257,160,138855,1,2,0:2:0:0:
171,100,139130,6,0,P|152:148|159:199,1,86.7000005291748,2|0,1:2|0:2,0:0:0:0:
175,229,139543,2,0,P|194:277|187:368,1,130.050000793762,2|0,0:2|0:2,0:0:0:0:
100,303,140231,1,2,0:2:0:0:
29,226,140506,1,2,0:2:0:0:
29,226,140644,2,0,P|38:163|38:88,1,130.050000793762,2|0,0:2|0:2,0:0:0:0:
133,52,141332,2,0,P|133:116|142:181,2,130.050000793762,2|0|0,1:2|0:2|0:2,0:0:0:0:
38,96,142433,1,0,0:2:0:0:
29,80,144635,6,0,P|63:77|104:77,1,43.3500002645874,10|8,0:2|0:2,0:0:0:0:
111,111,144910,2,0,P|145:114|186:114,1,43.3500002645874,8|8,0:2|0:2,0:0:0:0:
206,110,145185,1,10,0:2:0:0:
291,51,145460,1,8,0:2:0:0:
370,119,145736,6,0,P|363:187|359:245,1,86.7000005291748,6|0,1:2|0:2,0:0:0:0:
373,255,146148,2,0,P|321:271|281:270,1,86.7000005291748,2|0,0:2|0:2,0:0:0:0:
237,264,146561,1,2,0:2:0:0:
134,243,146837,2,0,P|120:286|130:350,1,86.7000005291748,2|2,1:2|0:2,0:0:0:0:
225,348,147387,2,0,P|238:308|237:265,1,86.7000005291748,2|0,1:2|0:2,0:0:0:0:
218,161,147937,6,0,P|247:143|303:136,1,86.7000005291748,2|0,1:2|0:2,0:0:0:0:
335,172,148350,2,0,P|364:190|420:197,1,86.7000005291748,2|0,0:2|0:2,0:0:0:0:
467,190,148763,1,2,0:2:0:0:
432,288,149038,2,0,P|403:306|347:313,1,86.7000005291748,2|2,1:2|0:2,0:0:0:0:
259,264,149589,1,2,1:2:0:0:
194,345,149864,1,0,0:2:0:0:
125,266,150139,6,0,P|132:213|157:161,1,86.7000005291748,2|0,1:2|0:2,0:0:0:0:
166,135,150552,2,0,P|159:82|134:30,1,86.7000005291748,2|0,0:2|0:2,0:0:0:0:
119,6,150965,1,2,0:2:0:0:
222,6,151240,2,0,B|305:11|304:30|303:54|407:55,1,173.40000105835,2|2,1:2|1:2,0:0:0:0:
495,231,152341,6,0,P|449:217|393:217,1,86.7000005291748,2|0,1:2|0:2,0:0:0:0:
380,257,152754,2,0,P|334:271|278:271,1,86.7000005291748,2|0,0:2|0:2,0:0:0:0:
243,268,153167,1,2,0:2:0:0:
164,336,153442,2,0,B|163:253|140:255|120:255|115:172,1,173.40000105835,2|2,1:2|1:2,0:0:0:0:
157,78,154268,1,2,0:2:0:0:
232,149,154543,6,0,P|254:107|256:46,1,86.7000005291748,2|0,1:2|0:2,0:0:0:0:
256,16,154956,2,0,P|298:1|361:3,1,86.7000005291748,2|0,0:2|0:2,0:0:0:0:
387,21,155369,1,2,0:2:0:0:
475,74,155644,2,0,P|464:125|459:187,1,86.7000005291748,2|2,1:2|0:2,0:0:0:0:
488,259,156194,2,0,P|482:302|473:344,1,86.7000005291748,2|0,1:2|0:2,0:0:0:0:
389,281,156745,6,0,P|344:267|294:267,1,86.7000005291748,2|0,1:2|0:2,0:0:0:0:
260,293,157158,2,0,P|215:307|165:307,1,86.7000005291748,2|0,0:2|0:2,0:0:0:0:
125,300,157570,1,2,0:2:0:0:
35,246,157846,2,0,P|33:195|42:136,1,86.7000005291748,2|2,1:2|0:2,0:0:0:0:
83,66,158396,1,2,1:2:0:0:
150,145,158671,1,0,0:2:0:0:
201,54,158947,6,0,P|243:37|295:37,1,86.7000005291748,2|0,1:2|0:2,0:0:0:0:
324,67,159359,2,0,P|366:84|418:84,1,86.7000005291748,2|0,0:2|0:2,0:0:0:0:
456,69,159772,1,2,0:2:0:0:
504,161,160048,1,2,1:2:0:0:
411,209,160323,1,2,0:2:0:0:
494,270,160598,2,0,P|454:304|412:313,1,86.7000005291748,2|0,1:2|0:2,0:0:0:0:
326,270,161148,6,0,L|216:276,1,86.7000005291748,2|0,1:2|0:2,0:0:0:0:
190,292,161561,2,0,P|181:235|176:182,1,86.7000005291748,2|0,0:2|0:2,0:0:0:0:
178,154,161974,1,2,0:2:0:0:
208,54,162249,2,0,P|249:42|286:42,1,43.3500002645874,10|8,0:2|0:2,0:0:0:0:
289,75,162525,2,0,P|330:87|367:87,1,43.3500002645874,10|8,0:2|0:2,0:0:0:0:
382,80,162800,2,0,P|388:130|386:170,1,86.7000005291748,10|10,0:2|0:0,0:0:0:0:
356,265,163350,6,0,P|414:247|512:245,2,130.050000793762,6|2|2,1:2|0:2|0:2,0:0:0:0:
275,331,164451,2,0,P|217:349|119:351,2,130.050000793762,2|2|2,1:2|0:2|0:2,0:0:0:0:
356,265,165552,6,0,P|347:204|343:119,2,130.050000793762,2|2|2,1:2|0:2|0:2,0:0:0:0:
385,365,166653,2,0,P|333:357|277:353,1,86.7000005291748,2|0,1:2|0:2,0:0:0:0:
248,366,167066,2,0,P|257:305|261:220,1,130.050000793762,2|2,0:2|0:2,0:0:0:0:
219,140,167754,5,2,1:2:0:0:
160,225,168029,1,2,0:2:0:0:
160,225,168167,2,0,P|106:206|70:203,1,86.7000005291748,2|0,0:2|0:2,0:0:0:0:
25,211,168580,1,2,0:2:0:0:
77,121,168855,1,2,1:2:0:0:
14,38,169130,1,2,0:2:0:0:
115,16,169405,2,0,L|215:23,1,86.7000005291748,2|0,1:2|0:2,0:0:0:0:
275,95,169956,5,2,1:2:0:0:
348,21,170231,1,2,0:2:0:0:
348,21,170369,2,0,L|434:14,1,86.7000005291748,2|0,0:2|0:2,0:0:0:0:
481,37,170781,1,2,0:2:0:0:
424,124,171057,1,2,1:2:0:0:
499,195,171332,1,2,0:2:0:0:
420,263,171607,2,0,P|384:291|324:307,1,86.7000005291748,2|0,1:2|0:2,0:0:0:0:
257,249,172158,6,0,P|248:306|246:382,2,130.050000793762,2|2|2,1:2|0:2|0:2,0:0:0:0:
330,175,173259,2,0,P|328:110|318:45,2,130.050000793762,2|2|2,1:2|0:2|0:2,0:0:0:0:
257,249,174359,6,0,P|209:235|155:231,1,86.7000005291748,2|0,1:2|0:2,0:0:0:0:
121,239,174772,2,0,P|134:188|133:102,1,130.050000793762,2|2,0:2|0:2,0:0:0:0:
98,12,175460,2,0,P|47:27|13:66,1,86.7000005291748,2|0,1:2|0:2,0:0:0:0:
46,95,175873,2,0,P|47:159|32:223,1,130.050000793762,2|2,0:2|0:2,0:0:0:0:
2,322,176561,5,2,1:2:0:0:
95,369,176837,1,2,0:2:0:0:
95,369,176974,2,0,P|142:366|192:340,1,86.7000005291748,2|0,0:2|0:2,0:0:0:0:
221,321,177387,1,2,0:2:0:0:
164,233,177662,1,2,1:2:0:0:
241,164,177937,1,2,0:2:0:0:
241,164,178075,2,0,P|280:148|334:148,1,86.7000005291748,2|2,0:2|0:2,0:0:0:0:
361,182,178488,2,0,P|400:198|454:198,1,86.7000005291748,2|0,0:2|1:2,0:0:0:0:
509,119,179038,5,2,0:2:0:0:
467,23,179314,1,2,1:2:0:0:
418,115,179589,1,2,0:2:0:0:
332,55,179864,2,0,P|276:38|182:39,1,130.050000793762,2|0,1:2|0:2,0:0:0:0:
154,49,180414,2,0,P|163:95|160:162,1,86.7000005291748,2|0,1:2|0:2,0:0:0:0:
127,172,180827,6,0,B|429:167|220:348|524:362,1,459.000011206055,2|0,0:2|0:2,0:0:0:0:
