osu file format v14

[General]
AudioFilename: TWICE-01-CHEER UP.mp3
AudioLeadIn: 0
PreviewTime: 55621
Countdown: 0
SampleSet: Normal
StackLeniency: 1
Mode: 1
LetterboxInBreaks: 0
WidescreenStoryboard: 0

[Editor]
DistanceSpacing: 0.5
BeatDivisor: 4
GridSize: 32
TimelineZoom: 1.1

[Metadata]
Title:CHEER UP
TitleUnicode:CHEER UP
Artist:TWICE
ArtistUnicode:TWICE
Creator:snowball112
Version:Muzukashii
Source:
Tags:나연 정연 모모 사나 지효 미나 다현 채영 쯔위 NAYEON JEONGYEON MOMO SANA JIHYO MINA DAHYUN CHAEYOUNG TZUYU PAGE TWO jyp entertainment kpop k-pop
BeatmapID:1254061
BeatmapSetID:592692

[Difficulty]
HPDrainRate:5
CircleSize:2
OverallDifficulty:5
ApproachRate:0
SliderMultiplier:1.4
SliderTickRate:1

[Events]
//Background and Video events
0,0,"bg.jpg",0,0
//Break Periods
//Storyboard Layer 0 (Background)
//Storyboard Layer 1 (Fail)
//Storyboard Layer 2 (Pass)
//Storyboard Layer 3 (Foreground)
//Storyboard Sound Samples

[TimingPoints]
304,346.820809248555,4,1,0,50,1,0
10014,-100,4,1,0,70,0,0
33598,-100,4,1,0,80,0,0
55795,-100,4,1,0,90,0,1
77991,-100,4,1,0,80,0,0
123772,-100,4,1,0,90,0,1
145968,-100,4,1,0,80,0,0
180650,-100,4,1,0,90,0,1
202847,-100,4,1,0,80,0,0

[HitObjects]
256,192,304,5,0,0:0:0:0:
256,192,1691,1,0,0:0:0:0:
256,192,2211,1,8,0:0:0:0:
256,192,2731,1,8,0:0:0:0:
256,192,3078,1,0,0:0:0:0:
256,192,4465,1,0,0:0:0:0:
256,192,5159,1,8,0:0:0:0:
256,192,5853,1,0,0:0:0:0:
256,192,7240,1,0,0:0:0:0:
256,192,7760,1,8,0:0:0:0:
256,192,8280,1,8,0:0:0:0:
256,192,8627,1,0,0:0:0:0:
256,192,10014,1,8,0:0:0:0:
256,192,10188,1,8,0:0:0:0:
256,192,10361,1,0,0:0:0:0:
256,192,10708,1,8,0:0:0:0:
256,192,11055,1,8,0:0:0:0:
256,192,11228,1,8,0:0:0:0:
256,192,11402,1,4,0:0:0:0:
256,192,12095,1,8,0:0:0:0:
256,192,12442,1,0,0:0:0:0:
256,192,12789,1,0,0:0:0:0:
256,192,13483,1,8,0:0:0:0:
256,192,13830,1,8,0:0:0:0:
256,192,14176,1,0,0:0:0:0:
256,192,14870,1,8,0:0:0:0:
256,192,15564,1,0,0:0:0:0:
256,192,15737,1,8,0:0:0:0:
224,224,16084,1,8,0:0:0:0:
256,192,16257,1,8,0:0:0:0:
256,192,16604,1,8,0:0:0:0:
224,224,16951,1,0,0:0:0:0:
224,224,17645,1,8,0:0:0:0:
224,192,17991,1,0,0:0:0:0:
192,224,18338,1,0,0:0:0:0:
224,224,19032,1,8,0:0:0:0:
224,224,19379,1,8,0:0:0:0:
224,224,19725,1,0,0:0:0:0:
224,224,20419,1,8,0:0:0:0:
224,224,20766,1,0,0:0:0:0:
224,224,21113,1,8,0:0:0:0:
224,224,21286,1,8,0:0:0:0:
224,224,21460,1,0,0:0:0:0:
224,224,21806,1,8,0:0:0:0:
224,224,22153,1,8,0:0:0:0:
224,224,22327,1,8,0:0:0:0:
224,224,22500,1,0,0:0:0:0:
224,224,23194,1,8,0:0:0:0:
256,224,23540,1,0,0:0:0:0:
224,224,23887,1,0,0:0:0:0:
192,224,24581,1,8,0:0:0:0:
224,224,24928,1,8,0:0:0:0:
224,224,25275,1,0,0:0:0:0:
224,224,25968,1,8,0:0:0:0:
224,224,26662,1,0,0:0:0:0:
224,224,26835,1,8,0:0:0:0:
224,224,27182,1,0,0:0:0:0:
224,224,27356,1,8,0:0:0:0:
224,224,27702,1,8,0:0:0:0:
224,224,28049,1,0,0:0:0:0:
224,256,28743,5,8,0:0:0:0:
256,192,29090,5,0,0:0:0:0:
224,224,29436,1,0,0:0:0:0:
256,192,30130,1,8,0:0:0:0:
256,192,30477,1,8,0:0:0:0:
256,192,30824,5,0,0:0:0:0:
256,192,31517,1,8,0:0:0:0:
256,192,32211,5,8,0:0:0:0:
256,192,32384,1,8,0:0:0:0:
256,192,32558,1,0,0:0:0:0:
256,192,32905,1,8,0:0:0:0:
256,192,33251,1,8,0:0:0:0:
256,192,33425,1,8,0:0:0:0:
256,192,33598,1,4,0:0:0:0:
256,192,33945,1,0,0:0:0:0:
256,192,34119,1,8,0:0:0:0:
256,192,34639,1,8,0:0:0:0:
256,192,34986,1,0,0:0:0:0:
256,192,35679,1,8,0:0:0:0:
256,192,36026,1,8,0:0:0:0:
256,192,36373,1,0,0:0:0:0:
224,192,36720,1,0,0:0:0:0:
256,192,36893,1,8,0:0:0:0:
256,192,37413,1,8,0:0:0:0:
256,192,37760,1,0,0:0:0:0:
256,192,38107,1,8,0:0:0:0:
256,192,38280,1,8,0:0:0:0:
256,192,38627,1,0,0:0:0:0:
256,192,38801,1,8,0:0:0:0:
256,192,39147,1,0,0:0:0:0:
256,192,39494,1,0,0:0:0:0:
256,192,39668,1,8,0:0:0:0:
256,192,40188,5,8,0:0:0:0:
256,192,40535,1,0,0:0:0:0:
256,192,41228,5,8,0:0:0:0:
256,192,41575,1,8,0:0:0:0:
256,192,41922,1,0,0:0:0:0:
256,192,42269,1,0,0:0:0:0:
256,192,42442,1,8,0:0:0:0:
256,192,42962,1,8,0:0:0:0:
256,192,43309,1,0,0:0:0:0:
256,192,43656,1,8,0:0:0:0:
256,192,43830,1,8,0:0:0:0:
256,192,44176,1,8,0:0:0:0:
256,192,44350,1,12,0:0:0:0:
256,224,44697,5,0,0:0:0:0:
128,224,45043,5,8,0:0:0:0:
128,224,45217,1,0,0:0:0:0:
128,224,45390,1,8,0:0:0:0:
128,192,45737,1,8,0:0:0:0:
256,224,46084,1,0,0:0:0:0:
288,192,46777,1,0,0:0:0:0:
256,192,47124,1,8,0:0:0:0:
288,192,47471,1,0,0:0:0:0:
256,192,47818,1,8,0:0:0:0:
256,192,47991,1,0,0:0:0:0:
288,192,48165,1,8,0:0:0:0:
288,192,48512,1,8,0:0:0:0:
256,192,48858,1,0,0:0:0:0:
256,224,49205,1,8,0:0:0:0:
288,192,49379,1,8,0:0:0:0:
256,192,49725,1,8,0:0:0:0:
256,192,49899,1,12,0:0:0:0:
256,192,50246,1,0,0:0:0:0:
256,192,50593,1,8,0:0:0:0:
256,224,50766,1,8,0:0:0:0:
256,192,50939,1,0,0:0:0:0:
256,192,51286,1,8,0:0:0:0:
256,192,51633,1,0,0:0:0:0:
256,192,51980,1,8,0:0:0:0:
256,192,52153,1,8,0:0:0:0:
256,192,52327,1,0,0:0:0:0:
256,192,52673,5,8,0:0:0:0:
256,192,53020,1,0,0:0:0:0:
224,192,53194,1,0,0:0:0:0:
256,192,53367,1,8,0:0:0:0:
256,192,53540,1,8,0:0:0:0:
256,192,53714,1,0,0:0:0:0:
256,192,54061,1,8,0:0:0:0:
256,192,54234,1,0,0:0:0:0:
256,192,54581,1,0,0:0:0:0:
244,192,54668,1,0,0:0:0:0:
256,192,54754,1,0,0:0:0:0:
256,192,54928,1,8,0:0:0:0:
243,178,55014,1,8,0:0:0:0:
256,192,55101,5,8,0:0:0:0:
256,192,55448,1,0,0:0:0:0:
256,224,55795,1,4,0:0:0:0:
256,224,56142,1,8,0:0:0:0:
256,224,56315,1,8,0:0:0:0:
256,224,56662,1,0,0:0:0:0:
256,224,56835,1,8,0:0:0:0:
256,224,57182,1,0,0:0:0:0:
256,224,57529,1,8,0:0:0:0:
256,224,57702,1,8,0:0:0:0:
256,224,58049,1,0,0:0:0:0:
256,224,58223,1,8,0:0:0:0:
256,192,58396,1,0,0:0:0:0:
256,224,58569,1,0,0:0:0:0:
256,224,58916,1,8,0:0:0:0:
256,224,59090,1,0,0:0:0:0:
256,224,59436,1,0,0:0:0:0:
256,224,59610,1,8,0:0:0:0:
256,192,59957,1,0,0:0:0:0:
256,192,60130,1,8,0:0:0:0:
256,192,60217,1,8,0:0:0:0:
256,192,60304,1,8,0:0:0:0:
288,224,60477,1,8,0:0:0:0:
288,192,60824,1,8,0:0:0:0:
256,192,60997,1,8,0:0:0:0:
288,192,61344,1,12,0:0:0:0:
256,192,61691,1,8,0:0:0:0:
256,192,62038,1,0,0:0:0:0:
256,192,62211,1,0,0:0:0:0:
256,192,62384,1,8,0:0:0:0:
256,192,62731,1,0,0:0:0:0:
256,192,63078,1,8,0:0:0:0:
256,192,63251,1,8,0:0:0:0:
256,192,63598,1,0,0:0:0:0:
256,192,63772,1,8,0:0:0:0:
256,192,64119,1,0,0:0:0:0:
256,192,64292,1,8,0:0:0:0:
256,192,64465,1,8,0:0:0:0:
256,192,64639,1,0,0:0:0:0:
256,192,64986,1,8,0:0:0:0:
256,192,65332,1,8,0:0:0:0:
256,192,65506,1,0,0:0:0:0:
256,192,65679,1,8,0:0:0:0:
249,203,65766,1,8,0:0:0:0:
256,192,65853,1,8,0:0:0:0:
256,192,66199,1,0,0:0:0:0:
256,192,66373,1,8,0:0:0:0:
256,192,66546,1,8,0:0:0:0:
256,192,66893,1,4,0:0:0:0:
256,224,67240,1,8,0:0:0:0:
256,224,67413,1,8,0:0:0:0:
256,192,67760,1,0,0:0:0:0:
256,192,67933,1,8,0:0:0:0:
256,192,68280,1,0,0:0:0:0:
256,192,68627,1,8,0:0:0:0:
256,192,68800,1,8,0:0:0:0:
256,192,69147,1,0,0:0:0:0:
256,192,69321,1,8,0:0:0:0:
256,192,69494,1,0,0:0:0:0:
256,192,69667,1,0,0:0:0:0:
256,192,70014,1,8,0:0:0:0:
256,192,70188,1,0,0:0:0:0:
256,192,70534,1,0,0:0:0:0:
256,224,70708,1,8,0:0:0:0:
256,192,71055,1,0,0:0:0:0:
256,192,71228,1,8,0:0:0:0:
256,192,71315,1,8,0:0:0:0:
256,192,71402,1,8,0:0:0:0:
256,192,71575,1,8,0:0:0:0:
256,192,71922,1,8,0:0:0:0:
288,192,72095,1,8,0:0:0:0:
288,192,72442,1,12,0:0:0:0:
256,192,72789,1,8,0:0:0:0:
256,192,73136,1,0,0:0:0:0:
256,192,73309,1,0,0:0:0:0:
256,192,73482,1,8,0:0:0:0:
256,192,73829,1,0,0:0:0:0:
256,192,74176,1,8,0:0:0:0:
256,192,74350,1,8,0:0:0:0:
256,192,74696,1,0,0:0:0:0:
256,192,74870,1,8,0:0:0:0:
256,192,75217,1,0,0:0:0:0:
256,192,75390,1,8,0:0:0:0:
256,192,75563,1,8,0:0:0:0:
256,192,75737,1,0,0:0:0:0:
256,192,76084,1,8,0:0:0:0:
256,192,76430,1,8,0:0:0:0:
256,192,76604,1,0,0:0:0:0:
256,192,76777,1,8,0:0:0:0:
271,211,76864,1,8,0:0:0:0:
256,192,76951,1,8,0:0:0:0:
256,192,77297,1,0,0:0:0:0:
256,192,77471,1,8,0:0:0:0:
256,192,77645,12,0,78165,0:0:0:0:
256,192,79379,5,4,0:0:0:0:
256,192,79552,1,0,0:0:0:0:
256,192,80766,5,0,0:0:0:0:
256,192,81113,1,8,0:0:0:0:
256,192,81460,1,0,0:0:0:0:
256,192,81806,1,8,0:0:0:0:
256,192,82153,1,0,0:0:0:0:
256,192,82327,1,0,0:0:0:0:
256,192,83540,5,12,0:0:0:0:
256,192,83887,1,12,0:0:0:0:
256,192,84234,1,12,0:0:0:0:
256,192,84581,1,12,0:0:0:0:
256,192,84928,1,0,0:0:0:0:
256,192,85101,1,0,0:0:0:0:
256,192,86315,1,0,0:0:0:0:
256,192,86662,1,8,0:0:0:0:
256,192,87009,1,0,0:0:0:0:
256,192,87356,1,8,0:0:0:0:
256,192,87702,1,0,0:0:0:0:
256,192,87876,1,0,0:0:0:0:
256,192,89090,1,8,0:0:0:0:
256,192,89263,1,8,0:0:0:0:
256,192,89436,1,0,0:0:0:0:
256,192,89783,1,8,0:0:0:0:
256,192,90130,1,8,0:0:0:0:
256,192,90304,1,8,0:0:0:0:
256,192,90477,1,0,0:0:0:0:
256,192,90650,1,0,0:0:0:0:
256,192,91171,1,0,0:0:0:0:
256,192,91517,1,8,0:0:0:0:
256,192,91864,1,0,0:0:0:0:
256,192,92384,1,8,0:0:0:0:
256,192,92558,1,0,0:0:0:0:
256,192,92905,1,8,0:0:0:0:
256,192,93251,1,0,0:0:0:0:
256,192,93425,1,0,0:0:0:0:
256,192,93945,1,0,0:0:0:0:
256,192,94292,1,8,0:0:0:0:
256,192,94639,1,0,0:0:0:0:
256,192,94986,1,8,0:0:0:0:
256,192,95159,1,8,0:0:0:0:
256,192,95332,1,8,0:0:0:0:
256,192,95679,1,8,0:0:0:0:
256,192,95853,1,8,0:0:0:0:
256,192,96026,1,0,0:0:0:0:
256,192,96199,1,0,0:0:0:0:
256,192,96720,1,0,0:0:0:0:
256,192,97067,1,8,0:0:0:0:
256,192,97413,1,0,0:0:0:0:
256,192,97934,1,8,0:0:0:0:
256,192,98107,1,0,0:0:0:0:
256,192,98454,1,8,0:0:0:0:
256,192,98801,1,0,0:0:0:0:
256,192,99494,1,0,0:0:0:0:
256,192,99841,1,8,0:0:0:0:
256,192,100188,12,0,100708,0:0:0:0:
256,192,100882,5,8,0:0:0:0:
256,192,101575,1,4,0:0:0:0:
256,192,101922,1,0,0:0:0:0:
256,192,102096,1,8,0:0:0:0:
256,192,102616,1,8,0:0:0:0:
256,192,102963,1,0,0:0:0:0:
256,192,103656,1,8,0:0:0:0:
256,192,104003,1,8,0:0:0:0:
256,192,104350,1,0,0:0:0:0:
224,192,104697,1,0,0:0:0:0:
256,192,104870,1,8,0:0:0:0:
256,192,105390,1,8,0:0:0:0:
256,192,105737,1,0,0:0:0:0:
256,192,106084,1,8,0:0:0:0:
256,192,106257,1,8,0:0:0:0:
256,192,106604,1,0,0:0:0:0:
256,192,106778,1,8,0:0:0:0:
256,192,107124,1,0,0:0:0:0:
256,192,107471,1,0,0:0:0:0:
256,192,107645,1,8,0:0:0:0:
256,192,108165,5,8,0:0:0:0:
256,192,108512,1,0,0:0:0:0:
256,192,109205,5,8,0:0:0:0:
256,192,109552,1,8,0:0:0:0:
256,192,109899,1,0,0:0:0:0:
256,192,110246,1,0,0:0:0:0:
256,192,110419,1,8,0:0:0:0:
256,192,110939,5,8,0:0:0:0:
256,192,111286,5,0,0:0:0:0:
256,192,111633,1,8,0:0:0:0:
256,192,111807,1,8,0:0:0:0:
256,192,112153,1,8,0:0:0:0:
256,192,112327,1,12,0:0:0:0:
256,224,112674,5,0,0:0:0:0:
128,224,113020,5,8,0:0:0:0:
128,224,113194,1,0,0:0:0:0:
128,224,113367,1,8,0:0:0:0:
128,192,113714,1,8,0:0:0:0:
256,224,114061,1,0,0:0:0:0:
288,192,114754,1,0,0:0:0:0:
256,192,115101,1,8,0:0:0:0:
288,192,115448,1,0,0:0:0:0:
256,192,115795,1,8,0:0:0:0:
256,192,115968,1,0,0:0:0:0:
288,192,116142,1,8,0:0:0:0:
288,192,116489,1,8,0:0:0:0:
256,192,116835,1,0,0:0:0:0:
256,224,117182,1,8,0:0:0:0:
288,192,117356,1,8,0:0:0:0:
256,192,117702,1,8,0:0:0:0:
256,192,117876,1,12,0:0:0:0:
256,192,118223,1,0,0:0:0:0:
256,192,118570,1,8,0:0:0:0:
256,224,118743,1,8,0:0:0:0:
256,192,118916,1,0,0:0:0:0:
256,192,119263,1,8,0:0:0:0:
256,192,119610,1,0,0:0:0:0:
256,192,119957,1,8,0:0:0:0:
256,192,120130,1,8,0:0:0:0:
256,192,120304,1,0,0:0:0:0:
256,192,120650,5,8,0:0:0:0:
256,192,120997,1,0,0:0:0:0:
224,192,121171,5,0,0:0:0:0:
256,192,121344,1,8,0:0:0:0:
256,192,121517,1,8,0:0:0:0:
256,192,121691,1,0,0:0:0:0:
256,192,122038,1,8,0:0:0:0:
256,192,122211,1,0,0:0:0:0:
256,192,122558,1,0,0:0:0:0:
241,202,122645,1,0,0:0:0:0:
256,192,122731,1,0,0:0:0:0:
256,192,122905,1,8,0:0:0:0:
256,192,122991,1,8,0:0:0:0:
256,192,123078,5,8,0:0:0:0:
256,192,123425,1,0,0:0:0:0:
256,224,123772,5,4,0:0:0:0:
256,224,124119,1,8,0:0:0:0:
256,224,124292,1,8,0:0:0:0:
256,224,124639,1,0,0:0:0:0:
256,224,124812,1,8,0:0:0:0:
256,224,125159,1,0,0:0:0:0:
256,224,125506,1,8,0:0:0:0:
256,192,125679,1,8,0:0:0:0:
256,224,126026,1,0,0:0:0:0:
256,224,126200,1,8,0:0:0:0:
256,224,126373,1,0,0:0:0:0:
256,224,126546,1,0,0:0:0:0:
256,224,126893,1,8,0:0:0:0:
256,224,127067,1,0,0:0:0:0:
256,224,127413,1,0,0:0:0:0:
256,224,127587,1,8,0:0:0:0:
256,192,127934,1,0,0:0:0:0:
256,192,128107,1,8,0:0:0:0:
255,194,128194,1,8,0:0:0:0:
256,192,128281,1,8,0:0:0:0:
288,224,128454,1,8,0:0:0:0:
288,192,128801,1,8,0:0:0:0:
256,192,128974,1,8,0:0:0:0:
288,192,129321,1,12,0:0:0:0:
256,192,129668,1,8,0:0:0:0:
256,192,130015,1,0,0:0:0:0:
256,192,130188,1,0,0:0:0:0:
256,192,130361,1,8,0:0:0:0:
256,192,130708,1,0,0:0:0:0:
256,192,131055,1,8,0:0:0:0:
256,192,131228,1,8,0:0:0:0:
256,192,131575,1,0,0:0:0:0:
256,192,131749,1,8,0:0:0:0:
256,192,132096,1,0,0:0:0:0:
256,192,132269,1,8,0:0:0:0:
256,192,132442,1,8,0:0:0:0:
256,192,132616,1,0,0:0:0:0:
256,192,132963,1,8,0:0:0:0:
256,192,133309,1,8,0:0:0:0:
256,192,133483,1,0,0:0:0:0:
256,192,133656,1,8,0:0:0:0:
256,192,133743,1,8,0:0:0:0:
256,192,133830,1,8,0:0:0:0:
256,192,134176,1,0,0:0:0:0:
256,192,134350,1,8,0:0:0:0:
256,192,134523,1,8,0:0:0:0:
256,192,134870,1,4,0:0:0:0:
256,224,135217,1,8,0:0:0:0:
256,192,135390,1,8,0:0:0:0:
256,224,135737,1,0,0:0:0:0:
256,192,135910,1,8,0:0:0:0:
256,192,136257,1,0,0:0:0:0:
256,192,136604,1,8,0:0:0:0:
256,192,136777,1,8,0:0:0:0:
256,192,137124,1,0,0:0:0:0:
256,192,137298,1,8,0:0:0:0:
256,192,137471,1,0,0:0:0:0:
256,192,137644,1,0,0:0:0:0:
256,192,137991,1,8,0:0:0:0:
256,192,138165,1,0,0:0:0:0:
256,192,138511,1,0,0:0:0:0:
256,224,138685,1,8,0:0:0:0:
256,192,139032,1,0,0:0:0:0:
256,192,139205,1,8,0:0:0:0:
256,192,139292,1,8,0:0:0:0:
256,192,139379,1,8,0:0:0:0:
256,192,139552,1,8,0:0:0:0:
256,192,139899,1,8,0:0:0:0:
288,192,140072,1,8,0:0:0:0:
288,192,140419,1,12,0:0:0:0:
256,192,140766,1,8,0:0:0:0:
256,192,141113,1,0,0:0:0:0:
256,192,141286,1,0,0:0:0:0:
256,192,141459,1,8,0:0:0:0:
256,192,141806,1,0,0:0:0:0:
256,192,142153,1,8,0:0:0:0:
256,192,142327,1,8,0:0:0:0:
256,192,142673,1,0,0:0:0:0:
256,192,142847,1,8,0:0:0:0:
256,192,143194,1,0,0:0:0:0:
256,192,143367,1,8,0:0:0:0:
256,192,143540,1,8,0:0:0:0:
256,192,143714,1,0,0:0:0:0:
256,192,144061,1,8,0:0:0:0:
256,192,144407,1,8,0:0:0:0:
256,192,144581,1,0,0:0:0:0:
256,192,144754,1,8,0:0:0:0:
256,192,144841,1,8,0:0:0:0:
256,192,144928,1,8,0:0:0:0:
256,192,145275,1,0,0:0:0:0:
256,192,145448,1,8,0:0:0:0:
256,192,145621,12,0,147182,0:0:0:0:
256,192,147356,5,0,0:0:0:0:
256,192,148743,1,0,0:0:0:0:
256,192,150130,1,0,0:0:0:0:
256,192,151517,1,0,0:0:0:0:
256,192,152905,1,0,0:0:0:0:
256,192,154292,1,0,0:0:0:0:
256,192,155679,1,0,0:0:0:0:
256,192,157067,1,0,0:0:0:0:
256,192,157760,1,0,0:0:0:0:
256,192,158454,1,0,0:0:0:0:
256,192,159147,1,0,0:0:0:0:
256,192,159494,1,0,0:0:0:0:
256,192,159841,1,8,0:0:0:0:
256,192,160188,1,8,0:0:0:0:
256,192,160535,1,8,0:0:0:0:
256,192,160882,1,0,0:0:0:0:
256,192,161228,1,0,0:0:0:0:
256,192,161922,1,0,0:0:0:0:
256,192,162269,1,0,0:0:0:0:
256,192,162616,1,8,0:0:0:0:
256,192,162962,1,8,0:0:0:0:
256,192,163309,1,8,0:0:0:0:
256,192,163656,1,0,0:0:0:0:
256,192,164003,1,0,0:0:0:0:
288,192,164350,1,8,0:0:0:0:
288,192,164697,1,0,0:0:0:0:
256,192,164870,1,0,0:0:0:0:
288,192,165043,1,8,0:0:0:0:
256,192,165390,1,0,0:0:0:0:
256,192,165737,1,8,0:0:0:0:
256,192,165911,1,0,0:0:0:0:
256,192,166084,1,8,0:0:0:0:
256,192,166431,1,8,0:0:0:0:
256,192,166777,5,0,0:0:0:0:
256,192,166951,1,0,0:0:0:0:
256,192,167124,1,8,0:0:0:0:
256,192,167298,1,8,0:0:0:0:
256,192,167471,1,0,0:0:0:0:
256,192,167818,1,8,0:0:0:0:
256,192,168165,1,8,0:0:0:0:
256,192,168251,1,8,0:0:0:0:
256,192,168338,1,8,0:0:0:0:
256,192,168512,1,0,0:0:0:0:
256,192,168685,1,8,0:0:0:0:
256,192,168858,1,8,0:0:0:0:
256,192,169205,1,8,0:0:0:0:
256,192,169379,1,8,0:0:0:0:
256,192,169552,1,4,0:0:0:0:
256,192,170246,1,0,0:0:0:0:
256,192,170593,1,8,0:0:0:0:
256,192,170939,1,0,0:0:0:0:
224,192,171286,1,8,0:0:0:0:
224,192,171460,1,0,0:0:0:0:
256,192,171806,1,0,0:0:0:0:
256,192,171980,1,8,0:0:0:0:
256,192,172327,1,0,0:0:0:0:
256,192,172673,1,8,0:0:0:0:
256,192,173020,1,0,0:0:0:0:
256,192,173367,1,8,0:0:0:0:
256,192,173714,1,8,0:0:0:0:
256,192,173887,1,8,0:0:0:0:
256,192,174061,1,0,0:0:0:0:
256,192,174408,1,8,0:0:0:0:
256,192,174754,1,8,0:0:0:0:
256,192,174928,1,8,0:0:0:0:
256,192,175101,1,4,0:0:0:0:
256,192,175795,1,0,0:0:0:0:
256,192,176142,1,8,0:0:0:0:
256,192,176488,1,0,0:0:0:0:
256,192,176835,1,8,0:0:0:0:
256,160,177009,1,0,0:0:0:0:
256,160,177356,1,0,0:0:0:0:
256,160,177529,1,8,0:0:0:0:
256,192,177876,1,0,0:0:0:0:
256,192,178223,1,8,0:0:0:0:
256,192,178396,1,8,0:0:0:0:
256,192,178569,1,8,0:0:0:0:
256,192,178916,1,0,0:0:0:0:
256,160,179090,1,0,0:0:0:0:
256,192,179263,1,8,0:0:0:0:
256,192,179610,1,0,0:0:0:0:
256,192,179957,1,8,0:0:0:0:
256,192,180304,1,0,0:0:0:0:
256,224,180650,1,4,0:0:0:0:
256,224,180997,1,8,0:0:0:0:
256,224,181170,1,8,0:0:0:0:
256,224,181517,1,0,0:0:0:0:
256,224,181690,1,8,0:0:0:0:
256,224,182037,1,0,0:0:0:0:
256,224,182384,1,8,0:0:0:0:
256,192,182558,1,8,0:0:0:0:
256,224,182904,1,0,0:0:0:0:
256,224,183078,1,8,0:0:0:0:
256,224,183251,1,0,0:0:0:0:
256,224,183424,1,0,0:0:0:0:
256,224,183771,1,8,0:0:0:0:
256,224,183945,1,0,0:0:0:0:
256,224,184291,1,0,0:0:0:0:
256,224,184465,1,8,0:0:0:0:
256,192,184812,1,0,0:0:0:0:
256,192,184986,1,8,0:0:0:0:
256,192,185072,1,8,0:0:0:0:
256,192,185159,1,8,0:0:0:0:
288,224,185332,1,8,0:0:0:0:
288,192,185679,1,8,0:0:0:0:
256,192,185852,1,8,0:0:0:0:
256,192,186026,1,8,0:0:0:0:
288,192,186199,1,12,0:0:0:0:
256,192,186546,1,8,0:0:0:0:
256,192,186893,1,0,0:0:0:0:
256,192,187066,1,0,0:0:0:0:
256,192,187239,1,8,0:0:0:0:
256,192,187586,1,0,0:0:0:0:
256,192,187933,1,8,0:0:0:0:
256,192,188107,1,8,0:0:0:0:
256,192,188453,1,0,0:0:0:0:
256,192,188627,1,8,0:0:0:0:
256,192,188974,1,0,0:0:0:0:
256,192,189147,1,8,0:0:0:0:
256,192,189320,1,8,0:0:0:0:
256,192,189494,1,0,0:0:0:0:
256,192,189841,1,8,0:0:0:0:
256,192,190187,1,8,0:0:0:0:
256,192,190361,1,0,0:0:0:0:
256,192,190534,1,8,0:0:0:0:
256,192,190621,1,8,0:0:0:0:
256,192,190708,1,8,0:0:0:0:
256,192,191054,1,0,0:0:0:0:
256,192,191228,1,8,0:0:0:0:
256,192,191401,1,8,0:0:0:0:
256,192,191575,1,8,0:0:0:0:
256,192,191748,1,4,0:0:0:0:
256,224,192095,1,8,0:0:0:0:
256,192,192269,1,8,0:0:0:0:
256,192,192615,1,0,0:0:0:0:
256,192,192788,1,8,0:0:0:0:
256,192,193136,1,0,0:0:0:0:
256,192,193482,1,8,0:0:0:0:
256,192,193656,1,8,0:0:0:0:
256,192,194002,1,0,0:0:0:0:
256,192,194176,1,8,0:0:0:0:
256,192,194350,1,0,0:0:0:0:
256,192,194523,1,0,0:0:0:0:
256,192,194869,1,8,0:0:0:0:
256,192,195043,1,0,0:0:0:0:
256,192,195389,1,0,0:0:0:0:
256,224,195563,1,8,0:0:0:0:
256,192,195910,1,0,0:0:0:0:
256,192,196083,1,8,0:0:0:0:
256,192,196171,1,8,0:0:0:0:
256,192,196257,1,8,0:0:0:0:
256,192,196430,1,8,0:0:0:0:
256,192,196777,1,8,0:0:0:0:
288,192,196950,1,8,0:0:0:0:
256,192,197124,1,8,0:0:0:0:
288,192,197297,1,12,0:0:0:0:
256,192,197644,1,8,0:0:0:0:
256,192,197991,1,0,0:0:0:0:
256,192,198164,1,0,0:0:0:0:
256,192,198337,1,8,0:0:0:0:
256,192,198684,1,0,0:0:0:0:
256,192,199031,1,8,0:0:0:0:
256,192,199205,1,8,0:0:0:0:
256,192,199551,1,0,0:0:0:0:
256,192,199725,1,8,0:0:0:0:
256,192,200072,1,0,0:0:0:0:
256,192,200245,1,8,0:0:0:0:
256,192,200419,1,8,0:0:0:0:
256,192,200592,1,0,0:0:0:0:
256,192,200939,1,8,0:0:0:0:
256,192,201285,1,8,0:0:0:0:
256,192,201459,1,0,0:0:0:0:
256,192,201632,1,8,0:0:0:0:
256,192,201720,1,8,0:0:0:0:
256,192,201806,1,8,0:0:0:0:
256,192,202152,1,0,0:0:0:0:
256,192,202326,1,8,0:0:0:0:
256,192,202500,12,0,204234,0:0:0:0:
