osu file format v14

[General]
AudioFilename: audio.mp3
AudioLeadIn: 0
PreviewTime: 55709
Countdown: 0
SampleSet: Normal
StackLeniency: 0.7
Mode: 1
LetterboxInBreaks: 0
WidescreenStoryboard: 1

[Editor]
Bookmarks: 11403,22501,33599,44698,50247,55796,79380,90478,101576,112674,123773,147357,158455,169553,180651
DistanceSpacing: 1.1
BeatDivisor: 4
GridSize: 32
TimelineZoom: 2.799999

[Metadata]
Title:CHEER UP
TitleUnicode:CHEER UP
Artist:TWICE
ArtistUnicode:트와이스
Creator:UniqueBlock11
Version:Oni
Source:
Tags:korean pop kpop k-pop jyp entertainment once nayeon jeongyeon momo sana jihyo mina dahyun chaeyoung tzuyu 나연 정연 모모 사나 지효 미나 다현 채영 쯔위 page two
BeatmapID:1417807
BeatmapSetID:633969

[Difficulty]
HPDrainRate:5
CircleSize:2
OverallDifficulty:6
ApproachRate:0
SliderMultiplier:1.6
SliderTickRate:1

[Events]
//Background and Video events
0,0,"twice.jpg",0,0
//Break Periods
//Storyboard Layer 0 (Background)
//Storyboard Layer 1 (Fail)
//Storyboard Layer 2 (Pass)
//Storyboard Layer 3 (Foreground)
//Storyboard Layer 4 (Overlay)
//Storyboard Sound Samples

[TimingPoints]
305.005396184565,346.820809248555,4,1,0,80,1,0
10015,-90.9090909090909,4,1,0,80,0,0
33599,-86.9565217391304,4,1,0,80,0,0
50247,-83.3333333333333,4,1,0,80,0,0
53021,-76.9230769230769,4,1,0,80,0,0
55796,-76.9230769230769,4,1,0,80,0,1
77472,-76.9230769230769,4,1,0,80,0,0
79380,-100,4,1,0,80,0,0
101576,-86.9565217391304,4,1,0,80,0,0
118224,-83.3333333333333,4,1,0,80,0,0
120998,-76.9230769230769,4,1,0,80,0,0
123773,-76.9230769230769,4,1,0,80,0,1
145449,-76.9230769230769,4,1,0,80,0,0
147357,-166.666666666667,4,1,0,80,0,0
158455,-125,4,1,0,80,0,0
169553,-111.111111111111,4,1,0,80,0,0
180651,-76.9230769230769,4,1,0,80,0,1
202328,-76.9230769230769,4,1,0,80,0,0

[HitObjects]
256,192,305,5,8,0:0:0:0:
256,192,478,1,0,0:0:0:0:
256,192,825,1,8,0:0:0:0:
256,192,998,1,0,0:0:0:0:
256,192,1692,1,8,0:0:0:0:
256,192,1865,1,0,0:0:0:0:
256,192,2212,1,8,0:0:0:0:
256,192,2385,1,0,0:0:0:0:
256,192,2732,1,8,0:0:0:0:
256,192,3079,1,8,0:0:0:0:
256,192,3252,1,0,0:0:0:0:
256,192,3599,1,8,0:0:0:0:
256,192,3773,1,0,0:0:0:0:
256,192,4466,1,0,0:0:0:0:
256,192,4813,1,0,0:0:0:0:
256,192,5160,1,8,0:0:0:0:
256,192,5507,1,8,0:0:0:0:
256,192,5854,1,8,0:0:0:0:
256,192,6027,1,0,0:0:0:0:
256,192,6374,1,8,0:0:0:0:
256,192,6547,1,0,0:0:0:0:
256,192,7241,1,8,0:0:0:0:
256,192,7414,1,0,0:0:0:0:
256,192,7761,1,8,0:0:0:0:
256,192,7935,1,0,0:0:0:0:
256,192,8281,1,8,0:0:0:0:
256,192,8628,1,8,0:0:0:0:
256,192,8802,1,0,0:0:0:0:
256,192,9148,1,8,0:0:0:0:
256,192,9322,1,0,0:0:0:0:
256,192,9669,1,0,0:0:0:0:
256,192,10015,1,8,0:0:0:0:
256,192,10189,1,8,0:0:0:0:
256,192,10276,1,8,0:0:0:0:
256,192,10362,1,0,0:0:0:0:
256,192,10536,1,8,0:0:0:0:
256,192,10709,1,0,0:0:0:0:
256,192,10883,1,0,0:0:0:0:
256,192,10969,1,8,0:0:0:0:
256,192,11056,1,0,0:0:0:0:
256,192,11229,1,8,0:0:0:0:
256,192,11403,5,0,0:0:0:0:
256,192,11576,1,0,0:0:0:0:
256,192,11750,1,0,0:0:0:0:
256,192,12096,1,8,0:0:0:0:
256,192,12443,1,0,0:0:0:0:
256,192,12790,1,8,0:0:0:0:
256,192,12963,1,0,0:0:0:0:
256,192,13137,1,8,0:0:0:0:
256,192,13310,1,8,0:0:0:0:
256,192,13484,1,0,0:0:0:0:
256,192,13657,1,0,0:0:0:0:
256,192,13831,1,8,0:0:0:0:
256,192,14177,1,8,0:0:0:0:
256,192,14351,1,0,0:0:0:0:
256,192,14524,1,8,0:0:0:0:
256,192,14698,1,0,0:0:0:0:
256,192,14871,1,8,0:0:0:0:
256,192,15218,1,8,0:0:0:0:
256,192,15391,1,0,0:0:0:0:
256,192,15565,1,8,0:0:0:0:
256,192,15738,1,8,0:0:0:0:
256,192,15911,1,0,0:0:0:0:
256,192,16258,1,8,0:0:0:0:
256,192,16432,1,8,0:0:0:0:
256,192,16519,1,8,0:0:0:0:
256,192,16606,1,0,0:0:0:0:
256,192,16779,1,8,0:0:0:0:
256,192,16952,1,0,0:0:0:0:
256,192,17125,1,8,0:0:0:0:
256,192,17299,1,0,0:0:0:0:
256,192,17646,1,8,0:0:0:0:
256,192,17992,1,0,0:0:0:0:
256,192,18166,1,8,0:0:0:0:
256,192,18339,1,0,0:0:0:0:
256,192,18513,1,8,0:0:0:0:
256,192,18686,1,8,0:0:0:0:
256,192,18859,1,0,0:0:0:0:
256,192,19033,1,8,0:0:0:0:
256,192,19380,1,8,0:0:0:0:
256,192,19726,1,8,0:0:0:0:
256,192,19900,1,0,0:0:0:0:
256,192,20073,1,0,0:0:0:0:
256,192,20420,1,8,0:0:0:0:
256,192,20767,1,0,0:0:0:0:
256,192,20940,1,0,0:0:0:0:
256,192,21114,1,8,0:0:0:0:
256,192,21287,1,0,0:0:0:0:
256,192,21461,1,8,0:0:0:0:
256,192,21634,1,0,0:0:0:0:
256,192,21807,1,8,0:0:0:0:
256,192,21981,1,8,0:0:0:0:
256,192,22154,1,0,0:0:0:0:
256,192,22328,1,8,0:0:0:0:
256,192,22501,5,0,0:0:0:0:
256,192,22674,1,0,0:0:0:0:
256,192,22848,1,8,0:0:0:0:
256,192,23195,1,8,0:0:0:0:
256,192,23368,1,0,0:0:0:0:
256,192,23541,1,8,0:0:0:0:
256,192,23888,1,0,0:0:0:0:
256,192,24062,1,8,0:0:0:0:
256,192,24235,1,0,0:0:0:0:
256,192,24409,1,8,0:0:0:0:
256,192,24582,1,8,0:0:0:0:
256,192,24929,1,8,0:0:0:0:
256,192,25102,1,0,0:0:0:0:
256,192,25276,1,8,0:0:0:0:
256,192,25449,1,8,0:0:0:0:
256,192,25622,1,0,0:0:0:0:
256,192,25796,1,0,0:0:0:0:
256,192,25969,1,8,0:0:0:0:
256,192,26316,1,0,0:0:0:0:
256,192,26663,1,0,0:0:0:0:
256,192,26836,1,0,0:0:0:0:
256,192,26922,1,0,0:0:0:0:
256,192,27010,1,8,0:0:0:0:
256,192,27183,1,0,0:0:0:0:
256,192,27357,1,8,0:0:0:0:
256,192,27530,1,8,0:0:0:0:
256,192,27617,1,8,0:0:0:0:
256,192,27703,1,0,0:0:0:0:
256,192,27877,1,8,0:0:0:0:
256,192,28050,1,0,0:0:0:0:
256,192,28224,1,0,0:0:0:0:
256,192,28397,1,8,0:0:0:0:
256,192,28744,1,8,0:0:0:0:
256,192,29091,1,0,0:0:0:0:
256,192,29264,1,0,0:0:0:0:
256,192,29437,1,8,0:0:0:0:
256,192,29784,1,8,0:0:0:0:
256,192,29958,1,0,0:0:0:0:
256,192,30131,1,8,0:0:0:0:
256,192,30478,1,0,0:0:0:0:
256,192,30825,1,8,0:0:0:0:
256,192,30998,1,0,0:0:0:0:
256,192,31172,1,0,0:0:0:0:
256,192,31345,1,0,0:0:0:0:
256,192,31518,1,8,0:0:0:0:
256,192,31692,1,0,0:0:0:0:
256,192,31865,1,8,0:0:0:0:
256,192,32039,1,0,0:0:0:0:
256,192,32212,1,8,0:0:0:0:
256,192,32385,1,8,0:0:0:0:
256,192,32559,1,0,0:0:0:0:
256,192,32732,1,8,0:0:0:0:
256,192,32906,1,8,0:0:0:0:
256,192,33079,1,0,0:0:0:0:
256,192,33252,1,8,0:0:0:0:
256,192,33599,5,4,0:0:0:0:
256,192,33773,1,8,0:0:0:0:
256,192,33859,1,8,0:0:0:0:
256,192,33946,1,8,0:0:0:0:
256,192,34120,1,8,0:0:0:0:
256,192,34293,1,0,0:0:0:0:
256,192,34466,1,0,0:0:0:0:
256,192,34640,1,8,0:0:0:0:
256,192,34813,1,8,0:0:0:0:
256,192,34987,1,0,0:0:0:0:
256,192,35160,1,8,0:0:0:0:
256,192,35247,1,8,0:0:0:0:
256,192,35333,1,0,0:0:0:0:
256,192,35507,1,8,0:0:0:0:
256,192,35680,1,0,0:0:0:0:
256,192,36027,1,8,0:0:0:0:
256,192,36374,1,0,0:0:0:0:
256,192,36547,1,8,0:0:0:0:
256,192,36634,1,8,0:0:0:0:
256,192,36721,1,8,0:0:0:0:
256,192,36894,1,8,0:0:0:0:
256,192,37068,1,0,0:0:0:0:
256,192,37241,1,8,0:0:0:0:
256,192,37414,1,8,0:0:0:0:
256,192,37588,1,8,0:0:0:0:
256,192,37761,1,0,0:0:0:0:
256,192,37935,1,8,0:0:0:0:
256,192,38021,1,0,0:0:0:0:
256,192,38108,1,8,0:0:0:0:
256,192,38281,1,8,0:0:0:0:
256,192,38455,1,8,0:0:0:0:
256,192,38802,1,8,0:0:0:0:
256,192,39148,1,0,0:0:0:0:
256,192,39322,1,0,0:0:0:0:
256,192,39409,1,0,0:0:0:0:
256,192,39495,1,0,0:0:0:0:
256,192,39669,1,8,0:0:0:0:
256,192,39842,1,0,0:0:0:0:
256,192,40015,1,0,0:0:0:0:
256,192,40189,1,8,0:0:0:0:
256,192,40362,1,8,0:0:0:0:
256,192,40536,1,0,0:0:0:0:
256,192,40709,1,8,0:0:0:0:
256,192,40796,1,8,0:0:0:0:
256,192,40883,1,0,0:0:0:0:
256,192,41056,1,8,0:0:0:0:
256,192,41229,1,0,0:0:0:0:
256,192,41576,1,8,0:0:0:0:
256,192,41923,1,0,0:0:0:0:
256,192,42096,1,0,0:0:0:0:
256,192,42183,1,8,0:0:0:0:
256,192,42270,1,0,0:0:0:0:
256,192,42443,1,8,0:0:0:0:
256,192,42617,1,0,0:0:0:0:
256,192,42790,1,8,0:0:0:0:
256,192,42963,1,8,0:0:0:0:
256,192,43137,1,8,0:0:0:0:
256,192,43310,1,0,0:0:0:0:
256,192,43484,1,8,0:0:0:0:
256,192,43570,1,8,0:0:0:0:
256,192,43657,1,8,0:0:0:0:
256,192,43831,1,8,0:0:0:0:
256,192,44004,1,0,0:0:0:0:
256,192,44351,1,8,0:0:0:0:
256,192,44698,5,0,0:0:0:0:
256,192,45044,1,0,0:0:0:0:
256,192,45131,1,0,0:0:0:0:
256,192,45217,1,8,0:0:0:0:
256,192,45391,1,0,0:0:0:0:
256,192,45738,1,8,0:0:0:0:
256,192,46085,1,0,0:0:0:0:
256,192,46258,1,8,0:0:0:0:
256,192,46345,1,8,0:0:0:0:
256,192,46432,1,0,0:0:0:0:
256,192,46605,1,8,0:0:0:0:
256,192,46778,1,0,0:0:0:0:
256,192,47125,1,8,0:0:0:0:
256,192,47472,1,0,0:0:0:0:
256,192,47646,1,0,0:0:0:0:
256,192,47733,1,0,0:0:0:0:
256,192,47819,1,8,0:0:0:0:
256,192,47992,1,8,0:0:0:0:
256,192,48166,1,0,0:0:0:0:
256,192,48339,1,0,0:0:0:0:
256,192,48513,1,8,0:0:0:0:
256,192,48859,1,0,0:0:0:0:
256,192,49033,1,8,0:0:0:0:
256,192,49120,1,8,0:0:0:0:
256,192,49206,1,0,0:0:0:0:
256,192,49380,1,8,0:0:0:0:
256,192,49554,1,0,0:0:0:0:
256,192,49726,1,0,0:0:0:0:
256,192,49813,1,0,0:0:0:0:
256,192,49899,1,8,0:0:0:0:
256,192,50073,1,8,0:0:0:0:
256,192,50247,5,0,0:0:0:0:
256,192,50420,1,8,0:0:0:0:
256,192,50507,1,8,0:0:0:0:
256,192,50594,1,0,0:0:0:0:
256,192,50767,1,8,0:0:0:0:
256,192,50940,1,0,0:0:0:0:
256,192,51027,1,0,0:0:0:0:
256,192,51114,1,8,0:0:0:0:
256,192,51200,1,8,0:0:0:0:
256,192,51287,1,0,0:0:0:0:
256,192,51461,1,8,0:0:0:0:
256,192,51634,1,0,0:0:0:0:
256,192,51807,1,8,0:0:0:0:
256,192,51894,1,8,0:0:0:0:
256,192,51981,1,0,0:0:0:0:
256,192,52154,1,8,0:0:0:0:
256,192,52328,1,0,0:0:0:0:
256,192,52414,1,8,0:0:0:0:
256,192,52501,1,8,0:0:0:0:
256,192,52588,1,8,0:0:0:0:
256,192,52674,1,0,0:0:0:0:
256,192,52848,1,8,0:0:0:0:
256,192,52935,1,8,0:0:0:0:
256,192,53021,1,0,0:0:0:0:
256,192,53195,1,8,0:0:0:0:
256,192,53368,1,0,0:0:0:0:
256,192,53455,1,0,0:0:0:0:
256,192,53541,1,0,0:0:0:0:
256,192,53715,1,8,0:0:0:0:
256,192,53888,1,8,0:0:0:0:
256,192,53975,1,8,0:0:0:0:
256,192,54062,1,8,0:0:0:0:
256,192,54235,1,0,0:0:0:0:
256,192,54409,1,0,0:0:0:0:
256,192,54495,1,0,0:0:0:0:
256,192,54582,1,8,0:0:0:0:
256,192,54755,1,0,0:0:0:0:
256,192,54929,1,8,0:0:0:0:
256,192,55015,1,8,0:0:0:0:
256,192,55102,1,0,0:0:0:0:
256,192,55276,1,0,0:0:0:0:
256,192,55449,1,8,0:0:0:0:
256,192,55796,5,12,0:0:0:0:
256,192,55969,1,0,0:0:0:0:
256,192,56143,1,8,0:0:0:0:
256,192,56316,1,0,0:0:0:0:
256,192,56663,1,0,0:0:0:0:
256,192,56836,1,8,0:0:0:0:
256,192,57183,1,8,0:0:0:0:
256,192,57357,1,0,0:0:0:0:
256,192,57530,1,8,0:0:0:0:
256,192,57703,1,0,0:0:0:0:
256,192,58050,1,0,0:0:0:0:
256,192,58137,1,0,0:0:0:0:
256,192,58224,1,8,0:0:0:0:
256,192,58397,1,0,0:0:0:0:
256,192,58570,1,0,0:0:0:0:
256,192,58744,1,8,0:0:0:0:
256,192,58917,1,8,0:0:0:0:
256,192,59091,1,0,0:0:0:0:
256,192,59437,1,0,0:0:0:0:
256,192,59611,1,8,0:0:0:0:
256,192,59784,1,0,0:0:0:0:
256,192,59958,1,0,0:0:0:0:
256,192,60131,1,8,0:0:0:0:
256,192,60218,1,8,0:0:0:0:
256,192,60305,1,0,0:0:0:0:
256,192,60391,1,0,0:0:0:0:
256,192,60478,1,8,0:0:0:0:
256,192,60651,1,0,0:0:0:0:
256,192,60825,1,0,0:0:0:0:
256,192,60998,1,8,0:0:0:0:
256,192,61172,1,0,0:0:0:0:
256,192,61345,1,0,0:0:0:0:
256,192,61692,1,8,0:0:0:0:
256,192,62039,1,0,0:0:0:0:
256,192,62212,1,0,0:0:0:0:
256,192,62385,1,8,0:0:0:0:
256,192,62732,1,8,0:0:0:0:
256,192,62906,1,8,0:0:0:0:
256,192,63079,1,0,0:0:0:0:
256,192,63252,1,8,0:0:0:0:
256,192,63599,1,0,0:0:0:0:
256,192,63773,1,8,0:0:0:0:
256,192,63946,1,0,0:0:0:0:
256,192,64120,1,0,0:0:0:0:
256,192,64293,1,8,0:0:0:0:
256,192,64380,1,8,0:0:0:0:
256,192,64466,1,8,0:0:0:0:
256,192,64640,1,8,0:0:0:0:
256,192,64987,1,0,0:0:0:0:
256,192,65160,1,8,0:0:0:0:
256,192,65247,1,8,0:0:0:0:
256,192,65333,1,0,0:0:0:0:
256,192,65420,1,8,0:0:0:0:
256,192,65507,1,0,0:0:0:0:
256,192,65680,1,0,0:0:0:0:
256,192,65738,1,0,0:0:0:0:
256,192,65796,1,0,0:0:0:0:
256,192,65854,1,8,0:0:0:0:
256,192,66027,1,0,0:0:0:0:
256,192,66200,1,8,0:0:0:0:
256,192,66287,1,8,0:0:0:0:
256,192,66374,1,0,0:0:0:0:
256,192,66547,1,8,0:0:0:0:
256,192,66721,1,0,0:0:0:0:
256,192,66894,1,8,0:0:0:0:
256,192,67068,1,0,0:0:0:0:
256,192,67241,1,8,0:0:0:0:
256,192,67414,1,0,0:0:0:0:
256,192,67761,1,0,0:0:0:0:
256,192,67935,1,8,0:0:0:0:
256,192,68281,1,8,0:0:0:0:
256,192,68455,1,0,0:0:0:0:
256,192,68628,1,8,0:0:0:0:
256,192,68802,1,0,0:0:0:0:
256,192,69148,1,0,0:0:0:0:
256,192,69235,1,0,0:0:0:0:
256,192,69322,1,8,0:0:0:0:
256,192,69495,1,0,0:0:0:0:
256,192,69669,1,0,0:0:0:0:
256,192,69842,1,8,0:0:0:0:
256,192,70015,1,8,0:0:0:0:
256,192,70189,1,0,0:0:0:0:
256,192,70536,1,0,0:0:0:0:
256,192,70709,1,8,0:0:0:0:
256,192,70883,1,0,0:0:0:0:
256,192,71056,1,0,0:0:0:0:
256,192,71229,1,8,0:0:0:0:
256,192,71316,1,8,0:0:0:0:
256,192,71403,1,0,0:0:0:0:
256,192,71576,1,8,0:0:0:0:
256,192,71923,1,0,0:0:0:0:
256,192,72097,1,8,0:0:0:0:
256,192,72270,1,0,0:0:0:0:
256,192,72443,1,0,0:0:0:0:
256,192,72790,1,8,0:0:0:0:
256,192,73137,1,8,0:0:0:0:
256,192,73310,1,0,0:0:0:0:
256,192,73484,1,8,0:0:0:0:
256,192,73831,1,8,0:0:0:0:
256,192,74004,1,8,0:0:0:0:
256,192,74177,1,0,0:0:0:0:
256,192,74351,1,8,0:0:0:0:
256,192,74698,1,0,0:0:0:0:
256,192,74871,1,8,0:0:0:0:
256,192,75044,1,0,0:0:0:0:
256,192,75218,1,0,0:0:0:0:
256,192,75391,1,8,0:0:0:0:
256,192,75478,1,8,0:0:0:0:
256,192,75565,1,8,0:0:0:0:
256,192,75738,1,8,0:0:0:0:
256,192,75911,1,0,0:0:0:0:
256,192,76085,1,0,0:0:0:0:
256,192,76172,1,0,0:0:0:0:
256,192,76258,1,8,0:0:0:0:
256,192,76432,1,0,0:0:0:0:
256,192,76605,1,8,0:0:0:0:
256,192,76778,1,8,0:0:0:0:
256,192,76836,1,8,0:0:0:0:
256,192,76894,1,8,0:0:0:0:
256,192,76952,1,0,0:0:0:0:
256,192,77125,1,0,0:0:0:0:
256,192,77299,1,8,0:0:0:0:
256,192,77385,1,8,0:0:0:0:
256,192,77472,1,0,0:0:0:0:
256,192,79380,5,4,0:0:0:0:
256,192,79553,1,4,0:0:0:0:
256,192,79726,1,0,0:0:0:0:
256,192,79899,1,8,0:0:0:0:
256,192,80073,1,0,0:0:0:0:
256,192,80246,1,8,0:0:0:0:
256,192,80420,1,8,0:0:0:0:
256,192,80594,1,8,0:0:0:0:
256,192,80767,1,4,0:0:0:0:
256,192,80940,1,4,0:0:0:0:
256,192,81114,1,0,0:0:0:0:
256,192,81287,1,8,0:0:0:0:
256,192,81461,1,0,0:0:0:0:
256,192,81807,1,8,0:0:0:0:
256,192,82154,1,4,0:0:0:0:
256,192,82328,1,4,0:0:0:0:
256,192,82501,1,0,0:0:0:0:
256,192,82674,1,8,0:0:0:0:
256,192,82848,1,8,0:0:0:0:
256,192,83021,1,0,0:0:0:0:
256,192,83195,1,8,0:0:0:0:
256,192,83368,1,0,0:0:0:0:
256,192,83541,1,8,0:0:0:0:
256,192,83628,1,8,0:0:0:0:
256,192,83715,1,0,0:0:0:0:
256,192,83888,1,8,0:0:0:0:
256,192,84062,1,0,0:0:0:0:
256,192,84235,1,8,0:0:0:0:
256,192,84409,1,0,0:0:0:0:
256,192,84582,1,8,0:0:0:0:
256,192,84929,1,4,0:0:0:0:
256,192,85102,1,4,0:0:0:0:
256,192,85275,1,8,0:0:0:0:
256,192,85448,1,0,0:0:0:0:
256,192,85622,1,8,0:0:0:0:
256,192,85795,1,0,0:0:0:0:
256,192,85969,1,8,0:0:0:0:
256,192,86143,1,8,0:0:0:0:
256,192,86316,1,4,0:0:0:0:
256,192,86489,1,4,0:0:0:0:
256,192,86663,1,8,0:0:0:0:
256,192,86836,1,8,0:0:0:0:
256,192,87010,1,0,0:0:0:0:
256,192,87357,1,8,0:0:0:0:
256,192,87703,1,4,0:0:0:0:
256,192,87876,1,4,0:0:0:0:
256,192,88050,1,0,0:0:0:0:
256,192,88224,1,8,0:0:0:0:
256,192,88397,1,0,0:0:0:0:
256,192,88570,1,0,0:0:0:0:
256,192,88744,1,8,0:0:0:0:
256,192,88917,1,8,0:0:0:0:
256,192,89091,1,8,0:0:0:0:
256,192,89177,1,0,0:0:0:0:
256,192,89264,1,8,0:0:0:0:
256,192,89437,1,0,0:0:0:0:
256,192,89611,1,0,0:0:0:0:
256,192,89784,1,8,0:0:0:0:
256,192,89958,1,0,0:0:0:0:
256,192,90131,1,8,0:0:0:0:
256,192,90305,1,8,0:0:0:0:
256,192,90478,5,4,0:0:0:0:
256,192,90651,1,4,0:0:0:0:
256,192,90998,1,8,0:0:0:0:
256,192,91172,1,0,0:0:0:0:
256,192,91518,1,8,0:0:0:0:
256,192,91865,1,0,0:0:0:0:
256,192,92039,1,8,0:0:0:0:
256,192,92212,1,0,0:0:0:0:
256,192,92385,1,8,0:0:0:0:
256,192,92559,1,0,0:0:0:0:
256,192,92906,1,8,0:0:0:0:
256,192,93252,1,0,0:0:0:0:
256,192,93426,1,8,0:0:0:0:
256,192,93599,1,0,0:0:0:0:
256,192,93773,1,8,0:0:0:0:
256,192,93946,1,8,0:0:0:0:
256,192,94120,1,8,0:0:0:0:
256,192,94293,1,0,0:0:0:0:
256,192,94466,1,8,0:0:0:0:
256,192,94640,1,0,0:0:0:0:
256,192,94813,1,8,0:0:0:0:
256,192,94987,1,8,0:0:0:0:
256,192,95160,1,8,0:0:0:0:
256,192,95333,1,8,0:0:0:0:
256,192,95680,1,8,0:0:0:0:
256,192,96027,5,4,0:0:0:0:
256,192,96200,1,4,0:0:0:0:
256,192,96547,1,8,0:0:0:0:
256,192,96721,1,0,0:0:0:0:
256,192,97068,1,8,0:0:0:0:
256,192,97414,1,0,0:0:0:0:
256,192,97588,1,8,0:0:0:0:
256,192,97761,1,0,0:0:0:0:
256,192,97935,1,8,0:0:0:0:
256,192,98108,1,8,0:0:0:0:
256,192,98455,1,8,0:0:0:0:
256,192,98802,1,0,0:0:0:0:
256,192,98975,1,8,0:0:0:0:
256,192,99148,1,0,0:0:0:0:
256,192,99322,1,8,0:0:0:0:
256,192,99495,1,8,0:0:0:0:
256,192,99842,1,0,0:0:0:0:
256,192,100189,1,0,0:0:0:0:
256,192,100362,1,8,0:0:0:0:
256,192,100536,1,0,0:0:0:0:
256,192,100709,1,0,0:0:0:0:
256,192,100883,1,8,0:0:0:0:
256,192,101229,1,0,0:0:0:0:
256,192,101576,5,4,0:0:0:0:
256,192,101750,1,8,0:0:0:0:
256,192,101836,1,8,0:0:0:0:
256,192,101923,1,0,0:0:0:0:
256,192,102097,1,8,0:0:0:0:
256,192,102270,1,0,0:0:0:0:
256,192,102443,1,0,0:0:0:0:
256,192,102617,1,8,0:0:0:0:
256,192,102790,1,8,0:0:0:0:
256,192,102964,1,0,0:0:0:0:
256,192,103137,1,8,0:0:0:0:
256,192,103224,1,8,0:0:0:0:
256,192,103310,1,0,0:0:0:0:
256,192,103484,1,8,0:0:0:0:
256,192,103657,1,0,0:0:0:0:
256,192,104004,1,8,0:0:0:0:
256,192,104351,1,0,0:0:0:0:
256,192,104524,1,8,0:0:0:0:
256,192,104611,1,8,0:0:0:0:
256,192,104698,1,0,0:0:0:0:
256,192,104871,1,8,0:0:0:0:
256,192,105045,1,0,0:0:0:0:
256,192,105218,1,8,0:0:0:0:
256,192,105391,1,8,0:0:0:0:
256,192,105565,1,8,0:0:0:0:
256,192,105738,1,0,0:0:0:0:
256,192,105912,1,8,0:0:0:0:
256,192,105998,1,8,0:0:0:0:
256,192,106085,1,0,0:0:0:0:
256,192,106258,1,8,0:0:0:0:
256,192,106432,1,8,0:0:0:0:
256,192,106779,1,8,0:0:0:0:
256,192,107125,1,0,0:0:0:0:
256,192,107299,1,8,0:0:0:0:
256,192,107386,1,0,0:0:0:0:
256,192,107472,1,0,0:0:0:0:
256,192,107646,1,8,0:0:0:0:
256,192,107819,1,0,0:0:0:0:
256,192,107992,1,0,0:0:0:0:
256,192,108166,1,8,0:0:0:0:
256,192,108339,1,8,0:0:0:0:
256,192,108513,1,0,0:0:0:0:
256,192,108686,1,8,0:0:0:0:
256,192,108773,1,8,0:0:0:0:
256,192,108860,1,0,0:0:0:0:
256,192,109033,1,8,0:0:0:0:
256,192,109206,1,0,0:0:0:0:
256,192,109553,1,8,0:0:0:0:
256,192,109900,1,0,0:0:0:0:
256,192,110073,1,0,0:0:0:0:
256,192,110160,1,8,0:0:0:0:
256,192,110247,1,0,0:0:0:0:
256,192,110420,1,8,0:0:0:0:
256,192,110594,1,0,0:0:0:0:
256,192,110767,1,8,0:0:0:0:
256,192,110940,1,8,0:0:0:0:
256,192,111114,1,8,0:0:0:0:
256,192,111287,1,0,0:0:0:0:
256,192,111461,1,8,0:0:0:0:
256,192,111547,1,8,0:0:0:0:
256,192,111634,1,8,0:0:0:0:
256,192,111808,1,8,0:0:0:0:
256,192,111981,1,0,0:0:0:0:
256,192,112328,1,8,0:0:0:0:
256,192,112674,5,0,0:0:0:0:
256,192,112848,1,8,0:0:0:0:
256,192,112935,1,0,0:0:0:0:
256,192,113022,1,0,0:0:0:0:
256,192,113195,1,8,0:0:0:0:
256,192,113368,1,0,0:0:0:0:
256,192,113715,1,8,0:0:0:0:
256,192,114062,1,0,0:0:0:0:
256,192,114235,1,8,0:0:0:0:
256,192,114322,1,8,0:0:0:0:
256,192,114409,1,0,0:0:0:0:
256,192,114582,1,8,0:0:0:0:
256,192,114755,1,0,0:0:0:0:
256,192,115102,1,8,0:0:0:0:
256,192,115449,1,0,0:0:0:0:
256,192,115623,1,0,0:0:0:0:
256,192,115710,1,0,0:0:0:0:
256,192,115796,1,8,0:0:0:0:
256,192,115969,1,8,0:0:0:0:
256,192,116143,1,0,0:0:0:0:
256,192,116316,1,0,0:0:0:0:
256,192,116490,1,8,0:0:0:0:
256,192,116836,1,0,0:0:0:0:
256,192,117010,1,8,0:0:0:0:
256,192,117097,1,8,0:0:0:0:
256,192,117183,1,0,0:0:0:0:
256,192,117357,1,8,0:0:0:0:
256,192,117531,1,0,0:0:0:0:
256,192,117703,1,0,0:0:0:0:
256,192,117790,1,0,0:0:0:0:
256,192,117876,1,8,0:0:0:0:
256,192,118050,1,8,0:0:0:0:
256,192,118224,1,0,0:0:0:0:
256,192,118397,1,8,0:0:0:0:
256,192,118484,1,8,0:0:0:0:
256,192,118571,1,0,0:0:0:0:
256,192,118744,1,8,0:0:0:0:
256,192,118917,1,0,0:0:0:0:
256,192,119004,1,8,0:0:0:0:
256,192,119091,1,8,0:0:0:0:
256,192,119177,1,0,0:0:0:0:
256,192,119264,1,0,0:0:0:0:
256,192,119438,1,8,0:0:0:0:
256,192,119611,1,0,0:0:0:0:
256,192,119784,1,0,0:0:0:0:
256,192,119871,1,0,0:0:0:0:
256,192,119958,1,8,0:0:0:0:
256,192,120131,1,8,0:0:0:0:
256,192,120305,1,0,0:0:0:0:
256,192,120391,1,8,0:0:0:0:
256,192,120478,1,8,0:0:0:0:
256,192,120565,1,0,0:0:0:0:
256,192,120651,1,8,0:0:0:0:
256,192,120825,1,8,0:0:0:0:
256,192,120911,1,8,0:0:0:0:
256,192,120998,1,0,0:0:0:0:
256,192,121172,1,8,0:0:0:0:
256,192,121345,1,0,0:0:0:0:
256,192,121432,1,0,0:0:0:0:
256,192,121518,1,0,0:0:0:0:
256,192,121692,1,8,0:0:0:0:
256,192,121865,1,8,0:0:0:0:
256,192,121952,1,8,0:0:0:0:
256,192,122039,1,8,0:0:0:0:
256,192,122212,1,0,0:0:0:0:
256,192,122386,1,0,0:0:0:0:
256,192,122472,1,0,0:0:0:0:
256,192,122559,1,8,0:0:0:0:
256,192,122732,1,0,0:0:0:0:
256,192,122906,1,8,0:0:0:0:
256,192,122992,1,8,0:0:0:0:
256,192,123079,1,0,0:0:0:0:
256,192,123253,1,0,0:0:0:0:
256,192,123426,1,8,0:0:0:0:
256,192,123773,5,12,0:0:0:0:
256,192,123946,1,0,0:0:0:0:
256,192,124120,1,8,0:0:0:0:
256,192,124293,1,0,0:0:0:0:
256,192,124640,1,0,0:0:0:0:
256,192,124813,1,8,0:0:0:0:
256,192,125160,1,8,0:0:0:0:
256,192,125334,1,0,0:0:0:0:
256,192,125507,1,8,0:0:0:0:
256,192,125680,1,0,0:0:0:0:
256,192,126027,1,0,0:0:0:0:
256,192,126114,1,0,0:0:0:0:
256,192,126201,1,8,0:0:0:0:
256,192,126374,1,0,0:0:0:0:
256,192,126547,1,0,0:0:0:0:
256,192,126721,1,8,0:0:0:0:
256,192,126894,1,8,0:0:0:0:
256,192,127068,1,0,0:0:0:0:
256,192,127414,1,0,0:0:0:0:
256,192,127588,1,8,0:0:0:0:
256,192,127761,1,0,0:0:0:0:
256,192,127935,1,0,0:0:0:0:
256,192,128108,1,8,0:0:0:0:
256,192,128195,1,8,0:0:0:0:
256,192,128282,1,0,0:0:0:0:
256,192,128368,1,0,0:0:0:0:
256,192,128455,1,8,0:0:0:0:
256,192,128628,1,0,0:0:0:0:
256,192,128802,1,0,0:0:0:0:
256,192,128975,1,8,0:0:0:0:
256,192,129149,1,0,0:0:0:0:
256,192,129322,1,0,0:0:0:0:
256,192,129669,1,8,0:0:0:0:
256,192,130016,1,0,0:0:0:0:
256,192,130189,1,0,0:0:0:0:
256,192,130362,1,8,0:0:0:0:
256,192,130709,1,8,0:0:0:0:
256,192,130883,1,8,0:0:0:0:
256,192,131056,1,0,0:0:0:0:
256,192,131229,1,8,0:0:0:0:
256,192,131576,1,0,0:0:0:0:
256,192,131750,1,8,0:0:0:0:
256,192,131923,1,0,0:0:0:0:
256,192,132097,1,0,0:0:0:0:
256,192,132270,1,8,0:0:0:0:
256,192,132357,1,8,0:0:0:0:
256,192,132443,1,8,0:0:0:0:
256,192,132617,1,8,0:0:0:0:
256,192,132964,1,0,0:0:0:0:
256,192,133137,1,8,0:0:0:0:
256,192,133224,1,8,0:0:0:0:
256,192,133310,1,0,0:0:0:0:
256,192,133397,1,8,0:0:0:0:
256,192,133484,1,0,0:0:0:0:
256,192,133657,1,0,0:0:0:0:
256,192,133715,1,0,0:0:0:0:
256,192,133773,1,0,0:0:0:0:
256,192,133831,1,8,0:0:0:0:
256,192,134004,1,0,0:0:0:0:
256,192,134177,1,8,0:0:0:0:
256,192,134264,1,8,0:0:0:0:
256,192,134351,1,0,0:0:0:0:
256,192,134524,1,8,0:0:0:0:
256,192,134698,1,0,0:0:0:0:
256,192,134871,1,8,0:0:0:0:
256,192,135045,1,0,0:0:0:0:
256,192,135218,1,8,0:0:0:0:
256,192,135391,1,0,0:0:0:0:
256,192,135738,1,0,0:0:0:0:
256,192,135912,1,8,0:0:0:0:
256,192,136258,1,8,0:0:0:0:
256,192,136432,1,0,0:0:0:0:
256,192,136605,1,8,0:0:0:0:
256,192,136779,1,0,0:0:0:0:
256,192,137125,1,0,0:0:0:0:
256,192,137212,1,0,0:0:0:0:
256,192,137299,1,8,0:0:0:0:
256,192,137472,1,0,0:0:0:0:
256,192,137646,1,0,0:0:0:0:
256,192,137819,1,8,0:0:0:0:
256,192,137992,1,8,0:0:0:0:
256,192,138166,1,0,0:0:0:0:
256,192,138513,1,0,0:0:0:0:
256,192,138686,1,8,0:0:0:0:
256,192,138860,1,0,0:0:0:0:
256,192,139033,1,0,0:0:0:0:
256,192,139206,1,8,0:0:0:0:
256,192,139293,1,8,0:0:0:0:
256,192,139380,1,0,0:0:0:0:
256,192,139553,1,8,0:0:0:0:
256,192,139900,1,0,0:0:0:0:
256,192,140074,1,8,0:0:0:0:
256,192,140247,1,0,0:0:0:0:
256,192,140420,1,0,0:0:0:0:
256,192,140767,1,8,0:0:0:0:
256,192,141114,1,8,0:0:0:0:
256,192,141287,1,0,0:0:0:0:
256,192,141461,1,8,0:0:0:0:
256,192,141808,1,8,0:0:0:0:
256,192,141981,1,8,0:0:0:0:
256,192,142154,1,0,0:0:0:0:
256,192,142328,1,8,0:0:0:0:
256,192,142675,1,0,0:0:0:0:
256,192,142848,1,8,0:0:0:0:
256,192,143021,1,0,0:0:0:0:
256,192,143195,1,0,0:0:0:0:
256,192,143368,1,8,0:0:0:0:
256,192,143455,1,8,0:0:0:0:
256,192,143542,1,8,0:0:0:0:
256,192,143715,1,8,0:0:0:0:
256,192,143888,1,0,0:0:0:0:
256,192,144062,1,0,0:0:0:0:
256,192,144149,1,0,0:0:0:0:
256,192,144235,1,8,0:0:0:0:
256,192,144409,1,0,0:0:0:0:
256,192,144582,1,8,0:0:0:0:
256,192,144755,1,8,0:0:0:0:
256,192,144813,1,8,0:0:0:0:
256,192,144871,1,8,0:0:0:0:
256,192,144929,1,0,0:0:0:0:
256,192,145102,1,0,0:0:0:0:
256,192,145276,1,8,0:0:0:0:
256,192,145362,1,8,0:0:0:0:
256,192,145449,1,0,0:0:0:0:
256,192,147357,5,8,0:0:0:0:
256,192,148397,1,8,0:0:0:0:
256,192,148744,1,0,0:0:0:0:
256,192,149264,1,0,0:0:0:0:
256,192,149784,1,8,0:0:0:0:
256,192,150131,1,0,0:0:0:0:
256,192,151172,1,8,0:0:0:0:
256,192,151518,1,0,0:0:0:0:
256,192,152039,1,0,0:0:0:0:
256,192,152559,1,8,0:0:0:0:
256,192,152906,1,0,0:0:0:0:
256,192,153946,1,8,0:0:0:0:
256,192,154293,1,0,0:0:0:0:
256,192,154640,1,0,0:0:0:0:
256,192,154813,1,8,0:0:0:0:
256,192,155160,1,8,0:0:0:0:
256,192,155680,1,8,0:0:0:0:
256,192,156027,1,8,0:0:0:0:
256,192,156200,1,8,0:0:0:0:
256,192,156547,1,0,0:0:0:0:
256,192,157068,1,8,0:0:0:0:
256,192,157588,1,8,0:0:0:0:
256,192,157935,1,8,0:0:0:0:
256,192,158281,1,8,0:0:0:0:
256,192,158455,5,0,0:0:0:0:
256,192,158802,1,0,0:0:0:0:
256,192,159148,1,0,0:0:0:0:
256,192,159495,1,0,0:0:0:0:
256,192,159669,1,0,0:0:0:0:
256,192,159842,1,8,0:0:0:0:
256,192,160015,1,8,0:0:0:0:
256,192,160189,1,0,0:0:0:0:
256,192,160362,1,8,0:0:0:0:
256,192,160536,1,8,0:0:0:0:
256,192,160709,1,0,0:0:0:0:
256,192,160883,1,0,0:0:0:0:
256,192,161056,1,8,0:0:0:0:
256,192,161229,1,0,0:0:0:0:
256,192,161576,1,0,0:0:0:0:
256,192,161923,1,0,0:0:0:0:
256,192,162270,1,0,0:0:0:0:
256,192,162443,1,8,0:0:0:0:
256,192,162617,1,0,0:0:0:0:
256,192,162790,1,8,0:0:0:0:
256,192,162963,1,0,0:0:0:0:
256,192,163137,1,0,0:0:0:0:
256,192,163310,1,8,0:0:0:0:
256,192,163484,1,0,0:0:0:0:
256,192,163657,1,8,0:0:0:0:
256,192,163831,1,8,0:0:0:0:
256,192,164004,1,0,0:0:0:0:
256,192,164351,1,0,0:0:0:0:
256,192,164698,1,0,0:0:0:0:
256,192,165044,1,0,0:0:0:0:
256,192,165218,1,0,0:0:0:0:
256,192,165391,1,8,0:0:0:0:
256,192,165565,1,8,0:0:0:0:
256,192,165738,1,0,0:0:0:0:
256,192,165911,1,8,0:0:0:0:
256,192,166085,1,0,0:0:0:0:
256,192,166432,1,0,0:0:0:0:
256,192,166605,1,0,0:0:0:0:
256,192,166692,1,0,0:0:0:0:
256,192,166778,1,8,0:0:0:0:
256,192,166952,1,0,0:0:0:0:
256,192,167125,1,8,0:0:0:0:
256,192,167299,1,8,0:0:0:0:
256,192,167385,1,8,0:0:0:0:
256,192,167472,1,0,0:0:0:0:
256,192,167646,1,0,0:0:0:0:
256,192,167819,1,8,0:0:0:0:
256,192,167992,1,0,0:0:0:0:
256,192,168079,1,0,0:0:0:0:
256,192,168166,1,8,0:0:0:0:
256,192,168339,1,8,0:0:0:0:
256,192,168513,1,8,0:0:0:0:
256,192,168686,1,8,0:0:0:0:
256,192,168773,1,0,0:0:0:0:
256,192,168860,1,8,0:0:0:0:
256,192,169033,1,8,0:0:0:0:
256,192,169120,1,8,0:0:0:0:
256,192,169206,1,0,0:0:0:0:
256,192,169380,1,8,0:0:0:0:
256,192,169553,5,4,0:0:0:0:
256,192,169900,1,8,0:0:0:0:
256,192,170073,1,0,0:0:0:0:
256,192,170420,1,0,0:0:0:0:
256,192,170594,1,8,0:0:0:0:
256,192,170767,1,8,0:0:0:0:
256,192,170854,1,8,0:0:0:0:
256,192,170940,1,0,0:0:0:0:
256,192,171287,1,8,0:0:0:0:
256,192,171461,1,0,0:0:0:0:
256,192,171807,1,0,0:0:0:0:
256,192,171981,1,8,0:0:0:0:
256,192,172068,1,0,0:0:0:0:
256,192,172154,1,8,0:0:0:0:
256,192,172241,1,8,0:0:0:0:
256,192,172328,1,0,0:0:0:0:
256,192,172674,1,0,0:0:0:0:
256,192,172848,1,8,0:0:0:0:
256,192,173021,1,8,0:0:0:0:
256,192,173195,1,0,0:0:0:0:
256,192,173368,1,8,0:0:0:0:
256,192,173541,1,8,0:0:0:0:
256,192,173715,1,0,0:0:0:0:
256,192,174062,1,8,0:0:0:0:
256,192,174235,1,0,0:0:0:0:
256,192,174409,1,8,0:0:0:0:
256,192,174582,1,8,0:0:0:0:
256,192,174755,1,0,0:0:0:0:
256,192,174929,1,8,0:0:0:0:
256,192,175102,1,0,0:0:0:0:
256,192,175449,1,8,0:0:0:0:
256,192,175622,1,0,0:0:0:0:
256,192,175969,1,0,0:0:0:0:
256,192,176143,1,8,0:0:0:0:
256,192,176316,1,8,0:0:0:0:
256,192,176403,1,8,0:0:0:0:
256,192,176489,1,0,0:0:0:0:
256,192,176836,1,0,0:0:0:0:
256,192,177010,1,8,0:0:0:0:
256,192,177357,1,0,0:0:0:0:
256,192,177530,1,8,0:0:0:0:
256,192,177617,1,8,0:0:0:0:
256,192,177703,1,0,0:0:0:0:
256,192,177790,1,8,0:0:0:0:
256,192,177877,1,0,0:0:0:0:
256,192,178050,1,0,0:0:0:0:
256,192,178224,1,0,0:0:0:0:
256,192,178397,1,0,0:0:0:0:
256,192,178570,1,0,0:0:0:0:
256,192,178744,1,0,0:0:0:0:
256,192,178917,1,0,0:0:0:0:
256,192,179004,1,0,0:0:0:0:
256,192,179091,1,0,0:0:0:0:
256,192,179177,1,0,0:0:0:0:
256,192,179264,1,0,0:0:0:0:
256,192,179611,1,8,0:0:0:0:
256,192,179958,1,8,0:0:0:0:
256,192,180305,1,0,0:0:0:0:
256,192,180651,5,12,0:0:0:0:
256,192,180824,1,0,0:0:0:0:
256,192,180998,1,8,0:0:0:0:
256,192,181171,1,0,0:0:0:0:
256,192,181518,1,0,0:0:0:0:
256,192,181691,1,8,0:0:0:0:
256,192,182039,1,8,0:0:0:0:
256,192,182212,1,0,0:0:0:0:
256,192,182385,1,8,0:0:0:0:
256,192,182558,1,0,0:0:0:0:
256,192,182905,1,0,0:0:0:0:
256,192,182992,1,0,0:0:0:0:
256,192,183079,1,8,0:0:0:0:
256,192,183252,1,0,0:0:0:0:
256,192,183425,1,0,0:0:0:0:
256,192,183599,1,8,0:0:0:0:
256,192,183772,1,8,0:0:0:0:
256,192,183946,1,0,0:0:0:0:
256,192,184292,1,0,0:0:0:0:
256,192,184466,1,8,0:0:0:0:
256,192,184639,1,0,0:0:0:0:
256,192,184813,1,0,0:0:0:0:
256,192,184986,1,8,0:0:0:0:
256,192,185073,1,8,0:0:0:0:
256,192,185160,1,0,0:0:0:0:
256,192,185333,1,8,0:0:0:0:
256,192,185680,1,0,0:0:0:0:
256,192,185853,1,8,0:0:0:0:
256,192,186027,1,0,0:0:0:0:
256,192,186200,1,0,0:0:0:0:
256,192,186547,1,8,0:0:0:0:
256,192,186894,1,0,0:0:0:0:
256,192,187067,1,0,0:0:0:0:
256,192,187240,1,8,0:0:0:0:
256,192,187587,1,8,0:0:0:0:
256,192,187761,1,8,0:0:0:0:
256,192,187934,1,0,0:0:0:0:
256,192,188107,1,8,0:0:0:0:
256,192,188454,1,0,0:0:0:0:
256,192,188628,1,8,0:0:0:0:
256,192,188801,1,0,0:0:0:0:
256,192,188975,1,0,0:0:0:0:
256,192,189148,1,8,0:0:0:0:
256,192,189235,1,8,0:0:0:0:
256,192,189321,1,8,0:0:0:0:
256,192,189495,1,8,0:0:0:0:
256,192,189842,1,0,0:0:0:0:
256,192,190015,1,8,0:0:0:0:
256,192,190102,1,8,0:0:0:0:
256,192,190188,1,0,0:0:0:0:
256,192,190275,1,8,0:0:0:0:
256,192,190362,1,0,0:0:0:0:
256,192,190535,1,0,0:0:0:0:
256,192,190594,1,0,0:0:0:0:
256,192,190651,1,0,0:0:0:0:
256,192,190709,1,8,0:0:0:0:
256,192,190882,1,0,0:0:0:0:
256,192,191055,1,8,0:0:0:0:
256,192,191142,1,8,0:0:0:0:
256,192,191229,1,0,0:0:0:0:
256,192,191402,1,8,0:0:0:0:
256,192,191489,1,8,0:0:0:0:
256,192,191576,1,0,0:0:0:0:
256,192,191663,1,0,0:0:0:0:
256,192,191749,1,8,0:0:0:0:
256,192,191923,1,0,0:0:0:0:
256,192,192096,1,8,0:0:0:0:
256,192,192269,1,0,0:0:0:0:
256,192,192616,1,0,0:0:0:0:
256,192,192790,1,8,0:0:0:0:
256,192,193136,1,8,0:0:0:0:
256,192,193310,1,0,0:0:0:0:
256,192,193483,1,8,0:0:0:0:
256,192,193657,1,0,0:0:0:0:
256,192,194003,1,0,0:0:0:0:
256,192,194091,1,0,0:0:0:0:
256,192,194177,1,8,0:0:0:0:
256,192,194350,1,0,0:0:0:0:
256,192,194524,1,0,0:0:0:0:
256,192,194697,1,8,0:0:0:0:
256,192,194870,1,8,0:0:0:0:
256,192,195044,1,0,0:0:0:0:
256,192,195391,1,0,0:0:0:0:
256,192,195564,1,8,0:0:0:0:
256,192,195738,1,0,0:0:0:0:
256,192,195911,1,0,0:0:0:0:
256,192,196084,1,8,0:0:0:0:
256,192,196171,1,8,0:0:0:0:
256,192,196258,1,0,0:0:0:0:
256,192,196431,1,8,0:0:0:0:
256,192,196778,1,0,0:0:0:0:
256,192,196952,1,8,0:0:0:0:
256,192,197125,1,0,0:0:0:0:
256,192,197298,1,0,0:0:0:0:
256,192,197645,1,8,0:0:0:0:
256,192,197992,1,8,0:0:0:0:
256,192,198165,1,0,0:0:0:0:
256,192,198339,1,8,0:0:0:0:
256,192,198686,1,8,0:0:0:0:
256,192,198859,1,8,0:0:0:0:
256,192,199032,1,0,0:0:0:0:
256,192,199206,1,8,0:0:0:0:
256,192,199553,1,0,0:0:0:0:
256,192,199726,1,8,0:0:0:0:
256,192,199899,1,0,0:0:0:0:
256,192,200073,1,0,0:0:0:0:
256,192,200246,1,8,0:0:0:0:
256,192,200333,1,8,0:0:0:0:
256,192,200420,1,8,0:0:0:0:
256,192,200593,1,8,0:0:0:0:
256,192,200766,1,0,0:0:0:0:
256,192,200940,1,0,0:0:0:0:
256,192,201027,1,0,0:0:0:0:
256,192,201113,1,8,0:0:0:0:
256,192,201287,1,0,0:0:0:0:
256,192,201460,1,8,0:0:0:0:
256,192,201633,1,8,0:0:0:0:
256,192,201692,1,8,0:0:0:0:
256,192,201750,1,8,0:0:0:0:
256,192,201807,1,0,0:0:0:0:
256,192,201980,1,0,0:0:0:0:
256,192,202068,1,0,0:0:0:0:
256,192,202154,1,8,0:0:0:0:
256,192,202240,1,8,0:0:0:0:
256,192,202327,1,0,0:0:0:0:
