osu file format v14

[General]
AudioFilename: audio.mp3
AudioLeadIn: 0
PreviewTime: 55709
Countdown: 0
SampleSet: Normal
StackLeniency: 0.7
Mode: 1
LetterboxInBreaks: 0
WidescreenStoryboard: 1

[Editor]
Bookmarks: 11403,22501,33599,44698,50247,55796,79380,90478,101576,112674,123773,147357,158455,169553,180651
DistanceSpacing: 1.1
BeatDivisor: 4
GridSize: 32
TimelineZoom: 1.5

[Metadata]
Title:CHEER UP
TitleUnicode:CHEER UP
Artist:TWICE
ArtistUnicode:트와이스
Creator:UniqueBlock11
Version:Kantan
Source:
Tags:korean pop kpop k-pop jyp entertainment once nayeon jeongyeon momo sana jihyo mina dahyun chaeyoung tzuyu 나연 정연 모모 사나 지효 미나 다현 채영 쯔위 page two
BeatmapID:1417805
BeatmapSetID:633969

[Difficulty]
HPDrainRate:6
CircleSize:2
OverallDifficulty:3
ApproachRate:0
SliderMultiplier:1.4
SliderTickRate:1

[Events]
//Background and Video events
0,0,"twice.jpg",0,0
//Break Periods
//Storyboard Layer 0 (Background)
//Storyboard Layer 1 (Fail)
//Storyboard Layer 2 (Pass)
//Storyboard Layer 3 (Foreground)
//Storyboard Layer 4 (Overlay)
//Storyboard Sound Samples

[TimingPoints]
305.005396184565,346.820809248555,4,1,0,80,1,0
55796,-90.9090909090909,4,1,0,80,0,1
77472,-90.9090909090909,4,1,0,80,0,0
79380,-100,4,1,0,80,0,0
123773,-90.9090909090909,4,1,0,80,0,1
145449,-90.9090909090909,4,1,0,80,0,0
147357,-142.857142857143,4,1,0,80,0,0
158455,-125,4,1,0,80,0,0
169553,-100,4,1,0,80,0,0
180651,-90.9090909090909,4,1,0,80,0,1
202328,-90.9090909090909,4,1,0,80,0,0

[HitObjects]
256,192,305,5,8,0:0:0:0:
256,192,825,1,0,0:0:0:0:
256,192,2385,1,8,0:0:0:0:
256,192,3079,1,8,0:0:0:0:
256,192,3599,1,0,0:0:0:0:
256,192,5160,1,8,0:0:0:0:
256,192,5854,1,8,0:0:0:0:
256,192,6374,1,0,0:0:0:0:
256,192,7935,1,8,0:0:0:0:
256,192,8628,1,8,0:0:0:0:
256,192,9148,1,0,0:0:0:0:
256,192,10015,1,0,0:0:0:0:
256,192,10709,1,8,0:0:0:0:
256,192,11056,1,0,0:0:0:0:
256,192,11403,5,4,0:0:0:0:
256,192,12790,1,0,0:0:0:0:
256,192,14177,1,8,0:0:0:0:
256,192,14871,1,8,0:0:0:0:
256,192,15565,1,0,0:0:0:0:
256,192,16952,1,8,0:0:0:0:
256,192,18339,1,0,0:0:0:0:
256,192,19726,1,8,0:0:0:0:
256,192,20420,1,0,0:0:0:0:
256,192,21114,1,8,0:0:0:0:
256,192,22501,5,8,0:0:0:0:
256,192,23195,1,8,0:0:0:0:
256,192,23888,1,0,0:0:0:0:
256,192,25276,1,0,0:0:0:0:
256,192,25969,1,8,0:0:0:0:
256,192,26663,1,8,0:0:0:0:
256,192,28050,1,0,0:0:0:0:
256,192,29437,1,8,0:0:0:0:
256,192,30825,1,0,0:0:0:0:
256,192,31518,1,8,0:0:0:0:
256,192,32212,1,8,0:0:0:0:
256,192,33599,5,12,0:0:0:0:
256,192,34987,1,0,0:0:0:0:
256,192,35680,1,0,0:0:0:0:
256,192,36374,1,8,0:0:0:0:
256,192,37761,1,8,0:0:0:0:
256,192,38455,1,8,0:0:0:0:
256,192,39148,1,0,0:0:0:0:
256,192,40536,1,0,0:0:0:0:
256,192,41229,1,0,0:0:0:0:
256,192,41923,1,8,0:0:0:0:
256,192,43310,1,8,0:0:0:0:
256,192,44698,5,0,0:0:0:0:
256,192,45391,1,0,0:0:0:0:
256,192,46085,1,8,0:0:0:0:
256,192,47472,1,8,0:0:0:0:
256,192,48166,1,8,0:0:0:0:
256,192,48859,1,8,0:0:0:0:
256,192,50247,5,0,0:0:0:0:
256,192,51634,1,8,0:0:0:0:
256,192,53021,1,8,0:0:0:0:
256,192,53715,1,0,0:0:0:0:
256,192,54409,1,8,0:0:0:0:
256,192,55796,5,4,0:0:0:0:
256,192,57183,1,8,0:0:0:0:
256,192,58570,1,0,0:0:0:0:
256,192,58917,1,8,0:0:0:0:
256,192,59611,1,8,0:0:0:0:
256,192,59958,1,0,0:0:0:0:
256,192,60478,1,8,0:0:0:0:
256,192,61345,1,4,0:0:0:0:
256,192,62732,1,8,0:0:0:0:
256,192,64120,1,8,0:0:0:0:
256,192,64813,1,0,0:0:0:0:
256,192,65507,1,8,0:0:0:0:
256,192,66894,1,12,0:0:0:0:
256,192,68281,1,0,0:0:0:0:
256,192,69669,1,0,0:0:0:0:
256,192,70015,1,8,0:0:0:0:
256,192,70709,1,8,0:0:0:0:
256,192,71056,1,0,0:0:0:0:
256,192,71576,1,8,0:0:0:0:
256,192,72443,1,4,0:0:0:0:
256,192,73831,1,8,0:0:0:0:
256,192,75218,1,8,0:0:0:0:
256,192,75911,1,8,0:0:0:0:
256,192,76605,1,0,0:0:0:0:
256,192,76952,1,0,0:0:0:0:
256,192,77299,1,0,0:0:0:0:
256,192,79380,5,4,0:0:0:0:
256,192,80767,1,0,0:0:0:0:
256,192,82154,1,8,0:0:0:0:
256,192,83541,1,8,0:0:0:0:
256,192,83888,1,8,0:0:0:0:
256,192,84582,1,0,0:0:0:0:
256,192,84929,1,8,0:0:0:0:
256,192,86316,1,0,0:0:0:0:
256,192,87703,1,8,0:0:0:0:
256,192,89091,1,8,0:0:0:0:
256,192,89784,1,8,0:0:0:0:
256,192,90478,5,0,0:0:0:0:
256,192,91865,1,8,0:0:0:0:
256,192,92559,1,0,0:0:0:0:
256,192,93252,1,0,0:0:0:0:
256,192,94640,1,0,0:0:0:0:
256,192,95333,1,8,0:0:0:0:
256,192,96027,1,8,0:0:0:0:
256,192,97414,1,0,0:0:0:0:
256,192,98108,1,0,0:0:0:0:
256,192,98802,1,0,0:0:0:0:
256,192,100189,1,8,0:0:0:0:
256,192,101576,5,12,0:0:0:0:
256,192,102964,1,0,0:0:0:0:
256,192,103657,1,0,0:0:0:0:
256,192,104351,1,8,0:0:0:0:
256,192,105738,1,8,0:0:0:0:
256,192,106432,1,8,0:0:0:0:
256,192,107125,1,8,0:0:0:0:
256,192,108513,1,0,0:0:0:0:
256,192,109206,1,0,0:0:0:0:
256,192,109900,1,8,0:0:0:0:
256,192,111287,1,8,0:0:0:0:
256,192,112675,5,0,0:0:0:0:
256,192,113368,1,8,0:0:0:0:
256,192,114062,1,8,0:0:0:0:
256,192,115449,1,8,0:0:0:0:
256,192,116143,1,0,0:0:0:0:
256,192,116836,1,0,0:0:0:0:
256,192,118224,1,0,0:0:0:0:
256,192,119611,1,8,0:0:0:0:
256,192,120998,1,8,0:0:0:0:
256,192,121692,1,0,0:0:0:0:
256,192,122385,1,8,0:0:0:0:
256,192,123773,5,12,0:0:0:0:
256,192,125160,1,0,0:0:0:0:
256,192,126547,1,8,0:0:0:0:
256,192,126894,1,0,0:0:0:0:
256,192,127588,1,0,0:0:0:0:
256,192,127935,1,8,0:0:0:0:
256,192,129322,1,4,0:0:0:0:
256,192,130015,1,8,0:0:0:0:
256,192,130709,1,8,0:0:0:0:
256,192,132096,1,8,0:0:0:0:
256,192,132443,1,0,0:0:0:0:
256,192,133484,1,0,0:0:0:0:
256,192,134177,1,0,0:0:0:0:
256,192,134871,1,12,0:0:0:0:
256,192,136258,1,0,0:0:0:0:
256,192,137646,1,0,0:0:0:0:
256,192,137992,1,8,0:0:0:0:
256,192,138686,1,8,0:0:0:0:
256,192,139033,1,0,0:0:0:0:
256,192,140420,1,4,0:0:0:0:
256,192,141114,1,8,0:0:0:0:
256,192,141807,1,8,0:0:0:0:
256,192,143195,1,0,0:0:0:0:
256,192,143888,1,0,0:0:0:0:
256,192,144582,1,8,0:0:0:0:
256,192,144929,1,8,0:0:0:0:
256,192,145276,1,8,0:0:0:0:
256,192,147357,5,8,0:0:0:0:
256,192,148744,1,8,0:0:0:0:
256,192,150131,1,0,0:0:0:0:
256,192,151518,1,0,0:0:0:0:
256,192,152906,1,8,0:0:0:0:
256,192,153946,1,8,0:0:0:0:
256,192,154293,1,0,0:0:0:0:
256,192,155680,1,0,0:0:0:0:
256,192,157068,1,8,0:0:0:0:
256,192,158455,5,0,0:0:0:0:
256,192,159842,1,8,0:0:0:0:
256,192,160536,1,8,0:0:0:0:
256,192,161229,1,0,0:0:0:0:
256,192,162617,1,8,0:0:0:0:
256,192,163310,1,8,0:0:0:0:
256,192,164004,1,8,0:0:0:0:
256,192,165391,1,8,0:0:0:0:
256,192,166085,1,0,0:0:0:0:
256,192,166778,1,8,0:0:0:0:
256,192,168166,1,8,0:0:0:0:
256,192,169553,5,4,0:0:0:0:
256,192,170940,1,0,0:0:0:0:
256,192,171634,1,0,0:0:0:0:
256,192,172328,1,8,0:0:0:0:
256,192,173715,1,8,0:0:0:0:
256,192,174755,1,8,0:0:0:0:
256,192,175102,1,0,0:0:0:0:
256,192,176489,1,8,0:0:0:0:
256,192,177877,1,0,0:0:0:0:
256,192,178570,1,8,0:0:0:0:
256,192,179264,1,0,0:0:0:0:
256,192,180651,5,4,0:0:0:0:
256,192,182039,1,8,0:0:0:0:
256,192,183426,1,8,0:0:0:0:
256,192,183773,1,0,0:0:0:0:
256,192,184466,1,0,0:0:0:0:
256,192,184813,1,8,0:0:0:0:
256,192,185333,1,8,0:0:0:0:
256,192,186200,1,4,0:0:0:0:
256,192,187588,1,8,0:0:0:0:
256,192,188975,1,8,0:0:0:0:
256,192,189322,1,0,0:0:0:0:
256,192,190015,1,0,0:0:0:0:
256,192,190362,1,8,0:0:0:0:
256,192,191056,1,8,0:0:0:0:
256,192,191750,1,4,0:0:0:0:
256,192,193137,1,8,0:0:0:0:
256,192,194524,1,8,0:0:0:0:
256,192,194871,1,0,0:0:0:0:
256,192,195565,1,0,0:0:0:0:
256,192,195911,1,8,0:0:0:0:
256,192,196432,1,0,0:0:0:0:
256,192,197299,1,4,0:0:0:0:
256,192,198686,1,8,0:0:0:0:
256,192,200073,1,8,0:0:0:0:
256,192,200767,1,8,0:0:0:0:
256,192,201461,1,0,0:0:0:0:
256,192,201807,1,0,0:0:0:0:
256,192,202154,1,8,0:0:0:0:
