osu file format v14

[General]
AudioFilename: audio.mp3
AudioLeadIn: 0
PreviewTime: 55709
Countdown: 0
SampleSet: Normal
StackLeniency: 0.7
Mode: 1
LetterboxInBreaks: 0
WidescreenStoryboard: 1

[Editor]
Bookmarks: 11403,22501,33599,44698,50247,55796,79380,90478,101576,112674,123773,147357,158455,169553,180651
DistanceSpacing: 1.1
BeatDivisor: 4
GridSize: 32
TimelineZoom: 1.5

[Metadata]
Title:CHEER UP
TitleUnicode:CHEER UP
Artist:TWICE
ArtistUnicode:트와이스
Creator:UniqueBlock11
Version:Futsuu
Source:
Tags:korean pop kpop k-pop jyp entertainment once nayeon jeongyeon momo sana jihyo mina dahyun chaeyoung tzuyu 나연 정연 모모 사나 지효 미나 다현 채영 쯔위 page two
BeatmapID:1417804
BeatmapSetID:633969

[Difficulty]
HPDrainRate:5
CircleSize:2
OverallDifficulty:4
ApproachRate:0
SliderMultiplier:1.4
SliderTickRate:1

[Events]
//Background and Video events
0,0,"twice.jpg",0,0
//Break Periods
//Storyboard Layer 0 (Background)
//Storyboard Layer 1 (Fail)
//Storyboard Layer 2 (Pass)
//Storyboard Layer 3 (Foreground)
//Storyboard Layer 4 (Overlay)
//Storyboard Sound Samples

[TimingPoints]
305.005396184565,346.820809248555,4,1,0,80,1,0
33599,-111.111111111111,4,1,0,80,0,0
50247,-100,4,1,0,80,0,0
55796,-90.9090909090909,4,1,0,80,0,1
77472,-90.9090909090909,4,1,0,80,0,0
79380,-100,4,1,0,80,0,0
101576,-111.111111111111,4,1,0,80,0,0
118224,-100,4,1,0,80,0,0
123773,-90.9090909090909,4,1,0,80,0,1
145449,-90.9090909090909,4,1,0,80,0,0
147357,-166.666666666667,4,1,0,80,0,0
158455,-125,4,1,0,80,0,0
169553,-100,4,1,0,80,0,0
180651,-90.9090909090909,4,1,0,80,0,1
202328,-90.9090909090909,4,1,0,80,0,0

[HitObjects]
256,192,305,5,8,0:0:0:0:
256,192,825,1,0,0:0:0:0:
256,192,1692,1,0,0:0:0:0:
256,192,2212,1,8,0:0:0:0:
256,192,2732,1,8,0:0:0:0:
256,192,3079,1,0,0:0:0:0:
256,192,3599,1,0,0:0:0:0:
256,192,4466,1,0,0:0:0:0:
256,192,4813,1,0,0:0:0:0:
256,192,5160,1,8,0:0:0:0:
256,192,5507,1,8,0:0:0:0:
256,192,5854,1,0,0:0:0:0:
256,192,6374,1,8,0:0:0:0:
256,192,7241,1,0,0:0:0:0:
256,192,7761,1,8,0:0:0:0:
256,192,8281,1,8,0:0:0:0:
256,192,8628,1,0,0:0:0:0:
256,192,9148,1,8,0:0:0:0:
256,192,9669,1,0,0:0:0:0:
256,192,10015,1,0,0:0:0:0:
256,192,10536,1,0,0:0:0:0:
256,192,10709,1,8,0:0:0:0:
256,192,11056,1,0,0:0:0:0:
256,192,11403,5,0,0:0:0:0:
256,192,12096,1,8,0:0:0:0:
256,192,12790,1,0,0:0:0:0:
256,192,13137,1,0,0:0:0:0:
256,192,13484,1,8,0:0:0:0:
256,192,14177,1,0,0:0:0:0:
256,192,14524,1,0,0:0:0:0:
256,192,14871,1,8,0:0:0:0:
256,192,15218,1,0,0:0:0:0:
256,192,15565,1,0,0:0:0:0:
256,192,15911,1,0,0:0:0:0:
256,192,16258,1,8,0:0:0:0:
256,192,16952,1,0,0:0:0:0:
256,192,17646,1,8,0:0:0:0:
256,192,18339,1,0,0:0:0:0:
256,192,18686,1,0,0:0:0:0:
256,192,19033,1,8,0:0:0:0:
256,192,19726,1,0,0:0:0:0:
256,192,20420,1,8,0:0:0:0:
256,192,20767,1,0,0:0:0:0:
256,192,21114,1,8,0:0:0:0:
256,192,21461,1,0,0:0:0:0:
256,192,21807,1,8,0:0:0:0:
256,192,22154,1,8,0:0:0:0:
256,192,22501,5,0,0:0:0:0:
256,192,23195,1,8,0:0:0:0:
256,192,23888,1,0,0:0:0:0:
256,192,24235,1,0,0:0:0:0:
256,192,24582,1,8,0:0:0:0:
256,192,25276,1,0,0:0:0:0:
256,192,25969,1,8,0:0:0:0:
256,192,26663,1,0,0:0:0:0:
256,192,27010,1,0,0:0:0:0:
256,192,27357,1,8,0:0:0:0:
256,192,27703,1,0,0:0:0:0:
256,192,28050,1,8,0:0:0:0:
256,192,28744,1,8,0:0:0:0:
256,192,29437,1,0,0:0:0:0:
256,192,29784,1,0,0:0:0:0:
256,192,30131,1,8,0:0:0:0:
256,192,30825,1,0,0:0:0:0:
256,192,31518,1,8,0:0:0:0:
256,192,31865,1,0,0:0:0:0:
256,192,32212,1,8,0:0:0:0:
256,192,32559,1,8,0:0:0:0:
256,192,32906,1,0,0:0:0:0:
256,192,33599,5,4,0:0:0:0:
256,192,34120,1,8,0:0:0:0:
256,192,34640,1,8,0:0:0:0:
256,192,34987,1,0,0:0:0:0:
256,192,35333,1,0,0:0:0:0:
256,192,35680,1,8,0:0:0:0:
256,192,36374,1,8,0:0:0:0:
256,192,36894,1,0,0:0:0:0:
256,192,37414,1,0,0:0:0:0:
256,192,37761,1,8,0:0:0:0:
256,192,38455,1,0,0:0:0:0:
256,192,38802,1,8,0:0:0:0:
256,192,39148,1,8,0:0:0:0:
256,192,39669,1,0,0:0:0:0:
256,192,40536,1,0,0:0:0:0:
256,192,40883,1,8,0:0:0:0:
256,192,41229,1,0,0:0:0:0:
256,192,41923,1,8,0:0:0:0:
256,192,42443,1,0,0:0:0:0:
256,192,43310,1,0,0:0:0:0:
256,192,43657,1,0,0:0:0:0:
256,192,44004,1,8,0:0:0:0:
256,192,44351,1,8,0:0:0:0:
256,192,44698,5,0,0:0:0:0:
256,192,45391,1,8,0:0:0:0:
256,192,46085,1,8,0:0:0:0:
256,192,46432,1,0,0:0:0:0:
256,192,46778,1,8,0:0:0:0:
256,192,47472,1,0,0:0:0:0:
256,192,47992,1,8,0:0:0:0:
256,192,48166,1,8,0:0:0:0:
256,192,48859,1,0,0:0:0:0:
256,192,49206,1,8,0:0:0:0:
256,192,49553,1,0,0:0:0:0:
256,192,50247,5,0,0:0:0:0:
256,192,50594,1,0,0:0:0:0:
256,192,50940,1,0,0:0:0:0:
256,192,51287,1,0,0:0:0:0:
256,192,51634,1,8,0:0:0:0:
256,192,51981,1,8,0:0:0:0:
256,192,52328,1,0,0:0:0:0:
256,192,52674,1,8,0:0:0:0:
256,192,53021,1,0,0:0:0:0:
256,192,53368,1,0,0:0:0:0:
256,192,53715,1,8,0:0:0:0:
256,192,54062,1,8,0:0:0:0:
256,192,54409,1,0,0:0:0:0:
256,192,55102,1,0,0:0:0:0:
256,192,55449,1,8,0:0:0:0:
256,192,55796,5,4,0:0:0:0:
256,192,56143,1,8,0:0:0:0:
256,192,56836,1,8,0:0:0:0:
256,192,57183,1,0,0:0:0:0:
256,192,57530,1,8,0:0:0:0:
256,192,58224,1,8,0:0:0:0:
256,192,58570,1,0,0:0:0:0:
256,192,58917,1,8,0:0:0:0:
256,192,59611,1,8,0:0:0:0:
256,192,59958,1,0,0:0:0:0:
256,192,60478,1,0,0:0:0:0:
256,192,60998,1,8,0:0:0:0:
256,192,61345,1,0,0:0:0:0:
256,192,61692,1,8,0:0:0:0:
256,192,62385,1,8,0:0:0:0:
256,192,62732,1,0,0:0:0:0:
256,192,63079,1,8,0:0:0:0:
256,192,63773,1,8,0:0:0:0:
256,192,64120,1,0,0:0:0:0:
256,192,64466,1,8,0:0:0:0:
256,192,65160,1,0,0:0:0:0:
256,192,65680,1,0,0:0:0:0:
256,192,65854,1,8,0:0:0:0:
256,192,66200,1,8,0:0:0:0:
256,192,66547,1,0,0:0:0:0:
256,192,66894,1,0,0:0:0:0:
256,192,67241,1,8,0:0:0:0:
256,192,67935,1,8,0:0:0:0:
256,192,68281,1,0,0:0:0:0:
256,192,68628,1,8,0:0:0:0:
256,192,69322,1,8,0:0:0:0:
256,192,69669,1,0,0:0:0:0:
256,192,70015,1,8,0:0:0:0:
256,192,70709,1,8,0:0:0:0:
256,192,71056,1,0,0:0:0:0:
256,192,71576,1,0,0:0:0:0:
256,192,72096,1,8,0:0:0:0:
256,192,72443,1,0,0:0:0:0:
256,192,72790,1,8,0:0:0:0:
256,192,73484,1,8,0:0:0:0:
256,192,73831,1,0,0:0:0:0:
256,192,74177,1,8,0:0:0:0:
256,192,74698,1,0,0:0:0:0:
256,192,74871,1,8,0:0:0:0:
256,192,75218,1,0,0:0:0:0:
256,192,75565,1,8,0:0:0:0:
256,192,75911,1,0,0:0:0:0:
256,192,76605,1,8,0:0:0:0:
256,192,76952,1,8,0:0:0:0:
256,192,77299,1,0,0:0:0:0:
256,192,77472,1,8,0:0:0:0:
256,192,79380,5,4,0:0:0:0:
256,192,80073,1,8,0:0:0:0:
256,192,80767,1,0,0:0:0:0:
256,192,81114,1,0,0:0:0:0:
256,192,81461,1,8,0:0:0:0:
256,192,82154,1,0,0:0:0:0:
256,192,82848,1,8,0:0:0:0:
256,192,83541,1,8,0:0:0:0:
256,192,83888,1,0,0:0:0:0:
256,192,84235,1,8,0:0:0:0:
256,192,84582,1,0,0:0:0:0:
256,192,84929,1,8,0:0:0:0:
256,192,85622,1,0,0:0:0:0:
256,192,86316,1,0,0:0:0:0:
256,192,86663,1,0,0:0:0:0:
256,192,87010,1,8,0:0:0:0:
256,192,87703,1,0,0:0:0:0:
256,192,88397,1,8,0:0:0:0:
256,192,89091,1,0,0:0:0:0:
256,192,89437,1,0,0:0:0:0:
256,192,89784,1,8,0:0:0:0:
256,192,90131,1,8,0:0:0:0:
256,192,90478,5,0,0:0:0:0:
256,192,90998,1,8,0:0:0:0:
256,192,91518,1,8,0:0:0:0:
256,192,91865,1,0,0:0:0:0:
256,192,92385,1,8,0:0:0:0:
256,192,92906,1,8,0:0:0:0:
256,192,93252,1,0,0:0:0:0:
256,192,93773,1,8,0:0:0:0:
256,192,94293,1,8,0:0:0:0:
256,192,94640,1,0,0:0:0:0:
256,192,94987,1,8,0:0:0:0:
256,192,95333,1,8,0:0:0:0:
256,192,95680,1,0,0:0:0:0:
256,192,96027,1,0,0:0:0:0:
256,192,96547,1,8,0:0:0:0:
256,192,97068,1,8,0:0:0:0:
256,192,97414,1,0,0:0:0:0:
256,192,97935,1,8,0:0:0:0:
256,192,98455,1,8,0:0:0:0:
256,192,98802,1,0,0:0:0:0:
256,192,99322,1,8,0:0:0:0:
256,192,99842,1,8,0:0:0:0:
256,192,100189,1,0,0:0:0:0:
256,192,100883,1,8,0:0:0:0:
256,192,101229,1,0,0:0:0:0:
256,192,101576,5,4,0:0:0:0:
256,192,102096,1,0,0:0:0:0:
256,192,102617,1,8,0:0:0:0:
256,192,102963,1,0,0:0:0:0:
256,192,103310,1,0,0:0:0:0:
256,192,103657,1,8,0:0:0:0:
256,192,104351,1,8,0:0:0:0:
256,192,104871,1,8,0:0:0:0:
256,192,105391,1,0,0:0:0:0:
256,192,105738,1,8,0:0:0:0:
256,192,106085,1,8,0:0:0:0:
256,192,106432,1,0,0:0:0:0:
256,192,107125,1,0,0:0:0:0:
256,192,107646,1,8,0:0:0:0:
256,192,108166,1,0,0:0:0:0:
256,192,108513,1,8,0:0:0:0:
256,192,108859,1,0,0:0:0:0:
256,192,109206,1,8,0:0:0:0:
256,192,109900,1,0,0:0:0:0:
256,192,110420,1,8,0:0:0:0:
256,192,110940,1,0,0:0:0:0:
256,192,111287,1,8,0:0:0:0:
256,192,111634,1,8,0:0:0:0:
256,192,111981,1,8,0:0:0:0:
256,192,112674,5,0,0:0:0:0:
256,192,113021,1,8,0:0:0:0:
256,192,113368,1,0,0:0:0:0:
256,192,114062,1,0,0:0:0:0:
256,192,114409,1,0,0:0:0:0:
256,192,114755,1,8,0:0:0:0:
256,192,115102,1,8,0:0:0:0:
256,192,115449,1,0,0:0:0:0:
256,192,116143,1,0,0:0:0:0:
256,192,116489,1,8,0:0:0:0:
256,192,116836,1,0,0:0:0:0:
256,192,117530,1,8,0:0:0:0:
256,192,117877,1,0,0:0:0:0:
256,192,118224,1,0,0:0:0:0:
256,192,118570,1,8,0:0:0:0:
256,192,119264,1,8,0:0:0:0:
256,192,119611,1,0,0:0:0:0:
256,192,119958,1,8,0:0:0:0:
256,192,120651,1,8,0:0:0:0:
256,192,120998,1,0,0:0:0:0:
256,192,121345,1,0,0:0:0:0:
256,192,121692,1,8,0:0:0:0:
256,192,122039,1,8,0:0:0:0:
256,192,122385,1,0,0:0:0:0:
256,192,123079,1,0,0:0:0:0:
256,192,123426,1,8,0:0:0:0:
256,192,123773,5,0,0:0:0:0:
256,192,124120,1,8,0:0:0:0:
256,192,124813,1,8,0:0:0:0:
256,192,125160,1,0,0:0:0:0:
256,192,125507,1,8,0:0:0:0:
256,192,126200,1,8,0:0:0:0:
256,192,126547,1,0,0:0:0:0:
256,192,126894,1,8,0:0:0:0:
256,192,127588,1,8,0:0:0:0:
256,192,127935,1,0,0:0:0:0:
256,192,128455,1,0,0:0:0:0:
256,192,128975,1,8,0:0:0:0:
256,192,129322,1,0,0:0:0:0:
256,192,129669,1,8,0:0:0:0:
256,192,130362,1,8,0:0:0:0:
256,192,130709,1,0,0:0:0:0:
256,192,131056,1,8,0:0:0:0:
256,192,131750,1,8,0:0:0:0:
256,192,132096,1,0,0:0:0:0:
256,192,132443,1,8,0:0:0:0:
256,192,133137,1,8,0:0:0:0:
256,192,133657,1,0,0:0:0:0:
256,192,133831,1,8,0:0:0:0:
256,192,134177,1,8,0:0:0:0:
256,192,134524,1,0,0:0:0:0:
256,192,134871,1,0,0:0:0:0:
256,192,135218,1,8,0:0:0:0:
256,192,135911,1,8,0:0:0:0:
256,192,136258,1,0,0:0:0:0:
256,192,136605,1,8,0:0:0:0:
256,192,137299,1,8,0:0:0:0:
256,192,137646,1,0,0:0:0:0:
256,192,137992,1,8,0:0:0:0:
256,192,138686,1,8,0:0:0:0:
256,192,139033,1,0,0:0:0:0:
256,192,139553,1,0,0:0:0:0:
256,192,140073,1,8,0:0:0:0:
256,192,140420,1,0,0:0:0:0:
256,192,140767,1,8,0:0:0:0:
256,192,141461,1,8,0:0:0:0:
256,192,141807,1,0,0:0:0:0:
256,192,142154,1,8,0:0:0:0:
256,192,142848,1,8,0:0:0:0:
256,192,143195,1,0,0:0:0:0:
256,192,143541,1,0,0:0:0:0:
256,192,143888,1,8,0:0:0:0:
256,192,144582,1,8,0:0:0:0:
256,192,144929,1,0,0:0:0:0:
256,192,145276,1,0,0:0:0:0:
256,192,145449,1,8,0:0:0:0:
256,192,147357,5,8,0:0:0:0:
256,192,148397,1,8,0:0:0:0:
256,192,148744,1,0,0:0:0:0:
256,192,149264,1,8,0:0:0:0:
256,192,149784,1,8,0:0:0:0:
256,192,150131,1,0,0:0:0:0:
256,192,151172,1,8,0:0:0:0:
256,192,151518,1,8,0:0:0:0:
256,192,152039,1,0,0:0:0:0:
256,192,152559,1,0,0:0:0:0:
256,192,152906,1,8,0:0:0:0:
256,192,153946,1,8,0:0:0:0:
256,192,154293,1,0,0:0:0:0:
256,192,154987,1,8,0:0:0:0:
256,192,155680,1,0,0:0:0:0:
256,192,156200,1,8,0:0:0:0:
256,192,157068,1,0,0:0:0:0:
256,192,157588,1,0,0:0:0:0:
256,192,158455,5,4,0:0:0:0:
256,192,159148,1,0,0:0:0:0:
256,192,159842,1,8,0:0:0:0:
256,192,160189,1,0,0:0:0:0:
256,192,160536,1,8,0:0:0:0:
256,192,160883,1,0,0:0:0:0:
256,192,161229,1,0,0:0:0:0:
256,192,161923,1,0,0:0:0:0:
256,192,162617,1,8,0:0:0:0:
256,192,162963,1,8,0:0:0:0:
256,192,163310,1,0,0:0:0:0:
256,192,163657,1,8,0:0:0:0:
256,192,164004,1,0,0:0:0:0:
256,192,164698,1,0,0:0:0:0:
256,192,165044,1,0,0:0:0:0:
256,192,165391,1,8,0:0:0:0:
256,192,165738,1,0,0:0:0:0:
256,192,166085,1,8,0:0:0:0:
256,192,166432,1,0,0:0:0:0:
256,192,166778,1,8,0:0:0:0:
256,192,167125,1,8,0:0:0:0:
256,192,167472,1,0,0:0:0:0:
256,192,168166,1,8,0:0:0:0:
256,192,168513,1,0,0:0:0:0:
256,192,168859,1,8,0:0:0:0:
256,192,169553,5,4,0:0:0:0:
256,192,170073,1,8,0:0:0:0:
256,192,170940,1,0,0:0:0:0:
256,192,171287,1,0,0:0:0:0:
256,192,171634,1,8,0:0:0:0:
256,192,172328,1,0,0:0:0:0:
256,192,172848,1,8,0:0:0:0:
256,192,173368,1,0,0:0:0:0:
256,192,173715,1,8,0:0:0:0:
256,192,174062,1,8,0:0:0:0:
256,192,174409,1,0,0:0:0:0:
256,192,175102,1,0,0:0:0:0:
256,192,175622,1,8,0:0:0:0:
256,192,176489,1,0,0:0:0:0:
256,192,176836,1,8,0:0:0:0:
256,192,177183,1,8,0:0:0:0:
256,192,177877,1,0,0:0:0:0:
256,192,178224,1,0,0:0:0:0:
256,192,178570,1,8,0:0:0:0:
256,192,178917,1,0,0:0:0:0:
256,192,179264,1,0,0:0:0:0:
256,192,180651,5,4,0:0:0:0:
256,192,180998,1,8,0:0:0:0:
256,192,181692,1,8,0:0:0:0:
256,192,182039,1,0,0:0:0:0:
256,192,182385,1,8,0:0:0:0:
256,192,183079,1,8,0:0:0:0:
256,192,183426,1,0,0:0:0:0:
256,192,183773,1,8,0:0:0:0:
256,192,184466,1,8,0:0:0:0:
256,192,184813,1,0,0:0:0:0:
256,192,185333,1,0,0:0:0:0:
256,192,185854,1,8,0:0:0:0:
256,192,186200,1,0,0:0:0:0:
256,192,186547,1,8,0:0:0:0:
256,192,187241,1,8,0:0:0:0:
256,192,187588,1,0,0:0:0:0:
256,192,187935,1,8,0:0:0:0:
256,192,188628,1,8,0:0:0:0:
256,192,188975,1,0,0:0:0:0:
256,192,189495,1,0,0:0:0:0:
256,192,190015,1,8,0:0:0:0:
256,192,190709,1,8,0:0:0:0:
256,192,191056,1,8,0:0:0:0:
256,192,191403,1,0,0:0:0:0:
256,192,191750,1,0,0:0:0:0:
256,192,192096,1,8,0:0:0:0:
256,192,192790,1,8,0:0:0:0:
256,192,193137,1,0,0:0:0:0:
256,192,193484,1,8,0:0:0:0:
256,192,194177,1,8,0:0:0:0:
256,192,194524,1,0,0:0:0:0:
256,192,194871,1,8,0:0:0:0:
256,192,195565,1,8,0:0:0:0:
256,192,195911,1,0,0:0:0:0:
256,192,196432,1,0,0:0:0:0:
256,192,196952,1,8,0:0:0:0:
256,192,197299,1,0,0:0:0:0:
256,192,197646,1,8,0:0:0:0:
256,192,198339,1,8,0:0:0:0:
256,192,198686,1,0,0:0:0:0:
256,192,199033,1,8,0:0:0:0:
256,192,199726,1,8,0:0:0:0:
256,192,200073,1,0,0:0:0:0:
256,192,200420,1,0,0:0:0:0:
256,192,200767,1,8,0:0:0:0:
256,192,201461,1,8,0:0:0:0:
256,192,201807,1,8,0:0:0:0:
256,192,202154,1,0,0:0:0:0:
256,192,202328,1,8,0:0:0:0:
