osu file format v14

[General]
AudioFilename: audio.mp3
AudioLeadIn: 0
PreviewTime: 55448
Countdown: 0
SampleSet: Soft
StackLeniency: 0.7
Mode: 2
LetterboxInBreaks: 0
WidescreenStoryboard: 0

[Editor]
Bookmarks: 33598,55795,77991,101575,180650
DistanceSpacing: 2
BeatDivisor: 4
GridSize: 8
TimelineZoom: 4.099998

[Metadata]
Title:CHEER UP
TitleUnicode:CHEER UP
Artist:TWICE
ArtistUnicode:트와이스
Creator:Quit user
Version:Tzuyu
Source:
Tags:나연 정연 모모 사나 지효 미나 다현 채영 쯔위 nayeon jeongyeon momo sana jihyo mina dahyun chaeyoung tzuyu page
BeatmapID:1316798
BeatmapSetID:624769

[Difficulty]
HPDrainRate:6
CircleSize:4
OverallDifficulty:9.3
ApproachRate:9.3
SliderMultiplier:2
SliderTickRate:1

[Events]
//Background and Video events
Video,0,"TWICE-CHEER UP.avi"
0,0,"wp1842216.jpg",0,0
//Break Periods
//Storyboard Layer 0 (Background)
//Storyboard Layer 1 (Fail)
//Storyboard Layer 2 (Pass)
//Storyboard Layer 3 (Foreground)
//Storyboard Sound Samples

[TimingPoints]
304,346.820809248555,4,2,33,55,1,0
5853,-125,4,2,34,40,0,0
8627,-166.666666666667,4,2,34,40,0,0
10014,-125,4,2,33,55,0,0
13309,-125,4,2,34,55,0,0
13483,-125,4,2,33,55,0,0
13830,-125,4,2,34,55,0,0
14176,-125,4,2,33,55,0,0
18858,-125,4,2,34,55,0,0
19032,-125,4,2,33,55,0,0
19379,-125,4,2,34,55,0,0
19725,-125,4,2,33,55,0,0
24408,-125,4,2,34,55,0,0
24581,-125,4,2,33,55,0,0
24928,-125,4,2,34,55,0,0
25275,-125,4,2,33,55,0,0
29957,-125,4,2,34,55,0,0
30130,-125,4,2,33,55,0,0
30477,-125,4,2,34,55,0,0
30824,-125,4,2,33,55,0,0
33598,-142.857142857143,4,2,33,40,0,0
44697,-111.111111111111,4,2,33,55,0,0
55795,-90.9090909090909,4,2,35,63,0,1
56142,-90.9090909090909,4,2,35,63,0,0
61344,-90.9090909090909,4,2,35,63,0,1
61691,-90.9090909090909,4,2,35,63,0,0
66893,-90.9090909090909,4,2,35,63,0,1
67240,-90.9090909090909,4,2,35,63,0,0
72442,-90.9090909090909,4,2,35,63,0,1
72789,-90.9090909090909,4,2,35,63,0,0
77471,-66.6666666666667,4,2,33,50,0,0
79379,-125,4,2,33,55,0,0
83540,-166.666666666667,4,2,33,55,0,0
83887,-142.857142857143,4,2,33,55,0,0
84234,-125,4,2,33,55,0,0
84581,-111.111111111111,4,2,33,55,0,0
84928,-125,4,2,33,55,0,0
92384,-125,4,2,34,55,0,0
92558,-125,4,2,33,55,0,0
92905,-125,4,2,34,55,0,0
93078,-125,4,2,33,55,0,0
97934,-125,4,2,34,55,0,0
98107,-125,4,2,33,55,0,0
98454,-125,4,2,34,55,0,0
98627,-125,4,2,33,55,0,0
100188,-125,4,2,34,55,0,0
100882,-125,4,2,33,55,0,0
101575,-142.857142857143,4,2,33,40,0,0
112673,-111.111111111111,4,2,33,55,0,0
123772,-90.909090909091,4,2,35,63,0,1
124119,-90.909090909091,4,2,35,63,0,0
129321,-90.909090909091,4,2,35,63,0,1
129668,-90.909090909091,4,2,35,63,0,0
134870,-90.909090909091,4,2,35,63,0,1
135217,-90.909090909091,4,2,35,63,0,0
140419,-90.909090909091,4,2,35,63,0,1
140766,-90.909090909091,4,2,35,63,0,0
145275,-166.666666666667,4,2,33,50,0,0
147356,-200,4,2,33,5,0,0
158454,-142.857142857143,4,2,33,55,0,0
162616,-142.857142857143,4,2,33,55,0,0
166777,-125,4,2,33,55,0,0
169552,-111.111111111111,4,2,33,55,0,0
175621,-125,4,2,33,55,0,0
176142,-99.9999999999999,4,2,33,55,0,0
176488,-111.111111111111,4,2,33,55,0,0
177009,-125,4,2,33,55,0,0
177529,-100,4,2,33,55,0,0
179263,-142.857142857143,4,2,33,55,0,0
179610,-142.857142857143,4,2,34,55,0,0
180650,-90.9090909090909,4,2,35,63,0,1
180997,-90.9090909090909,4,2,35,63,0,0
186199,-90.9090909090909,4,2,35,63,0,1
186546,-90.9090909090909,4,2,35,63,0,0
191749,-90.9090909090909,4,2,35,63,0,1
192095,-90.9090909090909,4,2,35,63,0,0
197298,-90.9090909090909,4,2,35,63,0,1
197645,-90.9090909090909,4,2,35,63,0,0
198685,-90.9090909090909,4,2,35,63,0,0
202153,-166.666666666667,4,2,33,50,0,0

[Colours]
Combo1 : 255,128,64
Combo2 : 64,0,128

[HitObjects]
256,192,8627,12,2,9668,0:0:0:0:
112,160,10014,6,0,L|16:160,1,80,8|8,0:1|0:1,0:0:0:0:
272,160,10361,2,0,L|176:160,1,80,8|8,0:1|0:1,0:0:0:0:
432,160,10708,1,8,0:1:0:0:
464,160,10882,1,8,0:1:0:0:
88,160,11055,1,8,0:1:0:0:
48,160,11228,1,8,0:1:0:0:
456,160,11402,6,0,L|312:160,1,120,4|0,0:1|0:0,0:0:0:0:
152,160,11749,2,0,L|288:160,1,120,0|0,0:0|0:0,0:0:0:0:
56,160,12095,2,0,L|184:160,1,120,8|0,0:0|0:0,0:0:0:0:
256,160,12442,2,0,L|336:160,1,80,0|0,0:0|0:0,0:0:0:0:
56,160,12789,6,0,P|56:240|120:288,1,160,2|0,0:0|0:0,0:0:0:0:
352,288,13309,1,8,0:0:0:0:
232,288,13483,2,0,L|320:288,1,80,8|0,0:0|0:0,0:0:0:0:
72,288,13830,1,8,0:0:0:0:
392,288,14176,6,0,L|208:288,1,160,2|0,0:0|0:0,0:0:0:0:
352,288,14697,1,0,0:0:0:0:
192,288,14870,2,0,L|352:288,1,160,8|0,0:0|0:0,0:0:0:0:
464,288,15390,1,0,0:0:0:0:
224,288,15564,6,0,L|128:288,1,80,2|0,0:0|0:0,0:0:0:0:
304,288,15910,2,0,L|224:288,1,80,0|0,0:0|0:0,0:0:0:0:
384,288,16257,2,0,L|472:288,1,80,2|2,0:3|0:3,0:0:0:0:
424,288,16517,1,2,0:3:0:0:
304,288,16604,2,0,L|200:288,1,80,2|2,0:3|0:3,0:0:0:0:
464,288,16951,6,0,P|464:192|400:176,1,160,2|0,0:0|0:0,0:0:0:0:
256,160,17471,1,0,0:0:0:0:
376,160,17645,2,0,L|456:160,1,80,8|0,0:0|0:0,0:0:0:0:
136,160,17991,1,0,0:0:0:0:
296,160,18164,1,0,0:0:0:0:
48,288,18338,6,0,P|48:192|112:176,1,160,2|0,0:0|0:0,0:0:0:0:
256,160,18858,1,8,0:0:0:0:
496,160,19032,2,0,L|416:160,1,80,8|0,0:0|0:0,0:0:0:0:
176,168,19378,1,8,0:0:0:0:
336,168,19551,1,0,0:0:0:0:
96,168,19725,6,0,L|272:168,1,160,2|0,0:0|0:0,0:0:0:0:
376,168,20246,1,0,0:0:0:0:
0,128,20419,2,0,L|0:240,1,80,8|0,0:0|0:0,0:0:0:0:
120,232,20766,1,0,0:0:0:0:
40,232,20939,1,0,0:0:0:0:
280,232,21113,6,0,L|376:232,1,80,8|8,0:1|0:1,0:0:0:0:
40,168,21460,2,0,L|120:168,1,80,8|8,0:1|0:1,0:0:0:0:
360,168,21806,2,0,L|456:168,1,80,8|8,0:1|0:1,0:0:0:0:
200,152,22153,2,0,L|104:152,1,80,8|8,0:1|0:1,0:0:0:0:
472,152,22500,6,0,P|400:152|496:152,1,160,2|0,0:0|0:0,0:0:0:0:
40,152,23194,2,0,P|112:152|16:152,1,160,8|0,0:0|0:0,0:0:0:0:
264,152,23887,5,2,0:0:0:0:
344,152,24060,1,0,0:0:0:0:
424,152,24234,1,0,0:0:0:0:
184,152,24408,1,8,0:0:0:0:
264,152,24581,1,8,0:0:0:0:
344,152,24754,1,0,0:0:0:0:
104,152,24928,1,8,0:0:0:0:
184,152,25101,1,0,0:0:0:0:
424,152,25275,6,0,L|256:152,1,160,2|0,0:0|0:3,0:0:0:0:
144,152,25795,1,0,0:3:0:0:
384,152,25968,2,0,P|448:200|448:288,1,160,8|0,0:0|0:0,0:0:0:0:
224,152,26662,1,2,0:0:0:0:
144,152,26835,1,0,0:0:0:0:
24,152,27009,1,0,0:0:0:0:
104,152,27182,1,0,0:0:0:0:
264,152,27356,2,0,L|360:152,1,80,2|2,0:3|0:3,0:0:0:0:
392,152,27616,1,2,0:3:0:0:
216,152,27702,2,0,L|320:152,1,80,2|0,0:3|0:3,0:0:0:0:
56,152,28049,6,0,P|56:248|128:272,1,160,2|0,0:0|0:0,0:0:0:0:
344,272,28743,1,8,0:0:0:0:
184,264,28916,1,0,0:0:0:0:
264,264,29090,2,0,L|360:264,1,80,0|0,0:0|0:0,0:0:0:0:
104,264,29436,2,0,P|88:200|88:128,1,120,2|0,0:0|0:0,0:0:0:0:
256,80,29783,1,0,0:0:0:0:
336,80,29957,5,8,0:0:0:0:
16,80,30130,1,8,0:0:0:0:
176,80,30304,1,0,0:0:0:0:
496,80,30477,1,8,0:0:0:0:
416,80,30650,1,0,0:0:0:0:
176,80,30824,2,0,L|328:80,1,120,2|0,0:0|0:0,0:0:0:0:
176,80,31171,2,0,L|96:80,1,80,0|0,0:0|0:0,0:0:0:0:
336,80,31517,2,0,L|256:80,1,80,8|0,0:0|0:0,0:0:0:0:
416,80,31864,1,0,0:0:0:0:
96,72,32037,1,0,0:0:0:0:
416,80,32211,6,0,L|496:80,1,80,8|8,0:1|0:1,0:0:0:0:
96,72,32558,2,0,L|184:72,1,80,8|8,0:1|0:1,0:0:0:0:
416,80,32905,2,0,L|496:80,1,80,8|8,0:1|0:1,0:0:0:0:
216,72,33251,2,0,L|120:72,1,80,8|8,0:1|0:1,0:0:0:0:
378,80,33598,6,0,L|448:80,1,69.9999978637696,6|0,0:0|0:0,0:0:0:0:
272,80,33858,2,0,L|216:80,1,34.9999989318848
96,80,34119,1,8,0:0:0:0:
24,80,34292,1,2,0:0:0:0:
96,80,34465,1,0,0:0:0:0:
408,80,34639,2,0,L|488:80,1,69.9999978637696,8|0,0:0|0:0,0:0:0:0:
224,80,34986,1,2,0:0:0:0:
120,80,35159,1,0,0:0:0:0:
88,80,35246,1,0,0:0:0:0:
432,80,35332,1,0,0:0:0:0:
504,80,35506,1,8,0:0:0:0:
296,80,35679,6,0,L|176:80,1,104.999996795654,2|0,0:0|0:0,0:0:0:0:
368,80,36026,2,0,L|496:80,1,104.999996795654,8|0,0:0|0:0,0:0:0:0:
224,80,36373,2,0,L|304:80,1,69.9999978637696,2|0,0:0|0:0,0:0:0:0:
400,80,36633,2,0,L|464:80,1,34.9999989318848
256,80,36893,1,8,0:0:0:0:
184,80,37066,1,2,0:0:0:0:
392,80,37240,6,0,L|472:80,1,69.9999978637696,0|8,0:0|0:0,0:0:0:0:
320,80,37587,2,0,L|400:80,1,69.9999978637696,0|2,0:0|0:0,0:0:0:0:
56,80,37934,2,0,L|16:80,2,34.9999989318848,2|2|2,0:3|0:3|0:3,0:0:0:0:
312,80,38280,1,8,0:0:0:0:
168,80,38454,2,0,B|112:80|112:80|112:120,1,69.9999978637696,2|0,0:0|0:0,0:0:0:0:
344,80,38801,2,0,B|400:80|400:80|400:120,1,69.9999978637696,8|0,0:0|0:0,0:0:0:0:
104,80,39147,2,0,B|8:80,1,69.9999978637696,2|0,0:1|0:0,0:0:0:0:
72,80,39408,1,0,0:0:0:0:
242,80,39494,2,0,B|312:80,1,69.9999978637696,0|8,0:0|0:0,0:0:0:0:
416,80,39841,5,2,0:0:0:0:
280,80,40014,2,0,L|360:80,1,69.9999978637696,0|8,0:0|0:0,0:0:0:0:
424,80,40361,1,0,0:0:0:0:
176,80,40535,1,2,0:0:0:0:
280,80,40708,1,0,0:0:0:0:
320,80,40795,1,0,0:0:0:0:
112,80,40882,1,0,0:0:0:0:
216,80,41055,1,8,0:0:0:0:
320,80,41228,2,0,L|250:80,1,69.9999978637696,2|0,0:0|0:0,0:0:0:0:
400,80,41575,2,0,L|488:80,1,69.9999978637696,8|0,0:0|0:0,0:0:0:0:
120,80,41922,6,0,L|48:128,1,69.9999978637696,2|0,0:0|0:0,0:0:0:0:
88,144,42182,1,0,0:0:0:0:
264,152,42269,2,0,L|352:152,1,69.9999978637696
120,152,42616,2,0,L|192:152,1,69.9999978637696,2|0,0:0|0:0,0:0:0:0:
384,176,42962,2,0,L|464:176,1,69.9999978637696,8|0,0:0|0:0,0:0:0:0:
208,168,43309,1,2,0:0:0:0:
456,168,43483,2,0,L|504:168,2,34.9999989318848,2|2|2,0:3|0:3|0:3,0:0:0:0:
272,168,43830,1,8,0:0:0:0:
144,168,44003,2,0,L|56:168,1,69.9999978637696,2|0,0:0|0:0,0:0:0:0:
448,168,44350,2,0,L|352:168,1,69.9999978637696,8|0,0:0|0:0,0:0:0:0:
64,168,44697,6,0,L|272:168,1,179.999994506836,2|8,0:0|0:0,0:0:0:0:
152,168,45217,1,0,0:0:0:0:
448,168,45390,2,0,L|240:168,1,179.999994506836,2|8,0:0|0:0,0:0:0:0:
360,168,45910,1,0,0:0:0:0:
88,168,46084,2,0,L|184:168,1,89.9999972534181,2|0,0:0|0:0,0:0:0:0:
360,168,46431,2,0,L|456:168,1,89.9999972534181,8|0,0:0|0:0,0:0:0:0:
184,168,46777,2,0,L|88:168,1,89.9999972534181,2|0,0:0|0:0,0:0:0:0:
456,168,47124,1,8,0:0:0:0:
366,168,47297,1,0,0:0:0:0:
96,256,47471,6,0,P|56:192|128:144,1,179.999994506836,2|8,0:0|0:0,0:0:0:0:
40,144,47991,1,0,0:0:0:0:
312,144,48165,2,0,P|272:208|344:256,1,179.999994506836,2|8,0:0|0:0,0:0:0:0:
256,256,48685,1,0,0:0:0:0:
80,256,48858,1,2,0:0:0:0:
448,248,49032,2,0,L|512:248,2,44.999998626709,2|2|2,0:3|0:3|0:3,0:0:0:0:
256,256,49379,1,0,0:0:0:0:
30,256,49552,2,0,L|120:256,1,89.9999972534181,2|0,0:0|0:0,0:0:0:0:
256,256,49899,2,0,L|152:256,1,89.9999972534181,8|0,0:0|0:0,0:0:0:0:
440,264,50246,6,0,P|464:216|456:168,1,89.9999972534181,2|8,0:0|0:0,0:0:0:0:
104,168,50593,2,0,P|80:216|88:264,1,89.9999972534181,2|8,0:0|0:0,0:0:0:0:
451,162,50939,2,0,P|448:108|417:71,1,89.9999972534181,2|8,0:0|0:0,0:0:0:0:
112,247,51286,2,0,P|115:300|146:338,1,89.9999972534181,2|8,0:0|0:0,0:0:0:0:
381,37,51633,6,0,L|280:40,1,89.9999972534181,2|8,0:0|0:0,0:0:0:0:
137,289,51980,2,0,L|248:288,1,89.9999972534181,2|8,0:0|0:0,0:0:0:0:
462,202,52326,2,0,L|360:200,1,89.9999972534181,2|8,0:0|0:0,0:0:0:0:
80,136,52673,2,0,L|176:136,1,89.9999972534181,2|8,0:0|0:0,0:0:0:0:
380,37,53020,5,2,0:0:0:0:
472,32,53193,1,2,0:0:0:0:
48,288,53367,1,2,0:0:0:0:
137,288,53540,1,2,0:0:0:0:
512,120,53713,1,2,0:0:0:0:
424,120,53886,1,0,0:0:0:0:
104,216,54060,1,2,0:0:0:0:
16,216,54233,1,0,0:0:0:0:
248,112,54408,1,2,0:0:0:0:
440,104,54581,2,0,L|472:104,2,22.4999993133545,2|0|0,0:0|0:0|0:0,0:0:0:0:
248,112,54754,1,2,0:0:0:0:
72,104,54928,2,0,L|40:104,2,22.4999993133545,2|0|0,0:0|0:0|0:0,0:0:0:0:
248,112,55101,1,2,0:0:0:0:
440,104,55275,1,2,0:0:0:0:
72,104,55448,2,0,P|48:160|56:232,1,134.999995880127,4|0,0:0|0:0,0:0:0:0:
304,232,55795,6,0,L|416:232,1,110.000003356934,6|0,0:1|0:0,0:0:0:0:
240,232,56142,1,8,0:0:0:0:
464,232,56315,2,0,L|336:232,1,110.000003356934,0|0,0:0|0:0,0:0:0:0:
88,168,56662,1,8,0:0:0:0:
360,168,56835,2,0,L|240:168,1,110.000003356934,8|0,0:0|0:0,0:0:0:0:
512,168,57182,6,0,L|400:168,1,110.000003356934,2|0,0:0|0:0,0:0:0:0:
240,168,57529,1,8,0:0:0:0:
408,168,57702,2,0,L|280:168,1,110.000003356934,0|0,0:0|0:0,0:0:0:0:
24,168,58049,1,2,0:0:0:0:
298,168,58223,1,8,0:0:0:0:
408,168,58396,1,2,0:0:0:0:
80,168,58569,6,0,L|216:168,1,110.000003356934,2|0,0:0|0:0,0:0:0:0:
24,168,58916,1,8,0:0:0:0:
352,168,59090,2,0,L|472:168,1,110.000003356934,0|0,0:0|0:0,0:0:0:0:
136,168,59436,2,0,L|280:168,1,110.000003356934,2|8,0:0|0:0,0:0:0:0:
408,168,59783,1,0,0:0:0:0:
80,168,59957,1,2,0:0:0:0:
352,168,60130,2,0,L|408:168,2,55.0000016784668,2|2|2,0:3|0:3|0:3,0:0:0:0:
184,168,60477,1,2,0:3:0:0:
352,168,60650,1,0,0:0:0:0:
80,168,60824,2,0,L|200:168,1,110.000003356934,2|8,0:0|0:0,0:0:0:0:
352,168,61171,1,2,0:0:0:0:
80,168,61344,6,0,L|256:168,1,165.000005035401,6|0,0:1|0:0,0:0:0:0:
440,168,61691,2,0,L|240:168,1,165.000005035401,8|0,0:0|0:0,0:0:0:0:
80,168,62038,2,0,P|32:224|96:296,1,165.000005035401
280,288,62384,2,0,L|448:288,1,165.000005035401,8|0,0:0|0:0,0:0:0:0:
168,288,62731,2,0,L|304:288,2,110.000003356934,2|0|8,0:0|0:0|0:0,0:0:0:0:
496,288,63251,2,0,L|256:288,1,220.000006713867,0|2,0:0|0:0,0:0:0:0:
440,288,63772,2,0,L|320:288,1,110.000003356934,8|2,0:0|0:0,0:0:0:0:
56,240,64119,5,2,0:0:0:0:
224,240,64292,2,0,L|296:240,2,55.0000016784668,2|2|2,0:3|0:3|0:3,0:0:0:0:
56,240,64639,2,0,L|168:240,1,110.000003356934,0|0,0:0|0:0,0:0:0:0:
328,240,64986,2,0,L|448:240,1,110.000003356934,2|8,0:0|0:0,0:0:0:0:
328,240,65332,1,0,0:0:0:0:
56,240,65506,1,0,0:0:0:0:
440,240,65679,2,0,L|488:240,4,27.5000008392334,0|0|0|0|8,0:0|0:0|0:0|0:0|0:0,0:0:0:0:
168,240,66026,1,2,0:0:0:0:
280,240,66199,1,8,0:0:0:0:
120,240,66372,1,2,0:0:0:0:
392,240,66546,1,2,0:0:0:0:
72,240,66720,1,2,0:0:0:0:
440,240,66893,6,0,L|192:240,1,220.000006713867,6|8,0:1|0:0,0:0:0:0:
496,240,67413,2,0,L|240:240,1,220.000006713867,0|2,0:0|0:0,0:0:0:0:
384,240,67934,2,0,L|494:240,1,110.000003356934,8|0,0:0|0:0,0:0:0:0:
72,240,68280,2,0,L|320:240,1,220.000006713867,2|8,0:0|0:0,0:0:0:0:
16,240,68800,2,0,L|272:240,1,220.000006713867,0|2,0:0|0:0,0:0:0:0:
128,240,69321,1,8,0:0:0:0:
400,240,69494,1,2,0:0:0:0:
72,240,69668,6,0,P|72:160|192:160,1,220.000006713867,2|8,0:0|0:0,0:0:0:0:
440,240,70188,2,0,P|440:160|320:160,1,220.000006713867,0|2,0:0|0:0,0:0:0:0:
160,152,70708,1,8,0:0:0:0:
328,152,70882,1,0,0:0:0:0:
56,152,71055,1,2,0:0:0:0:
440,152,71228,2,0,L|504:152,2,55.0000016784668,2|2|2,0:3|0:3|0:3,0:0:0:0:
168,152,71575,1,2,0:3:0:0:
296,152,71749,1,0,0:0:0:0:
64,152,71922,1,2,0:0:0:0:
448,152,72095,2,0,L|312:152,1,110.000003356934,8|2,0:0|0:0,0:0:0:0:
64,152,72442,6,0,L|272:152,1,165.000005035401,6|0,0:1|0:0,0:0:0:0:
448,152,72789,2,0,L|248:152,1,165.000005035401,8|0,0:0|0:0,0:0:0:0:
88,152,73136,2,0,P|32:199|95:257,1,165.000005035401
424,152,73483,2,0,P|479:199|416:257,1,165.000005035401,8|0,0:0|0:0,0:0:0:0:
40,216,73830,2,0,L|168:216,2,110.000003356934,2|0|8,0:0|0:0|0:0,0:0:0:0:
440,216,74350,2,0,L|288:216,1,110.000003356934,0|0,0:0|0:0,0:0:0:0:
496,216,74697,1,2,0:0:0:0:
56,208,74870,2,0,L|184:208,1,110.000003356934,8|0,0:0|0:0,0:0:0:0:
496,216,75217,5,2,0:0:0:0:
328,208,75390,1,2,0:3:0:0:
383,208,75476,1,2,0:3:0:0:
438,208,75563,1,2,0:3:0:0:
112,168,75737,1,0,0:0:0:0:
384,168,75910,1,0,0:0:0:0:
256,168,76084,1,2,0:0:0:0:
488,168,76257,2,0,L|376:168,1,110.000003356934,8|2,0:0|0:3,0:0:0:0:
104,160,76604,1,2,0:0:0:0:
376,168,76777,2,0,L|408:168,4,27.5000008392334,0|0|0|0|8,0:0|0:0|0:0|0:0|0:0,0:0:0:0:
136,168,77124,5,2,0:0:0:0:
320,168,77298,1,2,0:0:0:0:
24,168,77471,2,0,L|488:168,1,450.000017166138,2|0,0:0|0:0,0:0:0:0:
80,160,79379,6,0,L|80:256,1,80,2|2,0:0|0:0,0:0:0:0:
200,256,79725,2,0,L|200:160,1,80,0|0,0:0|0:0,0:0:0:0:
360,176,80072,1,0,0:0:0:0:
280,176,80245,1,0,0:0:0:0:
80,144,80419,1,0,0:0:0:0:
160,144,80592,1,0,0:0:0:0:
320,144,80766,2,0,L|392:216,1,80,2|2,0:0|0:0,0:0:0:0:
176,200,81113,1,0,0:0:0:0:
96,200,81286,1,0,0:0:0:0:
336,200,81460,2,0,P|384:240|344:280,1,120,0|0,0:0|0:0,0:0:0:0:
120,248,81806,2,0,L|256:248,1,120,0|0,0:0|0:0,0:0:0:0:
400,248,82153,6,0,L|464:184,1,80,2|2,0:0|0:0,0:0:0:0:
336,168,82500,1,0,0:0:0:0:
358,91,82673,1,0,0:0:0:0:
200,72,82847,1,0,0:0:0:0:
131,113,83020,1,0,0:0:0:0:
320,72,83194,1,0,0:0:0:0:
284,143,83367,1,0,0:0:0:0:
416,72,83540,1,8,0:0:0:0:
504,72,83713,1,0,0:0:0:0:
264,80,83887,1,8,0:0:0:0:
368,80,84060,1,0,0:0:0:0:
96,104,84234,1,8,0:0:0:0:
216,104,84407,1,0,0:0:0:0:
448,136,84581,1,8,0:0:0:0:
312,136,84754,1,0,0:0:0:0:
72,128,84928,6,0,L|72:208,1,80,2|2,0:0|0:0,0:0:0:0:
192,208,85275,1,0,0:0:0:0:
192,288,85448,1,0,0:0:0:0:
392,272,85621,1,0,0:0:0:0:
392,192,85794,1,0,0:0:0:0:
272,192,85968,1,0,0:0:0:0:
272,112,86141,1,0,0:0:0:0:
72,88,86315,2,0,L|160:88,1,80,2|2,0:0|0:0,0:0:0:0:
352,88,86662,1,0,0:0:0:0:
432,88,86835,1,0,0:0:0:0:
192,80,87009,2,0,P|144:112|160:176,1,120,0|0,0:0|0:0,0:0:0:0:
360,176,87356,2,0,L|496:176,1,120,0|0,0:0|0:0,0:0:0:0:
192,176,87702,6,0,L|144:240,1,80,2|2,0:0|0:0,0:0:0:0:
304,240,88049,1,0,0:0:0:0:
384,240,88222,1,0,0:0:0:0:
144,240,88396,1,0,0:0:0:0:
224,240,88569,1,0,0:0:0:0:
304,240,88743,1,0,0:0:0:0:
224,240,88916,1,0,0:0:0:0:
464,240,89090,5,8,0:1:0:0:
304,240,89263,1,8,0:1:0:0:
464,240,89436,1,8,0:1:0:0:
48,240,89610,1,8,0:1:0:0:
208,240,89783,1,8,0:1:0:0:
48,240,89956,1,8,0:1:0:0:
288,240,90130,1,8,0:1:0:0:
448,240,90303,1,8,0:1:0:0:
168,240,90477,5,2,0:0:0:0:
408,240,90650,2,0,L|448:160,1,80,2|0,0:0|0:0,0:0:0:0:
168,112,90997,2,0,P|80:144|128:288,1,240,8|8,0:0|0:0,0:0:0:0:
256,304,91864,5,2,0:0:0:0:
416,304,92038,1,0,0:0:0:0:
336,304,92211,1,0,0:0:0:0:
416,304,92384,1,8,0:0:0:0:
96,304,92558,1,0,0:0:0:0:
176,304,92732,1,0,0:0:0:0:
256,304,92905,1,8,0:0:0:0:
176,304,93078,1,0,0:0:0:0:
376,304,93251,6,0,L|432:240,1,80,2|2,0:0|0:0,0:0:0:0:
232,216,93598,1,0,0:0:0:0:
312,216,93771,1,8,0:0:0:0:
472,216,93945,2,0,L|456:128,1,80
168,88,94292,2,0,L|232:152,1,80,8|0,0:0|0:0,0:0:0:0:
424,160,94639,6,0,L|400:192,1,40,2|0,0:0|0:0,0:0:0:0:
240,160,94812,2,0,L|216:192,1,40,8|0,0:0|0:0,0:0:0:0:
56,160,94986,2,0,L|32:192,1,40,2|0,0:0|0:0,0:0:0:0:
336,160,95159,2,0,L|312:192,1,40,8|0,0:0|0:0,0:0:0:0:
152,160,95332,2,0,P|152:224|208:224,1,120,8|0,0:0|0:0,0:0:0:0:
360,224,95679,2,0,L|408:224,1,40,8|0,0:0|0:0,0:0:0:0:
200,200,95853,2,0,L|152:200,1,40,8|0,0:0|0:0,0:0:0:0:
376,200,96026,5,2,0:0:0:0:
136,192,96199,2,0,L|40:192,1,80,2|0,0:0|0:0,0:0:0:0:
296,192,96546,2,0,P|360:192|184:192,1,240,8|8,0:0|0:0,0:0:0:0:
504,168,97413,5,2,0:0:0:0:
344,168,97587,2,0,L|440:168,1,80,0|0,0:0|0:0,0:0:0:0:
184,168,97934,1,8,0:0:0:0:
304,168,98107,2,0,L|224:168,1,80,0|0,0:0|0:0,0:0:0:0:
424,168,98454,1,8,0:0:0:0:
344,168,98627,1,0,0:0:0:0:
104,160,98801,6,0,L|160:232,1,80,2|2,0:0|0:0,0:0:0:0:
312,224,99147,1,0,0:0:0:0:
392,224,99321,1,8,0:0:0:0:
232,224,99494,2,0,L|168:280,1,80,0|0,0:0|0:0,0:0:0:0:
376,280,99841,2,0,L|312:336,1,80,8|0,0:0|0:0,0:0:0:0:
80,288,100188,2,0,L|184:288,2,80,2|2|2,0:0|0:0|0:0,0:0:0:0:
200,288,100708,1,2,0:0:0:0:
440,288,100882,2,0,L|352:288,1,80,8|0,0:0|0:0,0:0:0:0:
120,288,101228,2,0,L|224:288,1,80,0|0,0:0|0:0,0:0:0:0:
448,288,101575,6,0,P|440:208|376:200,1,139.999995727539,6|0,0:0|0:0,0:0:0:0:
464,192,102095,1,8,0:0:0:0:
216,192,102269,2,0,P|224:112|288:104,1,139.999995727539,2|8,0:0|0:0,0:0:0:0:
344,104,102789,1,0,0:0:0:0:
176,104,102962,2,0,L|80:104,1,69.9999978637696,2|0,0:0|0:0,0:0:0:0:
144,104,103223,1,0,0:0:0:0:
304,104,103309,2,0,L|392:104,1,69.9999978637696,0|8,0:0|0:0,0:0:0:0:
128,104,103656,2,0,P|96:144|112:184,1,69.9999978637696,2|0,0:0|0:0,0:0:0:0:
344,168,104003,2,0,P|376:208|360:248,1,69.9999978637696,8|0,0:0|0:0,0:0:0:0:
132,264,104350,2,0,L|284:264,1,139.999995727539,2|0,0:0|0:0,0:0:0:0:
408,264,104870,1,8,0:0:0:0:
272,264,105043,1,2,0:0:0:0:
24,264,105217,5,0,0:0:0:0:
200,264,105390,2,0,L|130:264,1,69.9999978637696,8|0,0:0|0:0,0:0:0:0:
272,264,105737,1,2,0:0:0:0:
120,264,105910,1,2,0:3:0:0:
108,231,105996,1,2,0:3:0:0:
96,198,106083,1,2,0:3:0:0:
184,200,106257,1,8,0:0:0:0:
432,200,106431,2,0,L|352:200,1,69.9999978637696,2|0,0:0|0:0,0:0:0:0:
120,200,106777,2,0,L|208:200,1,69.9999978637696,8|0,0:0|0:0,0:0:0:0:
432,200,107124,2,0,L|512:200,1,69.9999978637696,2|0,0:0|0:0,0:0:0:0:
464,200,107384,1,0,0:0:0:0:
272,144,107471,2,0,L|352:144,2,69.9999978637696,0|8|2,0:0|0:0|0:0,0:0:0:0:
64,144,107991,5,0,0:0:0:0:
168,144,108165,1,8,0:0:0:0:
64,144,108338,1,0,0:0:0:0:
272,144,108512,2,0,L|368:144,1,69.9999978637696,2|0,0:0|0:0,0:0:0:0:
376,144,108772,1,0,0:0:0:0:
168,144,108858,2,0,P|136:176|136:224,1,69.9999978637696,0|8,0:0|0:0,0:0:0:0:
376,224,109205,2,0,L|464:224,1,69.9999978637696,2|0,0:0|0:0,0:0:0:0:
200,184,109552,2,0,L|272:184,1,69.9999978637696,8|0,0:0|0:0,0:0:0:0:
448,192,109899,6,0,P|448:136|368:136,1,139.999995727539,2|0,0:0|0:0,0:0:0:0:
128,128,110419,1,8,0:0:0:0:
232,128,110593,1,2,0:0:0:0:
408,128,110766,1,0,0:0:0:0:
336,128,110939,1,8,0:0:0:0:
408,128,111112,1,0,0:0:0:0:
232,128,111286,1,2,0:0:0:0:
480,128,111460,2,0,L|488:176,2,34.9999989318848,2|2|2,0:3|0:3|0:3,0:0:0:0:
344,128,111806,1,8,0:0:0:0:
96,128,111980,2,0,L|168:128,1,69.9999978637696,2|0,0:0|0:0,0:0:0:0:
448,128,112327,2,0,L|376:128,1,69.9999978637696,8|0,0:0|0:0,0:0:0:0:
112,128,112673,6,0,P|184:136|184:248,1,179.999994506836,2|8,0:0|0:0,0:0:0:0:
64,232,113194,1,0,0:0:0:0:
400,128,113367,2,0,P|328:136|328:248,1,179.999994506836,2|8,0:0|0:0,0:0:0:0:
448,232,113888,1,0,0:0:0:0:
176,232,114061,2,0,L|272:232,1,89.9999972534181,2|0,0:0|0:0,0:0:0:0:
400,232,114408,2,0,L|504:232,1,89.9999972534181,8|0,0:0|0:0,0:0:0:0:
266,232,114754,2,0,L|370:232,1,89.9999972534181,2|0,0:0|0:0,0:0:0:0:
40,232,115101,2,0,L|144:232,1,89.9999972534181,8|0,0:0|0:0,0:0:0:0:
448,224,115448,6,0,L|256:224,1,179.999994506836,2|8,0:0|0:0,0:0:0:0:
136,224,115968,1,0,0:0:0:0:
408,224,116142,2,0,L|216:224,1,179.999994506836,2|8,0:0|0:0,0:0:0:0:
96,224,116662,1,0,0:0:0:0:
272,224,116835,1,2,0:0:0:0:
136,224,117009,2,0,L|72:224,2,44.999998626709,2|2|2,0:3|0:3|0:3,0:0:0:0:
224,224,117356,1,0,0:0:0:0:
360,224,117529,2,0,L|464:224,1,89.9999972534181,2|0,0:0|0:0,0:0:0:0:
272,224,117876,2,0,L|384:224,1,89.9999972534181,8|0,0:0|0:0,0:0:0:0:
120,224,118223,5,2,0:0:0:0:
32,224,118397,1,8,0:0:0:0:
120,224,118570,1,2,0:0:0:0:
32,224,118743,1,8,0:0:0:0:
344,224,118916,1,2,0:0:0:0:
208,224,119089,1,8,0:0:0:0:
344,224,119262,1,2,0:0:0:0:
208,224,119436,1,8,0:0:0:0:
480,224,119610,1,2,0:0:0:0:
320,224,119783,1,8,0:0:0:0:
480,224,119956,1,2,0:0:0:0:
320,224,120130,1,8,0:0:0:0:
32,224,120304,1,2,0:0:0:0:
120,224,120477,1,8,0:0:0:0:
392,224,120650,1,2,0:0:0:0:
480,224,120824,1,8,0:0:0:0:
184,224,120997,6,0,L|80:224,1,89.9999972534181,2|2,0:0|0:0,0:0:0:0:
366,224,121344,2,0,L|462:224,1,89.9999972534181,2|2,0:0|0:0,0:0:0:0:
168,224,121691,1,2,0:0:0:0:
256,224,121864,1,2,0:0:0:0:
344,224,122038,1,2,0:0:0:0:
256,224,122211,1,2,0:0:0:0:
432,224,122384,1,2,0:0:0:0:
72,104,122558,2,0,L|40:104,2,22.4999993133545,2|0|0,0:0|0:0|0:0,0:0:0:0:
160,104,122731,1,2,0:0:0:0:
440,104,122905,2,0,L|472:104,2,22.4999993133545,2|0|0,0:0|0:0|0:0,0:0:0:0:
352,104,123078,1,2,0:0:0:0:
80,104,123251,1,2,0:0:0:0:
400,104,123425,2,0,P|432:168|416:232,1,134.999995880127,4|0,0:0|0:0,0:0:0:0:
144,224,123772,6,0,P|64:224|112:136,1,220.000006713867,6|8,0:1|0:0,0:0:0:0:
368,224,124292,2,0,P|448:224|400:136,1,220.000006713867,0|2,0:0|0:0,0:0:0:0:
184,104,124812,1,8,0:0:0:0:
328,104,124986,1,0,0:0:0:0:
0,104,125159,2,0,L|224:104,1,220.000006713867,2|8,0:0|0:0,0:0:0:0:
512,104,125679,2,0,L|288:104,1,220.000006713867,0|2,0:0|0:0,0:0:0:0:
400,104,126199,1,8,0:0:0:0:
510,104,126372,1,2,0:0:0:0:
120,96,126546,6,0,P|80:192|168:272,1,220.000006713867,2|8,0:0|0:0,0:0:0:0:
392,288,127067,2,0,P|432:192|344:112,1,220.000006713867,0|2,0:0|0:0,0:0:0:0:
192,112,127587,1,8,0:0:0:0:
82,112,127760,1,0,0:0:0:0:
360,112,127934,1,2,0:0:0:0:
192,112,128107,2,0,L|136:144,2,55.0000016784668,2|2|2,0:3|0:3|0:3,0:0:0:0:
464,112,128454,1,2,0:3:0:0:
352,112,128627,1,0,0:0:0:0:
464,112,128801,1,2,0:0:0:0:
192,112,128974,2,0,L|312:112,1,110.000003356934,8|2,0:0|0:0,0:0:0:0:
24,112,129321,6,0,L|160:248,1,165.000005035401,6|0,0:1|0:0,0:0:0:0:
336,240,129668,2,0,L|160:240,1,165.000005035401,8|0,0:0|0:0,0:0:0:0:
371,228,130014,2,0,L|488:112,1,165.000005035401,0|0,0:0|0:0,0:0:0:0:
176,240,130361,2,0,L|341:240,1,165.000005035401,8|0,0:0|0:0,0:0:0:0:
256,240,130708,1,2,2:0:0:0:
368,240,130881,1,0,2:0:0:0:
480,240,131055,1,8,2:0:0:0:
152,240,131228,2,0,L|384:240,1,220.000006713867,0|2,2:0|0:0,0:0:0:0:
208,240,131749,2,0,L|88:240,1,110.000003356934,8|2,0:0|0:0,0:0:0:0:
424,240,132095,5,2,0:0:0:0:
256,240,132269,2,0,L|192:272,2,55.0000016784668,2|2|2,0:3|0:3|0:3,0:0:0:0:
368,240,132616,1,0,0:0:0:0:
480,240,132789,1,0,0:0:0:0:
208,240,132962,1,2,0:0:0:0:
320,240,133136,1,8,0:0:0:0:
432,240,133309,1,0,0:0:0:0:
104,240,133483,1,0,0:0:0:0:
432,240,133656,2,0,L|464:264,4,27.5000008392334,0|0|0|0|2,0:0|0:0|0:0|0:0|0:0,0:0:0:0:
160,240,134003,1,2,0:0:0:0:
272,240,134176,1,8,0:0:0:0:
382,240,134349,1,2,0:0:0:0:
48,240,134523,1,2,0:0:0:0:
216,240,134696,1,2,0:0:0:0:
488,240,134870,6,0,P|336:240|408:240,1,220.000006713867,6|8,0:1|0:0,0:0:0:0:
240,240,135390,2,0,P|172:240|324:240,1,220.000006713867,0|2,0:0|0:0,0:0:0:0:
488,240,135910,1,8,0:0:0:0:
376,240,136084,1,0,0:0:0:0:
24,240,136257,2,0,P|176:240|104:240,1,220.000006713867,2|8,0:0|0:0,0:0:0:0:
272,240,136777,2,0,P|340:240|188:240,1,220.000006713867,0|2,0:0|0:0,0:0:0:0:
24,240,137297,1,8,0:0:0:0:
188,240,137471,1,2,0:0:0:0:
464,240,137645,6,0,P|488:144|400:64,1,220.000006713867,2|8,0:0|0:0,0:0:0:0:
136,64,138165,2,0,P|216:120|144:176,1,220.000006713867,0|2,0:0|0:0,0:0:0:0:
312,184,138685,1,8,0:0:0:0:
424,184,138858,1,0,0:0:0:0:
96,184,139032,1,2,0:0:0:0:
424,184,139205,2,0,L|480:216,2,55.0000016784668,2|2|2,0:3|0:3|0:3,0:0:0:0:
152,184,139552,1,2,0:3:0:0:
40,184,139725,1,0,0:0:0:0:
320,184,139899,2,0,L|440:184,1,110.000003356934,2|8,0:0|0:0,0:0:0:0:
376,184,140246,1,2,0:0:0:0:
136,272,140419,6,0,L|136:104,1,165.000005035401,6|0,0:1|0:0,0:0:0:0:
56,88,140766,2,0,L|272:88,1,165.000005035401,8|0,0:0|0:0,0:0:0:0:
472,176,141113,2,0,B|416:272|416:272|360:232,1,165.000005035401,0|0,0:0|0:0,0:0:0:0:
221,176,141460,2,0,B|277:272|277:272|333:232,1,165.000005035401,8|0,0:0|0:0,0:0:0:0:
128,144,141806,2,0,L|48:224,1,110.000003356934,2|0,0:0|0:0,0:0:0:0:
216,232,142153,1,8,0:0:0:0:
488,232,142327,2,0,L|216:232,1,220.000006713867,0|2,0:0|0:0,0:0:0:0:
376,232,142847,1,8,0:0:0:0:
488,232,143020,1,0,0:0:0:0:
160,232,143194,5,2,0:0:0:0:
432,232,143367,1,2,0:3:0:0:
487,232,143453,1,2,0:3:0:0:
432,232,143540,1,2,0:3:0:0:
104,232,143714,1,0,0:0:0:0:
376,232,143887,1,0,0:0:0:0:
200,232,144061,2,0,L|310:232,2,110.000003356934,2|8|2,0:0|0:0|0:3,0:0:0:0:
472,232,144581,1,2,0:0:0:0:
88,224,144754,2,0,L|40:224,4,27.5000008392334,0|0|0|0|8,0:0|0:0|0:0|0:0|0:0,0:0:0:0:
320,224,145101,1,0,0:0:0:0:
72,224,145275,1,2,0:0:0:0:
440,224,145448,2,0,L|240:224,1,179.999994506836,2|0,0:0|0:0,0:0:0:0:
40,32,147356,6,0,P|320:192|40:360,1,775
14,198,150130,6,0,P|302:356|334:31,1,775
463,361,152905,6,0,P|188:191|467:29,1,775
496,196,155679,6,0,P|209:355|175:29,1,775
424,192,158454,6,0,L|280:192,1,139.999995727539,2|2,0:0|0:0,0:0:0:0:
0,192,159147,2,0,L|160:192,1,139.999995727539,2|2,0:0|0:0,0:0:0:0:
440,192,159841,2,0,L|288:192,1,139.999995727539,2|2,0:0|0:0,0:0:0:0:
88,192,160535,2,0,L|256:192,1,139.999995727539,2|2,0:0|0:0,0:0:0:0:
72,192,161228,2,0,L|72:352,1,139.999995727539,2|2,0:0|0:0,0:0:0:0:
424,336,161922,2,0,L|424:184,1,139.999995727539,2|2,0:0|0:0,0:0:0:0:
216,192,162616,2,0,L|64:192,1,139.999995727539,2|2,0:0|0:0,0:0:0:0:
436,192,163309,2,0,L|296:192,1,139.999995727539,2|2,0:0|0:0,0:0:0:0:
64,192,164003,5,2,0:0:0:0:
136,192,164176,1,8,0:0:0:0:
376,192,164350,1,2,0:0:0:0:
448,192,164523,1,8,0:0:0:0:
56,192,164697,1,2,0:0:0:0:
328,192,164870,1,8,0:0:0:0:
184,192,165044,1,2,0:0:0:0:
456,192,165217,1,8,0:0:0:0:
16,192,165390,1,2,0:0:0:0:
88,192,165563,1,8,0:0:0:0:
496,192,165737,1,2,0:0:0:0:
424,192,165910,1,8,0:0:0:0:
48,192,166084,2,0,P|32:240|40:280,1,69.9999978637696,2|8,0:0|0:0,0:0:0:0:
464,192,166431,2,0,P|480:240|472:280,1,69.9999978637696,2|8,0:0|0:0,0:0:0:0:
168,248,166777,5,2,0:0:0:0:
344,248,166950,1,2,0:0:0:0:
136,248,167124,1,2,0:0:0:0:
376,248,167297,1,2,0:0:0:0:
112,248,167471,1,2,0:0:0:0:
400,248,167644,1,2,0:0:0:0:
88,248,167818,1,2,0:0:0:0:
384,248,167991,2,0,L|416:200,1,40,2|0,0:0|0:0,0:0:0:0:
176,248,168165,6,0,L|120:248,1,40,2|0,0:0|0:0,0:0:0:0:
336,248,168338,2,0,L|392:248,1,40,2|0,0:0|0:0,0:0:0:0:
152,248,168512,2,0,L|96:248,1,40,2|0,0:0|0:0,0:0:0:0:
336,248,168685,1,2,0:0:0:0:
416,248,168858,1,8,0:1:0:0:
176,248,169032,1,8,0:1:0:0:
416,248,169205,2,0,L|304:248,1,80,8|8,0:1|0:1,0:0:0:0:
96,248,169552,6,0,L|240:80,1,179.999994506836,12|0,0:1|0:0,0:0:0:0:
480,176,170072,2,0,L|480:360,1,179.999994506836,2|0,0:1|0:0,0:0:0:0:
208,312,170593,2,0,L|96:312,1,89.9999972534181,2|0,0:1|0:1,0:1:0:0:
416,248,170939,2,0,L|272:80,1,179.999994506836,6|0,0:1|0:1,0:1:0:0:
32,176,171459,2,0,L|32:368,1,179.999994506836,2|0,0:1|0:1,0:1:0:0:
304,312,171980,1,2,0:1:0:0:
208,312,172153,1,0,0:1:0:0:
480,312,172327,6,0,L|368:312,1,89.9999972534181,2|0,0:1|0:1,0:1:0:0:
208,312,172673,1,0,0:1:0:0:
304,312,172846,1,2,0:1:0:0:
32,312,173020,2,0,L|144:312,1,89.9999972534181,0|0,0:1|0:1,0:1:0:0:
392,312,173367,1,2,0:1:0:0:
480,312,173540,1,0,0:1:0:0:
160,312,173714,2,8,L|40:312,1,89.9999972534181,8|8,0:1|0:1,0:1:0:0:
392,312,174061,2,8,L|272:312,1,89.9999972534181,8|8,0:1|0:1,0:1:0:0:
0,312,174408,2,8,L|96:312,1,89.9999972534181,8|8,0:1|0:1,0:1:0:0:
392,312,174754,2,8,L|488:312,1,89.9999972534181,8|8,0:1|0:1,0:1:0:0:
120,312,175101,6,0,L|328:312,1,179.999994506836,6|0,0:1|0:0,0:0:0:0:
0,312,175621,2,0,L|0:144,1,160,2|0,0:0|0:0,0:0:0:0:
232,192,176142,2,0,L|112:192,1,100,2|0,0:0|0:0,0:0:0:0:
392,312,176488,2,0,L|184:312,1,179.999994506836,2|0,0:0|0:0,0:0:0:0:
512,312,177008,2,0,L|512:128,1,179.999994506836,2|0,0:0|0:0,0:0:0:0:
248,192,177529,2,0,L|128:192,1,100,2|0,0:0|0:0,0:0:0:0:
448,192,177876,6,0,P|464:112|448:88,1,100,2|2,0:0|0:0,0:0:0:0:
168,192,178223,2,0,P|152:112|168:88,1,100,2|2,0:0|0:0,0:0:0:0:
336,192,178569,2,0,P|352:112|336:88,1,100,2|2,0:0|0:0,0:0:0:0:
56,192,178916,2,0,P|40:112|56:88,1,100,2|2,0:0|0:0,0:0:0:0:
400,80,179263,1,2,0:0:0:0:
112,80,179610,5,2,0:0:0:0:
320,80,179957,2,0,L|168:80,1,139.999995727539,2|2,0:0|0:0,0:0:0:0:
392,80,180477,1,0,0:0:0:0:
64,88,180650,6,0,L|192:88,2,110.000003356934,6|0|8,0:1|0:0|0:0,0:0:0:0:
344,88,181171,1,0,0:0:0:0:
456,88,181344,1,0,0:0:0:0:
176,88,181517,1,2,0:0:0:0:
288,88,181690,1,8,0:0:0:0:
120,88,181864,1,0,0:0:0:0:
448,88,182038,2,0,L|320:88,2,110.000003356934,2|0|8,0:0|0:0|0:0,0:0:0:0:
168,88,182559,1,0,0:0:0:0:
56,88,182732,1,0,0:0:0:0:
336,88,182905,1,2,0:0:0:0:
224,88,183078,1,8,0:0:0:0:
392,88,183252,1,0,0:0:0:0:
120,88,183425,6,0,L|240:88,1,110.000003356934,2|0,0:0|0:0,0:0:0:0:
504,128,183772,2,0,L|384:128,1,110.000003356934,8|0,0:0|0:0,0:0:0:0:
64,128,184119,1,0,0:0:0:0:
176,128,184292,1,2,0:0:0:0:
448,128,184465,1,8,0:0:0:0:
280,128,184639,1,0,0:0:0:0:
392,128,184812,1,2,0:0:0:0:
120,128,184986,2,0,L|64:128,2,55.0000016784668,2|2|2,0:3|0:3|0:3,0:0:0:0:
392,128,185332,1,2,0:3:0:0:
224,128,185506,1,0,0:0:0:0:
56,128,185679,2,0,L|16:80,1,55.0000016784668,2|0,0:0|0:0,0:0:0:0:
232,128,185853,2,0,L|272:80,1,55.0000016784668,8|0,0:0|0:0,0:0:0:0:
424,128,186026,2,0,L|384:80,1,55.0000016784668,2|0,0:0|0:0,0:0:0:0:
144,64,186199,6,0,L|32:200,1,165.000005035401,6|0,0:1|0:0,0:0:0:0:
288,184,186546,2,0,P|328:248|264:296,1,165.000005035401,8|0,0:0|0:0,0:0:0:0:
56,232,186893,2,0,L|224:232,1,165.000005035401,0|0,2:0|0:0,0:0:0:0:
96,232,187240,2,0,P|35:232|139:232,1,165.000005035401,8|0,0:0|0:0,0:0:0:0:
320,232,187587,1,2,0:0:0:0:
208,232,187760,1,0,0:0:0:0:
320,232,187934,1,8,0:0:0:0:
48,232,188107,2,0,L|176:232,2,110.000003356934,0|0|2,0:0|0:0|0:0,0:0:0:0:
320,232,188627,2,0,L|448:232,1,110.000003356934,8|2,0:0|0:0,0:0:0:0:
152,232,188974,5,2,0:0:0:0:
424,232,189147,2,0,L|480:256,2,55.0000016784668,2|2|2,0:3|0:3|0:3,0:0:0:0:
312,232,189494,1,0,0:0:0:0:
144,232,189668,1,0,0:0:0:0:
416,232,189841,1,2,0:0:0:0:
304,232,190014,1,8,0:0:0:0:
72,232,190188,1,0,0:0:0:0:
352,232,190361,1,0,0:0:0:0:
56,232,190535,2,0,L|16:232,4,27.5000008392334,0|0|0|0|8,0:0|0:0|0:0|0:0|0:0,0:0:0:0:
392,232,190882,1,2,0:0:0:0:
274,232,191055,2,0,L|386:232,1,110.000003356934,8|2,0:0|0:0,0:0:0:0:
120,232,191402,2,0,L|8:232,1,110.000003356934,2|2,0:0|0:0,0:0:0:0:
344,232,191749,6,0,L|224:232,2,110.000003356934,6|0|8,0:1|0:0|0:0,0:0:0:0:
176,232,192269,1,0,0:0:0:0:
111,169,192442,1,0,0:0:0:0:
384,232,192616,1,2,0:0:0:0:
280,232,192789,1,8,0:0:0:0:
440,168,192962,1,0,0:0:0:0:
168,232,193136,2,0,L|288:232,2,110.000003356934,2|0|8,0:0|0:0|0:0,0:0:0:0:
336,232,193656,1,0,0:0:0:0:
400,169,193829,1,0,0:0:0:0:
128,232,194003,1,2,0:0:0:0:
296,232,194176,1,8,0:0:0:0:
24,224,194349,1,2,0:0:0:0:
408,232,194523,6,0,L|296:232,1,110.000003356934,2|0,0:0|0:0,0:0:0:0:
464,232,194870,1,8,0:0:0:0:
296,232,195043,2,0,B|408:232,1,110.000003356934
168,232,195390,2,0,B|288:232,1,110.000003356934,2|8,0:0|0:0,0:0:0:0:
464,176,195737,1,0,0:0:0:0:
80,168,195910,5,2,0:0:0:0:
352,176,196084,2,0,L|424:176,2,55.0000016784668,2|2|2,0:3|0:3|0:3,0:0:0:0:
184,168,196431,1,2,0:3:0:0:
296,168,196604,1,0,0:0:0:0:
120,168,196777,1,2,0:0:0:0:
408,176,196951,2,0,L|480:88,1,110.000003356934,8|2,0:0|0:0,0:0:0:0:
88,80,197298,6,0,L|88:272,1,165.000005035401,6|0,0:1|0:0,0:0:0:0:
280,256,197645,2,0,P|232:192|304:208,1,165.000005035401,8|0,0:0|0:0,0:0:0:0:
464,240,197991,2,0,L|288:240,1,165.000005035401,0|0,0:0|0:0,0:0:0:0:
456,144,198338,2,0,L|280:144,1,165.000005035401,8|0,0:0|0:0,0:0:0:0:
128,144,198685,6,0,L|240:144,2,110.000003356934,2|0|8,0:0|0:0|0:0,0:0:0:0:
400,144,199205,2,0,L|160:144,1,220.000006713867,0|2,0:0|0:0,0:0:0:0:
344,144,199725,2,0,L|456:144,1,110.000003356934,8|0,0:0|0:0,0:0:0:0:
64,144,200072,1,2,0:0:0:0:
336,144,200246,2,0,L|424:144,2,55.0000016784668,2|2|2,0:3|0:3|0:3,0:0:0:0:
136,144,200593,1,0,0:0:0:0:
376,144,200766,1,0,0:0:0:0:
48,144,200939,2,0,L|160:144,1,110.000003356934,2|8,0:0|0:0,0:0:0:0:
432,144,201286,1,2,0:3:0:0:
160,144,201460,1,2,0:0:0:0:
488,144,201633,2,0,L|504:176,3,36.6666677856446,0|0|0|8,0:0|0:0|0:0|0:0,0:0:0:0:
64,144,201980,1,0,0:0:0:0:
360,144,202153,5,2,0:0:0:0:
0,144,202327,2,0,L|184:144,1,179.999994506836,2|0,0:0|0:0,0:0:0:0:
