osu file format v14

[General]
AudioFilename: audio.mp3
AudioLeadIn: 0
PreviewTime: 56266
Countdown: 0
SampleSet: Soft
StackLeniency: 0.6
Mode: 0
LetterboxInBreaks: 0
WidescreenStoryboard: 1

[Editor]
DistanceSpacing: 0.7
BeatDivisor: 4
GridSize: 4
TimelineZoom: 1

[Metadata]
Title:CHEER UP (Inst.)
TitleUnicode:CHEER UP (Inst.)
Artist:TWICE
ArtistUnicode:트와이스
Creator:P A N
Version:Insane
Source:
Tags:나연 정연 모모 사나 지효 미나 다현 채영 쯔위 NAYEON JEONGYEON MOMO SANA JIHYO MINA DAHYUN CHAEYOUNG TZUYU PAGE TWO jyp entertainment kpop k-pop instrumental
BeatmapID:1475932
BeatmapSetID:696037

[Difficulty]
HPDrainRate:5.5
CircleSize:4
OverallDifficulty:7
ApproachRate:8.5
SliderMultiplier:1.4
SliderTickRate:1

[Events]
//Background and Video events
0,0,"twice-kpop-girls-members-(1889).jpg",0,0
//Break Periods
2,78025,79058
2,147710,156746
//Storyboard Layer 0 (Background)
//Storyboard Layer 1 (Fail)
//Storyboard Layer 2 (Pass)
//Storyboard Layer 3 (Foreground)
//Storyboard Sound Samples

[TimingPoints]
658,346.820809248555,4,2,1,50,1,0
658,-133.333333333333,4,2,1,50,0,0
10368,-133.333333333333,4,2,1,40,0,0
11756,-100,4,2,1,60,0,0
21467,-100,4,2,1,40,0,0
22854,-200,4,2,1,60,0,0
23721,-100,4,2,1,60,0,0
24241,-200,4,2,1,60,0,0
24935,-100,4,2,1,60,0,0
25629,-200,4,2,1,60,0,0
27016,-100,4,2,1,60,0,0
28403,-200,4,2,1,60,0,0
30311,-100,4,2,1,60,0,0
31178,-200,4,2,1,60,0,0
32565,-200,4,2,1,40,0,0
33952,-100,4,2,1,50,0,0
56149,-90.9090909090909,4,2,1,80,0,1
65860,-90.9090909090909,4,2,1,80,0,0
67247,-90.9090909090909,4,2,1,80,0,1
77825,-90.9090909090909,4,2,1,80,0,0
79733,-133.333333333333,4,2,1,60,0,0
83894,-80,4,2,1,40,0,0
85282,-133.333333333333,4,2,1,60,0,0
89444,-133.333333333333,4,2,1,30,0,0
90831,-133.333333333333,4,2,1,50,0,0
100542,-200,4,2,1,30,0,0
101149,-200,4,2,1,5,0,0
101236,-133.333333333333,4,2,1,50,0,0
101929,-100,4,2,1,50,0,0
124126,-90.9090909090909,4,2,1,80,0,1
133837,-90.9090909090909,4,2,1,80,0,0
135224,-90.9090909090909,4,2,1,80,0,1
145802,-90.9090909090909,4,2,1,80,0,0
147710,-133.333333333333,4,2,1,40,0,0
169906,-100,4,2,1,50,0,0
174068,-100,4,2,1,30,0,0
175455,-100,4,2,1,50,0,0
179964,-100,4,2,1,20,0,0
181004,-90.9090909090909,4,2,1,80,0,1
190715,-90.9090909090909,4,2,1,80,0,0
192103,-90.9090909090909,4,2,1,80,0,1
202681,-90.9090909090909,4,2,1,80,0,0

[Colours]
Combo1 : 255,145,255
Combo2 : 255,255,138
Combo3 : 0,99,198

[HitObjects]
407,113,658,6,0,P|417:161|404:223,1,105.000004005432,2|0,0:1|0:0,0:0:0:0:
351,319,1178,2,0,P|314:294|246:288,1,105.000004005432,2|0,0:1|0:0,0:0:0:0:
136,304,1698,1,0,0:0:0:0:
136,304,2045,6,0,P|144:251|146:187,1,105.000004005432,2|0,0:1|0:0,0:0:0:0:
105,88,2565,2,0,P|156:104|220:107,1,105.000004005432,2|0,0:3|0:0,0:0:0:0:
320,38,3085,2,0,P|292:37|264:41,1,52.5000020027161,2|0,0:3|0:0,0:0:0:0:
226,140,3432,6,0,L|234:262,1,105.000004005432,2|0,0:1|0:0,0:0:0:0:
317,331,3952,2,0,P|370:305|403:258,1,105.000004005432,2|0,0:1|0:0,0:0:0:0:
442,151,4473,1,0,0:0:0:0:
442,151,4819,5,2,0:1:0:0:
452,48,5166,1,0,0:0:0:0:
354,92,5513,5,2,0:1:0:0:
283,14,5860,1,2,0:1:0:0:
252,109,6207,6,0,P|204:124|137:114,1,105.000004005432,2|0,0:1|0:0,0:0:0:0:
46,70,6727,2,0,L|50:189,1,105.000004005432,2|0,0:1|0:0,0:0:0:0:
1,283,7247,1,0,0:0:0:0:
1,283,7594,6,0,P|57:289|112:318,1,105.000004005432,2|0,0:1|0:0,0:0:0:0:
204,374,8114,2,0,P|260:368|315:339,1,105.000004005432,2|0,0:3|0:0,0:0:0:0:
423,296,8634,2,0,L|434:358,1,52.5000020027161,2|0,0:3|0:0,0:0:0:0:
316,242,8981,6,0,B|306:205|306:205|310:116,1,105.000004005432,2|0,0:1|0:0,0:0:0:0:
349,27,9501,2,0,P|296:16|238:40,1,105.000004005432,2|0,0:1|0:0,0:0:0:0:
164,133,10022,1,0,0:0:0:0:
164,133,10368,5,8,0:0:0:0:
212,274,10542,1,8,0:0:0:0:
250,139,10715,1,8,0:0:0:0:
133,229,10889,1,8,0:0:0:0:
285,224,11062,1,8,0:0:0:0:
202,349,11236,1,8,0:0:0:0:
200,199,11409,1,8,0:0:0:0:
281,325,11582,1,8,0:0:0:0:
121,332,11756,6,0,P|56:304|23:229,1,140,6|0,0:0|0:0,0:0:0:0:
77,97,12276,1,0,0:0:0:0:
200,199,12449,5,8,0:1:0:0:
155,113,12796,1,0,0:0:0:0:
155,88,12883,1,0,0:0:0:0:
166,66,12970,1,0,0:0:0:0:
182,47,13056,1,0,0:0:0:0:
204,36,13143,6,0,P|282:55|358:45,1,140,2|0,0:0|0:0,0:0:0:0:
484,19,13663,1,2,0:3:0:0:
441,157,13837,2,0,P|437:189|446:239,1,70,8|0,0:1|0:0,0:0:0:0:
373,355,14184,2,0,P|363:319|343:288,1,70,2|0,0:3|0:0,0:0:0:0:
203,213,14530,6,0,P|257:219|336:181,1,140,2|0,0:0|0:0,0:0:0:0:
211,301,15051,1,0,0:0:0:0:
155,144,15224,5,8,0:1:0:0:
219,66,15571,1,0,0:0:0:0:
243,66,15658,1,0,0:0:0:0:
267,66,15744,1,0,0:0:0:0:
291,66,15831,1,0,0:0:0:0:
314,66,15918,5,2,0:0:0:0:
466,109,16091,2,0,P|472:143|468:177,1,70,0|0,3:0|0:0,0:0:0:0:
389,314,16438,1,2,0:0:0:0:
309,173,16611,1,8,0:1:0:0:
430,246,16785,1,0,3:0:0:0:
430,246,16871,1,0,3:0:0:0:
430,246,16958,1,0,3:0:0:0:
325,359,17131,1,0,3:0:0:0:
247,222,17305,6,0,P|232:157|245:72,1,140,2|0,0:0|0:0,0:0:0:0:
332,212,17825,1,0,0:0:0:0:
164,251,17999,5,8,0:1:0:0:
106,168,18345,1,0,0:0:0:0:
81,169,18432,1,0,0:0:0:0:
56,170,18519,1,0,0:0:0:0:
31,172,18605,1,0,0:0:0:0:
6,174,18692,6,0,P|-10:237|15:324,1,140,2|0,0:0|0:0,0:0:0:0:
152,383,19212,1,2,0:3:0:0:
182,232,19386,2,0,P|148:232|105:245,1,70,8|0,0:1|0:0,0:0:0:0:
275,308,19733,2,0,P|308:317|343:317,1,70,2|0,0:3|0:0,0:0:0:0:
460,144,20079,6,0,P|474:209|452:299,1,140,2|0,0:0|0:0,0:0:0:0:
329,160,20600,1,0,0:0:0:0:
477,72,20773,5,8,0:1:0:0:
429,158,21120,1,0,0:0:0:0:
404,158,21207,1,0,0:0:0:0:
379,158,21293,1,0,0:0:0:0:
354,159,21380,1,0,0:0:0:0:
329,160,21467,5,8,0:0:0:0:
254,20,21640,1,8,0:0:0:0:
219,174,21813,1,8,0:0:0:0:
345,84,21987,1,8,0:0:0:0:
345,245,22160,1,8,0:0:0:0:
261,106,22334,1,8,0:0:0:0:
190,252,22507,1,8,0:0:0:0:
170,92,22680,1,8,0:0:0:0:
311,204,22854,6,0,P|362:213|425:201,1,105,6|0,0:0|0:0,0:0:0:0:
492,82,23548,1,8,0:1:0:0:
406,133,23894,1,0,0:0:0:0:
409,157,23981,1,0,0:0:0:0:
412,181,24068,1,0,0:0:0:0:
415,205,24155,1,0,0:0:0:0:
419,228,24241,6,0,L|428:303,1,70,2|0,0:0|0:0,0:0:0:0:
304,202,24762,1,2,0:3:0:0:
261,339,24935,6,0,P|293:349|332:345,1,70,8|0,0:1|0:0,0:0:0:0:
205,234,25282,2,0,P|170:230|137:240,1,70,2|0,0:3|0:0,0:0:0:0:
39,352,25629,6,0,P|50:300|39:242,1,105,2|0,0:0|0:0,0:0:0:0:
0,109,26322,1,8,0:1:0:0:
78,48,26669,1,0,0:0:0:0:
102,49,26756,1,0,0:0:0:0:
126,50,26842,1,0,0:0:0:0:
150,51,26929,1,0,0:0:0:0:
174,52,27016,5,2,0:0:0:0:
292,142,27189,2,0,P|326:142|363:128,1,70,0|0,3:0|0:0,0:0:0:0:
475,24,27536,1,2,0:0:0:0:
435,187,27710,1,8,0:1:0:0:
352,55,27883,1,0,3:0:0:0:
352,55,27970,1,0,3:0:0:0:
352,55,28056,1,0,3:0:0:0:
497,114,28230,1,0,3:0:0:0:
357,250,28403,6,0,P|306:256|243:239,1,105,2|0,0:0|0:0,0:0:0:0:
153,109,29097,1,8,0:1:0:0:
153,207,29444,1,0,0:0:0:0:
153,231,29530,1,0,0:0:0:0:
154,255,29617,1,0,0:0:0:0:
154,279,29704,1,0,0:0:0:0:
154,303,29790,6,0,P|190:298|234:307,1,70,2|0,0:0|0:0,0:0:0:0:
359,260,30311,1,2,0:3:0:0:
461,355,30484,6,0,L|464:283,1,70,8|0,0:1|0:0,0:0:0:0:
352,190,30831,2,0,L|359:260,1,70,2|0,0:3|0:0,0:0:0:0:
388,87,31178,6,0,P|340:75|285:96,1,105,2|0,0:0|0:0,0:0:0:0:
232,226,31871,1,8,0:1:0:0:
165,150,32218,1,0,0:0:0:0:
165,125,32305,1,0,0:0:0:0:
165,100,32392,1,0,0:0:0:0:
166,75,32478,1,0,0:0:0:0:
167,50,32565,5,8,0:0:0:0:
31,139,32738,1,8,0:0:0:0:
160,236,32912,1,8,0:0:0:0:
93,85,33085,1,8,0:0:0:0:
3,219,33258,1,8,0:0:0:0:
160,267,33432,1,8,0:0:0:0:
31,139,33605,1,8,0:0:0:0:
0,301,33779,1,8,0:0:0:0:
138,189,33952,5,6,0:0:0:0:
245,310,34126,1,0,0:0:0:0:
245,310,34212,1,0,0:0:0:0:
245,310,34299,1,0,0:0:0:0:
269,154,34473,1,8,0:0:0:0:
160,267,34646,2,0,P|118:268|85:252,1,70,2|0,0:0|0:0,0:0:0:0:
0,145,34993,2,0,P|42:146|75:130,1,70,8|0,0:0|0:0,0:0:0:0:
173,32,35340,5,2,0:0:0:0:
269,154,35513,1,0,0:0:0:0:
269,154,35600,1,0,0:0:0:0:
269,154,35686,1,0,0:0:0:0:
263,6,35860,1,8,0:0:0:0:
177,122,36033,2,0,L|184:203,1,70,2|0,0:0|0:0,0:0:0:0:
260,341,36380,2,0,L|267:263,1,70,8|0,0:0|0:0,0:0:0:0:
360,148,36727,5,2,0:0:0:0:
400,294,36900,1,0,0:0:0:0:
400,294,36987,1,0,0:0:0:0:
400,294,37074,1,0,0:0:0:0:
292,188,37247,1,8,0:0:0:0:
392,79,37421,2,0,P|432:76|463:86,1,70,2|0,0:0|0:0,0:0:0:0:
292,188,37767,2,0,P|258:197|223:193,1,70,8|0,0:0|0:0,0:0:0:0:
97,112,38114,5,2,0:0:0:0:
248,111,38288,1,0,3:0:0:0:
248,111,38374,1,0,3:0:0:0:
248,111,38461,1,0,3:0:0:0:
130,196,38634,1,8,0:0:0:0:
168,49,38808,1,2,0:0:0:0:
168,49,38981,1,8,0:0:0:0:
16,105,39155,2,0,L|22:189,1,70,8|0,0:1|0:0,0:0:0:0:
33,315,39501,5,2,0:0:0:0:
130,196,39675,1,0,0:0:0:0:
130,196,39762,1,0,0:0:0:0:
130,196,39848,1,0,0:0:0:0:
182,340,40022,1,8,0:0:0:0:
278,213,40195,2,0,P|285:172|279:141,1,70,2|0,0:0|0:0,0:0:0:0:
234,282,40542,2,0,P|266:294|307:289,1,70,8|0,0:0|0:0,0:0:0:0:
405,163,40889,5,2,0:0:0:0:
396,333,41062,1,0,0:0:0:0:
396,333,41149,1,0,0:0:0:0:
396,333,41236,1,0,0:0:0:0:
512,205,41409,1,8,0:0:0:0:
385,85,41582,2,0,P|349:79|310:86,1,70,2|0,0:0|0:0,0:0:0:0:
200,183,41929,2,0,P|164:189|125:182,1,70,8|0,0:0|0:0,0:0:0:0:
9,82,42276,5,2,0:0:0:0:
169,112,42449,1,0,0:0:0:0:
169,112,42536,1,0,0:0:0:0:
169,112,42623,1,0,0:0:0:0:
53,10,42796,1,8,0:0:0:0:
23,156,42970,2,0,L|29:237,1,70,2|0,0:0|0:0,0:0:0:0:
149,336,43316,2,0,P|188:338|222:327,1,70,8|0,0:0|0:0,0:0:0:0:
323,213,43663,5,2,0:0:0:0:
176,250,43837,1,0,3:0:0:0:
176,250,43923,1,0,3:0:0:0:
176,250,44010,1,0,3:0:0:0:
314,307,44184,1,8,0:0:0:0:
232,171,44357,1,2,0:0:0:0:
232,171,44530,1,8,0:0:0:0:
217,329,44704,2,0,P|183:338|149:336,1,70,8|0,0:1|0:0,0:0:0:0:
31,221,45051,6,0,P|19:152|32:71,1,140,8|8,0:1|0:1,0:0:0:0:
193,18,45571,1,8,0:0:0:0:
158,190,45744,5,8,0:1:0:0:
158,190,46091,1,8,0:1:0:0:
320,61,46438,6,0,P|286:120|271:201,1,140,8|8,0:1|0:1,0:0:0:0:
301,335,46958,1,8,0:0:0:0:
420,248,47131,2,0,P|393:218|352:203,1,70,8|0,0:1|0:0,0:0:0:0:
230,275,47478,2,0,P|190:278|157:269,1,70,8|0,0:1|0:0,0:0:0:0:
63,115,47825,6,0,P|75:183|57:272,1,140,8|8,0:1|0:1,0:0:0:0:
222,185,48345,1,8,0:0:0:0:
196,354,48519,5,8,0:1:0:0:
196,354,48866,1,8,0:1:0:0:
326,224,49212,5,8,0:1:0:0:
418,358,49386,1,0,3:0:0:0:
418,358,49473,1,0,3:0:0:0:
418,358,49559,1,8,0:1:0:0:
421,195,49733,1,8,0:0:0:0:
324,315,49906,2,0,P|287:315|254:301,1,70,2|8,0:0|0:0,0:0:0:0:
225,149,50253,1,8,0:1:0:0:
225,149,50600,5,10,0:0:0:0:
214,176,50773,1,10,0:0:0:0:
204,133,50947,1,10,0:0:0:0:
208,193,51120,1,10,0:0:0:0:
262,139,51293,1,10,0:0:0:0:
176,124,51467,1,10,0:0:0:0:
219,209,51640,1,10,0:0:0:0:
221,106,51814,1,10,0:0:0:0:
142,181,51987,5,10,0:0:0:0:
258,178,52160,1,10,0:0:0:0:
177,83,52334,1,10,0:0:0:0:
178,213,52507,1,10,0:0:0:0:
250,101,52681,1,10,0:0:0:0:
109,124,52854,1,10,0:0:0:0:
209,235,53027,1,10,0:0:0:0:
177,83,53201,6,0,L|170:42,2,35,10|10|10,0:0|0:0|0:0,0:0:0:0:
119,234,53548,1,10,0:0:0:0:
285,165,53721,1,10,0:0:0:0:
109,124,53894,1,10,0:0:0:0:
202,279,54068,1,10,0:0:0:0:
238,79,54241,2,0,L|246:37,2,35,10|10|10,0:0|0:0|0:0,0:0:0:0:
92,215,54588,1,10,0:0:0:0:
293,220,54762,5,10,0:0:0:0:
147,86,54935,1,10,0:0:0:0:
171,278,55108,1,10,0:0:0:0:
259,102,55282,1,10,0:0:0:0:
280,301,55455,1,10,0:0:0:0:
127,180,55629,1,10,0:0:0:0:
319,164,55802,1,2,0:3:0:0:
319,164,56149,6,0,P|335:235|309:328,1,154.000004699707,6|8,0:0|0:0,0:0:0:0:
220,193,56669,1,2,0:0:0:0:
220,193,56756,1,0,0:0:0:0:
220,193,56842,1,0,0:0:0:0:
169,342,57016,1,2,0:0:0:0:
77,208,57189,2,0,P|71:171|78:124,1,77.0000023498536,8|0,0:0|0:0,0:0:0:0:
192,40,57536,6,0,P|247:75|336:73,1,154.000004699707,2|8,0:0|0:0,0:0:0:0:
493,23,58056,1,2,0:0:0:0:
493,23,58143,1,0,0:0:0:0:
493,23,58230,1,0,0:0:0:0:
467,187,58403,1,2,0:0:0:0:
400,32,58577,1,8,0:0:0:0:
400,32,58750,1,2,0:0:0:0:
302,163,58923,6,0,P|297:235|333:321,1,154.000004699707,2|8,0:0|0:0,0:0:0:0:
495,365,59444,1,2,0:0:0:0:
495,365,59530,1,0,0:0:0:0:
495,365,59617,1,0,0:0:0:0:
432,218,59790,1,2,0:0:0:0:
329,342,59964,2,0,P|291:335|239:335,1,77.0000023498536,8|0,0:0|0:0,0:0:0:0:
92,361,60311,5,2,0:0:0:0:
131,207,60484,1,0,3:0:0:0:
131,207,60571,1,0,3:0:0:0:
131,207,60657,1,0,3:0:0:0:
173,324,60831,1,0,3:0:0:0:
173,324,61178,5,2,0:0:0:0:
170,223,61351,1,8,0:0:0:0:
83,273,61525,1,2,0:0:0:0:
258,345,61698,6,0,P|329:334|398:278,1,154.000004699707,6|8,0:0|0:0,0:0:0:0:
444,132,62218,1,2,0:0:0:0:
444,132,62305,1,0,0:0:0:0:
444,132,62392,1,0,0:0:0:0:
485,280,62565,1,2,0:0:0:0:
341,200,62738,2,0,P|298:196|263:204,1,77.0000023498536,8|0,0:0|0:0,0:0:0:0:
120,282,63085,6,0,P|101:208|123:120,1,154.000004699707,2|8,0:0|0:0,0:0:0:0:
245,30,63605,1,2,0:0:0:0:
245,30,63692,1,0,0:0:0:0:
245,30,63779,1,0,0:0:0:0:
85,56,63952,1,2,0:0:0:0:
205,165,64126,1,8,0:0:0:0:
205,165,64299,1,2,0:0:0:0:
329,55,64473,5,2,0:0:0:0:
308,217,64646,1,0,3:0:0:0:
308,217,64733,1,0,3:0:0:0:
308,217,64819,1,0,3:0:0:0:
253,93,64993,1,0,3:0:0:0:
253,93,65340,5,2,0:0:0:0:
320,168,65513,1,8,0:0:0:0:
221,186,65686,1,2,0:0:0:0:
346,78,65860,5,2,0:0:0:0:
370,241,66033,2,0,L|375:289,2,38.5000011749268,0|0|0,3:0|3:0|3:0,0:0:0:0:
433,95,66380,1,2,0:0:0:0:
459,262,66553,1,8,0:0:0:0:
433,95,66727,1,2,0:0:0:0:
459,262,66900,1,8,0:0:0:0:
512,134,67074,1,2,0:0:0:0:
346,78,67247,6,0,P|326:137|345:238,1,154.000004699707,6|8,0:0|0:0,0:0:0:0:
442,347,67767,1,2,0:0:0:0:
442,347,67854,1,0,0:0:0:0:
442,347,67941,1,0,0:0:0:0:
413,194,68114,1,2,0:0:0:0:
288,294,68288,2,0,P|249:307|206:306,1,77.0000023498536,8|0,0:0|0:0,0:0:0:0:
48,249,68634,6,0,P|128:240|200:195,1,154.000004699707,2|8,0:0|0:0,0:0:0:0:
264,69,69155,1,2,0:0:0:0:
264,69,69241,1,0,0:0:0:0:
264,69,69328,1,0,0:0:0:0:
129,149,69501,1,2,0:0:0:0:
275,222,69675,1,8,0:0:0:0:
275,222,69848,1,2,0:0:0:0:
185,87,70022,6,0,P|139:73|26:83,1,154.000004699707,2|8,0:0|0:0,0:0:0:0:
0,228,70542,1,2,0:0:0:0:
0,228,70629,1,0,0:0:0:0:
0,228,70715,1,0,0:0:0:0:
143,166,70889,1,2,0:0:0:0:
140,319,71062,2,0,P|176:331|217:330,1,77.0000023498536,8|0,0:0|0:0,0:0:0:0:
350,250,71409,5,2,0:0:0:0:
268,132,71582,1,0,3:0:0:0:
268,132,71669,1,0,3:0:0:0:
268,132,71756,1,0,3:0:0:0:
194,252,71929,1,0,3:0:0:0:
194,252,72276,5,2,0:0:0:0:
251,168,72449,1,8,0:0:0:0:
149,156,72623,1,2,0:0:0:0:
216,328,72796,6,0,P|282:358|365:347,1,154.000004699707,6|8,0:0|0:0,0:0:0:0:
432,212,73316,1,2,0:0:0:0:
432,212,73403,1,0,0:0:0:0:
432,212,73490,1,0,0:0:0:0:
489,350,73663,1,2,0:0:0:0:
366,263,73837,2,0,P|349:231|349:183,1,77.0000023498536,8|0,0:0|0:0,0:0:0:0:
438,63,74184,6,0,P|378:80|282:72,1,154.000004699707,2|8,0:0|0:0,0:0:0:0:
138,51,74704,1,2,0:0:0:0:
138,51,74790,1,0,0:0:0:0:
138,51,74877,1,0,0:0:0:0:
242,164,75051,1,2,0:0:0:0:
225,13,75224,1,8,0:0:0:0:
225,13,75397,1,2,0:0:0:0:
143,140,75571,5,2,0:0:0:0:
232,270,75744,1,0,3:0:0:0:
232,270,75831,1,0,3:0:0:0:
232,270,75918,1,0,3:0:0:0:
313,138,76091,1,0,3:0:0:0:
313,138,76438,5,2,0:0:0:0:
283,236,76611,1,8,0:0:0:0:
213,160,76785,1,2,0:0:0:0:
385,220,76958,5,2,0:0:0:0:
402,70,77131,2,0,L|406:29,2,38.5000011749268,0|0|0,3:0|3:0|3:0,0:0:0:0:
476,206,77478,1,2,0:0:0:0:
491,54,77652,1,8,0:0:0:0:
476,206,77825,1,2,0:0:0:0:
444,122,79733,5,2,0:0:0:0:
444,122,79906,2,0,L|437:190,1,52.5000020027161,2|0,0:1|0:1,0:0:0:0:
354,165,80253,2,0,L|347:233,1,52.5000020027161,2|0,0:1|0:0,0:0:0:0:
299,288,80600,1,0,0:0:0:0:
299,288,80773,2,0,P|270:293|240:290,1,52.5000020027161,0|0,0:0|0:0,0:0:0:0:
95,273,81120,5,2,0:0:0:0:
95,273,81293,2,0,L|100:333,1,52.5000020027161,2|0,0:1|0:0,0:0:0:0:
10,251,81640,2,0,L|15:191,1,52.5000020027161,2|0,0:1|0:0,0:0:0:0:
24,116,81987,1,0,0:0:0:0:
24,116,82160,2,0,P|53:107|82:108,1,52.5000020027161,0|0,0:0|0:0,0:0:0:0:
233,131,82507,5,2,0:0:0:0:
233,131,82681,2,0,P|264:132|293:124,1,52.5000020027161,2|0,0:1|0:0,0:0:0:0:
355,76,83027,2,0,L|417:79,1,52.5000020027161,2|0,0:1|0:0,0:0:0:0:
474,142,83374,1,0,0:0:0:0:
474,142,83548,2,0,P|478:168|474:196,1,52.5000020027161,0|0,0:0|0:0,0:0:0:0:
371,301,83894,5,8,0:1:0:0:
304,116,84241,5,8,0:1:0:0:
118,168,84588,5,8,0:1:0:0:
183,359,84935,5,8,0:1:0:0:
304,116,85282,5,2,0:0:0:0:
304,116,85455,2,0,L|301:63,1,52.5000020027161,2|0,0:1|0:0,0:0:0:0:
230,11,85802,2,0,P|196:9|169:14,1,52.5000020027161,2|0,0:1|0:0,0:0:0:0:
110,76,86149,1,0,0:0:0:0:
110,76,86322,2,0,L|113:132,1,52.5000020027161,0|0,0:0|0:0,0:0:0:0:
5,234,86669,5,2,0:0:0:0:
5,234,86842,2,0,L|8:290,1,52.5000020027161,2|0,0:1|0:0,0:0:0:0:
55,360,87189,2,0,P|86:361|110:353,1,52.5000020027161,2|0,0:1|0:0,0:0:0:0:
171,295,87536,1,0,0:0:0:0:
171,295,87710,2,0,P|202:294|226:302,1,52.5000020027161,0|0,0:0|0:0,0:0:0:0:
381,353,88056,5,2,0:0:0:0:
381,353,88230,2,0,P|414:341|431:322,1,52.5000020027161,2|0,0:1|0:0,0:0:0:0:
475,256,88577,2,0,L|472:193,1,52.5000020027161,2|0,0:1|0:0,0:0:0:0:
389,185,88923,1,0,0:0:0:0:
389,185,89097,2,0,L|391:237,1,52.5000020027161,0|0,0:0|0:0,0:0:0:0:
303,127,89444,5,8,0:0:0:0:
298,275,89617,1,8,0:0:0:0:
217,152,89790,1,8,0:0:0:0:
360,204,89964,1,8,0:0:0:0:
213,241,90137,1,8,0:0:0:0:
303,127,90311,1,8,0:0:0:0:
298,275,90484,1,8,0:0:0:0:
217,152,90658,1,8,0:0:0:0:
360,204,90831,5,6,0:0:0:0:
360,204,91004,2,0,P|409:206|465:182,1,105.000004005432,2|8,0:0|0:0,0:0:0:0:
512,85,91525,1,0,0:0:0:0:
482,263,91871,1,8,0:0:0:0:
370,122,92218,5,2,0:0:0:0:
370,122,92392,2,0,P|336:121|304:108,1,52.5000020027161,0|0,0:0|0:0,0:0:0:0:
228,59,92738,2,0,P|197:61|171:73,1,52.5000020027161,8|0,0:0|0:0,0:0:0:0:
128,160,93085,1,0,0:0:0:0:
224,207,93259,2,0,L|219:143,1,52.5000020027161,8|0,0:0|0:0,0:0:0:0:
55,92,93605,5,2,0:0:0:0:
55,92,93779,2,0,L|48:199,1,105.000004005432,2|8,0:0|0:0,0:0:0:0:
19,303,94299,1,0,0:0:0:0:
128,160,94646,1,8,0:0:0:0:
207,326,94993,5,2,0:0:0:0:
309,223,95166,1,8,0:1:0:0:
164,247,95340,1,8,0:1:0:0:
296,310,95513,1,8,0:1:0:0:
225,180,95686,1,8,0:1:0:0:
225,180,96033,5,8,0:1:0:0:
207,326,96207,1,8,0:1:0:0:
309,223,96380,5,6,0:0:0:0:
309,223,96553,2,0,P|360:232|415:226,1,105.000004005432,0|8,0:0|0:0,0:0:0:0:
490,166,97074,2,0,P|496:136|493:106,1,52.5000020027161,0|0,0:0|0:0,0:0:0:0:
428,53,97421,1,8,0:0:0:0:
339,40,97594,1,0,0:0:0:0:
254,68,97767,5,2,0:0:0:0:
254,68,97941,2,0,L|257:126,1,52.5000020027161,2|0,0:0|0:0,0:0:0:0:
332,167,98288,1,8,0:0:0:0:
261,220,98461,2,0,P|226:228|205:225,1,52.5000020027161,0|0,0:0|0:0,0:0:0:0:
332,167,98808,2,0,P|358:165|383:173,1,52.5000020027161,8|0,0:0|0:0,0:0:0:0:
443,238,99155,5,2,0:0:0:0:
443,238,99328,2,0,P|426:295|383:335,1,105.000004005432,2|8,0:0|0:0,0:0:0:0:
315,367,99848,1,0,0:0:0:0:
248,201,100195,1,8,0:0:0:0:
132,342,100542,6,0,P|117:274|78:226,1,122.5,0|0,0:0|0:0,0:0:0:0:
54,212,101236,1,2,0:3:0:0:
54,212,101929,5,0,0:0:0:0:
149,108,102103,1,0,0:0:0:0:
149,108,102189,1,0,0:0:0:0:
149,108,102276,1,0,0:0:0:0:
0,126,102449,1,8,0:0:0:0:
133,189,102623,2,0,P|166:189|203:171,1,70,2|0,0:0|0:0,0:0:0:0:
274,52,102970,2,0,P|310:61|336:83,1,70,8|0,0:0|0:0,0:0:0:0:
425,196,103316,5,2,0:0:0:0:
293,155,103490,1,0,0:0:0:0:
293,155,103577,1,0,0:0:0:0:
293,155,103663,1,0,0:0:0:0:
411,64,103837,1,8,0:0:0:0:
506,178,104010,2,0,P|503:216|488:247,1,70,2|0,0:0|0:0,0:0:0:0:
378,339,104357,2,0,P|341:339|308:323,1,70,8|0,0:0|0:0,0:0:0:0:
225,204,104704,5,2,0:0:0:0:
225,355,104877,1,0,0:0:0:0:
225,355,104964,1,0,0:0:0:0:
225,355,105051,1,0,0:0:0:0:
313,234,105224,1,8,0:0:0:0:
168,275,105397,2,0,P|132:277|98:266,1,70,2|0,0:0|0:0,0:0:0:0:
0,161,105744,2,0,L|8:242,1,70,8|0,0:0|0:0,0:0:0:0:
115,127,106091,5,0,0:0:0:0:
0,61,106264,1,0,3:0:0:0:
0,61,106351,1,0,3:0:0:0:
0,61,106438,1,0,3:0:0:0:
115,127,106611,1,8,0:0:0:0:
205,19,106785,1,2,0:0:0:0:
205,19,106958,1,8,0:0:0:0:
252,148,107131,2,0,P|257:181|253:224,1,70,8|0,0:1|0:0,0:0:0:0:
185,90,107478,5,2,0:0:0:0:
334,155,107652,1,0,0:0:0:0:
334,155,107738,1,0,0:0:0:0:
334,155,107825,1,0,0:0:0:0:
182,187,107999,1,8,0:0:0:0:
277,68,108172,2,0,P|309:55|355:56,1,70,2|0,0:0|0:0,0:0:0:0:
480,113,108519,2,0,P|497:146|498:199,1,70,8|0,0:0|0:0,0:0:0:0:
453,317,108866,5,2,0:0:0:0:
383,193,109039,1,0,0:0:0:0:
383,193,109126,1,0,0:0:0:0:
383,193,109212,1,0,0:0:0:0:
321,327,109386,1,8,0:0:0:0:
219,217,109559,2,0,P|185:209|145:214,1,70,2|0,0:0|0:0,0:0:0:0:
293,253,109906,2,0,P|300:218|291:178,1,70,8|0,0:0|0:0,0:0:0:0:
220,53,110253,5,0,0:0:0:0:
355,133,110426,1,0,0:0:0:0:
355,133,110513,1,0,0:0:0:0:
355,133,110600,1,0,0:0:0:0:
284,8,110773,1,8,0:0:0:0:
225,138,110947,2,0,P|188:133|158:113,1,70,2|0,0:0|0:0,0:0:0:0:
68,18,111293,2,0,L|63:87,1,70,8|0,0:0|0:0,0:0:0:0:
0,228,111640,5,0,0:0:0:0:
158,213,111814,1,0,3:0:0:0:
158,213,111900,1,0,3:0:0:0:
158,213,111987,1,0,3:0:0:0:
11,143,112160,1,8,0:0:0:0:
95,275,112334,1,2,0:0:0:0:
95,275,112507,1,8,0:0:0:0:
143,132,112681,2,0,P|183:136|211:152,1,70,8|0,0:1|0:0,0:0:0:0:
354,335,113027,6,0,P|359:280|407:200,1,140,8|8,0:1|0:1,0:0:0:0:
498,167,113548,1,8,0:0:0:0:
330,125,113721,5,8,0:1:0:0:
330,125,114068,1,8,0:1:0:0:
186,293,114415,6,0,P|191:238|239:158,1,140,8|8,0:1|0:1,0:0:0:0:
330,125,114936,1,8,0:0:0:0:
163,83,115108,6,0,L|79:89,1,70,8|0,0:1|0:0,0:0:0:0:
8,209,115455,2,0,P|42:221|80:219,1,70,8|0,0:1|0:0,0:0:0:0:
231,165,115802,6,0,P|252:210|255:304,1,140,8|8,0:1|0:1,0:0:0:0:
317,150,116322,1,8,0:0:0:0:
158,198,116496,5,8,0:1:0:0:
158,198,116842,1,8,0:1:0:0:
380,63,117189,5,8,0:1:0:0:
452,200,117363,1,0,3:0:0:0:
452,200,117449,1,0,3:0:0:0:
452,200,117536,1,0,3:0:0:0:
474,49,117710,1,8,0:0:0:0:
367,150,117883,2,0,P|331:150|296:136,1,70,2|8,0:0|0:0,0:0:0:0:
169,66,118230,1,8,0:1:0:0:
169,66,118577,5,10,0:0:0:0:
164,96,118750,1,10,0:0:0:0:
187,58,118923,1,10,0:0:0:0:
173,111,119097,1,10,0:0:0:0:
146,45,119270,1,10,0:0:0:0:
218,82,119444,1,10,0:0:0:0:
140,119,119617,1,10,0:0:0:0:
170,21,119790,1,10,0:0:0:0:
217,127,119964,5,10,0:0:0:0:
97,106,120137,1,10,0:0:0:0:
212,169,120311,1,10,0:0:0:0:
77,182,120484,1,10,0:0:0:0:
177,82,120658,1,10,0:0:0:0:
159,230,120831,1,10,0:0:0:0:
88,90,121004,1,10,0:0:0:0:
223,169,121178,6,0,L|255:188,2,35,10|10|10,0:0|0:0|0:0,0:0:0:0:
48,176,121525,1,10,0:0:0:0:
153,30,121698,1,10,0:0:0:0:
136,214,121871,1,10,0:0:0:0:
61,36,122045,1,10,0:0:0:0:
248,73,122218,2,0,L|288:79,2,35,10|10|10,0:0|0:0|0:0,0:0:0:0:
222,261,122565,1,10,0:0:0:0:
142,85,122738,5,10,0:0:0:0:
301,190,122912,1,10,0:0:0:0:
142,85,123085,1,10,0:0:0:0:
136,274,123259,1,10,0:0:0:0:
231,109,123432,1,10,0:0:0:0:
51,171,123605,1,10,0:0:0:0:
222,261,123779,1,10,0:3:0:0:
222,261,124126,6,0,P|299:249|380:268,1,154.000004699707,6|8,0:0|0:0,0:0:0:0:
512,337,124646,1,2,0:0:0:0:
512,337,124733,1,0,0:0:0:0:
512,337,124819,1,0,0:0:0:0:
423,193,124993,1,2,0:0:0:0:
345,342,125166,2,0,P|307:348|264:341,1,77.0000023498536,8|0,0:0|0:0,0:0:0:0:
85,256,125513,6,0,P|144:246|224:185,1,154.000004699707,2|8,0:0|0:0,0:0:0:0:
287,47,126033,1,2,0:0:0:0:
287,47,126120,1,0,0:0:0:0:
287,47,126207,1,0,0:0:0:0:
437,101,126380,1,2,0:0:0:0:
312,204,126553,1,8,0:0:0:0:
312,204,126727,1,0,0:0:0:0:
287,47,126900,6,0,P|213:28|114:41,1,154.000004699707,2|8,0:0|0:0,0:0:0:0:
25,177,127421,1,2,0:0:0:0:
25,177,127507,1,0,0:0:0:0:
25,177,127594,1,0,0:0:0:0:
63,23,127767,1,2,0:0:0:0:
178,135,127941,2,0,P|185:172|180:216,1,77.0000023498536,8|0,0:0|0:0,0:0:0:0:
85,344,128288,5,2,0:0:0:0:
253,297,128461,1,0,3:0:0:0:
253,297,128548,1,0,3:0:0:0:
253,297,128634,1,0,3:0:0:0:
116,259,128808,1,0,3:0:0:0:
116,259,129155,5,2,0:0:0:0:
143,161,129328,1,8,0:0:0:0:
45,185,129501,1,2,0:0:0:0:
164,348,129675,6,0,P|237:351|325:307,1,154.000004699707,6|8,0:0|0:0,0:0:0:0:
372,162,130195,1,2,0:0:0:0:
372,162,130282,1,0,0:0:0:0:
372,162,130368,1,0,0:0:0:0:
286,32,130542,1,2,0:0:0:0:
125,41,130715,2,0,P|118:78|124:121,1,77.0000023498536,8|0,0:0|0:0,0:0:0:0:
228,241,131062,6,0,P|163:271|81:268,1,154.000004699707,2|8,0:0|0:0,0:0:0:0:
0,140,131582,1,2,0:0:0:0:
0,140,131669,1,0,0:0:0:0:
0,140,131756,1,0,0:0:0:0:
125,41,131929,1,2,0:0:0:0:
241,154,132103,1,8,0:0:0:0:
241,154,132276,1,0,0:0:0:0:
368,49,132449,5,2,0:0:0:0:
332,221,132623,1,0,3:0:0:0:
332,221,132710,1,0,3:0:0:0:
332,221,132796,1,0,3:0:0:0:
292,87,132970,1,0,3:0:0:0:
292,87,133316,5,2,0:0:0:0:
291,245,133490,1,8,0:0:0:0:
392,122,133663,1,2,0:0:0:0:
229,165,133837,5,2,0:0:0:0:
384,215,134010,2,0,L|425:229,2,38.5000011749268,0|0|0,3:0|3:0|3:0,0:0:0:0:
212,257,134357,1,2,0:0:0:0:
373,313,134530,1,8,0:0:0:0:
212,257,134704,1,2,0:0:0:0:
373,313,134877,1,8,0:0:0:0:
320,175,135051,1,2,0:0:0:0:
272,354,135224,6,0,P|194:359|108:331,1,154.000004699707,6|8,0:0|0:0,0:0:0:0:
24,230,135744,1,2,0:0:0:0:
24,230,135831,1,0,0:0:0:0:
24,230,135918,1,0,0:0:0:0:
64,77,136091,1,2,0:0:0:0:
213,24,136264,2,0,P|255:20|294:26,1,77.0000023498536,8|0,0:0|0:0,0:0:0:0:
440,98,136611,6,0,P|400:162|315:199,1,154.000004699707,2|8,0:0|0:0,0:0:0:0:
206,113,137131,1,2,0:0:0:0:
206,113,137218,1,0,0:0:0:0:
206,113,137305,1,0,0:0:0:0:
60,169,137478,1,2,0:0:0:0:
47,330,137652,1,8,0:0:0:0:
47,330,137825,1,2,0:0:0:0:
191,262,137999,6,0,P|263:259|352:296,1,154.000004699707,2|8,0:0|0:0,0:0:0:0:
478,362,138519,1,2,0:0:0:0:
478,362,138605,1,0,0:0:0:0:
478,362,138692,1,0,0:0:0:0:
307,357,138866,1,2,0:0:0:0:
390,215,139039,2,0,P|399:176|396:132,1,77.0000023498536,8|0,0:0|0:0,0:0:0:0:
315,13,139386,5,2,0:0:0:0:
465,72,139559,1,0,3:0:0:0:
465,72,139646,1,0,3:0:0:0:
465,72,139733,1,0,3:0:0:0:
323,101,139906,1,0,3:0:0:0:
323,101,140253,5,2,0:0:0:0:
399,34,140426,1,8,0:0:0:0:
415,135,140600,1,2,0:0:0:0:
238,213,140773,6,0,P|149:220|81:186,1,154.000004699707,6|8,0:0|0:0,0:0:0:0:
138,42,141293,1,2,0:0:0:0:
138,42,141380,1,0,0:0:0:0:
138,42,141467,1,0,0:0:0:0:
297,24,141640,1,2,0:0:0:0:
415,135,141814,2,0,P|422:178|412:222,1,77.0000023498536,8|0,0:0|0:0,0:0:0:0:
289,352,142160,6,0,P|250:295|239:199,1,154.000004699707,2|8,0:0|0:0,0:0:0:0:
270,56,142681,1,2,0:0:0:0:
270,56,142767,1,0,0:0:0:0:
270,56,142854,1,0,0:0:0:0:
155,169,143027,1,2,0:0:0:0:
318,178,143201,1,8,0:0:0:0:
318,178,143374,1,2,0:0:0:0:
174,83,143548,5,2,0:0:0:0:
159,253,143721,1,0,3:0:0:0:
159,253,143808,1,0,3:0:0:0:
159,253,143894,1,0,3:0:0:0:
234,138,144068,1,0,3:0:0:0:
234,138,144415,5,2,0:0:0:0:
171,58,144588,1,8,0:0:0:0:
128,146,144762,1,2,0:0:0:0:
277,47,144935,5,2,0:0:0:0:
274,210,145108,2,0,L|272:254,2,38.5000011749268,0|0|0,3:0|3:0|3:0,0:0:0:0:
364,97,145455,1,2,0:0:0:0:
361,255,145629,1,8,0:0:0:0:
364,97,145802,1,6,0:0:0:0:
256,192,157421,12,0,158634,0:0:0:0:
124,66,158808,6,0,P|114:118|125:185,1,105.000004005432,2|2,0:0|0:0,0:0:0:0:
176,251,159328,1,2,0:1:0:0:
274,235,159501,2,0,L|336:227,1,52.5000020027161,2|0,0:0|0:0,0:0:0:0:
396,314,159848,2,0,L|340:307,1,52.5000020027161,2|0,0:0|0:0,0:0:0:0:
274,235,160195,6,0,P|255:177|261:116,1,105.000004005432,2|2,0:0|0:0,0:0:0:0:
303,45,160715,1,2,0:1:0:0:
402,31,160889,2,0,P|433:32|461:42,1,52.5000020027161,2|0,0:0|0:0,0:0:0:0:
419,162,161236,2,0,P|414:129|419:103,1,52.5000020027161,2|0,0:0|0:0,0:0:0:0:
505,188,161582,6,0,P|485:241|435:281,1,105.000004005432,2|2,0:0|0:0,0:0:0:0:
355,306,162103,1,2,0:1:0:0:
259,277,162276,2,0,L|202:281,1,52.5000020027161,2|0,0:0|0:0,0:0:0:0:
132,197,162623,2,0,L|191:201,1,52.5000020027161,2|0,0:0|0:0,0:0:0:0:
297,141,162970,6,0,P|285:82|256:42,1,105.000004005432,2|2,0:0|0:0,0:0:0:0:
161,29,163490,1,2,0:1:0:0:
64,52,163663,2,0,P|60:86|65:114,1,52.5000020027161,2|0,0:0|0:0,0:0:0:0:
84,201,164010,2,0,P|98:229|121:247,1,52.5000020027161,2|0,0:0|0:0,0:0:0:0:
207,276,164357,5,10,0:0:0:0:
231,253,164530,1,10,0:0:0:0:
231,298,164704,1,10,0:0:0:0:
247,238,164877,1,10,0:0:0:0:
181,273,165051,1,10,0:0:0:0:
257,309,165224,1,10,0:0:0:0:
234,214,165397,1,10,0:0:0:0:
181,312,165571,1,10,0:0:0:0:
295,269,165744,5,10,0:0:0:0:
166,232,165918,1,10,0:0:0:0:
312,191,166091,1,10,0:0:0:0:
256,341,166264,1,10,0:0:0:0:
234,174,166438,1,10,0:0:0:0:
384,244,166611,1,10,0:0:0:0:
204,246,166785,1,10,0:0:0:0:
324,115,166958,6,0,L|347:90,2,26.2500010013581,10|10|10,0:0|0:0|0:0,0:0:0:0:
297,292,167305,1,10,0:0:0:0:
190,146,167478,1,10,0:0:0:0:
297,292,167652,1,10,0:0:0:0:
402,149,167825,1,10,0:0:0:0:
235,212,167999,1,10,0:0:0:0:
376,323,168172,1,10,0:0:0:0:
318,194,168345,5,10,0:0:0:0:
314,175,168432,1,10,0:0:0:0:
310,156,168519,1,10,0:0:0:0:
308,137,168605,1,10,0:0:0:0:
307,118,168692,1,10,0:0:0:0:
308,99,168779,1,10,0:0:0:0:
310,80,168866,1,10,0:0:0:0:
314,62,168952,1,10,0:0:0:0:
321,44,169039,5,8,0:0:0:0:
422,19,169212,1,8,0:0:0:0:
483,107,169386,1,2,0:0:0:0:
411,182,169559,1,8,0:0:0:0:
314,139,169733,1,8,0:0:0:0:
291,312,169906,6,0,P|226:338|150:333,1,140,6|0,0:0|0:0,0:0:0:0:
38,257,170426,1,2,0:0:0:0:
63,115,170600,2,0,P|98:108|138:113,1,70,0|0,0:0|0:0,0:0:0:0:
260,176,170947,2,0,L|265:101,1,70,0|0,0:0|0:0,0:0:0:0:
276,84,171207,1,0,0:0:0:0:
293,66,171293,6,0,P|365:52|444:69,1,140,2|0,0:0|0:0,0:0:0:0:
344,174,171814,1,2,0:0:0:0:
459,257,171987,1,0,0:0:0:0:
346,342,172160,2,0,P|309:346|272:339,1,70,0|0,0:0|0:0,0:0:0:0:
169,249,172507,1,0,0:0:0:0:
52,329,172681,6,0,P|34:268|46:185,1,140,2|0,0:0|0:0,0:0:0:0:
109,62,173201,1,2,0:0:0:0:
255,37,173374,2,0,P|288:36|326:45,1,70,0|0,0:0|0:0,0:0:0:0:
446,125,173721,2,0,P|406:129|374:143,1,70,0|0,0:0|0:0,0:0:0:0:
294,265,174068,5,8,0:0:0:0:
294,265,174241,1,8,0:0:0:0:
252,114,174415,1,2,0:0:0:0:
163,242,174588,1,8,0:0:0:0:
163,242,174762,1,8,0:0:0:0:
134,91,174935,1,2,0:0:0:0:
39,214,175108,1,8,0:0:0:0:
39,214,175282,1,8,0:0:0:0:
151,343,175455,6,0,P|202:354|295:334,1,140,6|0,0:0|0:0,0:0:0:0:
368,222,175975,1,2,0:0:0:0:
483,299,176149,2,0,P|489:331|488:371,1,70,0|0,0:0|0:0,0:0:0:0:
368,222,176496,2,0,P|367:187|373:152,1,70,0|0,0:0|0:0,0:0:0:0:
388,133,176756,1,0,0:0:0:0:
409,122,176842,6,0,P|361:114|294:45,1,140,2|0,0:0|0:0,0:0:0:0:
164,2,177363,1,2,0:0:0:0:
54,85,177536,1,0,0:0:0:0:
178,161,177710,2,0,P|212:163|250:153,1,70,0|0,0:0|0:0,0:0:0:0:
131,91,178056,1,2,0:0:0:0:
151,241,178230,5,2,0:0:0:0:
110,161,178403,1,2,0:0:0:0:
125,266,178577,5,2,0:0:0:0:
74,168,178750,1,2,0:0:0:0:
99,296,178923,5,2,0:0:0:0:
37,176,179096,1,2,0:0:0:0:
76,327,179270,5,2,0:0:0:0:
1,182,179443,1,2,0:0:0:0:
198,163,179617,5,2,0:0:0:0:
292,125,179964,5,2,0:1:0:0:
392,133,180311,5,0,0:0:0:0:
483,170,180658,5,2,0:1:0:0:
366,344,181004,6,0,P|272:357|195:338,1,154.000004699707,6|8,0:0|0:0,0:0:0:0:
82,278,181525,1,2,0:0:0:0:
82,278,181611,1,0,0:0:0:0:
82,278,181698,1,0,0:0:0:0:
65,123,181871,1,2,0:0:0:0:
188,35,182045,2,0,P|227:30|273:35,1,77.0000023498536,8|0,0:0|0:0,0:0:0:0:
407,108,182392,6,0,P|381:158|288:209,1,154.000004699707,2|8,0:0|0:0,0:0:0:0:
171,139,182912,1,2,0:0:0:0:
171,139,182999,1,0,0:0:0:0:
171,139,183085,1,0,0:0:0:0:
220,282,183259,1,2,0:0:0:0:
277,130,183432,1,8,0:0:0:0:
277,130,183605,1,0,0:0:0:0:
105,200,183779,6,0,P|119:276|165:337,1,154.000004699707,2|8,0:0|0:0,0:0:0:0:
286,232,184299,1,2,0:0:0:0:
286,232,184386,1,0,0:0:0:0:
286,232,184473,1,0,0:0:0:0:
397,339,184646,1,2,0:0:0:0:
506,231,184819,2,0,P|506:188|496:153,1,77.0000023498536,8|0,0:0|0:0,0:0:0:0:
391,36,185166,5,2,0:0:0:0:
401,201,185340,1,0,3:0:0:0:
401,201,185426,1,0,3:0:0:0:
401,201,185513,1,0,3:0:0:0:
469,76,185686,1,0,3:0:0:0:
469,76,186033,5,2,0:0:0:0:
375,116,186207,1,8,0:0:0:0:
457,178,186380,1,2,0:0:0:0:
355,30,186553,6,0,P|282:19|187:44,1,154.000004699707,6|8,0:0|0:0,0:0:0:0:
150,186,187074,1,2,0:0:0:0:
150,186,187160,1,0,0:0:0:0:
150,186,187247,1,0,0:0:0:0:
38,76,187421,1,2,0:0:0:0:
31,235,187594,2,0,P|32:275|45:316,1,77.0000023498536,8|0,0:0|0:0,0:0:0:0:
202,367,187941,6,0,P|231:288|220:209,1,154.000004699707,2|8,0:0|0:0,0:0:0:0:
182,75,188461,1,2,0:0:0:0:
182,75,188548,1,0,0:0:0:0:
182,75,188634,1,0,0:0:0:0:
324,19,188808,1,2,0:0:0:0:
445,129,188981,1,8,0:0:0:0:
445,129,189155,1,0,0:0:0:0:
318,234,189328,5,2,0:0:0:0:
373,88,189501,1,0,3:0:0:0:
373,88,189588,1,0,3:0:0:0:
373,88,189675,1,0,3:0:0:0:
415,213,189848,1,0,3:0:0:0:
415,213,190195,5,2,0:0:0:0:
462,125,190368,1,8,0:0:0:0:
511,214,190542,1,2,0:0:0:0:
360,127,190715,5,2,0:0:0:0:
374,285,190889,2,0,L|378:329,2,38.5000011749268,0|0|0,3:0|3:0|3:0,0:0:0:0:
266,163,191236,1,2,0:0:0:0:
276,314,191409,1,8,0:0:0:0:
266,163,191582,1,2,0:0:0:0:
276,314,191756,1,8,0:0:0:0:
369,209,191929,1,2,0:0:0:0:
259,59,192103,6,0,P|186:56|107:93,1,154.000004699707,6|8,0:0|0:0,0:0:0:0:
48,237,192623,1,2,0:0:0:0:
48,237,192710,1,0,0:0:0:0:
48,237,192796,1,0,0:0:0:0:
126,364,192970,1,2,0:0:0:0:
226,243,193143,2,0,P|185:234|143:241,1,77.0000023498536,8|0,0:0|0:0,0:0:0:0:
260,360,193490,6,0,P|334:355|417:305,1,154.000004699707,2|8,0:0|0:0,0:0:0:0:
413,164,194010,1,2,0:0:0:0:
413,164,194097,1,0,0:0:0:0:
413,164,194184,1,0,0:0:0:0:
502,284,194357,1,2,0:0:0:0:
342,242,194530,1,8,0:0:0:0:
342,242,194704,1,0,0:0:0:0:
507,181,194877,6,0,P|508:116|469:34,1,154.000004699707,2|8,0:0|0:0,0:0:0:0:
386,169,195397,1,2,0:0:0:0:
386,169,195484,1,0,0:0:0:0:
386,169,195571,1,0,0:0:0:0:
300,37,195744,1,2,0:0:0:0:
207,163,195918,2,0,P|202:201|208:242,1,77.0000023498536,8|0,0:0|0:0,0:0:0:0:
321,352,196264,5,2,0:0:0:0:
295,206,196438,1,0,3:0:0:0:
295,206,196525,1,0,3:0:0:0:
295,206,196611,1,0,3:0:0:0:
230,315,196785,1,0,3:0:0:0:
230,315,197131,5,2,0:0:0:0:
326,275,197305,1,8,0:0:0:0:
309,375,197478,1,2,0:0:0:0:
106,281,197652,6,0,P|86:224|97:122,1,154.000004699707,6|8,0:0|0:0,0:0:0:0:
218,34,198172,1,2,0:0:0:0:
218,34,198259,1,0,0:0:0:0:
218,34,198345,1,0,0:0:0:0:
372,28,198519,1,2,0:0:0:0:
481,137,198692,2,0,P|486:173|476:219,1,77.0000023498536,8|0,0:0|0:0,0:0:0:0:
360,348,199039,6,0,P|336:299|333:189,1,154.000004699707,2|8,0:0|0:0,0:0:0:0:
382,49,199559,1,2,0:0:0:0:
382,49,199646,1,0,0:0:0:0:
382,49,199733,1,0,0:0:0:0:
251,141,199906,1,2,0:0:0:0:
418,141,200079,1,8,0:0:0:0:
418,141,200253,1,0,0:0:0:0:
277,45,200426,5,2,0:0:0:0:
242,222,200600,1,0,3:0:0:0:
242,222,200686,1,0,3:0:0:0:
242,222,200773,1,0,3:0:0:0:
169,82,200947,1,0,3:0:0:0:
169,82,201293,5,2,0:0:0:0:
148,181,201467,1,8,0:0:0:0:
72,113,201640,1,2,0:0:0:0:
249,150,201814,5,2,0:0:0:0:
115,256,201987,2,0,L|84:280,2,38.5000011749268,0|0|0,3:0|3:0|3:0,0:0:0:0:
291,245,202334,1,2,0:0:0:0:
157,343,202507,1,8,0:0:0:0:
291,245,202681,1,6,0:0:0:0:
