osu file format v14

[General]
AudioFilename: audio.mp3
AudioLeadIn: 0
PreviewTime: -1
Countdown: 0
SampleSet: Normal
StackLeniency: 0.7
Mode: 0
LetterboxInBreaks: 0
WidescreenStoryboard: 1

[Editor]
Bookmarks: 18174,54244,55804,57278,58492,59012,68117,90660
DistanceSpacing: 1.2
BeatDivisor: 4
GridSize: 4
TimelineZoom: 2.3

[Metadata]
Title:CHEER UP
TitleUnicode:CHEER UP
Artist:TWICE
ArtistUnicode:트와이스
Creator:[ D Myung ]
Version:Hard
Source:
Tags:나연 정연 모모 사나 지효 미나 다현 채영 쯔위 nayeon jeongyeon momo sana jihyo mina dahyun chaeyoung tzuyu page CHEER UP TWICE 트와이스
BeatmapID:1012849
BeatmapSetID:463653

[Difficulty]
HPDrainRate:4.5
CircleSize:3.5
OverallDifficulty:4.5
ApproachRate:8
SliderMultiplier:1.6
SliderTickRate:1

[Events]
//Background and Video events
0,0,"image 4 .jpg",0,0
//Break Periods
2,158490,170026
2,182074,186326
//Storyboard Layer 0 (Background)
//Storyboard Layer 1 (Fail)
//Storyboard Layer 2 (Pass)
//Storyboard Layer 3 (Foreground)
//Storyboard Sound Samples

[TimingPoints]
1527,346.820809248555,4,1,0,100,1,0
18868,-142.857142857143,4,1,0,100,0,0
19561,-100,4,1,0,100,0,0
20255,-125,4,1,0,100,0,0
20948,-166.666666666667,4,1,0,100,0,0
22336,-125,4,1,0,100,0,0
23723,-125,4,1,0,100,0,0
41758,-100,4,1,0,100,0,0
49041,-125,4,1,0,100,0,0
49388,-125,4,1,0,100,0,0
68116,-100,4,1,0,100,0,1
90313,-125,4,1,0,100,0,0
113896,-100,4,1,0,100,0,0
136093,-100,4,1,0,100,0,1
158290,-125,4,1,0,100,0,0
192972,-100,4,1,0,100,0,1
214474,-125,4,1,0,100,0,0

[HitObjects]
136,44,18175,6,0,P|176:68|240:64,1,80,0|0,0:0|0:0,0:0:0:0:
236,152,18695,1,0,0:0:0:0:
304,96,18868,2,0,P|332:136|320:200,1,111.999996582031
416,312,19562,6,0,P|421:264|417:216,1,80,0|0,0:0|0:0,0:0:0:0:
322,195,20082,1,0,0:0:0:0:
236,152,20255,2,0,P|179:178|103:158,1,128,0|0,0:0|0:0,0:0:0:0:
152,88,20949,6,0,P|44:116|80:268,1,287.999991210938,0|0,0:0|0:0,0:0:0:0:
212,268,22336,6,0,P|201:234|205:178,2,64,0|0|0,0:1|0:1|0:1,0:0:0:0:
284,216,22857,1,0,0:1:0:0:
344,144,23030,2,0,P|380:150|417:131,2,64,0|0|0,0:1|0:1|0:1,0:0:0:0:
252,72,23550,1,0,0:1:0:0:
120,120,23724,6,0,P|152:119|192:136,1,64,0|0,0:1|0:0,0:0:0:0:
240,216,24071,2,0,P|204:232|152:224,1,64
64,236,24417,2,0,P|10:237|32:188,1,128
120,120,24938,1,0,0:0:0:0:
120,120,25111,6,0,B|246:28,1,128,0|0,0:0|0:0,0:0:0:0:
320,124,25631,1,0,0:0:0:0:
232,208,25804,2,0,P|223:238|230:278,1,64,0|0,0:0|0:0,0:0:0:0:
320,124,26498,6,0,L|412:124,1,64,0|0,0:0|0:0,0:0:0:0:
316,264,26845,1,0,0:0:0:0:
432,212,27019,1,0,0:0:0:0:
432,212,27192,2,0,P|445:253|452:292,1,64,0|0,0:0|0:0,0:0:0:0:
388,344,27539,1,0,0:0:0:0:
316,264,27712,1,0,0:0:0:0:
268,184,27886,6,0,P|236:189|204:187,1,64,0|0,0:0|0:0,0:0:0:0:
184,272,28232,2,0,L|112:272,1,64
92,160,28579,1,0,0:3:0:0:
196,112,28753,1,0,0:3:0:0:
196,112,28839,1,0,0:3:0:0:
196,112,28926,1,0,0:3:0:0:
132,24,29099,1,0,0:3:0:0:
92,160,29273,6,0,P|56:154|16:126,1,64,0|0,0:0|0:0,0:0:0:0:
196,112,29620,2,0,P|232:122|264:144,1,64
328,204,29966,2,0,P|384:192|416:128,1,128,0|0,0:0|0:0,0:0:0:0:
428,48,30487,1,0,0:0:0:0:
344,64,30660,6,0,P|348:95|336:132,1,64,0|0,0:0|0:0,0:0:0:0:
328,204,31007,2,0,L|354:292,1,64,0|0,0:0|0:0,0:0:0:0:
240,208,31354,2,0,L|140:296,1,128,0|0,0:0|0:0,0:0:0:0:
80,64,32047,6,0,P|44:64|16:84,1,64,0|0,0:0|0:0,0:0:0:0:
40,168,32394,2,0,L|40:252,1,64
104,320,32741,2,0,L|120:248,1,64,0|0,0:0|0:0,0:0:0:0:
176,172,33088,2,0,P|231:202|260:200,1,64
228,284,33435,6,0,L|253:365,2,64,0|0|0,0:1|0:1|0:1,0:0:0:0:
332,252,33955,1,0,0:1:0:0:
376,160,34128,2,0,L|452:184,2,64,0|0|0,0:1|0:1|0:1,0:0:0:0:
260,136,34649,1,0,0:1:0:0:
260,52,34822,6,0,P|222:61|192:88,1,64,0|0,0:0|0:0,0:0:0:0:
156,144,35169,2,0,L|193:227,1,64
96,308,35516,2,0,P|127:303|164:308,1,64,0|0,0:0|0:0,0:0:0:0:
252,308,35863,2,0,P|283:312|336:304,1,64
344,184,36209,6,0,P|312:179|264:205,1,64,0|0,0:0|0:0,0:0:0:0:
408,260,36556,2,0,P|448:224|456:194,1,64,0|0,0:0|0:0,0:0:0:0:
424,136,36903,2,0,P|432:96|464:72,1,64,0|0,0:0|0:0,0:0:0:0:
352,56,37250,2,0,P|312:72|268:68,1,64,0|0,0:0|0:0,0:0:0:0:
180,60,37597,6,0,L|196:132,1,64,0|0,0:0|0:0,0:0:0:0:
272,156,37943,2,0,L|244:245,1,64,0|0,0:3|0:3,0:0:0:0:
352,312,38290,2,0,P|312:324|280:312,1,64,0|0,0:0|0:0,0:0:0:0:
204,280,38637,2,0,P|173:279|132:289,1,64
40,236,38984,6,0,L|72:315,2,64,0|0|0,0:0|0:0|0:0,0:0:0:0:
120,192,39504,2,0,P|134:150|132:112,1,64,0|0,0:0|0:3,0:0:0:0:
200,64,39851,1,0,0:3:0:0:
200,64,39938,1,0,0:3:0:0:
199,64,40024,2,0,L|284:72,1,64,0|0,0:3|0:3,0:0:0:0:
336,112,40371,6,0,P|328:148|300:180,1,64,0|0,0:0|0:0,0:0:0:0:
200,204,40718,2,0,P|192:240|196:272,1,64
296,276,41065,1,0,0:0:0:0:
396,264,41237,2,0,P|412:304|438:326,2,64
440,168,41758,6,0,P|420:88|340:80,1,160,0|0,0:0|0:0,0:0:0:0:
360,156,42279,1,0,0:0:0:0:
280,132,42452,2,0,P|260:100|264:52,1,80,0|0,0:0|0:0,0:0:0:0:
172,148,42799,2,0,P|168:179|179:238,1,80,0|0,0:0|0:0,0:0:0:0:
80,328,43146,6,0,P|119:325|169:336,1,80,0|0,0:0|0:0,0:0:0:0:
248,288,43493,2,0,P|277:300|337:306,1,80
308,216,43839,2,0,P|306:185|272:136,1,80,0|0,0:0|0:0,0:0:0:0:
172,148,44185,2,0,P|144:120|128:72,1,80
252,72,44533,6,0,P|283:65|340:32,2,80,0|0|0,0:1|0:1|0:0,0:0:0:0:
172,148,45053,1,0,0:1:0:0:
112,72,45227,2,0,P|84:112|73:141,1,80,0|0,0:1|0:1,0:0:0:0:
84,236,45573,1,0,0:0:0:0:
84,236,45747,1,0,0:1:0:0:
188,264,45920,6,0,P|180:304|196:348,1,80,0|0,0:0|0:0,0:0:0:0:
216,352,46180,1,0,0:0:0:0:
216,352,46267,2,0,L|280:284,1,80,0|0,0:0|0:0,0:0:0:0:
348,344,46614,1,0,0:0:0:0:
348,256,46787,2,0,P|345:220|308:180,2,80,0|0|0,0:0|0:0|0:0,0:0:0:0:
420,182,47308,6,0,P|449:155|468:120,1,80,0|0,0:0|0:0,0:0:0:0:
380,100,47654,2,0,P|351:100|284:64,1,80,0|0,0:0|0:0,0:0:0:0:
232,172,48001,2,0,P|228:136|200:100,1,80,0|0,0:0|0:0,0:0:0:0:
151,169,48348,2,0,P|126:200|120:240,1,80,0|0,0:0|0:0,0:0:0:0:
244,320,48695,6,0,P|283:320|332:300,1,80,0|0,0:0|0:0,0:0:0:0:
360,312,48955,1,0,0:0:0:0:
360,312,49042,2,0,L|376:240,1,64,0|0,0:0|0:0,0:0:0:0:
232,172,49389,1,0,0:0:0:0:
332,156,49562,2,0,P|360:132|380:84,2,64,0|0|0,0:0|0:0|0:0,0:0:0:0:
272,60,50081,6,0,L|192:80,1,64
176,81,50320,1,0,0:3:0:0:
131,79,50429,2,0,P|106:66|90:43,1,55.9999982910157,0|0,0:0|0:3,0:0:0:0:
0,92,50776,2,0,P|-7:124|8:152,1,64,0|0,0:0|0:0,0:0:0:0:
95,165,51123,2,0,P|104:196|100:228,1,64,0|0,0:0|0:0,0:0:0:0:
176,300,51469,6,0,L|245:304,1,55.9999982910157,0|0,0:1|0:0,0:0:0:0:
268,304,51730,1,0,0:0:0:0:
268,304,51816,2,0,P|299:334|322:343,1,64,0|0,0:0|0:0,0:0:0:0:
316,228,52163,1,0,0:0:0:0:
408,280,52336,2,0,L|464:204,2,64,0|0|0,0:0|0:0|0:0,0:0:0:0:
412,144,52857,6,0,P|380:124|329:127,1,64,0|0,0:0|0:0,0:0:0:0:
272,124,53204,2,0,P|245:129|217:129,1,55.9999982910157,0|0,0:0|0:0,0:0:0:0:
112,124,53550,2,0,P|116:96|117:40,1,64,0|0,0:0|0:0,0:0:0:0:
12,128,53897,2,0,P|1:170|-1:192,1,55.9999982910157,0|0,0:0|0:0,0:0:0:0:
100,216,54244,6,0,P|139:216|174:205,1,55.9999982910157,0|0,0:0|0:0,0:0:0:0:
191,186,54504,1,0,0:0:0:0:
191,186,54591,2,0,L|196:267,1,55.9999982910157,0|0,0:0|0:0,0:0:0:0:
240,104,54938,1,0,0:0:0:0:
309,164,55111,2,0,P|333:179|372:188,2,64,0|0|0,0:0|0:0|0:0,0:0:0:0:
300,312,55631,6,0,P|328:300|366:296,1,55.9999982910157,0|0,0:0|0:3,0:0:0:0:
395,310,55891,1,0,0:3:0:0:
395,310,55978,2,0,P|427:307|460:292,1,55.9999982910157,0|0,0:3|0:0,0:0:0:0:
454,211,56325,2,0,P|442:186|432:160,1,55.9999982910157,0|0,0:0|0:0,0:0:0:0:
344,112,56672,2,0,P|331:79|316:51,1,55.9999982910157,0|0,0:0|0:0,0:0:0:0:
208,188,57019,6,0,P|140:206|144:143,1,128,0|0,0:0|0:0,0:0:0:0:
88,80,57539,1,0,0:0:0:0:
88,80,57711,2,0,L|0:72,1,64
16,184,58059,2,0,L|19:254,1,64,0|0,0:0|0:0,0:0:0:0:
100,324,58406,6,0,P|131:327|162:336,1,64,0|0,0:0|0:0,0:0:0:0:
268,312,58753,2,0,P|273:280|273:248,1,64,0|0,0:0|0:0,0:0:0:0:
380,256,59099,2,0,P|377:224|378:192,1,64,0|0,0:0|0:0,0:0:0:0:
276,132,59446,2,0,L|276:64,1,64,0|0,0:0|0:0,0:0:0:0:
140,184,59793,6,0,P|130:223|135:260,2,64,0|0|0,0:0|0:0|0:0,0:0:0:0:
148,76,60313,1,0,0:0:0:0:
276,132,60487,2,0,L|358:122,1,64,0|0,0:0|0:0,0:0:0:0:
328,240,60834,2,0,L|399:257,1,64,0|0,0:0|0:0,0:0:0:0:
468,184,61180,6,0,P|477:153|482:104,1,64,0|0,0:0|0:3,0:0:0:0:
467,79,61441,1,0,0:3:0:0:
467,79,61527,1,0,0:3:0:0:
360,136,61701,2,0,L|284:100,2,64,0|0|0,0:0|0:0|0:0,0:0:0:0:
328,240,62221,2,0,P|289:248|246:247,1,64,0|0,0:0|0:0,0:0:0:0:
208,188,62568,6,0,L|209:124,2,64,0|0|0,0:0|0:0|0:0,0:0:0:0:
56,216,63087,1,0,0:0:0:0:
148,240,63261,2,0,P|212:272|271:237,1,128,0|0,0:0|0:0,0:0:0:0:
360,216,63955,6,0,P|375:240|389:280,2,64,0|0|0,0:0|0:0|0:0,0:0:0:0:
268,148,64475,1,0,0:0:0:0:
376,112,64649,2,0,P|437:98|487:59,1,128,0|0,0:0|0:0,0:0:0:0:
304,48,65342,6,0,P|264:48|216:72,2,64,0|0|0,0:0|0:0|0:0,0:0:0:0:
268,148,65862,1,0,0:0:0:0:
340,216,66036,2,0,P|343:247|337:278,2,64,0|0|0,0:0|0:0|0:0,0:0:0:0:
220,240,66556,1,0,0:0:0:0:
112,188,66730,6,0,P|104:219|88:246,1,64,0|0,0:0|0:0,0:0:0:0:
28,152,67076,2,0,P|36:124|64:96,1,64,0|0,0:0|0:0,0:0:0:0:
156,80,67423,2,0,L|225:73,2,64,0|0|0,0:0|0:0|0:0,0:0:0:0:
64,268,68117,6,0,L|39:347,2,80,0|0|0,0:1|0:0|0:0,0:0:0:0:
156,272,68637,2,0,P|149:233|130:198,1,80
36,172,68984,1,0,0:0:0:0:
129,103,69157,2,0,L|208:108,1,80,0|0,0:0|0:0,0:0:0:0:
272,168,69504,6,0,P|262:219|263:250,2,80,0|0|0,0:0|0:0|0:0,0:0:0:0:
360,244,70024,2,0,P|359:283|350:322,1,80
376,152,70371,1,0,0:0:0:0:
448,100,70544,2,0,L|364:52,1,80,0|0,0:0|0:0,0:0:0:0:
288,120,70891,6,0,P|260:72|272:27,2,80,0|0|0,0:0|0:0|0:0,0:0:0:0:
360,244,71412,2,0,B|268:253,1,80
136,284,71758,2,0,P|158:316|191:338,1,80,0|0,0:0|0:0,0:0:0:0:
204,244,72105,2,0,P|172:208|132:192,1,80,0|0,0:0|0:0,0:0:0:0:
88,120,72452,6,0,L|72:171,2,40,0|0|0,0:3|0:3|0:3,0:0:0:0:
244,164,72799,2,0,L|196:64,1,80,0|0,0:3|0:0,0:0:0:0:
319,100,73146,2,0,P|357:90|390:67,2,80,0|0|0,0:0|0:0|0:0,0:0:0:0:
368,208,73666,6,0,P|403:226|442:233,1,80,0|0,0:1|0:0,0:0:0:0:
376,308,74013,2,0,P|340:340|285:362,1,80,0|0,0:0|0:0,0:0:0:0:
208,316,74360,2,0,P|239:291|275:273,1,80,0|0,0:0|0:0,0:0:0:0:
280,184,74706,2,0,L|196:124,1,80,0|0,0:0|0:0,0:0:0:0:
120,72,75053,6,0,L|52:140,2,80,0|0|0,0:0|0:0|0:0,0:0:0:0:
216,51,75573,2,0,P|256:52|296:48,1,80
365,115,75920,2,0,P|404:119|444:112,2,80,0|0|0,0:0|0:0|0:0,0:0:0:0:
280,184,76441,6,0,L|285:273,1,80,0|0,0:0|0:3,0:0:0:0:
288,284,76701,1,0,0:3:0:0:
288,307,76787,1,0,0:3:0:0:
392,244,76961,2,0,P|436:248|470:231,1,80
416,172,77308,2,0,P|411:132|413:92,1,80,0|0,0:0|0:0,0:0:0:0:
328,56,77654,6,0,B|284:88|212:48|168:104,1,160
188,188,78175,2,0,L|99:175,1,80,0|0,0:0|0:0,0:0:0:0:
50,274,78521,2,0,L|128:255,1,80,0|0,0:0|0:0,0:0:0:0:
224,272,78868,2,0,P|234:316|232:361,1,80,0|0,0:0|0:0,0:0:0:0:
320,300,79215,6,0,L|400:292,2,80,0|0|0,0:1|0:0|0:0,0:0:0:0:
328,196,79735,2,0,P|336:152|248:88,1,160
248,164,80255,2,0,L|168:164,1,80,0|0,0:0|0:0,0:0:0:0:
116,100,80602,6,0,P|92:136|88:176,2,80,0|0|0,0:0|0:0|0:0,0:0:0:0:
208,56,81123,2,0,P|264:92|356:84,1,160
336,184,81642,2,0,L|416:179,1,80,0|0,0:0|0:0,0:0:0:0:
432,264,81990,6,0,P|445:318|442:363,2,80,0|0|0,0:0|0:0|0:0,0:0:0:0:
352,316,82510,2,0,B|250:331,1,80
168,240,82857,2,0,B|270:255,1,80,0|0,0:0|0:0,0:0:0:0:
344,160,83204,2,0,B|242:175,1,80,0|0,0:0|0:0,0:0:0:0:
176,112,83550,6,0,P|171:93|170:66,2,40,0|0|0,0:3|0:3|0:3,0:0:0:0:
88,228,83897,2,0,B|190:243,1,80,0|0,0:3|0:0,0:0:0:0:
255,238,84244,2,0,P|251:277|232:312,2,80,0|0|0,0:0|0:0|0:0,0:0:0:0:
344,160,84764,6,0,P|388:164|422:157,1,80,0|0,0:1|0:0,0:0:0:0:
476,92,85111,2,0,P|424:76|368:96,1,80,0|0,0:0|0:0,0:0:0:0:
312,72,85458,2,0,P|274:84|236:74,1,80,0|0,0:0|0:0,0:0:0:0:
155,110,85805,2,0,P|117:99|80:112,1,80,0|0,0:0|0:0,0:0:0:0:
116,184,86152,6,0,P|136:216|128:260,2,80,0|0|0,0:0|0:0|0:0,0:0:0:0:
212,264,86672,2,0,P|192:316|160:334,2,80,0|0|0,0:0|0:0|0:0,0:0:0:0:
328,292,87191,2,0,P|408:280|456:192,1,160
316,120,87711,5,0,0:0:0:0:
316,120,87799,1,0,0:3:0:0:
316,120,87886,2,0,P|354:131|393:133,1,80,0|0,0:3|0:0,0:0:0:0:
450,65,88232,2,0,P|474:97|484:136,1,80,0|0,0:0|0:0,0:0:0:0:
452,219,88579,2,0,P|415:233|375:237,1,80,0|0,0:0|0:3,0:0:0:0:
304,208,88926,6,0,L|310:299,1,80,0|0,0:0|0:0,0:0:0:0:
213,258,89273,2,0,L|184:184,1,80,0|0,0:0|0:0,0:0:0:0:
56,40,89620,5,0,0:0:0:0:
84,56,89792,2,0,B|124:52|148:88|148:88|196:40|244:84|244:84|312:48,1,240
440,96,91701,6,0,P|458:63|502:47,2,64,0|0|0,0:0|0:0|0:0,0:0:0:0:
392,172,92221,1,0,0:0:0:0:
288,205,92394,2,0,P|262:224|232:232,1,64
232,148,92741,2,0,P|230:116|219:86,1,64
152,136,93088,5,0,0:0:0:0:
152,136,93261,1,0,0:0:0:0:
69,172,93435,1,0,0:0:0:0:
69,172,93608,1,0,0:0:0:0:
136,264,93782,2,0,L|52:281,1,64
152,344,94128,2,0,L|224:332,1,64
224,244,94475,6,0,P|239:216|243:184,2,64,0|0|0,0:0|0:0|0:0,0:0:0:0:
144,184,94995,1,0,0:0:0:0:
204,88,95169,2,0,L|128:100,1,64
40,104,95516,2,0,P|44:65|43:27,1,64
144,184,95862,6,0,L|209:194,1,64,0|0,0:0|0:0,0:0:0:0:
284,296,96209,2,0,P|286:264|292:232,1,64,0|0,0:0|0:0,0:0:0:0:
380,192,96556,2,0,P|386:223|388:255,1,64,0|0,0:0|0:0,0:0:0:0:
424,328,96903,2,0,L|487:318,1,64,0|0,0:0|0:0,0:0:0:0:
480,208,97250,6,0,P|472:177|452:152,2,64,0|0|0,0:0|0:0|0:0,0:0:0:0:
380,192,97770,1,0,0:0:0:0:
376,108,97943,2,0,L|302:123,1,64
268,220,98290,2,0,L|199:213,1,64
152,144,98637,5,0,0:0:0:0:
152,144,98810,1,0,0:0:0:0:
211,76,98984,1,0,0:0:0:0:
211,76,99157,1,0,0:0:0:0:
60,124,99331,6,0,P|57:88|63:53,1,64
12,200,99678,2,0,P|42:209|74:211,1,64
156,228,100024,6,0,L|168:293,2,64,0|0|0,0:0|0:0|0:0,0:0:0:0:
248,252,100545,1,0,0:0:0:0:
220,168,100718,2,0,P|236:140|260:116,1,64
352,184,101065,2,0,L|350:267,1,64
324,336,101412,6,0,L|386:321,2,64,0|0|0,0:1|0:1|0:1,0:0:0:0:
248,252,101932,1,0,0:1:0:0:
220,168,102105,2,0,L|157:153,2,64,0|0|0,0:1|0:1|0:1,0:0:0:0:
288,88,102626,1,0,0:1:0:0:
384,152,102799,5,0,0:0:0:0:
384,152,102972,2,0,L|412:92,1,64,0|0,0:0|0:0,0:0:0:0:
288,88,103319,2,0,P|220:56|152:80,1,128,0|0,0:0|0:0,0:0:0:0:
220,152,103839,1,0,0:0:0:0:
196,320,104186,6,0,L|290:312,1,64,0|0,0:0|0:0,0:0:0:0:
336,224,104533,2,0,L|244:232,1,64,0|0,0:0|0:0,0:0:0:0:
160,216,104880,2,0,P|166:184|161:153,1,64
76,104,105227,2,0,P|69:135|74:166,1,64,0|0,0:0|0:0,0:0:0:0:
160,216,105573,6,0,P|135:236|105:246,2,64,0|0|0,0:0|0:0|0:0,0:0:0:0:
168,120,106094,1,0,0:0:0:0:
256,172,106267,2,0,L|272:104,1,64
376,60,106614,2,0,L|360:140,1,64,0|0,0:0|0:0,0:0:0:0:
460,180,106961,6,0,P|468:212|460:248,2,64,0|0|0,0:0|0:0|0:0,0:0:0:0:
388,216,107481,1,0,0:0:0:0:
304,190,107654,6,0,P|304:158|310:126,1,64,0|0,0:0|0:0,0:0:0:0:
276,44,108001,2,0,L|197:28,1,64,0|0,0:0|0:0,0:0:0:0:
108,72,108348,5,0,0:0:0:0:
108,72,108521,2,0,L|105:135,1,64,0|0,0:0|0:0,0:0:0:0:
20,179,108868,2,0,P|43:237|32:300,1,128,0|0,0:0|0:0,0:0:0:0:
124,328,109388,1,0,0:0:0:0:
200,264,109735,6,0,P|236:276|277:270,1,64,0|0,0:0|0:0,0:0:0:0:
336,328,110082,2,0,P|352:300|352:264,1,64,0|0,0:0|0:0,0:0:0:0:
312,184,110429,2,0,P|298:155|300:124,1,64
380,135,110776,2,0,L|444:128,1,64,0|0,0:0|0:0,0:0:0:0:
466,216,111123,6,0,P|472:248|472:280,2,64,0|0|0,0:0|0:0|0:0,0:0:0:0:
380,135,111643,1,0,0:0:0:0:
312,184,111816,2,0,L|244:228,1,64
220,144,112163,2,0,L|168:104,1,64,0|0,0:0|0:0,0:0:0:0:
108,160,112510,6,0,P|92:128|90:94,2,64,0|0|0,0:0|0:0|0:0,0:0:0:0:
56,236,113030,1,0,0:0:0:0:
156,244,113203,2,0,L|232:292,1,64,0|0,0:0|0:0,0:0:0:0:
280,240,113550,2,0,L|317:306,1,64
412,264,113897,6,0,L|428:171,1,80,0|0,0:0|0:0,0:0:0:0:
428,168,114157,1,0,0:0:0:0:
432,148,114244,2,0,L|342:176,1,80,0|0,0:0|0:0,0:0:0:0:
296,112,114591,1,0,0:0:0:0:
260,32,114764,2,0,P|230:44|196:88,2,80,0|0|0,0:0|0:0|0:0,0:0:0:0:
144,184,115285,6,0,L|60:212,1,80,0|0,0:0|0:0,0:0:0:0:
34,87,115631,2,0,L|120:108,1,80,0|0,0:0|0:0,0:0:0:0:
199,97,115978,2,0,P|215:74|224:16,1,80,0|0,0:0|0:0,0:0:0:0:
308,64,116325,2,0,L|388:52,1,80,0|0,0:0|0:0,0:0:0:0:
416,124,116672,6,0,L|415:210,1,80,0|0,0:0|0:0,0:0:0:0:
412,216,116932,1,0,0:0:0:0:
412,234,117019,2,0,P|437:222|496:232,1,80,0|0,0:0|0:0,0:0:0:0:
452,300,117366,1,0,0:0:0:0:
360,308,117539,2,0,P|301:289|273:286,2,80,0|0|0,0:0|0:0|0:0,0:0:0:0:
296,184,118059,6,0,L|296:96,1,80,0|0,0:0|0:3,0:0:0:0:
292,88,118319,1,0,0:3:0:0:
281,79,118406,2,0,P|236:88|196:76,1,80,0|0,0:3|0:0,0:0:0:0:
112,80,118753,2,0,L|128:164,1,80,0|0,0:0|0:0,0:0:0:0:
208,180,119100,2,0,L|180:268,1,80,0|0,0:0|0:0,0:0:0:0:
128,276,119446,6,0,P|84:268|40:268,1,80,0|0,0:0|0:0,0:0:0:0:
20,196,119793,2,0,L|8:104,1,80,0|0,0:0|0:0,0:0:0:0:
80,56,120140,1,0,0:0:0:0:
148,136,120313,2,0,P|182:151|230:139,2,80,0|0|0,0:0|0:0|0:0,0:0:0:0:
192,64,120834,6,0,P|218:56|272:56,1,80,0|0,0:0|0:0,0:0:0:0:
368,32,121181,2,0,P|365:59|372:120,1,80,0|0,0:0|0:0,0:0:0:0:
452,108,121527,2,0,P|455:135|448:192,1,80,0|0,0:0|0:0,0:0:0:0:
368,200,121874,2,0,P|364:252|372:280,1,80,0|0,0:0|0:0,0:0:0:0:
280,292,122221,6,0,B|268:248|268:248|276:204,1,80,0|0,0:0|0:0,0:0:0:0:
268,196,122481,1,0,0:0:0:0:
256,184,122568,2,0,L|168:232,1,80,0|0,0:0|0:0,0:0:0:0:
128,136,122915,1,0,0:0:0:0:
216,108,123088,2,0,P|214:81|244:32,2,80,0|0|0,0:0|0:0|0:0,0:0:0:0:
296,92,123608,6,0,P|323:92|379:118,1,80,0|0,0:0|0:3,0:0:0:0:
394,110,123868,1,0,0:3:0:0:
394,110,123955,2,0,L|417:15,1,80,0|0,0:3|0:0,0:0:0:0:
480,144,124302,2,0,P|492:180|496:240,1,80,0|0,0:0|0:0,0:0:0:0:
432,296,124649,2,0,P|416:264|384:220,1,80,0|0,0:0|0:0,0:0:0:0:
288,232,124996,6,0,P|252:277|224:208,1,160,0|0,0:0|0:0,0:0:0:0:
236,112,125516,1,0,0:0:0:0:
128,172,125689,1,0,0:0:0:0:
144,76,125862,1,0,0:0:0:0:
144,76,126036,2,0,L|52:56,1,80,0|0,0:0|0:0,0:0:0:0:
5,132,126383,6,0,P|9:164|4:224,1,80,0|0,0:0|0:0,0:0:0:0:
76,248,126730,2,0,P|72:279|80:328,1,80,0|0,0:0|0:0,0:0:0:0:
152,280,127076,2,0,L|240:312,1,80,0|0,0:0|0:0,0:0:0:0:
236,220,127423,2,0,L|328:204,1,80,0|0,0:0|0:0,0:0:0:0:
268,128,127770,6,0,P|276:74|264:40,2,80,0|0|0,0:0|0:0|0:0,0:0:0:0:
192,88,128290,1,0,0:0:0:0:
144,168,128464,2,0,L|140:264,1,80,0|0,0:0|0:0,0:0:0:0:
236,220,128811,2,0,L|284:296,1,80,0|0,0:0|0:0,0:0:0:0:
344,236,129157,6,0,P|374:211|388:164,1,80,0|0,0:0|0:3,0:0:0:0:
395,144,129418,1,0,0:3:0:0:
395,144,129504,1,0,0:3:0:0:
404,56,129678,2,0,P|440:48|488:64,2,80,0|0|0,0:0|0:0|0:0,0:0:0:0:
312,96,130198,2,0,P|281:85|208:88,1,80,0|0,0:0|0:0,0:0:0:0:
184,160,130545,6,0,P|192:204|176:256,2,80,0|0|0,0:0|0:0|0:0,0:0:0:0:
96,104,131065,1,0,0:0:0:0:
108,204,131238,2,0,P|104:268|196:316,1,160,0|0,0:0|0:0,0:0:0:0:
336,324,131932,6,0,P|364:296|384:224,2,80,0|0|0,0:0|0:0|0:0,0:0:0:0:
300,248,132452,1,0,0:0:0:0:
360,180,132625,2,0,P|432:152|424:60,1,160,0|0,0:0|0:0,0:0:0:0:
284,76,133319,6,0,P|244:84|212:120,2,80,0|0|0,0:0|0:0|0:0,0:0:0:0:
368,104,133839,1,0,0:0:0:0:
280,184,134013,2,0,P|256:204|200:216,2,80,0|0|0,0:0|0:0|0:0,0:0:0:0:
216,110,134533,1,0,0:0:0:0:
116,84,134707,6,0,P|80:80|32:116,1,80,0|0,0:0|0:0,0:0:0:0:
96,164,135053,2,0,P|77:190|71:243,1,80,0|0,0:0|0:0,0:0:0:0:
160,224,135400,2,0,L|192:304,2,80,0|0|0,0:0|0:0|0:0,0:0:0:0:
264,228,136094,6,0,L|344:224,2,80,0|0|0,0:1|0:0|0:0,0:0:0:0:
272,124,136614,2,0,P|265:86|277:47,1,80
356,104,136961,1,0,0:0:0:0:
424,168,137134,2,0,L|436:260,1,80,0|0,0:0|0:0,0:0:0:0:
368,312,137481,6,0,P|319:318|285:298,2,80,0|0|0,0:0|0:0|0:0,0:0:0:0:
336,240,138001,2,0,L|268:196,1,80,0|0,2:0|0:0,0:0:0:0:
176,224,138348,1,0,0:0:0:0:
204,140,138521,2,0,P|200:100|189:61,1,80,0|0,0:0|0:0,0:0:0:0:
121,113,138868,6,0,P|81:110|44:96,2,80,0|0|0,0:0|0:0|0:0,0:0:0:0:
176,224,139389,2,0,P|180:264|176:304,1,80
264,140,139735,2,0,P|264:100|258:61,1,80,0|0,0:0|0:0,0:0:0:0:
352,84,140082,2,0,P|349:134|354:181,1,80,0|0,0:0|0:0,0:0:0:0:
412,224,140429,6,0,L|370:264,2,40,0|0|0,0:3|0:3|0:3,0:0:0:0:
351,162,140776,2,0,P|311:170|275:186,1,80,0|0,0:3|0:0,0:0:0:0:
196,212,141123,2,0,P|194:172|206:134,2,80,0|0|0,0:0|0:0|0:0,0:0:0:0:
168,308,141643,6,0,P|216:308|264:280,1,80,0|0,0:1|0:0,0:0:0:0:
348,340,141990,2,0,P|341:301|342:261,1,80,0|0,0:0|0:0,0:0:0:0:
420,220,142337,2,0,P|424:180|412:124,1,80,0|0,0:0|0:0,0:0:0:0:
368,64,142683,2,0,P|324:64|288:71,1,80,0|0,0:0|0:0,0:0:0:0:
260,152,143030,6,0,P|216:149|173:161,2,80,0|0|0,2:0|2:0|2:0,0:0:0:0:
224,240,143550,2,0,P|208:281|172:316,1,80,0|0,2:0|2:0,0:0:0:0:
128,232,143897,2,0,P|96:260|40:285,2,80,0|0|0,0:0|0:0|0:0,0:0:0:0:
52,184,144418,6,0,L|54:104,1,80,0|0,0:0|0:3,0:0:0:0:
64,84,144678,1,0,0:3:0:0:
76,68,144764,1,0,0:3:0:0:
172,116,144938,2,0,P|211:110|251:112,1,80
328,104,145285,2,0,P|317:161|291:186,1,80,0|0,0:0|0:0,0:0:0:0:
218,211,145631,6,0,P|157:236|208:280,1,160
296,268,146152,2,0,L|298:353,1,80,0|0,0:0|0:0,0:0:0:0:
376,288,146498,2,0,L|372:204,1,80,0|0,0:0|0:0,0:0:0:0:
320,148,146845,2,0,P|356:128|408:136,1,80,0|0,0:0|0:0,0:0:0:0:
472,152,147192,6,0,P|472:108|458:73,2,80,0|0|0,0:1|0:0|0:0,0:0:0:0:
512,228,147711,2,0,P|476:239|368:176,1,160
364,96,148232,2,0,L|277:68,1,80,0|0,0:0|0:0,0:0:0:0:
232,142,148579,6,0,P|192:139|156:124,2,80,0|0|0,0:0|0:0|0:0,0:0:0:0:
228,240,149099,2,0,P|197:260|112:176,1,160
156,124,149619,2,0,L|92:64,1,80,0|0,0:0|0:0,0:0:0:0:
192,36,149967,6,0,P|233:52|268:62,2,80,0|0|0,0:0|0:0|0:0,0:0:0:0:
101,77,150487,2,0,P|73:105|51:139,1,80
88,252,150834,2,0,P|125:264|165:268,1,80,0|0,0:0|0:0,0:0:0:0:
248,184,151181,2,0,P|242:136|224:95,1,80,0|0,0:0|0:0,0:0:0:0:
332,136,151527,6,0,P|354:137|378:130,2,40,0|0|0,0:3|0:3|0:3,0:0:0:0:
276,40,151874,2,0,P|236:28|196:36,1,80,0|0,0:3|0:0,0:0:0:0:
148,108,152221,2,0,P|124:73|118:21,2,80,0|0|0,0:0|0:0|0:0,0:0:0:0:
231,106,152741,6,0,L|221:210,1,80,0|0,0:1|0:0,0:0:0:0:
299,178,153088,2,0,L|320:256,1,80,0|0,0:0|0:0,0:0:0:0:
392,208,153435,2,0,L|465:282,1,80,0|0,0:0|0:0,0:0:0:0:
488,180,153782,2,0,L|464:90,1,80,0|0,0:0|0:0,0:0:0:0:
384,88,154129,6,0,P|340:80|289:93,2,80,0|0|0,0:0|0:0|0:0,0:0:0:0:
299,180,154649,2,0,P|260:187|224:172,2,80,0|0|0,0:0|0:0|0:0,0:0:0:0:
352,272,155169,1,0,0:0:0:0:
240,304,155516,6,0,P|190:301|151:290,1,80,0|0,0:0|0:3,0:0:0:0:
128,266,155776,1,0,0:3:0:0:
128,266,155863,2,0,P|146:228|150:182,1,80,0|0,0:3|0:0,0:0:0:0:
232,152,156209,2,0,P|206:119|175:95,1,80,0|0,0:0|0:0,0:0:0:0:
112,52,156556,2,0,P|96:88|105:131,1,80,0|0,0:0|0:3,0:0:0:0:
232,152,156903,6,0,L|313:163,1,80,0|0,0:0|0:0,0:0:0:0:
340,76,157250,2,0,L|394:136,1,80,0|0,0:0|0:0,0:0:0:0:
472,192,157597,5,0,0:0:0:0:
256,192,157769,12,0,158290,0:0:0:0:
420,36,170776,6,0,L|414:101,1,64,0|0,0:0|0:0,0:0:0:0:
336,112,171123,2,0,L|349:174,1,64,0|0,0:0|0:0,0:0:0:0:
424,192,171469,2,0,L|408:260,1,64,0|0,0:0|0:0,0:0:0:0:
324,248,171816,2,0,L|248:256,1,64,0|0,0:0|0:0,0:0:0:0:
208,328,172163,6,0,P|168:316|136:326,2,64,0|0|0,0:0|0:0|0:0,0:0:0:0:
184,228,172683,1,0,0:0:0:0:
267,174,172857,2,0,P|256:144|236:120,1,64,0|0,0:0|0:0,0:0:0:0:
160,100,173204,2,0,P|194:54|225:48,1,64,0|0,0:0|0:0,0:0:0:0:
316,64,173550,6,0,L|376:96,1,64,0|0,0:0|0:0,0:0:0:0:
430,150,173897,2,0,L|376:184,1,64,0|0,0:0|0:0,0:0:0:0:
296,232,174243,2,0,L|360:264,1,64,0|0,0:0|0:0,0:0:0:0:
434,260,174590,2,0,L|424:324,1,64,0|0,0:0|0:0,0:0:0:0:
288,324,174938,5,0,0:0:0:0:
192,260,175111,1,0,0:0:0:0:
248,160,175284,2,0,P|212:165|173:166,1,64,0|0,0:0|0:0,0:0:0:0:
192,80,175631,1,0,0:0:0:0:
104,132,175805,1,0,0:0:0:0:
104,132,175978,2,0,P|100:165|107:208,1,64,0|0,0:0|0:0,0:0:0:0:
108,304,176325,6,0,P|83:323|55:337,2,64,0|0|0,0:0|0:0|0:0,0:0:0:0:
192,260,176845,1,0,0:0:0:0:
263,221,177019,2,0,P|255:179|236:138,2,64,0|0|0,0:0|0:0|0:0,0:0:0:0:
268,320,177539,1,0,0:0:0:0:
348,276,177712,6,0,P|358:320|355:357,2,64,0|0|0,0:0|0:0|0:0,0:0:0:0:
364,192,178232,1,0,0:0:0:0:
448,220,178406,2,0,P|448:186|439:156,1,64,0|0,0:0|0:0,0:0:0:0:
380,88,178753,1,0,0:0:0:0:
280,128,178926,1,0,0:0:0:0:
260,112,179013,1,0,0:0:0:0:
239,95,179099,6,0,P|208:98|177:91,1,64,0|0,0:0|0:0,0:0:0:0:
188,180,179446,2,0,P|177:210|174:242,1,64,0|0,0:0|0:0,0:0:0:0:
88,200,179793,2,0,L|21:211,2,64,0|0|0,0:0|0:0|0:0,0:0:0:0:
88,104,180313,1,0,0:0:0:0:
256,68,180486,5,0,0:0:0:0:
268,72,180573,1,0,0:0:0:0:
284,76,180659,1,0,0:0:0:0:
300,84,180746,1,0,0:0:0:0:
315,98,180834,2,0,L|322:181,1,64,0|0,0:0|0:0,0:0:0:0:
341,247,181180,2,0,L|320:308,1,64,0|0,0:1|0:1,0:0:0:0:
248,336,181527,2,0,P|216:321|194:286,1,64,0|0,0:1|0:1,0:0:0:0:
228,184,181874,5,0,0:0:0:0:
108,76,187076,6,0,P|164:80|188:96,1,64
136,152,187422,2,0,B|119:217|160:214|139:277,1,128,0|0,0:1|0:0,0:0:0:0:
216,308,187943,6,0,P|230:246|212:180,1,128,0|0,0:0|0:0,0:0:0:0:
264,108,188464,2,0,L|328:100,1,64,0|0,0:0|0:0,0:0:0:0:
384,40,188810,6,0,P|412:84|388:164,1,128,0|0,0:0|0:0,0:0:0:0:
264,108,189331,6,0,B|258:144|282:176|282:176|275:199|275:199|289:219|295:241,1,128,0|0,0:0|0:0,0:0:0:0:
197,182,189851,2,0,P|166:188|136:200,1,64,0|0,0:0|0:0,0:0:0:0:
207,265,190198,6,0,P|191:292|188:324,2,64,0|0|0,0:0|0:0|0:0,0:0:0:0:
272,320,190718,1,0,0:0:0:0:
364,236,190891,1,0,0:0:0:0:
272,320,191064,1,0,0:0:0:0:
364,236,191237,1,0,0:0:0:0:
460,328,191411,2,0,L|484:256,1,64
384,36,191931,6,0,P|316:20|236:44,2,128
448,116,192972,6,0,L|473:37,2,80,0|0|0,0:1|0:0|0:0,0:0:0:0:
356,112,193492,2,0,P|363:151|382:186,1,80
476,212,193839,1,0,0:0:0:0:
383,281,194012,2,0,L|304:276,1,80,0|0,0:0|0:0,0:0:0:0:
240,216,194359,6,0,P|250:165|249:134,2,80,0|0|0,0:0|0:0|0:0,0:0:0:0:
152,140,194879,2,0,P|153:101|162:62,1,80
136,232,195226,1,0,0:0:0:0:
64,284,195399,2,0,L|148:332,1,80,0|0,0:0|0:0,0:0:0:0:
224,264,195746,6,0,P|252:312|240:357,2,80,0|0|0,0:0|0:0|0:0,0:0:0:0:
152,140,196267,2,0,B|244:131,1,80
376,100,196613,2,0,P|354:68|321:46,1,80,0|0,0:0|0:0,0:0:0:0:
308,140,196960,2,0,P|340:176|380:192,1,80,0|0,0:0|0:0,0:0:0:0:
424,264,197307,6,0,L|440:213,2,40,0|0|0,0:3|0:3|0:3,0:0:0:0:
268,220,197654,2,0,L|316:320,1,80,0|0,0:3|0:0,0:0:0:0:
193,284,198001,2,0,P|155:294|122:317,2,80,0|0|0,0:0|0:0|0:0,0:0:0:0:
144,176,198521,6,0,P|109:158|70:151,1,80,0|0,0:1|0:0,0:0:0:0:
136,76,198868,2,0,P|172:44|227:22,1,80,0|0,0:0|0:0,0:0:0:0:
304,68,199215,2,0,P|273:93|237:111,1,80,0|0,0:0|0:0,0:0:0:0:
232,200,199561,2,0,L|316:260,1,80,0|0,0:0|0:0,0:0:0:0:
392,312,199908,6,0,L|460:244,2,80,0|0|0,0:0|0:0|0:0,0:0:0:0:
296,333,200428,2,0,P|256:332|216:336,1,80
147,269,200775,2,0,P|108:265|68:272,2,80,0|0|0,0:0|0:0|0:0,0:0:0:0:
232,200,201296,6,0,L|227:111,1,80,0|0,0:0|0:3,0:0:0:0:
224,96,201556,1,0,0:3:0:0:
224,77,201642,1,0,0:3:0:0:
120,140,201816,2,0,P|76:136|42:153,1,80
96,212,202163,2,0,P|101:252|99:292,1,80,0|0,0:0|0:0,0:0:0:0:
184,328,202509,6,0,B|228:296|300:336|344:280,1,160
324,196,203030,2,0,L|413:209,1,80,0|0,0:0|0:0,0:0:0:0:
462,110,203376,2,0,L|384:129,1,80,0|0,0:0|0:0,0:0:0:0:
288,112,203723,2,0,P|278:68|280:23,1,80,0|0,0:0|0:0,0:0:0:0:
192,84,204070,6,0,L|112:92,2,80,0|0|0,0:1|0:0|0:0,0:0:0:0:
196,176,204590,2,0,P|180:228|256:300,1,160
264,220,205110,2,0,L|344:220,1,80,0|0,0:0|0:0,0:0:0:0:
396,284,205457,6,0,P|420:248|424:208,2,80,0|0|0,0:0|0:0|0:0,0:0:0:0:
301,315,205978,2,0,B|248:276|184:320|148:272,1,160
176,200,206497,2,0,L|96:205,1,80,0|0,0:0|0:0,0:0:0:0:
80,120,206845,6,0,P|67:66|70:21,2,80,0|0|0,0:0|0:0|0:0,0:0:0:0:
160,68,207365,2,0,B|262:53,1,80
344,144,207712,2,0,B|242:129,1,80,0|0,0:0|0:0,0:0:0:0:
168,224,208059,2,0,B|270:209,1,80,0|0,0:0|0:0,0:0:0:0:
336,272,208405,6,0,P|341:291|342:318,2,40,0|0|0,0:3|0:3|0:3,0:0:0:0:
424,156,208752,2,0,B|322:141,1,80,0|0,0:3|0:0,0:0:0:0:
257,146,209099,2,0,P|261:107|280:72,2,80,0|0|0,0:0|0:0|0:0,0:0:0:0:
168,224,209619,6,0,P|124:220|90:227,1,80,0|0,0:1|0:0,0:0:0:0:
36,292,209966,2,0,P|88:308|144:288,1,80,0|0,0:0|0:0,0:0:0:0:
200,312,210313,2,0,P|238:300|276:310,1,80,0|0,0:0|0:0,0:0:0:0:
357,274,210660,2,0,P|395:285|432:272,1,80,0|0,0:0|0:0,0:0:0:0:
396,200,211007,6,0,P|376:168|384:124,2,80,0|0|0,0:0|0:0|0:0,0:0:0:0:
300,120,211527,2,0,P|320:68|352:50,2,80,0|0|0,0:0|0:0|0:0,0:0:0:0:
184,92,212047,2,0,P|104:104|56:192,1,160
196,264,212566,5,0,0:0:0:0:
196,264,212654,1,0,0:3:0:0:
196,264,212741,2,0,P|158:253|119:251,1,80,0|0,0:3|0:0,0:0:0:0:
62,319,213087,2,0,P|38:287|28:248,1,80,0|0,0:0|0:0,0:0:0:0:
60,165,213434,2,0,P|97:151|137:147,1,80,0|0,0:0|0:3,0:0:0:0:
224,176,213781,6,0,L|218:85,1,80,0|0,0:0|0:0,0:0:0:0:
308,148,214128,2,0,L|337:222,1,80,0|0,0:0|0:0,0:0:0:0:
256,192,214474,12,0,215168,0:0:0:0:
