osu file format v14

[General]
AudioFilename: audio.mp3
AudioLeadIn: 0
PreviewTime: 80421
Countdown: 0
SampleSet: Soft
StackLeniency: 0.7
Mode: 0
LetterboxInBreaks: 0
WidescreenStoryboard: 0

[Editor]
DistanceSpacing: 1
BeatDivisor: 4
GridSize: 32
TimelineZoom: 3.399999

[Metadata]
Title:Daemonisch
TitleUnicode:デモーニッシュ
Artist:TUYU
ArtistUnicode:ツユ
Creator:Keqing
Version:Guan's Extra
Source:
Tags:devilish dämonisch demonish bongo guanineso stratos iljaaz -aqua captin1 ajisai- Woood13 SnowNiNo_ frozz -Keqing kazato asa shikibe mayu shizuku- pusu ぷす omutatsu おむたつ jpop j-pop japanese pop female vocals
BeatmapID:2973619
BeatmapSetID:1443294

[Difficulty]
HPDrainRate:5.4
CircleSize:4
OverallDifficulty:9
ApproachRate:9.2
SliderMultiplier:1.74
SliderTickRate:1

[Events]
//Background and Video events
0,0,"tuyu.png",0,0
Video,-54,"aa.mp4"
//Break Periods
//Storyboard Layer 0 (Background)
//Storyboard Layer 1 (Fail)
//Storyboard Layer 2 (Pass)
//Storyboard Layer 3 (Foreground)
//Storyboard Layer 4 (Overlay)
//Storyboard Sound Samples

[TimingPoints]
850,428.571428571429,4,2,4,50,1,0
850,-135.135135135135,4,2,4,50,0,0
3421,-106.382978723404,4,2,4,50,0,0
4278,333.333333333333,4,2,4,65,1,0
4278,-106.382978723404,4,2,4,65,0,0
12277,-87.7192982456139,4,2,4,65,0,0
14944,-106.382978723404,4,2,4,75,0,0
22944,-74.6268656716418,4,2,4,75,0,0
25444,-106.382978723404,4,2,4,75,0,0
25527,-106.382978723404,4,2,4,75,0,0
26277,300,4,2,4,90,1,0
26277,-64.9350649350649,4,2,4,90,0,0
27477,-87.719298245614,4,2,4,90,0,0
27777,-64.9350649350649,4,2,4,90,0,0
31077,-135.135135135135,4,2,4,90,0,0
31377,-64.9350649350649,4,2,4,90,0,0
31677,-135.135135135135,4,2,4,90,0,0
31977,-64.9350649350649,4,2,4,90,0,0
33177,-74.6268656716418,4,2,4,90,0,0
33477,-64.9350649350649,4,2,4,90,0,0
35277,-74.6268656716418,4,2,4,90,0,0
35577,-64.9350649350649,4,2,4,90,0,0
36777,-106.382978723404,4,2,4,90,0,0
37077,-294.117647058824,4,2,4,90,0,0
38127,-106.382978723404,4,2,4,90,0,0
38277,-64.9350649350649,4,2,4,90,0,1
41877,-64.9350649350649,4,2,4,90,0,1
42102,-64.9350649350649,4,2,4,5,0,1
42177,-64.9350649350649,4,2,4,90,0,1
42402,-64.9350649350649,4,2,4,5,0,1
42477,-64.9350649350649,4,2,4,90,0,1
43077,-106.382978723404,4,2,4,90,0,0
46077,-294.117647058822,4,2,4,90,0,0
46377,-87.7192982456139,4,2,4,90,0,0
46677,-294.117647058824,4,2,4,90,0,0
46977,-87.719298245614,4,2,4,90,0,0
47877,-714.285714285714,4,2,4,90,0,0
49527,-294.117647058824,4,2,4,90,0,0
50277,-74.6268656716418,4,2,4,90,0,1
52077,-64.9350649350649,4,2,4,90,0,1
52677,-74.6268656716418,4,2,4,90,0,1
54777,-74.6268656716418,4,2,4,90,0,0
55077,428.571428571429,4,2,4,90,1,0
55077,-135.135135135135,4,2,4,90,0,0
55934,-135.135135135135,4,2,4,50,0,0
58505,333.333333333333,4,2,4,65,1,0
58505,-106.382978723404,4,2,4,65,0,0
66504,-87.7192982456139,4,2,4,65,0,0
69171,-106.382978723404,4,2,4,75,0,0
77171,-74.6268656716417,4,2,4,75,0,0
79671,-106.382978723404,4,2,4,75,0,0
79754,-106.382978723404,4,2,4,75,0,0
80504,300,4,2,4,90,1,0
80504,-64.9350649350649,4,2,4,90,0,0
81704,-87.719298245614,4,2,4,90,0,0
82004,-64.9350649350649,4,2,4,90,0,0
85304,-135.135135135135,4,2,4,90,0,0
85604,-64.9350649350649,4,2,4,90,0,0
85904,-135.135135135135,4,2,4,90,0,0
86204,-64.9350649350649,4,2,4,90,0,0
87404,-74.6268656716418,4,2,4,90,0,0
87704,-64.9350649350649,4,2,4,90,0,0
89504,-74.6268656716418,4,2,4,90,0,0
89804,-64.9350649350649,4,2,4,90,0,0
91004,-106.382978723404,4,2,4,90,0,0
91304,-294.117647058824,4,2,4,90,0,0
92354,-106.382978723404,4,2,4,90,0,0
92504,-64.9350649350649,4,2,4,90,0,1
96104,-64.9350649350649,4,2,4,90,0,1
96329,-64.9350649350649,4,2,4,5,0,1
96404,-64.9350649350649,4,2,4,90,0,1
96629,-64.9350649350649,4,2,4,5,0,1
96704,-64.9350649350649,4,2,4,90,0,1
97304,-106.382978723404,4,2,4,75,0,0
100304,-294.117647058822,4,2,4,75,0,0
100604,-87.7192982456139,4,2,4,75,0,0
100904,-294.117647058824,4,2,4,75,0,0
101204,-87.719298245614,4,2,4,75,0,0
102104,-714.285714285714,4,2,4,75,0,0
103754,-294.117647058824,4,2,4,75,0,0
104504,-87.719298245614,4,2,4,75,0,0
104804,-96.1538461538461,4,2,4,75,0,0
105104,-106.382978723404,4,2,4,75,0,0
105404,-119.047619047619,4,2,4,75,0,0
105704,-135.135135135135,4,2,4,75,0,0
106004,-156.25,4,2,4,75,0,0
106304,-185.185185185185,4,2,4,75,0,0
106904,-87.719298245614,4,2,4,75,0,0
107204,-96.1538461538461,4,2,4,75,0,0
107504,-106.382978723404,4,2,4,75,0,0
107804,-119.047619047619,4,2,4,75,0,0
108104,-135.135135135135,4,2,4,75,0,0
108404,-156.25,4,2,4,75,0,0
108704,-185.185185185185,4,2,4,75,0,0
109304,-74.6268656716418,4,2,4,90,0,1
112304,-57.4712643678161,4,2,4,90,0,1
112454,-57.4712643678161,4,2,4,5,0,1
112529,-57.4712643678161,4,2,4,90,0,1
112679,-57.4712643678161,4,2,4,5,0,1
112754,-57.4712643678161,4,2,4,90,0,1
112829,-57.4712643678161,4,2,4,5,0,1
112904,-57.4712643678161,4,2,4,90,0,1
113054,-57.4712643678161,4,2,4,5,0,1
113129,-57.4712643678161,4,2,4,90,0,1
113279,-57.4712643678161,4,2,4,5,0,1
113354,-57.4712643678161,4,2,4,90,0,1
113429,-57.4712643678161,4,2,4,5,0,1
113504,-57.4712643678161,4,2,4,90,0,1
113541,-57.4712643678161,4,2,4,5,0,1
113729,-57.4712643678161,4,2,4,90,0,1
113766,-57.4712643678161,4,2,4,5,0,1
113954,-57.4712643678161,4,2,4,90,0,1
113991,-57.4712643678161,4,2,4,5,0,1
114104,-57.4712643678161,4,2,4,80,0,1
114704,300,4,2,4,60,1,0
114704,-294.117647058824,4,2,4,60,0,0
119504,-106.382978723404,4,2,4,75,0,0
124004,-185.185185185184,4,2,4,75,0,0
125504,-714.285714285694,4,2,4,75,0,0
126704,-64.9350649350649,4,2,4,90,0,1
130304,-64.9350649350649,4,2,4,90,0,1
130529,-64.9350649350649,4,2,4,5,0,1
130604,-64.9350649350649,4,2,4,90,0,1
130829,-64.9350649350649,4,2,4,5,0,1
130904,-64.9350649350649,4,2,4,90,0,1
131504,-106.382978723404,4,2,4,90,0,0
134504,-294.117647058822,4,2,4,90,0,0
134804,-87.7192982456139,4,2,4,90,0,0
135104,-294.117647058824,4,2,4,90,0,0
135404,-87.719298245614,4,2,4,90,0,0
136304,-106.382978723404,4,2,4,90,0,0
138404,-185.185185185184,4,2,4,90,0,0
138704,-64.9350649350648,4,2,4,90,0,1
148004,-64.9350649350648,4,2,4,90,0,0
148304,-64.9350649350648,4,2,4,90,0,1
153104,-106.382978723404,4,2,4,75,0,0
156704,-87.719298245614,4,2,4,90,0,1
157304,-74.6268656716418,4,2,4,90,0,1
157604,-64.9350649350649,4,2,4,90,0,1
157754,-64.9350649350648,4,2,4,90,0,0

[Colours]
Combo1 : 192,192,192
Combo2 : 255,0,0
Combo3 : 255,140,140
Combo4 : 192,255,255

[HitObjects]
21,78,850,6,0,B|75:55|110:102|110:102|128:157|178:155,1,193.140004715332,2|2,0:0|0:0,0:0:0:0:
305,58,1707,1,2,0:0:0:0:
244,18,1921,1,2,0:0:0:0:
190,69,2135,1,2,0:0:0:0:
439,136,2564,6,0,B|467:110|454:69|454:69|454:104|431:121,1,128.760003143555,2|2,0:0|0:0,0:0:0:0:
362,152,3207,1,2,0:0:0:0:
510,215,3421,6,0,B|453:230|453:230|434:264|434:264|368:281,1,163.559997504273,2|2,0:0|0:0,0:0:0:0:
320,344,4064,1,2,0:0:0:0:
217,247,4278,6,0,P|256:244|288:268,1,81.7799987521363,2|0,3:2|0:0,0:0:0:0:
120,368,4611,2,0,L|143:280,1,81.7799987521363,2|0,3:2|0:0,0:0:0:0:
15,218,4944,5,2,3:2:0:0:
15,218,5111,2,0,L|36:296,1,81.7799987521363,2|0,0:0|3:2,0:0:0:0:
99,115,5444,6,0,B|5:88|5:88|36:101|50:136,1,163.559997504273,2|2,0:0|0:0,0:0:0:0:
126,217,5944,2,0,P|165:219|197:195,1,81.7799987521363,2|2,3:2|0:0,0:0:0:0:
244,92,6277,5,2,3:2:0:0:
248,96,6444,2,0,P|287:93|319:117,1,81.7799987521363,2|0,0:0|3:2,0:0:0:0:
403,214,6777,1,2,0:0:0:0:
479,172,6944,6,0,B|434:171|416:134|416:134|435:182|397:220,1,163.559997504273,2|2,3:2|3:2,0:0:0:0:
486,89,7444,2,0,L|463:1,1,81.7799987521363,2|0,0:0|3:2,0:0:0:0:
319,117,7777,6,0,L|342:29,1,81.7799987521363,2|0,0:0|3:2,0:0:0:0:
478,172,8111,1,2,0:0:0:0:
391,284,8277,6,0,P|380:245|406:211,1,81.7799987521363,2|0,3:2|0:0,0:0:0:0:
512,348,8611,2,0,B|476:355|476:355|469:359|469:359|432:367,1,81.7799987521363,2|0,3:2|0:0,0:0:0:0:
313,296,8944,5,2,3:2:0:0:
254,369,9111,2,0,B|231:354|218:312|236:287|236:287|233:330|264:354,1,163.559997504273,2|2,0:0|0:0,0:0:0:0:
401,213,9611,6,0,B|354:228|354:228|304:200|335:159,1,122.669998128204,2|0,3:2|0:0,0:0:0:0:
310,96,9944,2,0,P|349:94|381:118,1,81.7799987521363,2|2,3:2|0:0,0:0:0:0:
209,215,10277,1,0,3:2:0:0:
209,215,10444,2,0,L|232:127,1,81.7799987521363,2|0,0:0|3:2,0:0:0:0:
106,43,10777,6,0,B|89:4|32:-3|3:27|3:27|26:35|41:54,1,163.559997504273,2|0,0:0|0:2,0:0:0:0:
123,192,11277,2,0,P|134:153|108:119,1,81.7799987521363,2|2,3:2|0:0,0:0:0:0:
11,210,11611,5,0,3:2:0:0:
21,215,11777,1,2,0:0:0:0:
141,277,11944,5,0,3:2:0:0:
151,272,12110,1,2,0:0:0:0:
22,378,12277,6,0,B|1:349|1:349|11:302|11:302|36:291|36:291|46:243|46:243|19:213,1,198.359997578613,2|8,3:2|0:2,0:0:0:0:
205,360,12777,2,0,L|100:387,1,99.1799987893067,0|0,3:2|0:0,0:0:0:0:
254,219,13111,1,0,3:2:0:0:
123,192,13277,6,0,B|163:205|193:171|193:171|166:203|178:242,1,148.76999818396,8|0,0:0|0:0,0:0:0:0:
226,293,13611,1,2,3:2:0:0:
333,196,13777,1,0,3:2:0:0:
329,187,13861,1,0,3:2:0:0:
325,178,13944,1,10,0:2:0:0:
407,280,14111,1,2,3:2:0:0:
246,124,14277,5,8,0:0:0:0:
313,82,14444,2,0,L|366:96,1,49.5899993946533,0|0,3:2|0:0,0:0:0:0:
246,124,14611,5,8,0:0:0:0:
372,87,14777,2,0,L|324:74,1,49.5899993946533,0|0,3:2|0:0,0:0:0:0:
487,221,14944,6,0,B|478:186|478:186|503:145|503:145|493:105,1,122.669998128204,6|0,3:2|0:0,0:0:0:0:
440,49,15277,2,0,P|473:26|513:33,1,81.7799987521363,2|0,3:2|0:0,0:0:0:0:
374,117,15611,1,2,3:2:0:0:
487,221,15777,6,0,B|451:211|451:211|445:207|445:207|406:196,1,81.7799987521363,2|0,0:0|3:2,0:0:0:0:
283,286,16111,1,2,0:0:0:0:
356,358,16277,6,0,B|382:337|385:290|362:269|362:269|373:304|349:330,1,163.559997504273,2|2,3:2|3:2,0:0:0:0:
208,247,16777,1,2,0:0:0:0:
282,202,16944,1,2,3:2:0:0:
219,353,17111,6,0,P|179:359|146:336,1,81.7799987521363,2|2,0:0|3:2,0:0:0:0:
95,195,17444,1,2,0:0:0:0:
18,252,17611,6,0,B|82:273|82:273|115:258|126:215|94:195,1,163.559997504273,2|2,3:2|3:2,0:0:0:0:
0,78,18111,2,0,L|23:165,1,81.7799987521363,2|0,0:0|3:2,0:0:0:0:
175,55,18444,6,0,L|151:142,1,81.7799987521363,2|0,0:0|3:2,0:0:0:0:
72,28,18777,1,2,0:2:0:0:
161,143,18944,6,0,P|201:149|234:126,1,81.7799987521363,2|0,3:2|0:0,0:0:0:0:
297,30,19277,2,0,P|337:24|370:47,1,81.7799987521363,2|2,3:2|0:0,0:0:0:0:
374,55,19527,1,2,0:2:0:0:
378,63,19611,1,0,3:2:0:0:
512,140,19777,6,0,B|475:144|452:115|452:115|474:146|458:181,1,122.669998128204,2|0,0:0|0:0,0:0:0:0:
386,158,20111,1,2,0:0:0:0:
512,270,20277,6,0,B|460:253|435:292|441:289|414:331|359:317,1,163.559997504273,4|0,3:2|3:2,0:0:0:0:
232,266,20777,1,2,0:0:0:0:
295,212,20944,6,0,B|330:222|330:222|336:226|336:226|372:236,1,81.7799987521363,0|2,3:2|0:0,0:0:0:0:
232,266,21277,1,0,3:2:0:0:
355,341,21444,6,0,L|268:364,1,81.7799987521363,2|0,0:2|3:2,0:0:0:0:
149,248,21777,1,2,0:2:0:0:
85,295,21944,1,0,3:2:0:0:
187,372,22111,5,2,0:0:0:0:
76,213,22277,1,2,3:2:0:0:
149,248,22444,5,2,3:2:0:0:
174,206,22527,1,0,3:0:0:0:
145,172,22611,1,2,3:2:0:0:
0,270,22777,1,10,0:0:0:0:
145,172,22944,6,0,B|210:172|234:83|112:44|68:144,1,233.159988971009,4|8,3:2|0:0,0:0:0:0:
231,26,23444,1,0,3:2:0:0:
59,130,23611,6,0,B|47:86|47:86|58:59|58:59|47:19,1,116.579994485504,2|0,0:0|3:2,0:0:0:0:
179,177,23944,2,0,B|198:205|237:201|237:201|180:230|142:167,1,174.869991728257,8|0,0:0|0:0,0:0:0:0:
231,119,24277,5,4,3:2:0:0:
320,227,24444,1,8,0:0:0:0:
323,212,24527,1,8,0:0:0:0:
327,198,24610,1,8,0:0:0:0:
221,301,24777,5,0,3:2:0:0:
418,183,24944,1,8,0:0:0:0:
386,353,25111,5,2,3:2:0:0:
386,353,25194,1,2,3:2:0:0:
386,353,25277,6,0,L|369:292,1,58.2899972427522,10|0,3:2|0:0,0:0:0:0:
218,158,25444,6,0,P|224:138|230:119,1,40.8899993760681,2|0,3:2|0:0,0:0:0:0:
471,73,26277,6,0,B|416:79|387:27|387:27|382:26|382:26|410:72|385:114,1,200.969996013474,4|0,3:2|0:0,0:0:0:0:
324,159,26577,1,8,0:0:0:0:
490,199,26727,6,0,B|466:187|458:160|458:160|483:241,1,133.979997342316,2|2,0:0|3:2,0:0:0:0:
417,379,27027,1,2,0:0:0:0:
355,283,27177,1,10,0:0:0:0:
510,326,27327,1,2,0:0:0:0:
355,283,27477,6,0,B|269:251|269:251|297:266|310:303,1,148.76999818396,6|0,3:2|0:0,0:0:0:0:
231,321,27777,2,0,B|150:345|150:345|175:334|185:311,1,133.979997342316,10|0,0:2|0:0,0:0:0:0:
116,277,28002,5,2,0:0:0:0:
116,277,28077,2,0,B|64:261|64:261|51:238|51:238|1:222,1,133.979997342316,2|0,3:2|0:0,0:0:0:0:
141,52,28377,6,0,P|170:61|190:91,1,66.9899986711579,8|0,0:2|0:2,0:0:0:0:
199,98,28527,2,0,P|205:127|189:159,1,66.9899986711579,2|0,0:0|0:0,0:0:0:0:
39,345,28677,5,2,3:2:0:0:
0,222,28827,1,2,0:0:0:0:
117,129,28977,5,10,0:0:0:0:
141,52,29127,1,2,0:0:0:0:
117,129,29277,6,0,B|79:169|5:152|0:97|0:97|25:90|45:76,1,200.969996013474,2|0,3:2|0:0,0:0:0:0:
53,69,29577,1,8,0:0:0:0:
197,210,29727,6,0,B|209:186|240:182|240:182|192:170|164:221,1,133.979997342316,2|0,0:2|3:2,0:0:0:0:
286,87,30027,1,0,0:0:0:0:
346,210,30177,1,10,0:0:0:0:
199,98,30327,1,2,0:0:0:0:
375,37,30477,6,0,P|391:-4|371:35,1,133.979997342316,2|0,3:2|0:0,0:0:0:0:
382,305,30777,6,0,B|352:255|393:209|393:209|432:165|394:121,1,200.969996013474,12|0,0:0|0:0,0:0:0:0:
398,114,31077,2,0,P|422:148|407:204,1,96.5700023576661,2|0,3:2|0:0,0:0:0:0:
293,292,31377,6,0,B|223:307|223:307|197:349|197:349|119:369,1,200.969996013474,12|0,0:0|0:0,0:0:0:0:
115,380,31677,2,0,L|214:353,1,96.5700023576661,2|0,3:2|0:0,0:0:0:0:
97,182,31977,6,0,B|56:119|-38:131|-29:222|27:225,1,200.969996013474,10|0,0:0|0:0,0:0:0:0:
14,305,32277,2,0,B|74:290|74:290|80:284|80:284|141:268,1,133.979997342316,2|0,3:2|0:0,0:0:0:0:
275,156,32577,6,0,B|292:122|326:112|326:112|194:151,1,200.969996013474,10|0,0:2|0:0,0:0:0:0:
136,105,32877,1,0,3:2:0:0:
234,221,33027,1,0,0:0:0:0:
136,105,33177,6,0,B|94:63|116:19|116:19|109:58|148:92,1,174.869991728257,12|0,0:0|0:0,0:0:0:0:
196,32,33477,5,2,3:2:0:0:
196,32,33627,1,2,0:0:0:0:
129,202,33777,6,0,B|98:199|84:171|84:171|112:199|154:191,1,133.979997342316,10|2,0:0|0:0,0:0:0:0:
293,46,34077,5,2,3:2:0:0:
293,46,34227,1,2,0:0:0:0:
230,248,34377,6,0,B|211:273|180:271|180:271|218:261|232:220,1,133.979997342316,10|2,0:0|0:0,0:0:0:0:
136,105,34677,5,0,3:2:0:0:
136,105,34827,1,2,0:0:0:0:
320,182,34977,6,0,B|332:210|315:236|315:236|325:198|297:165,1,133.979997342316,10|2,0:0|0:0,0:0:0:0:
196,32,35277,6,0,L|257:49,1,58.2899972427522,2|0,3:2|0:0,0:0:0:0:
260,58,35427,2,0,L|321:75,1,58.2899972427522,2|0,0:0|0:0,0:0:0:0:
501,76,35577,6,0,B|514:56|536:43|536:43|512:-7|435:2|421:66,1,200.969996013474,12|0,0:0|0:0,0:0:0:0:
422,136,35877,2,0,B|438:184|438:184|427:216|427:216|445:274,1,133.979997342316,2|0,3:2|0:0,0:0:0:0:
286,380,36177,6,0,B|314:259|314:259|302:308|262:326,1,200.969996013474,10|0,0:0|0:0,0:0:0:0:
232,253,36477,1,2,3:2:0:0:
390,341,36627,1,0,0:2:0:0:
164,349,36777,6,0,B|156:288|156:288|177:347,1,122.669998128204,12|0,0:0|0:0,0:0:0:0:
169,361,37077,6,0,L|106:345,1,59.160000361084,4|4,3:2|3:2,0:0:0:0:
10,287,37677,6,0,L|0:253,1,29.580000180542,2|2,0:0|0:0,0:0:0:0:
10,249,38127,6,0,L|22:296,1,40.8899993760681,2|0,0:0|0:0,0:0:0:0:
116,180,38277,6,0,P|72:133|10:149,1,133.979997342316,4|0,3:2|3:2,0:0:0:0:
5,158,38502,1,0,3:2:0:0:
0,166,38577,1,10,0:0:0:0:
229,209,38727,5,2,3:2:0:0:
102,60,38877,1,2,3:2:0:0:
176,15,39027,5,0,3:2:0:0:
205,48,39102,1,0,3:2:0:0:
182,90,39177,1,10,0:0:0:0:
41,2,39327,1,0,3:2:0:0:
264,99,39477,5,6,3:2:0:0:
165,154,39627,2,0,L|182:88,2,66.9899986711579,8|2|0,0:0|0:0|3:2,0:0:0:0:
398,74,39927,5,8,0:0:0:0:
279,10,40077,1,0,3:2:0:0:
494,144,40227,5,8,0:0:0:0:
499,127,40302,1,8,0:0:0:0:
503,111,40377,1,2,3:2:0:0:
321,218,40527,1,10,0:0:0:0:
487,296,40677,5,2,3:2:0:0:
467,224,40827,1,0,3:2:0:0:
378,146,40977,5,8,0:0:0:0:
398,74,41127,1,2,3:2:0:0:
249,253,41277,5,2,3:2:0:0:
321,218,41427,1,0,3:2:0:0:
253,174,41577,1,8,0:0:0:0:
353,358,41727,5,8,0:2:0:0:
356,361,41802,1,0,3:0:0:0:
360,365,41877,6,0,L|427:346,1,66.9899986711579,4|0,3:2|0:0,0:0:0:0:
249,253,42027,1,8,0:2:0:0:
365,370,42177,6,0,L|439:350,1,66.9899986711579,4|0,3:2|0:0,0:0:0:0:
244,247,42327,1,8,0:2:0:0:
370,375,42477,6,0,L|451:353,1,66.9899986711579,4|0,3:2|0:0,0:0:0:0:
238,242,42627,1,8,0:0:0:0:
209,275,42702,1,8,0:2:0:0:
232,317,42777,1,8,0:0:0:0:
321,218,42927,1,8,0:0:0:0:
163,380,43077,6,0,B|116:367|116:367|102:344|102:344|56:331,1,122.669998128204,6|0,3:2|0:0,0:0:0:0:
48,325,43377,2,0,B|83:314|83:314|90:306|90:306|122:295,1,81.7799987521363,2|2,3:2|0:0,0:0:0:0:
1,198,43677,5,2,3:2:0:0:
123,143,43827,2,0,L|99:230,1,81.7799987521363,2|0,0:0|3:2,0:0:0:0:
1,28,44127,5,2,0:0:0:0:
73,60,44277,2,0,B|121:77|150:36|145:37|172:-1|225:15,1,163.559997504273,2|0,3:2|3:2,0:0:0:0:
324,111,44727,5,2,0:0:0:0:
384,55,44877,2,0,B|340:65|308:34|308:34|336:67|323:113,1,163.559997504273,2|2,3:2|3:2,0:0:0:0:
464,30,45327,1,2,0:0:0:0:
401,165,45477,6,0,P|441:165|476:134,1,81.7799987521363,2|0,3:2|0:0,0:0:0:0:
347,248,45777,2,0,P|306:248|271:217,1,81.7799987521363,2|0,3:2|0:0,0:0:0:0:
449,357,46077,6,0,L|437:314,1,44.370000270813,0|0,3:2|0:0,0:0:0:0:
462,365,46377,2,0,L|435:265,1,99.1799987893067,8|0,0:0|0:0,0:0:0:0:
275,223,46677,6,0,L|287:180,1,44.370000270813,0|0,3:2|0:0,0:0:0:0:
262,231,46977,2,0,L|291:121,1,99.1799987893067,8|0,0:0|0:0,0:0:0:0:
338,336,47277,5,0,3:2:0:0:
259,353,47427,1,0,3:2:0:0:
180,370,47577,1,8,0:0:0:0:
13,300,47727,5,2,0:0:0:0:
13,300,47802,1,2,0:0:0:0:
13,300,47877,6,0,P|57:290|96:321,1,97.4400011894531,2|0,0:0|3:2,0:0:0:0:
95,320,49527,6,0,L|113:252,1,59.160000361084,2|2,0:0|0:0,0:0:0:0:
167,208,49977,1,2,0:0:0:0:
171,212,50277,6,0,L|188:147,1,58.2899972427522,2|0,3:2|0:0,0:0:0:0:
65,35,50427,5,0,3:2:0:0:
30,80,50502,1,0,3:2:0:0:
69,123,50577,2,0,B|113:110|113:110|127:91|127:91|176:76,1,116.579994485504,2|0,3:2|3:2,0:0:0:0:
224,10,50802,5,0,3:2:0:0:
224,10,50877,2,0,L|292:28,1,58.2899972427522,2|0,3:2|0:0,0:0:0:0:
339,74,51027,2,0,L|407:92,1,58.2899972427522,2|0,3:2|3:2,0:0:0:0:
252,249,51177,6,0,B|266:201|266:201|265:191|265:191|281:136,1,116.579994485504,2|2,3:2|3:2,0:0:0:0:
275,128,51402,1,0,3:2:0:0:
268,120,51477,1,2,3:2:0:0:
366,185,51627,5,0,3:2:0:0:
414,223,51702,1,0,3:2:0:0:
469,212,51777,1,2,3:2:0:0:
496,162,51852,1,0,3:0:0:0:
497,151,51927,6,0,L|479:83,1,58.2899972427522,2|2,3:2|0:0,0:0:0:0:
370,189,52077,6,0,B|347:269|347:269|359:244|384:229,1,133.979997342316,2|2,3:1|0:0,0:0:0:0:
420,297,52302,2,0,B|442:377|442:377|430:352|405:337,1,133.979997342316,2|2,3:1|0:0,0:0:0:0:
424,301,52527,1,2,3:1:0:0:
241,381,52677,6,0,L|225:324,1,58.2899972427522,6|0,3:2|3:2,0:0:0:0:
166,268,52827,5,0,3:2:0:0:
202,226,52902,1,0,3:2:0:0:
252,249,52977,1,2,3:2:0:0:
129,368,53127,5,0,3:2:0:0:
129,368,53202,1,0,3:2:0:0:
129,368,53277,6,0,L|72:352,1,58.2899972427522,2|0,3:2|0:0,0:0:0:0:
4,312,53427,2,0,L|60:327,1,58.2899972427522,0|0,3:2|3:2,0:0:0:0:
121,186,53577,6,0,P|75:166|21:208,1,116.579994485504,2|0,3:2|3:2,0:0:0:0:
21,209,53802,1,0,3:2:0:0:
19,218,53877,1,2,3:2:0:0:
144,45,54027,5,0,3:2:0:0:
130,48,54102,1,0,3:2:0:0:
105,54,54177,1,2,3:2:0:0:
68,64,54252,1,0,3:0:0:0:
18,79,54327,6,0,P|27:52|33:23,1,58.2899972427522,0|0,3:2|3:2,0:0:0:0:
232,166,54477,2,0,P|222:138|216:109,1,58.2899972427522,2|0,3:2|0:0,0:0:0:0:
19,218,54627,5,8,0:0:0:0:
144,45,54777,1,8,0:0:0:0:
144,45,55077,6,0,B|189:61|226:17|226:17|190:61|218:112,1,193.140004715332,4|0,3:2|0:0,0:0:0:0:
414,120,55934,2,0,B|364:107|364:107|349:87|349:87|299:73,1,128.760003143555,2|2,3:2|0:0,0:0:0:0:
202,243,56791,6,0,B|191:265|166:274|166:274|243:248,2,128.760003143555,2|2|2,3:2|3:2|3:2,0:0:0:0:
133,202,57862,1,2,3:2:0:0:
278,325,58077,5,10,0:0:0:0:
345,232,58291,1,2,0:0:0:0:
510,368,58505,6,0,P|469:374|436:351,1,81.7799987521363,6|0,3:2|0:0,0:0:0:0:
345,232,58838,2,0,L|427:253,1,81.7799987521363,2|0,3:2|0:0,0:0:0:0:
512,129,59171,5,2,3:2:0:0:
512,129,59338,2,0,L|433:150,1,81.7799987521363,2|0,0:0|3:0,0:0:0:0:
350,50,59671,6,0,B|336:24|299:19|299:19|358:10|381:71,1,163.559997504273,2|2,0:0|0:0,0:0:0:0:
212,127,60171,2,0,P|201:90|229:53,1,81.7799987521363,2|0,3:2|0:0,0:0:0:0:
327,133,60505,5,2,3:2:0:0:
235,238,60671,2,0,B|199:231|199:231|192:227|192:227|155:219,1,81.7799987521363,2|0,0:0|3:0,0:0:0:0:
78,206,61005,1,2,0:0:0:0:
212,127,61171,6,0,B|151:149|151:149|135:182|135:182|74:207,1,163.559997504273,2|0,3:2|3:2,0:0:0:0:
1,101,61671,2,0,B|38:109|38:109|45:113|45:113|81:120,1,81.7799987521363,2|0,0:0|3:2,0:0:0:0:
67,277,62005,6,0,P|56:240|84:203,1,81.7799987521363,2|0,0:0|3:0,0:0:0:0:
212,127,62338,1,2,0:0:0:0:
117,23,62504,6,0,L|200:45,1,81.7799987521363,2|2,3:2|0:0,0:0:0:0:
294,123,62838,2,0,L|377:100,1,81.7799987521363,2|2,3:2|0:0,0:0:0:0:
434,10,63171,5,2,3:2:0:0:
481,127,63338,2,0,B|513:34|513:34|496:73|466:84,1,163.559997504273,2|2,0:0|0:0,0:0:0:0:
400,231,63838,6,0,B|434:237|458:205|458:205|443:235|457:267,1,122.669998128204,2|0,3:2|0:0,0:0:0:0:
509,311,64171,2,0,P|477:335|437:333,1,81.7799987521363,2|2,3:2|0:0,0:0:0:0:
265,268,64504,5,0,3:2:0:0:
265,268,64671,2,0,L|348:290,1,81.7799987521363,2|0,0:0|3:2,0:0:0:0:
157,349,65004,6,0,B|87:370|87:370|63:360|45:320|77:295,1,163.559997504273,2|2,0:0|0:0,0:0:0:0:
152,187,65504,2,0,P|176:219|166:260,1,81.7799987521363,2|2,3:2|0:0,0:0:0:0:
0,141,65838,5,2,3:2:0:0:
10,136,66004,1,0,0:0:0:0:
134,35,66171,5,2,3:2:0:0:
144,40,66337,1,2,0:0:0:0:
0,141,66504,6,0,B|15:131|31:112|31:112|94:127|94:127|102:181|155:188,1,198.359997578613,4|8,3:2|0:0,0:0:0:0:
278,134,67004,2,0,B|233:124|233:124|226:120|226:120|181:110,1,99.1799987893067,0|0,3:2|0:0,0:0:0:0:
308,11,67338,1,0,3:2:0:0:
401,99,67504,6,0,B|415:71|447:64|447:64|395:64|378:108,1,148.76999818396,8|0,0:0|0:0,0:0:0:0:
349,179,67838,1,2,3:2:0:0:
486,237,68004,1,0,3:2:0:0:
482,228,68088,1,0,3:2:0:0:
478,219,68171,1,8,0:0:0:0:
363,335,68338,1,0,3:2:0:0:
312,280,68504,5,8,0:0:0:0:
367,339,68671,2,0,L|426:355,1,49.5899993946533,0|0,3:2|0:0,0:0:0:0:
269,194,68838,5,8,0:0:0:0:
214,253,69005,2,0,L|154:269,1,49.5899993946533,0|0,3:2|0:0,0:0:0:0:
0,171,69171,6,0,P|39:154|96:204,1,122.669998128204,4|0,3:2|0:0,0:0:0:0:
85,279,69504,2,0,B|62:364,1,81.7799987521363,2|2,3:2|0:0,0:0:0:0:
214,253,69838,1,2,3:2:0:0:
95,199,70004,6,0,B|131:189|131:189|137:185|137:185|176:174,1,81.7799987521363,2|0,0:0|3:2,0:0:0:0:
60,56,70338,1,2,0:2:0:0:
200,63,70504,6,0,B|155:62|137:25|137:25|156:73|118:111,1,163.559997504273,0|2,3:0|3:2,0:0:0:0:
334,61,71004,1,2,0:0:0:0:
267,18,71171,1,2,3:2:0:0:
294,173,71338,6,0,P|334:179|367:156,1,81.7799987521363,2|0,0:0|3:0,0:0:0:0:
456,29,71671,1,2,0:0:0:0:
502,103,71838,6,0,B|477:135|502:172|502:172|533:214|508:254,1,163.559997504273,2|2,3:2|3:2,0:0:0:0:
408,367,72338,2,0,L|432:277,1,81.7799987521363,2|0,0:0|3:0,0:0:0:0:
294,173,72671,6,0,L|315:252,1,81.7799987521363,2|0,0:0|3:0,0:0:0:0:
236,357,73004,1,2,0:0:0:0:
138,260,73171,6,0,P|178:256|210:285,1,81.7799987521363,2|2,3:2|0:0,0:0:0:0:
63,357,73504,2,0,B|53:317|53:317|53:309|53:309|43:270,1,81.7799987521363,2|2,3:2|0:0,0:0:0:0:
40,270,73754,1,2,0:0:0:0:
36,264,73838,1,2,3:2:0:0:
78,118,74004,6,0,B|88:97|112:87|112:87|64:83|51:127,1,122.669998128204,2|0,0:0|0:0,0:0:0:0:
12,188,74338,1,2,0:0:0:0:
184,163,74504,6,0,B|280:142|280:142|245:154|232:190,1,163.559997504273,4|2,3:2|3:2,0:0:0:0:
78,118,75004,1,2,0:0:0:0:
175,11,75171,6,0,P|200:42|196:81,1,81.7799987521363,2|2,3:2|0:0,0:0:0:0:
175,11,75504,1,0,3:2:0:0:
287,30,75671,6,0,L|381:55,1,81.7799987521363,2|2,0:0|3:2,0:0:0:0:
448,164,76004,1,2,0:0:0:0:
512,117,76171,1,2,3:2:0:0:
329,207,76338,5,2,0:0:0:0:
512,316,76504,1,2,3:2:0:0:
441,275,76671,5,2,3:2:0:0:
412,314,76754,1,0,3:0:0:0:
438,356,76838,1,0,3:2:0:0:
512,218,77004,1,10,0:0:0:0:
341,345,77171,6,0,B|290:390|211:357|208:297|208:297|237:297|266:279,1,233.159988971009,4|8,3:2|0:0,0:0:0:0:
127,366,77671,1,2,3:2:0:0:
271,273,77838,6,0,B|283:229|283:229|272:202|272:202|283:162,1,116.579994485504,2|0,0:0|3:2,0:0:0:0:
112,258,78171,2,0,B|83:246|51:257|51:257|170:223,1,174.869991728257,8|0,0:0|0:0,0:0:0:0:
208,160,78504,5,4,3:2:0:0:
132,80,78671,1,0,3:2:0:0:
135,95,78754,1,0,3:2:0:0:
137,109,78837,1,8,0:0:0:0:
206,16,79004,5,0,3:2:0:0:
44,176,79171,1,8,0:0:0:0:
0,51,79338,5,2,3:2:0:0:
0,51,79421,1,2,3:2:0:0:
0,51,79504,6,0,L|61:68,1,58.2899972427522,10|0,0:2|0:0,0:0:0:0:
208,160,79671,6,0,P|228:154|247:148,1,40.8899993760681,2|0,3:2|3:2,0:0:0:0:
48,267,80504,6,0,B|37:250|20:242|20:242|101:267|101:267|131:319|72:354,1,200.969996013474,4|0,3:2|0:0,0:0:0:0:
18,359,80804,1,8,0:0:0:0:
125,181,80954,6,0,B|142:157|169:155|169:155|121:143|94:191,1,133.979997342316,2|2,0:0|3:2,0:0:0:0:
325,245,81254,1,2,0:0:0:0:
216,310,81404,2,0,L|234:239,1,66.9899986711579,10|0,0:0|0:2,0:0:0:0:
255,168,81554,1,2,0:0:0:0:
404,358,81704,6,0,B|359:362|328:322|328:322|354:348|349:378,1,148.76999818396,6|0,3:2|0:0,0:0:0:0:
397,280,82004,2,0,B|442:279|464:240|464:240|445:267|453:300,1,133.979997342316,10|0,0:2|0:0,0:0:0:0:
402,199,82229,5,2,0:0:0:0:
402,199,82304,2,0,B|390:150|390:150|404:122|404:122|392:71,1,133.979997342316,2|0,3:2|0:0,0:0:0:0:
144,119,82604,6,0,P|153:148|183:168,1,66.9899986711579,8|0,0:0|0:0,0:0:0:0:
190,177,82754,2,0,P|219:183|251:167,1,66.9899986711579,2|0,0:2|0:0,0:0:0:0:
391,71,82904,5,2,3:2:0:0:
481,165,83054,1,2,0:0:0:0:
481,165,83129,1,2,0:0:0:0:
481,165,83204,5,10,0:0:0:0:
339,9,83354,1,2,0:0:0:0:
241,80,83504,6,0,B|229:50|193:34|193:34|321:94,1,200.969996013474,2|0,3:2|0:0,0:0:0:0:
391,71,83804,1,10,0:0:0:0:
144,119,83954,6,0,B|67:146|67:146|96:136|109:109,1,133.979997342316,0|2,0:0|3:2,0:0:0:0:
248,199,84254,1,2,0:0:0:0:
91,297,84404,1,8,0:0:0:0:
140,219,84554,1,2,0:0:0:0:
234,300,84704,6,0,P|250:341|230:302,1,133.979997342316,2|0,3:2|0:0,0:0:0:0:
409,213,85004,6,0,B|504:240|504:240|534:220|541:178|495:152,1,200.969996013474,12|0,0:0|0:0,0:0:0:0:
403,222,85304,2,0,L|499:247,1,96.5700023576661,2|0,3:2|0:0,0:0:0:0:
439,65,85604,6,0,B|398:2|304:14|313:105|369:108,1,200.969996013474,12|0,0:0|0:0,0:0:0:0:
439,53,85904,2,0,P|407:27|353:26,1,96.5700023576661,2|0,3:2|0:0,0:0:0:0:
255,117,86204,6,0,B|291:159|252:203|252:203|211:249|241:299,1,200.969996013474,12|0,0:0|0:0,0:0:0:0:
222,384,86504,2,0,B|282:369|282:369|288:363|288:363|349:347,1,133.979997342316,2|0,3:2|0:0,0:0:0:0:
133,336,86804,6,0,B|19:298|19:298|62:313|78:359,1,200.969996013474,8|0,0:2|0:0,0:0:0:0:
84,366,87104,1,2,3:2:0:0:
189,216,87254,1,0,0:0:0:0:
103,233,87404,6,0,B|72:242|29:223|22:185|22:185|46:217|85:212,1,174.869991728257,12|0,0:2|0:0,0:0:0:0:
89,133,87704,5,0,3:2:0:0:
89,133,87854,1,2,0:0:0:0:
189,216,88004,6,0,B|196:237|185:263|185:263|220:234|199:184,1,133.979997342316,8|2,0:0|0:0,0:0:0:0:
0,104,88304,5,0,3:2:0:0:
0,104,88454,1,2,0:0:0:0:
205,102,88604,6,0,B|227:100|249:117|249:117|231:76|176:84,1,133.979997342316,8|2,0:0|0:0,0:0:0:0:
103,233,88904,5,0,3:2:0:0:
103,233,89054,1,2,0:2:0:0:
108,45,89204,6,0,B|117:24|143:14|143:14|98:9|78:60,1,133.979997342316,8|2,0:0|0:0,0:0:0:0:
180,211,89504,6,0,L|241:194,1,58.2899972427522,2|0,3:2|0:0,0:0:0:0:
247,200,89654,2,0,L|308:183,1,58.2899972427522,2|0,0:2|0:0,0:0:0:0:
477,87,89804,6,0,B|431:91|396:41|396:41|427:96|384:148,1,200.969996013474,14|0,0:0|0:0,0:0:0:0:
328,88,90104,2,0,B|278:77|278:77|262:55|262:55|205:44,1,133.979997342316,2|0,3:2|0:0,0:0:0:0:
383,152,90404,6,0,B|398:165|423:171|423:171|408:232|325:233|301:181,1,200.969996013474,8|0,0:0|0:0,0:0:0:0:
296,173,90704,1,0,3:2:0:0:
380,312,90854,1,0,0:0:0:0:
509,222,91004,6,0,B|515:160|515:160|496:218,1,122.669998128204,14|0,0:0|0:0,0:0:0:0:
473,293,91304,6,0,L|488:349,1,59.160000361084,6|4,3:2|3:2,0:0:0:0:
295,212,91904,6,0,L|304:178,1,29.580000180542,2|2,0:0|0:0,0:0:0:0:
314,180,92354,6,0,L|301:227,1,40.8899993760681,2|0,0:0|0:0,0:0:0:0:
140,354,92504,6,0,P|191:314|250:341,1,133.979997342316,4|0,3:2|3:2,0:0:0:0:
254,350,92729,1,0,3:2:0:0:
257,358,92804,1,8,0:2:0:0:
61,220,92954,5,2,3:2:0:0:
235,143,93104,1,2,3:2:0:0:
116,19,93254,5,0,3:0:0:0:
88,53,93329,1,0,3:2:0:0:
107,97,93404,1,8,0:0:0:0:
180,63,93554,1,2,3:2:0:0:
1,170,93704,5,4,3:2:0:0:
61,220,93854,2,0,L|125:203,2,66.9899986711579,8|2|2,0:0|0:0|3:2,0:0:0:0:
180,63,94154,5,8,0:0:0:0:
314,180,94304,1,2,3:2:0:0:
339,103,94454,5,8,0:0:0:0:
344,86,94529,1,8,0:0:0:0:
353,72,94604,1,10,0:0:0:0:
125,202,94754,1,2,0:0:0:0:
353,72,94904,5,2,3:2:0:0:
281,51,95054,1,2,3:2:0:0:
396,170,95204,5,8,0:0:0:0:
468,150,95354,1,0,3:2:0:0:
301,327,95504,5,2,3:2:0:0:
274,251,95654,1,0,3:2:0:0:
353,268,95804,1,8,0:0:0:0:
159,363,95954,5,8,0:0:0:0:
159,363,96029,1,0,3:0:0:0:
159,363,96104,6,0,L|178:290,1,66.9899986711579,4|0,3:2|0:0,0:0:0:0:
125,202,96254,1,8,0:0:0:0:
162,373,96404,6,0,L|183:292,1,66.9899986711579,4|0,3:2|0:0,0:0:0:0:
122,192,96554,1,8,0:0:0:0:
165,383,96704,6,0,L|188:295,1,66.9899986711579,4|0,3:2|0:0,0:0:0:0:
120,180,96854,5,8,0:0:0:0:
78,164,96929,1,8,0:0:0:0:
43,196,97004,1,8,0:0:0:0:
195,230,97154,1,8,0:0:0:0:
16,119,97304,6,0,B|-16:95|-16:48|5:27|5:27|0:63|17:86,1,163.559997504273,6|2,3:2|3:2,0:0:0:0:
16,119,97754,1,2,0:0:0:0:
100,30,97904,5,2,3:2:0:0:
174,60,98054,2,0,B|139:49|139:49|132:41|132:41|100:30,1,81.7799987521363,2|0,0:0|3:2,0:0:0:0:
228,128,98354,5,2,0:0:0:0:
307,50,98504,2,0,B|319:22|348:11|348:11|248:59,1,163.559997504273,2|0,3:2|3:2,0:0:0:0:
436,164,98954,5,2,0:0:0:0:
364,103,99104,2,0,B|355:172|355:172|357:180|357:180|342:280,1,163.559997504273,2|2,3:2|3:2,0:0:0:0:
277,192,99554,1,0,0:0:0:0:
341,277,99704,6,0,P|378:258|416:267,1,81.7799987521363,2|0,3:2|0:0,0:0:0:0:
295,362,100004,2,0,P|255:369|220:351,1,81.7799987521363,2|0,3:2|0:0,0:0:0:0:
150,233,100304,6,0,L|193:221,1,44.370000270813,2|0,3:2|0:0,0:0:0:0:
141,246,100604,2,0,L|241:219,1,99.1799987893067,8|0,0:0|0:0,0:0:0:0:
101,341,100904,6,0,L|58:329,1,44.370000270813,2|0,3:2|0:0,0:0:0:0:
110,354,101204,2,0,L|10:327,1,99.1799987893067,8|0,0:0|0:0,0:0:0:0:
107,88,101504,5,2,3:2:0:0:
124,167,101654,1,0,3:2:0:0:
141,246,101804,1,8,0:0:0:0:
292,100,101954,5,8,0:0:0:0:
292,100,102029,1,8,0:0:0:0:
292,100,102104,6,0,P|327:72|376:83,1,97.4400011894531,8|0,0:0|3:2,0:0:0:0:
376,84,103754,6,0,L|392:145,1,59.160000361084,2|2,0:0|0:0,0:0:0:0:
449,203,104204,1,2,0:0:0:0:
449,203,104504,6,0,B|487:183|486:143|486:143|451:159|446:202,1,148.76999818396,2|0,3:2|0:0,0:0:0:0:
442,281,104804,6,0,B|484:279|496:246|496:246|464:243|440:279,1,135.719999171631,2|0,3:2|0:0,0:0:0:0:
401,344,105104,6,0,B|433:359|458:335|458:335|428:320|400:342,1,122.669998128204,2|0,3:2|0:0,0:0:0:0:
327,352,105404,6,0,B|347:374|376:371|376:371|359:344|326:349,1,109.619996654663,2|0,3:2|0:0,0:0:0:0:
258,312,105704,6,0,B|258:336|285:348|285:348|285:319|259:307,1,96.5700023576661,2|0,3:2|0:0,0:0:0:0:
242,235,106004,6,0,B|232:257|249:274|249:274|261:252|243:233,1,83.52,2|0,3:2|0:0,0:0:0:0:
254,143,106304,6,0,L|309:158,1,46.9800011469727,2|0,3:2|0:0,0:0:0:0:
304,166,106529,2,0,L|257:154,1,46.9800011469727,2|0,3:2|0:0,0:0:0:0:
182,175,106754,1,2,3:2:0:0:
216,41,106904,6,0,B|231:15|267:10|267:10|214:2|186:49,1,148.76999818396,2|0,3:2|0:0,0:0:0:0:
124,73,107204,6,0,B|126:43|148:25|148:25|105:38|100:93,1,135.719999171631,2|0,3:2|0:0,0:0:0:0:
50,141,107504,6,0,B|41:109|54:89|54:89|21:117|37:169,1,122.669998128204,2|0,3:2|0:0,0:0:0:0:
22,234,107804,6,0,B|3:216|3:192|3:192|-12:227|26:263,1,109.619996654663,2|0,3:2|0:0,0:0:0:0:
46,323,108104,6,0,B|23:315|13:301|13:301|18:335|60:342,1,96.5700023576661,2|0,3:2|0:0,0:0:0:0:
117,371,108404,6,0,B|100:373|82:368|82:368|99:387|124:384,1,83.52,2|0,3:2|0:0,0:0:0:0:
202,326,108704,6,0,L|217:270,1,46.9800011469727,2|0,3:2|0:0,0:0:0:0:
225,275,108929,2,0,L|213:321,1,46.9800011469727,2|0,3:2|0:0,0:0:0:0:
263,378,109154,1,2,3:2:0:0:
435,359,109304,6,0,B|464:327|464:327|448:267|448:267|427:257|427:257|411:200|411:200|445:168,1,233.159988971009,4|0,3:2|3:2,0:0:0:0:
339,317,109754,1,0,3:2:0:0:
453,163,109904,6,0,P|405:182|358:134,1,116.579994485504,2|0,3:2|0:0,0:0:0:0:
375,65,110129,2,0,P|423:46|470:94,1,116.579994485504,2|0,3:2|0:0,0:0:0:0:
463,160,110354,1,2,3:2:0:0:
459,174,110429,1,0,3:2:0:0:
455,188,110504,5,2,3:2:0:0:
239,60,110654,1,0,3:2:0:0:
331,8,110804,5,0,3:2:0:0:
203,167,110954,1,0,3:2:0:0:
104,20,111104,6,0,P|56:1|9:49,1,116.579994485504,2|0,3:2|0:0,0:0:0:0:
26,118,111329,2,0,P|74:137|121:89,1,116.579994485504,2|0,3:2|0:0,0:0:0:0:
116,23,111554,1,2,3:2:0:0:
8,211,111704,5,2,3:2:0:0:
13,220,111779,1,0,3:2:0:0:
17,230,111854,1,0,3:2:0:0:
21,240,111929,1,0,3:2:0:0:
24,251,112004,1,0,3:2:0:0:
27,261,112079,1,0,3:2:0:0:
28,272,112154,1,2,3:2:0:0:
29,283,112229,1,0,3:2:0:0:
12,332,112304,6,0,B|61:327|81:292|81:292|62:329|71:359,1,151.380001270432,6|0,3:2|0:0,0:0:0:0:
146,340,112529,2,0,B|230:365|230:365|199:352|183:319,1,151.380001270432,2|0,3:2|0:0,0:0:0:0:
148,252,112754,1,2,3:2:0:0:
272,180,112904,6,0,B|277:150|317:140|317:140|261:139|243:199,1,151.380001270432,6|0,3:2|0:0,0:0:0:0:
277,259,113129,2,0,B|334:246|334:246|353:221|353:221|425:207,1,151.380001270432,2|0,3:2|0:0,0:0:0:0:
497,224,113354,1,2,3:2:0:0:
359,366,113504,6,0,P|365:344|371:319,1,37.8450003176079,6|0,3:1|0:0,0:0:0:0:
497,224,113729,6,0,P|490:202|484:177,1,37.8450003176079,6|0,3:1|0:0,0:0:0:0:
396,79,113954,6,0,P|402:57|408:32,1,37.8450003176079,6|0,3:1|0:0,0:0:0:0:
405,42,114704,6,0,B|345:15|311:60|316:58|281:110|217:88,1,207.060001263794,4|2,3:2|0:0,0:0:0:0:
50,51,115904,6,0,B|41:23|0:5|0:5|128:55,1,207.060001263794,2|2,3:2|0:0,0:0:0:0:
188,186,117104,6,0,B|167:227|99:254|42:202|82:141|126:151,1,199.665001218658,2|2,3:2|0:0,0:0:0:0:
108,312,118304,6,0,B|62:316|33:280|33:280|65:319|46:372,1,177.480001083252,2|2,3:2|0:0,0:0:0:0:
188,186,119504,6,0,P|224:165|265:174,1,81.7799987521363,6|0,3:2|0:0,0:0:0:0:
322,316,119804,2,0,P|282:322|247:302,1,81.7799987521363,2|0,3:2|0:0,0:0:0:0:
432,222,120104,6,0,B|441:274|441:274|439:281|439:281|450:345,1,122.669998128204,2|0,3:2|0:0,0:0:0:0:
460,348,120404,2,0,L|444:260,1,81.7799987521363,2|0,3:2|0:0,0:0:0:0:
512,102,120704,6,0,L|431:80,1,81.7799987521363,2|0,3:2|0:0,0:0:0:0:
295,42,121004,2,0,L|373:20,1,81.7799987521363,2|0,3:2|0:0,0:0:0:0:
272,152,121304,6,0,B|261:124|239:116|239:116|284:121|293:171,1,122.669998128204,2|0,3:2|0:0,0:0:0:0:
257,227,121604,2,0,B|221:213|221:213|216:207|216:207|175:192,1,81.7799987521363,2|0,3:2|0:0,0:0:0:0:
47,31,121904,6,0,B|121:10|121:10|153:24|164:64|128:88,1,163.559997504273,2|0,3:2|3:2,0:0:0:0:
24,146,122354,1,2,0:0:0:0:
74,207,122504,6,0,B|101:186|104:159|104:159|81:276,1,163.559997504273,2|0,3:2|3:2,0:0:0:0:
151,359,122954,1,2,0:0:0:0:
17,384,123104,6,0,P|2:345|22:311,1,81.7799987521363,2|0,3:2|0:0,0:0:0:0:
182,194,123404,1,2,3:2:0:0:
104,159,123554,1,0,0:0:0:0:
198,298,123704,5,2,3:2:0:0:
243,325,123804,1,2,0:0:0:0:
294,312,123904,1,2,0:0:0:0:
321,267,124004,6,0,B|325:231|325:231|307:265,1,70.470001720459,2|0,3:2|0:0,0:0:0:0:
369,351,124304,5,6,3:2:0:0:
398,278,124454,1,0,3:2:0:0:
483,318,124604,5,2,3:2:0:0:
387,194,124754,1,0,3:2:0:0:
512,198,124904,5,2,3:2:0:0:
321,149,125054,1,0,3:2:0:0:
458,75,125204,5,0,3:2:0:0:
244,166,125354,1,0,3:2:0:0:
458,75,125504,6,0,L|464:49,1,24.3600002973633,2|2,3:2|3:2,0:0:0:0:
327,14,126704,6,0,P|283:62|220:45,1,133.979997342316,4|0,3:2|3:2,0:0:0:0:
215,37,126929,1,0,3:2:0:0:
211,30,127004,1,8,0:0:0:0:
175,253,127154,5,0,3:2:0:0:
6,119,127304,1,2,3:2:0:0:
103,74,127454,5,0,3:0:0:0:
132,107,127529,1,0,3:2:0:0:
109,149,127604,1,8,0:0:0:0:
61,211,127754,1,2,3:2:0:0:
318,174,127904,5,2,3:2:0:0:
243,153,128054,2,0,L|310:171,2,66.9899986711579,8|2|0,0:0|0:0|3:2,0:0:0:0:
338,344,128354,5,8,0:0:0:0:
481,207,128504,1,0,3:2:0:0:
500,290,128654,5,8,0:0:0:0:
504,306,128729,1,8,0:0:0:0:
509,323,128804,1,8,0:0:0:0:
243,153,128954,1,2,3:2:0:0:
438,86,129104,5,0,3:2:0:0:
418,158,129254,1,0,3:2:0:0:
318,272,129404,5,8,0:0:0:0:
338,344,129554,1,2,3:2:0:0:
166,134,129704,5,0,3:2:0:0:
243,153,129854,1,0,3:2:0:0:
187,211,130004,1,8,0:0:0:0:
288,41,130154,5,10,0:2:0:0:
291,38,130229,1,0,3:0:0:0:
295,34,130304,6,0,L|362:53,1,66.9899986711579,4|0,3:2|0:0,0:0:0:0:
166,134,130454,1,10,0:2:0:0:
300,29,130604,6,0,L|374:49,1,66.9899986711579,4|0,3:2|0:0,0:0:0:0:
161,140,130754,1,10,0:2:0:0:
305,24,130904,6,0,L|386:46,1,66.9899986711579,4|0,3:2|0:0,0:0:0:0:
438,86,131054,1,8,0:0:0:0:
467,52,131129,1,8,0:0:0:0:
444,10,131204,1,8,0:0:0:0:
318,174,131354,1,8,0:0:0:0:
253,115,131504,6,0,P|195:97|160:152,1,122.669998128204,6|0,3:2|0:0,0:0:0:0:
152,145,131804,2,0,L|172:226,1,81.7799987521363,2|2,3:2|0:0,0:0:0:0:
53,346,132104,5,2,3:2:0:0:
131,382,132254,2,0,P|146:346|125:306,1,81.7799987521363,2|0,0:0|3:2,0:0:0:0:
74,156,132554,5,2,0:0:0:0:
23,262,132704,2,0,B|-5:166|-5:166|4:203|35:221,1,163.559997504273,2|0,3:2|3:2,0:0:0:0:
98,79,133154,5,2,0:0:0:0:
18,41,133304,2,0,B|67:43|87:3|87:3|72:43|100:82,1,163.559997504273,2|0,3:2|3:2,0:0:0:0:
253,115,133754,1,0,0:0:0:0:
172,224,133904,6,0,L|150:145,1,81.7799987521363,2|0,3:2|0:0,0:0:0:0:
236,24,134204,2,0,P|273:18|309:43,1,81.7799987521363,2|0,3:2|0:0,0:0:0:0:
500,117,134504,6,0,L|457:129,1,44.370000270813,2|0,3:2|0:0,0:0:0:0:
508,104,134804,2,0,L|408:131,1,99.1799987893067,10|0,0:0|0:0,0:0:0:0:
265,211,135104,6,0,L|308:223,1,44.370000270813,2|0,3:2|0:0,0:0:0:0:
257,198,135404,2,0,L|357:225,1,99.1799987893067,10|0,0:0|0:0,0:0:0:0:
483,371,135704,5,2,3:2:0:0:
466,292,135854,1,0,3:2:0:0:
449,213,136004,1,8,0:0:0:0:
367,350,136154,5,8,0:0:0:0:
367,350,136229,1,8,0:0:0:0:
366,350,136304,6,0,P|331:370|291:361,1,81.7799987521363,2|0,3:2|0:0,0:0:0:0:
165,280,136604,2,0,P|204:272|239:292,1,81.7799987521363,2|0,3:2|0:0,0:0:0:0:
53,346,136904,6,0,L|40:297,3,40.8899993760681,2|2|2|2,3:2|0:0|0:0|0:0,0:0:0:0:
55,356,137204,1,2,0:0:0:0:
165,280,137354,1,0,3:2:0:0:
43,215,137504,5,0,3:2:0:0:
196,356,137654,1,0,3:2:0:0:
43,215,137804,5,0,3:2:0:0:
0,174,137879,1,0,3:2:0:0:
6,115,137954,1,0,3:2:0:0:
59,88,138029,1,0,3:2:0:0:
133,70,138104,5,0,3:2:0:0:
139,57,138179,1,0,3:2:0:0:
141,43,138254,1,0,3:2:0:0:
140,26,138329,1,0,3:2:0:0:
134,15,138404,6,0,L|85:2,1,46.9800011469727,2|2,0:0|0:0,0:0:0:0:
245,121,138704,5,4,3:2:0:0:
126,174,138854,2,0,B|176:159|176:159|191:138|191:138|250:119,1,133.979997342316,0|8,3:2|0:0,0:0:0:0:
453,146,139154,5,0,3:2:0:0:
323,40,139304,2,0,B|304:18|268:25|268:25|304:25|328:60,1,133.979997342316,2|0,3:2|3:2,0:0:0:0:
334,73,139529,1,0,3:2:0:0:
339,82,139604,1,8,0:0:0:0:
215,241,139754,5,2,3:2:0:0:
244,120,139904,1,2,3:2:0:0:
464,236,140054,6,0,P|425:239|397:220,1,66.9899986711579,8|0,0:0|0:0,0:0:0:0:
340,177,140204,1,0,3:2:0:0:
198,325,140354,6,0,P|237:328|265:309,1,66.9899986711579,8|0,0:0|0:0,0:0:0:0:
322,266,140504,1,0,3:2:0:0:
448,367,140654,5,8,0:0:0:0:
431,362,140729,1,0,3:0:0:0:
415,358,140804,1,0,3:2:0:0:
512,307,140954,1,8,0:0:0:0:
323,367,141104,6,0,B|264:350|264:350|258:342|258:342|193:323,1,133.979997342316,2|0,3:2|3:2,0:0:0:0:
4,218,141404,1,8,0:0:0:0:
155,152,141554,1,0,3:2:0:0:
72,335,141704,6,0,B|59:357|30:363|30:363|75:369|97:328,1,133.979997342316,2|0,3:2|3:2,0:0:0:0:
98,252,141929,1,0,3:2:0:0:
98,252,142004,1,8,0:0:0:0:
197,324,142154,5,2,0:0:0:0:
4,218,142304,1,4,3:2:0:0:
197,324,142454,6,0,L|179:259,1,66.9899986711579,8|0,0:0|0:0,0:0:0:0:
159,187,142604,1,0,3:2:0:0:
5,137,142754,6,0,L|22:72,1,66.9899986711579,8|0,0:0|0:0,0:0:0:0:
43,0,142904,1,0,3:2:0:0:
147,100,143054,5,8,0:0:0:0:
130,105,143129,1,8,0:0:0:0:
114,109,143204,1,0,3:2:0:0:
210,15,143354,1,8,0:0:0:0:
265,83,143504,5,2,3:2:0:0:
314,118,143579,1,2,0:0:0:0:
373,100,143654,1,2,3:2:0:0:
395,43,143729,1,2,0:0:0:0:
387,34,143804,6,0,L|309:12,1,66.9899986711579,10|2,0:0|0:0,0:0:0:0:
447,139,143954,2,0,L|512:121,1,66.9899986711579,2|2,3:2|0:0,0:0:0:0:
330,259,144104,2,0,P|325:226|341:197,1,66.9899986711579,2|2,3:2|0:0,0:0:0:0:
492,354,144254,5,2,3:2:0:0:
475,349,144329,1,2,3:2:0:0:
445,316,144404,5,10,0:0:0:0:
396,328,144479,1,2,0:0:0:0:
347,341,144554,1,2,3:2:0:0:
299,353,144629,1,2,0:0:0:0:
297,363,144704,5,2,3:2:0:0:
170,256,144854,2,0,L|241:276,1,66.9899986711579,8|0,0:0|0:0,0:0:0:0:
297,363,145004,5,0,3:2:0:0:
164,245,145154,2,0,L|235:265,1,66.9899986711579,8|0,0:0|0:0,0:0:0:0:
297,363,145304,5,0,3:2:0:0:
158,234,145454,2,0,L|229:254,1,66.9899986711579,8|8,0:0|0:2,0:0:0:0:
44,359,145604,6,0,P|18:318|60:254,1,133.979997342316,0|8,3:2|0:0,0:0:0:0:
201,166,145904,1,2,3:2:0:0:
137,321,146054,1,2,3:2:0:0:
0,128,146204,6,0,B|112:167|112:167|67:151|52:104,1,200.969996013474,10|0,0:0|0:0,0:0:0:0:
11,45,146504,1,2,3:2:0:0:
143,5,146654,5,2,3:2:0:0:
164,43,146729,1,2,3:2:0:0:
138,83,146804,1,10,0:0:0:0:
0,49,146954,2,0,L|77:28,1,66.9899986711579,2|2,3:2|0:0,0:0:0:0:
260,70,147104,6,0,B|267:44|296:32|296:32|241:35|241:87,1,133.979997342316,0|10,3:2|0:0,0:0:0:0:
239,90,147329,1,2,3:2:0:0:
238,100,147404,6,0,P|254:126|296:134,1,66.9899986711579,2|2,3:2|0:0,0:0:0:0:
298,145,147554,2,0,P|328:144|356:111,1,66.9899986711579,10|2,0:0|0:0,0:0:0:0:
436,9,147704,5,2,3:2:0:0:
441,25,147779,1,2,0:0:0:0:
445,41,147854,1,10,0:0:0:0:
450,57,147929,1,10,0:0:0:0:
496,115,148004,5,10,3:2:0:0:
511,166,148079,1,10,0:0:0:0:
477,207,148154,1,10,0:0:0:0:
424,202,148229,1,10,0:0:0:0:
412,193,148304,6,0,B|434:247|434:247|400:318|400:318|422:381,1,200.969996013474,4|0,3:2|0:0,0:0:0:0:
426,368,148604,2,0,P|374:315|316:332,1,133.979997342316,8|0,0:0|0:0,0:0:0:0:
173,371,148904,6,0,B|113:353|113:353|107:348|107:348|43:328,1,133.979997342316,2|0,3:2|3:0,0:0:0:0:
41,322,149129,1,0,3:0:0:0:
36,316,149204,1,10,0:0:0:0:
199,245,149354,1,0,0:0:0:0:
35,146,149504,6,0,B|28:131|0:116|0:116|39:62|118:89|120:136,1,200.969996013474,4|0,3:2|0:0,0:0:0:0:
115,215,149804,1,8,0:0:0:0:
266,109,149954,1,2,0:0:0:0:
155,27,150104,6,0,B|136:5|100:12|100:12|136:12|160:47,1,133.979997342316,2|0,3:2|3:2,0:0:0:0:
284,173,150404,2,0,L|261:94,1,66.9899986711579,8|0,0:0|3:0,0:0:0:0:
392,22,150554,2,0,L|373:86,1,66.9899986711579,2|0,3:2|3:0,0:0:0:0:
512,199,150704,6,0,B|457:201|431:156|431:156|462:210|427:262,1,200.969996013474,2|0,3:2|0:0,0:0:0:0:
367,208,151004,1,8,0:2:0:0:
511,289,151154,1,0,3:2:0:0:
324,369,151304,6,0,B|245:346|245:346|274:354|297:343,1,133.979997342316,8|0,0:0|3:2,0:0:0:0:
269,275,151529,1,0,3:2:0:0:
269,275,151604,1,8,0:0:0:0:
162,361,151754,5,2,3:2:0:0:
367,208,151904,1,2,3:2:0:0:
195,156,152054,6,0,L|214:227,1,66.9899986711579,8|0,0:0|0:0,0:0:0:0:
269,275,152204,1,0,3:2:0:0:
61,361,152354,6,0,L|80:289,1,66.9899986711579,8|0,0:0|0:0,0:0:0:0:
39,229,152504,1,2,3:2:0:0:
195,156,152654,5,8,0:0:0:0:
161,183,152729,1,8,0:0:0:0:
117,164,152804,1,0,3:2:0:0:
56,115,152954,1,8,0:0:0:0:
172,28,153104,6,0,L|254:49,1,81.7799987521363,4|0,3:2|0:0,0:0:0:0:
388,108,153404,2,0,L|309:129,1,81.7799987521363,0|0,3:2|0:0,0:0:0:0:
163,19,153704,6,0,L|245:40,1,81.7799987521363,2|0,3:2|0:0,0:0:0:0:
379,99,154004,2,0,L|300:120,1,81.7799987521363,0|0,3:2|0:0,0:0:0:0:
503,31,154304,5,2,3:2:0:0:
479,109,154454,1,2,0:0:0:0:
483,122,154604,5,0,3:2:0:0:
512,23,154754,1,2,0:0:0:0:
299,120,154904,5,2,3:2:0:0:
406,189,155054,1,2,0:0:0:0:
406,189,155129,1,2,0:0:0:0:
406,189,155204,1,0,3:2:0:0:
308,262,155354,1,2,0:0:0:0:
484,123,155504,6,0,P|507:153|500:194,1,81.7799987521363,2|0,3:2|0:0,0:0:0:0:
394,316,155804,1,0,3:2:0:0:
473,347,155954,5,2,0:0:0:0:
492,303,156029,1,2,0:0:0:0:
465,269,156104,1,0,3:2:0:0:
285,353,156254,6,0,L|326:364,1,40.8899993760681,2|2,0:0|0:0,0:0:0:0:
202,240,156404,1,8,0:0:0:0:
202,240,156704,5,4,3:2:0:0:
145,295,156854,1,0,0:0:0:0:
35,230,157004,6,0,B|17:223|7:197|7:197|35:300,1,148.76999818396,8|0,0:0|0:0,0:0:0:0:
67,367,157304,6,0,L|50:305,1,58.2899972427522,2|0,3:2|0:0,0:0:0:0:
202,240,157454,6,0,L|218:178,1,58.2899972427522,2|0,3:2|0:0,0:0:0:0:
49,19,157604,6,0,L|68:93,1,66.9899986711579,10|0,0:0|0:0,0:0:0:0:
213,248,157754,6,0,L|231:184,1,66.9899986711579,6|0,3:2|0:0,0:0:0:0:
