osu file format v14

[General]
AudioFilename: audio.mp3
AudioLeadIn: 0
PreviewTime: 80421
Countdown: 0
SampleSet: Soft
StackLeniency: 0.8
Mode: 0
LetterboxInBreaks: 0
WidescreenStoryboard: 1

[Editor]
Bookmarks: 126704
DistanceSpacing: 1
BeatDivisor: 4
GridSize: 16
TimelineZoom: 2.5

[Metadata]
Title:Daemonisch
TitleUnicode:デモーニッシュ
Artist:TUYU
ArtistUnicode:ツユ
Creator:Keqing
Version:captin's Extra
Source:
Tags:devilish dämonisch demonish bongo guanineso stratos iljaaz -aqua captin1 ajisai- Woood13 SnowNiNo_ frozz -Keqing kazato asa shikibe mayu shizuku- pusu ぷす omutatsu おむたつ jpop j-pop japanese pop female vocals
BeatmapID:2971813
BeatmapSetID:1443294

[Difficulty]
HPDrainRate:6
CircleSize:4.2
OverallDifficulty:9
ApproachRate:9.3
SliderMultiplier:1.8
SliderTickRate:1

[Events]
//Background and Video events
0,0,"tuyu.png",0,0
Video,-54,"aa.mp4"
//Break Periods
//Storyboard Layer 0 (Background)
//Storyboard Layer 1 (Fail)
//Storyboard Layer 2 (Pass)
//Storyboard Layer 3 (Foreground)
//Storyboard Layer 4 (Overlay)
//Storyboard Sound Samples

[TimingPoints]
850,428.571428571429,4,2,4,50,1,0
850,-166.666666666667,4,2,4,50,0,0
3421,-125,4,2,4,50,0,0
4278,333.333333333333,4,2,4,65,1,0
4278,-111.111111111111,4,2,4,65,0,0
12278,-100,4,2,4,65,0,0
13611,-83.3333333333333,4,2,4,65,0,0
14944,-90.9090909090909,4,2,4,75,0,0
22944,-76.9230769230769,4,2,4,75,0,0
26277,300,4,2,4,90,1,0
26277,-71.4285714285714,4,2,4,90,0,0
27177,-83.3333333333333,4,2,4,90,0,0
30777,-83.3333333333333,4,2,4,90,0,1
31077,-133.333333333333,4,2,4,90,0,0
31377,-133.333333333333,4,2,4,90,0,1
31677,-133.333333333333,4,2,4,90,0,0
31977,-83.3333333333333,4,2,4,90,0,0
37077,-133.333333333333,4,2,4,90,0,0
37827,-166.666666666667,4,2,4,90,0,0
38277,-71.4285714285714,4,2,4,90,0,0
41802,-71.4285714285714,4,2,4,5,0,0
41877,-62.5,4,2,4,90,0,1
42177,-62.5,4,2,4,90,0,1
42477,-62.5,4,2,4,90,0,1
42927,-71.4285714285714,4,2,4,90,0,1
43077,-71.4285714285714,4,2,4,90,0,0
43677,-83.3333333333333,4,2,4,90,0,0
48027,-200,4,2,4,90,0,0
49527,-66.6666666666667,4,2,4,90,0,0
50277,-76.9230769230769,4,2,4,90,0,1
52077,-66.6666666666667,4,2,4,90,0,1
54777,-100,4,2,4,90,0,1
55077,428.571428571429,4,2,4,90,1,0
55077,-166.666666666667,4,2,4,90,0,0
55934,-166.666666666667,4,2,4,50,0,0
58505,333.333333333333,4,2,4,65,1,0
58505,-111.111111111111,4,2,4,65,0,0
66505,-90.9090909090909,4,2,4,65,0,0
68171,-83.3333333333333,4,2,4,65,0,0
69171,-90.9090909090909,4,2,4,75,0,0
77171,-76.9230769230769,4,2,4,75,0,0
80504,300,4,2,4,90,1,0
80504,-71.4285714285714,4,2,4,90,0,0
81104,-83.3333333333333,4,2,4,90,0,0
85004,-83.3333333333333,4,2,4,90,0,1
85304,-133.333333333333,4,2,4,90,0,0
85604,-133.333333333333,4,2,4,90,0,1
85904,-133.333333333333,4,2,4,90,0,0
86204,-83.3333333333333,4,2,4,90,0,0
91304,-133.333333333333,4,2,4,90,0,0
92054,-166.666666666667,4,2,4,90,0,0
92504,-71.4285714285714,4,2,4,90,0,0
96104,-62.5,4,2,4,90,0,1
96404,-62.5,4,2,4,90,0,1
96704,-62.5,4,2,4,90,0,1
97154,-71.4285714285714,4,2,4,90,0,1
97304,-83.3333333333333,4,2,4,75,0,0
102254,-166.666666666667,4,2,4,75,0,0
103754,-66.6666666666667,4,2,4,75,0,0
106304,-83.3333333333333,4,2,4,75,0,0
109304,-83.3333333333333,4,2,4,90,0,0
112304,-71.4285714285714,4,2,4,90,0,1
112454,-71.4285714285714,4,2,4,5,0,1
112529,-71.4285714285714,4,2,4,90,0,1
112679,-71.4285714285714,4,2,4,5,0,1
112754,-71.4285714285714,4,2,4,90,0,1
112829,-71.4285714285714,4,2,4,5,0,1
112904,-71.4285714285714,4,2,4,90,0,1
113054,-71.4285714285714,4,2,4,5,0,1
113129,-71.4285714285714,4,2,4,90,0,1
113279,-71.4285714285714,4,2,4,5,0,1
113354,-71.4285714285714,4,2,4,90,0,1
113429,-71.4285714285714,4,2,4,5,0,1
113504,-62.5,4,2,4,90,0,1
113654,-62.5,4,2,4,5,0,1
113729,-62.5,4,2,4,90,0,1
113879,-62.5,4,2,4,5,0,1
113954,-62.5,4,2,4,90,0,1
114029,-62.5,4,2,4,5,0,1
114104,-62.5,4,2,4,80,0,0
114704,300,4,2,4,60,1,0
114704,-111.111111111111,4,2,4,60,0,0
119504,-100,4,2,4,75,0,0
126254,-333.333333333333,4,2,4,75,0,0
126704,-333.333333333333,4,2,4,90,0,0
127754,-66.6666666666667,4,2,4,90,0,0
130304,-58.8235294117647,4,2,4,90,0,1
130604,-58.8235294117647,4,2,4,90,0,1
130904,-58.8235294117647,4,2,4,90,0,1
131354,-66.6666666666667,4,2,4,90,0,1
131504,-76.9230769230769,4,2,4,90,0,0
134804,-71.4285714285714,4,2,4,90,0,0
135104,-66.6666666666667,4,2,4,90,0,0
136304,-76.9230769230769,4,2,4,90,0,0
138554,-133.333333333333,4,2,4,90,0,0
140054,-66.6666666666667,4,2,4,90,0,0
143504,-66.6666666666667,4,2,4,90,0,1
143804,-76.9230769230769,4,2,4,90,0,1
148304,-66.6666666666667,4,2,4,90,0,0
148604,-76.9230769230769,4,2,4,90,0,0
153104,-83.3333333333333,4,2,4,75,0,0
156704,-83.3333333333333,4,2,4,90,0,0

[Colours]
Combo1 : 181,74,74
Combo2 : 255,0,0
Combo3 : 255,140,140

[HitObjects]
429,364,850,6,0,P|453:342|484:334,1,53.9999999999999,2|0,2:0|2:0,2:0:0:0:
307,301,1278,2,0,P|341:308|368:321,1,53.9999999999999,0|0,2:0|2:0,2:0:0:0:
502,242,1707,1,2,2:0:0:0:
426,274,1921,1,2,2:0:0:0:
357,228,2135,2,0,P|365:196|376:167,1,53.9999999999999,2|0,2:0|2:0,2:0:0:0:
241,358,2564,6,0,P|233:329|220:296,1,53.9999999999999,2|0,2:0|2:0,2:0:0:0:
91,323,2992,1,2,2:0:0:0:
162,364,3207,1,2,2:0:0:0:
298,286,3421,6,0,B|273:231|256:255|235:192,1,108,2|0,2:0|2:0,2:0:0:0:
305,151,3850,1,2,2:0:0:0:
309,133,3957,1,2,2:0:0:0:
313,115,4064,1,2,2:0:0:0:
317,97,4171,1,2,2:0:0:0:
244,74,4278,6,0,P|290:67|336:49,1,81.0000000000001,2|0,3:2|2:0,2:0:0:0:
507,206,4611,2,0,P|456:151|394:164,1,121.5,2|0,3:2|2:0,2:0:0:0:
382,173,4944,1,2,3:2:0:0:
307,308,5111,2,0,B|318:274|318:274|311:258|312:221,1,81.0000000000001,2|0,2:0|3:2,2:0:0:0:
193,18,5444,6,0,P|207:57|219:107,1,81.0000000000001,2|0,2:0|3:0,2:0:0:0:
221,191,5778,1,2,2:0:0:0:
22,138,5944,1,2,3:2:0:0:
121,79,6111,1,2,2:0:0:0:
121,79,6194,1,2,2:0:0:0:
121,79,6278,2,0,P|119:123|110:169,1,81.0000000000001,2|2,3:2|2:0,2:0:0:0:
190,347,6611,5,0,3:2:0:0:
108,295,6778,1,2,2:0:0:0:
36,355,6944,6,0,P|76:337|120:324,1,81.0000000000001,2|0,3:2|2:0,2:0:0:0:
316,276,7278,1,2,3:2:0:0:
215,336,7444,2,0,P|255:354|299:367,1,81.0000000000001,2|0,2:0|3:2,2:0:0:0:
483,246,7778,2,0,P|444:258|407:274,1,81.0000000000001,2|0,2:0|3:2,2:0:0:0:
474,341,8111,1,2,2:0:0:0:
370,196,8278,5,2,3:2:0:0:
433,139,8444,1,0,2:0:0:0:
354,101,8611,1,2,3:2:0:0:
362,213,8778,1,0,2:0:0:0:
278,61,8944,5,2,3:2:0:0:
278,61,9111,2,0,P|225:75|192:81,1,81.0000000000001,2|0,2:0|3:0,2:0:0:0:
340,0,9444,1,2,2:0:0:0:
243,149,9611,6,0,B|148:130|193:83|100:60,1,162,2|2,3:2|3:2,2:0:0:0:
13,167,10111,1,2,2:0:0:0:
26,153,10194,1,2,2:0:0:0:
41,151,10278,1,0,3:2:0:0:
163,262,10444,2,0,P|137:226|118:187,1,81.0000000000001,2|0,2:0|3:0,2:0:0:0:
19,344,10778,6,0,P|41:301|63:270,1,81.0000000000001,2|2,2:0|3:2,2:0:0:0:
228,213,11111,1,0,2:0:0:0:
161,348,11278,1,2,3:2:0:0:
45,190,11444,1,2,2:0:0:0:
160,262,11611,5,0,3:2:0:0:
140,178,11778,1,2,2:0:0:0:
270,361,11944,5,0,3:2:0:0:
319,224,12111,1,2,2:0:0:0:
85,271,12278,6,0,B|132:281|169:247|169:247|214:246|254:281,1,180,2|8,3:2|2:0,2:0:0:0:
477,295,12778,2,0,B|442:320|440:350|440:350|418:330|359:328,1,135,0|0,3:2|2:0,2:0:0:0:
351,351,13111,1,0,3:2:0:0:
334,87,13278,2,0,P|368:121|366:173,1,90,8|0,2:0|2:0,2:0:0:0:
269,289,13611,6,0,B|258:240|258:240|250:237|250:237|236:174,1,108,2|0,3:2|3:2,2:0:0:0:
170,158,13861,1,0,3:2:0:0:
174,130,13944,1,10,2:0:0:0:
343,243,14111,1,2,3:2:0:0:
199,60,14278,2,0,B|142:51|142:51|103:104,1,108,8|0,2:0|3:2,2:0:0:0:
158,297,14611,6,0,L|172:239,1,54,8|0,2:0|2:0,2:0:0:0:
43,158,14778,1,0,3:2:0:0:
41,184,14861,1,0,3:2:0:0:
17,210,14944,6,0,P|66:211|107:175,1,99,6|0,3:2|2:0,2:0:0:0:
333,330,15278,2,0,P|280:335|246:306,1,99,2|0,3:2|2:0,2:0:0:0:
85,354,15611,1,2,3:2:0:0:
267,222,15778,2,0,L|252:114,1,99,2|0,2:0|3:2,2:0:0:0:
417,9,16111,6,0,P|425:68|388:105,1,99,2|2,2:0|3:2,2:0:0:0:
164,87,16444,1,0,2:0:0:0:
313,50,16611,1,2,3:2:0:0:
416,187,16778,1,2,2:0:0:0:
416,187,16861,1,2,2:0:0:0:
416,187,16944,2,0,L|434:296,1,99,2|2,3:2|2:0,2:0:0:0:
497,155,17278,5,2,3:2:0:0:
397,356,17444,1,2,2:0:0:0:
334,222,17611,5,2,3:2:0:0:
334,222,17778,2,0,B|297:257|297:257|314:314,1,99,0|2,2:0|3:2,2:0:0:0:
140,168,18111,2,0,B|177:133|177:133|160:76,1,99,2|0,2:0|3:2,2:0:0:0:
290,312,18444,2,0,L|179:296,1,99,2|0,2:0|3:2,2:0:0:0:
31,359,18778,5,2,2:0:0:0:
109,338,18944,1,2,3:2:0:0:
253,160,19111,1,2,2:0:0:0:
276,236,19278,1,2,3:2:0:0:
74,264,19444,1,2,2:0:0:0:
74,264,19528,1,2,2:0:0:0:
74,264,19611,1,0,3:2:0:0:
126,192,19778,2,0,L|110:82,1,99,2|0,2:0|3:2,2:0:0:0:
35,38,20111,5,2,2:0:0:0:
205,228,20278,2,0,B|253:218|278:185|278:185|336:205,1,148.5,4|0,3:2|2:0,2:0:0:0:
352,241,20611,1,0,3:2:0:0:
421,123,20778,1,2,2:0:0:0:
458,328,20944,1,0,3:2:0:0:
276,157,21111,2,0,B|299:132|299:114|299:114|309:126|346:132,1,99,2|0,2:0|3:2,2:0:0:0:
493,250,21444,5,2,2:0:0:0:
363,271,21611,1,0,3:2:0:0:
493,292,21778,5,2,2:0:0:0:
361,228,21944,1,0,3:2:0:0:
485,183,22111,5,2,2:0:0:0:
334,347,22278,1,2,3:2:0:0:
267,213,22444,5,2,2:0:0:0:
286,194,22528,1,2,2:0:0:0:
310,172,22611,2,0,L|296:108,1,49.5,2|0,3:2|2:0,2:0:0:0:
457,23,22778,1,2,2:0:0:0:
333,268,22944,6,0,B|267:221|267:221|123:281,1,234,4|8,3:2|2:0,2:0:0:0:
35,32,23444,6,0,B|73:41|73:41|97:58|97:58|136:53|136:53|221:76,1,175.5,2|0,3:2|2:0,2:0:0:0:
209,85,23778,1,0,3:2:0:0:
85,342,23944,6,0,B|47:307|47:307|60:234,1,117,8|0,2:0|2:0,2:0:0:0:
293,198,24278,5,4,3:2:0:0:
114,16,24444,1,8,2:0:0:0:
149,9,24528,1,8,2:0:0:0:
184,2,24611,1,8,2:0:0:0:
136,262,24778,5,0,3:2:0:0:
171,269,24861,1,0,3:2:0:0:
206,276,24944,1,8,2:0:0:0:
436,173,25111,6,0,L|360:187,1,58.5,2|0,3:2|3:2,2:0:0:0:
254,206,25278,1,10,2:0:0:0:
260,159,25361,1,0,3:2:0:0:
266,112,25444,1,2,3:2:0:0:
272,65,25528,1,0,3:2:0:0:
272,65,26277,6,0,B|243:124|243:124|312:222|312:222|282:283,1,252,4|8,3:2|2:0,2:0:0:0:
42,243,26727,5,2,2:0:0:0:
42,243,26802,1,2,2:0:0:0:
42,243,26877,1,2,3:2:0:0:
131,194,27027,1,0,2:0:0:0:
43,365,27177,2,0,P|62:308|64:253,1,108,10|2,2:0|2:0,2:0:0:0:
22,60,27477,6,0,B|78:40|78:40|120:101,1,108,6|0,3:2|2:0,2:0:0:0:
166,300,27777,1,10,2:0:0:0:
27,142,27927,1,0,2:0:0:0:
52,133,28002,1,2,2:0:0:0:
77,124,28077,2,0,L|204:149,1,108,2|0,3:2|2:0,2:0:0:0:
476,50,28377,5,8,2:0:0:0:
251,116,28527,1,2,2:0:0:0:
451,124,28677,5,2,3:2:0:0:
283,45,28827,1,2,2:0:0:0:
421,1,28977,1,10,2:0:0:0:
316,177,29127,5,2,2:0:0:0:
316,177,29202,1,2,2:0:0:0:
316,177,29277,2,0,B|303:229|303:229|319:252|321:287,1,108,2|2,3:2|2:0,2:0:0:0:
401,361,29577,1,8,2:0:0:0:
158,313,29727,6,0,P|193:273|244:282,1,108,0|0,2:2|3:2,2:0:0:0:
395,225,30027,1,0,2:0:0:0:
232,165,30177,1,10,2:0:0:0:
310,96,30327,2,0,L|321:26,1,54,2|0,2:0|2:0,2:0:0:0:
359,202,30477,2,0,L|336:89,1,108,2|0,3:2|2:0,2:0:0:0:
90,43,30777,5,12,2:0:0:0:
131,58,30852,1,0,3:2:0:0:
165,88,30927,1,0,3:2:0:0:
420,0,31077,6,0,P|383:13|339:52,1,67.5000000000002,2|0,3:2|2:0,2:0:0:0:
92,147,31377,5,12,2:0:0:0:
133,162,31452,1,0,3:2:0:0:
167,192,31527,1,0,3:2:0:0:
473,77,31677,6,0,P|436:90|392:129,1,67.5000000000002,2|0,3:2|2:0,2:0:0:0:
191,306,31977,6,0,B|203:270|203:270|290:247|290:247|311:190,1,162,10|0,2:0|2:0,2:0:0:0:
244,146,32277,5,2,3:2:0:0:
373,264,32427,1,0,2:0:0:0:
125,256,32577,5,10,2:0:0:0:
275,291,32727,1,0,2:0:0:0:
127,360,32877,1,0,3:2:0:0:
309,222,33027,5,2,2:0:0:0:
309,222,33102,1,2,2:0:0:0:
309,222,33177,2,0,P|299:150|282:57,1,162,12|0,2:0|2:0,2:0:0:0:
340,117,33477,5,2,3:2:0:0:
359,22,33627,1,2,2:0:0:0:
141,104,33777,2,0,P|196:109|216:163,1,108,10|2,2:0|2:0,2:0:0:0:
390,203,34077,5,2,3:2:0:0:
340,117,34227,1,2,2:0:0:0:
178,257,34377,2,0,P|183:202|237:182,1,108,10|2,2:0|2:0,2:0:0:0:
360,303,34677,5,0,3:2:0:0:
390,203,34827,1,2,2:0:0:0:
216,274,34977,2,0,P|161:279|141:333,1,108,8|2,2:0|2:0,2:0:0:0:
16,163,35277,5,2,3:2:0:0:
67,165,35352,1,0,3:2:0:0:
92,211,35427,1,2,3:2:0:0:
242,349,35577,5,14,2:0:0:0:
244,308,35652,1,2,2:0:0:0:
247,268,35727,1,2,2:0:0:0:
249,227,35802,1,2,2:0:0:0:
252,187,35877,1,2,3:2:0:0:
101,26,36102,5,2,2:0:0:0:
80,33,36177,2,0,P|114:84|214:81,1,162,10|0,2:0|2:1,2:0:0:0:
239,19,36477,2,0,B|270:31|270:31|293:130,1,108,2|0,3:2|2:0,2:0:0:0:
442,35,36777,1,12,2:0:0:0:
224,164,36927,5,0,3:2:0:0:
213,205,37002,1,0,3:2:0:0:
202,246,37077,2,0,L|216:320,1,67.5000000000002,4|0,3:2|2:0,2:0:0:0:
107,146,37377,2,0,L|72:296,1,135,4|2,3:2|2:0,2:0:0:0:
64,307,37827,6,0,B|46:290|22:279|22:279|46:262|78:278,1,108,2|2,2:0|2:0,2:0:0:0:
271,379,38277,6,0,B|346:357|306:333|397:318,1,126,4|0,3:2|3:2,2:0:0:0:
474,361,38577,1,10,2:0:0:0:
257,286,38727,1,2,3:2:0:0:
216,310,38802,1,0,3:2:0:0:
169,300,38877,1,2,3:2:0:0:
417,139,39027,5,0,3:2:0:0:
423,169,39102,1,0,3:2:0:0:
429,199,39177,1,10,2:0:0:0:
204,226,39327,6,0,L|222:142,1,63,0|0,3:2|2:0,2:0:0:0:
266,12,39477,1,6,3:2:0:0:
344,276,39627,6,0,L|325:201,1,63,8|0,2:0|2:0,2:0:0:0:
283,34,39777,1,0,3:2:0:0:
411,105,39927,1,8,2:0:0:0:
203,7,40077,6,0,L|190:75,1,63,0|0,3:2|2:0,2:0:0:0:
89,136,40227,1,8,2:0:0:0:
110,159,40302,1,8,2:0:0:0:
139,170,40377,1,2,3:2:0:0:
238,324,40527,5,10,2:0:0:0:
287,153,40677,1,2,3:2:0:0:
84,237,40827,1,0,3:2:0:0:
273,187,40977,5,8,2:0:0:0:
133,329,41127,1,2,3:2:0:0:
229,86,41277,1,2,3:2:0:0:
272,67,41352,1,0,3:0:0:0:
318,73,41427,1,0,3:2:0:0:
355,100,41502,1,0,3:0:0:0:
374,143,41577,1,8,2:0:0:0:
412,38,41727,5,8,2:0:0:0:
287,153,41877,6,0,L|311:300,1,144,4|8,3:2|2:0,2:0:0:0:
456,157,42102,1,2,2:0:0:0:
477,131,42177,2,0,L|453:278,1,144,4|8,3:2|2:0,2:0:0:0:
280,325,42477,5,4,3:2:0:0:
244,317,42552,1,0,3:0:0:0:
208,309,42627,1,8,2:0:0:0:
172,301,42702,1,8,2:0:0:0:
136,293,42777,1,8,2:0:0:0:
30,368,42927,6,0,B|49:343|49:343|99:355,1,63,8|0,2:0|2:0,2:0:0:0:
175,171,43077,6,0,P|100:186|83:230,1,126,6|0,3:2|2:0,2:0:0:0:
178,355,43377,1,2,3:2:0:0:
238,101,43527,5,2,2:0:0:0:
238,101,43602,1,2,2:0:0:0:
238,101,43677,2,0,L|111:76,1,108,2|2,3:2|2:0,2:0:0:0:
17,98,43977,1,0,3:2:0:0:
84,21,44127,1,2,2:0:0:0:
247,205,44277,6,0,B|340:188|297:148|395:134,1,162,2|0,3:2|2:0,2:0:0:0:
411,163,44577,1,0,3:2:0:0:
325,60,44727,1,2,2:0:0:0:
481,124,44877,2,0,B|497:176|497:176|467:224,1,108,2|0,3:2|2:0,2:0:0:0:
285,354,45177,2,0,B|309:266|309:266|337:257,1,108,2|2,3:2|2:0,2:0:0:0:
478,306,45477,6,0,P|424:300|383:344,1,108,2|0,3:2|2:0,2:0:0:0:
211,154,45777,5,2,3:2:0:0:
257,283,45927,1,0,2:0:0:0:
143,361,46077,5,0,3:2:0:0:
189,232,46227,1,0,2:0:0:0:
247,76,46377,5,8,2:0:0:0:
293,205,46527,1,0,2:0:0:0:
21,191,46677,6,0,P|45:127|135:122,1,162,0|0,3:2|2:0,2:0:0:0:
227,40,46977,2,0,P|209:86|144:89,1,108,8|0,2:0|2:0,2:0:0:0:
42,34,47277,5,0,3:2:0:0:
97,235,47427,1,0,3:2:0:0:
268,134,47577,2,0,L|374:112,1,108,8|2,2:0|2:0,2:0:0:0:
448,69,47802,1,2,2:0:0:0:
465,76,47877,1,2,2:0:0:0:
290,15,48027,6,0,P|316:33|347:41,1,45,0|0,2:0|2:0,2:0:0:0:
400,195,48327,2,0,P|426:177|457:169,1,45,0|0,2:0|2:0,2:0:0:0:
216,172,48627,2,0,P|258:161|307:139,1,90,0|0,2:0|2:0,2:0:0:0:
438,320,49077,5,0,3:2:0:0:
438,320,49527,6,0,B|384:293|364:237|364:237|374:294|355:348,1,202.5,2|0,2:0|2:0,2:0:0:0:
338,337,49827,1,2,2:0:0:0:
70,185,49977,6,0,B|96:184|113:177|113:177|121:206|121:206|164:198|164:198|194:237|241:250,1,202.5,2|0,2:0|2:0,2:0:0:0:
294,201,50277,6,0,L|281:119,1,58.5,2|0,3:2|2:0,2:0:0:0:
454,61,50427,1,0,3:2:0:0:
432,37,50502,1,0,3:2:0:0:
406,18,50577,2,0,L|393:100,1,58.5,2|0,3:2|2:0,2:0:0:0:
352,247,50727,5,0,3:2:0:0:
359,292,50802,1,0,3:2:0:0:
331,330,50877,1,2,3:2:0:0:
282,335,50952,1,0,3:0:0:0:
245,305,51027,1,2,3:2:0:0:
239,258,51102,1,0,3:2:0:0:
219,215,51177,1,2,3:2:0:0:
173,206,51252,1,0,3:2:0:0:
135,236,51327,1,2,3:2:0:0:
138,282,51402,1,0,3:2:0:0:
167,317,51477,6,0,P|179:339|187:385,3,58.5,2|0|0|0,3:2|3:2|3:2|3:2,2:0:0:0:
31,272,51777,2,0,B|37:251|37:251|42:247|42:247|52:206,1,58.5,2|0,3:2|2:0,2:0:0:0:
166,34,51927,5,2,3:2:0:0:
182,62,52002,1,2,3:2:0:0:
197,91,52077,2,0,B|126:79|126:79|119:84|119:84|45:72,1,135,2|2,3:1|2:0,2:0:0:0:
275,36,52302,2,0,B|346:24|346:24|353:29|353:29|427:17,1,135,2|2,3:1|2:0,2:0:0:0:
284,132,52527,2,0,L|268:218,1,67.5,2|0,3:1|2:0,2:0:0:0:
316,366,52677,6,0,L|332:280,1,67.5,6|0,3:2|3:2,2:0:0:0:
149,226,52827,1,0,3:2:0:0:
119,205,52902,1,0,3:2:0:0:
91,181,52977,2,0,L|177:197,1,67.5,2|0,3:2|2:0,2:0:0:0:
420,224,53127,5,0,3:2:0:0:
445,240,53202,1,0,3:2:0:0:
447,264,53277,1,2,3:2:0:0:
413,282,53352,1,0,3:0:0:0:
382,261,53427,1,0,3:2:0:0:
381,214,53502,1,0,3:2:0:0:
410,179,53577,1,2,3:2:0:0:
419,133,53652,1,0,3:2:0:0:
408,85,53727,1,0,3:2:0:0:
358,70,53802,1,0,3:2:0:0:
314,92,53877,6,0,P|297:124|291:165,3,67.5,2|0|0|0,3:2|3:2|3:2|3:2,2:0:0:0:
175,189,54177,2,0,B|182:221|182:221|187:227|187:227|194:263,1,67.5,2|0,3:2|2:0,2:0:0:0:
313,289,54327,1,0,3:2:0:0:
302,320,54402,1,0,3:2:0:0:
293,349,54477,1,2,3:2:0:0:
149,163,54627,5,8,2:0:0:0:
274,112,54777,2,0,B|283:92|283:92|268:11,1,90,8|0,2:0|2:0,2:0:0:0:
83,20,55077,6,0,P|59:42|28:50,1,53.9999999999999,4|0,3:2|2:0,2:0:0:0:
205,83,55505,2,0,P|171:76|144:63,1,53.9999999999999,0|0,2:0|2:0,2:0:0:0:
10,142,55934,1,2,3:2:0:0:
86,110,56148,1,0,2:0:0:0:
155,156,56362,2,0,P|147:188|136:217,1,53.9999999999999,0|0,2:0|2:0,2:0:0:0:
271,26,56791,6,0,P|279:55|292:88,1,53.9999999999999,2|0,3:2|2:0,2:0:0:0:
421,61,57219,1,2,3:2:0:0:
350,20,57434,1,0,2:0:0:0:
214,98,57648,5,2,3:2:0:0:
274,185,57862,1,2,3:2:0:0:
207,233,58077,1,10,2:0:0:0:
203,251,58184,1,2,2:0:0:0:
199,269,58291,1,2,2:0:0:0:
195,287,58398,1,2,2:0:0:0:
125,249,58505,6,0,P|146:293|161:344,1,81.0000000000001,6|0,3:2|2:0,2:0:0:0:
356,203,58838,2,0,P|335:247|320:298,1,81.0000000000001,2|0,3:2|2:0,2:0:0:0:
412,361,59171,1,2,3:2:0:0:
462,301,59338,1,2,2:0:0:0:
438,282,59421,1,2,2:0:0:0:
408,284,59505,1,0,3:0:0:0:
270,136,59671,6,0,P|316:128|359:113,1,81.0000000000001,2|2,2:0|3:2,2:0:0:0:
490,342,60005,2,0,P|444:350|401:365,1,81.0000000000001,0|2,2:0|3:2,2:0:0:0:
304,217,60338,5,0,2:0:0:0:
371,127,60505,1,2,3:2:0:0:
291,52,60671,2,0,L|186:70,1,81.0000000000001,2|0,2:0|3:0,2:0:0:0:
4,89,61005,5,2,2:0:0:0:
64,31,61171,1,2,3:2:0:0:
25,169,61338,2,0,P|71:153|107:147,1,81.0000000000001,2|0,2:0|3:2,2:0:0:0:
36,314,61671,2,0,P|52:276|75:239,1,81.0000000000001,2|0,2:0|3:2,2:0:0:0:
179,360,62005,2,0,P|163:322|140:285,1,81.0000000000001,2|0,2:0|3:0,2:0:0:0:
183,74,62338,5,2,2:0:0:0:
155,205,62505,1,2,3:2:0:0:
89,116,62671,1,2,2:0:0:0:
180,190,62838,1,2,3:2:0:0:
175,32,63005,5,2,2:0:0:0:
284,83,63171,1,2,3:2:0:0:
188,165,63338,2,0,L|213:262,1,81.0000000000001,2|0,2:0|3:2,2:0:0:0:
369,41,63671,5,2,2:0:0:0:
399,52,63755,1,2,2:0:0:0:
429,63,63838,2,0,L|411:161,1,81.0000000000001,2|0,3:2|2:0,2:0:0:0:
187,266,64171,5,2,3:2:0:0:
320,218,64338,1,2,2:0:0:0:
166,290,64505,1,0,3:2:0:0:
335,334,64671,2,0,B|315:295|315:295|291:292|262:273,1,81.0000000000001,2|0,2:0|3:2,2:0:0:0:
475,188,65004,6,0,P|482:234|460:271,1,81.0000000000001,2|0,2:0|3:0,2:0:0:0:
323,376,65338,1,2,2:0:0:0:
390,265,65505,1,2,3:2:0:0:
264,157,65671,1,2,2:0:0:0:
303,304,65838,2,0,L|314:259,2,40.5,2|2|2,3:2|2:0|2:0,2:0:0:0:
182,86,66171,5,2,3:2:0:0:
177,105,66255,1,2,2:0:0:0:
185,124,66338,1,2,2:0:0:0:
201,134,66421,1,2,2:0:0:0:
221,134,66505,6,0,B|265:104|323:113|305:159|369:172|431:130,1,198,4|8,3:2|2:0,2:0:0:0:
208,250,67005,2,0,B|248:236|267:202|267:202|259:239|277:276,1,148.5,0|0,3:2|2:0,2:0:0:0:
298,291,67338,1,0,3:2:0:0:
483,323,67505,2,0,P|465:287|402:288,1,99,8|0,2:0|2:0,2:0:0:0:
114,326,67838,5,2,3:2:0:0:
370,208,68005,1,0,3:2:0:0:
370,208,68088,1,0,3:2:0:0:
370,208,68171,2,0,B|338:193|338:193|320:107,1,108,8|0,2:0|3:2,2:0:0:0:
128,241,68505,1,8,2:0:0:0:
248,48,68671,1,0,3:2:0:0:
77,173,68838,6,0,P|100:162|135:158,1,54,8|0,2:0|2:0,2:0:0:0:
217,240,69005,1,0,3:2:0:0:
203,262,69088,1,0,3:2:0:0:
217,283,69171,6,0,P|237:330|248:380,1,99,4|0,3:2|2:0,2:0:0:0:
214,151,69505,1,2,3:2:0:0:
118,298,69671,1,2,2:0:0:0:
76,109,69838,1,2,3:2:0:0:
2,177,70005,2,0,P|46:196|106:205,1,99,2|0,2:0|3:2,2:0:0:0:
172,0,70338,6,0,B|160:20|160:20|172:111,1,99,2|0,2:0|3:0,2:0:0:0:
13,55,70671,1,2,2:0:0:0:
80,2,70838,1,2,3:2:0:0:
185,190,71005,1,2,2:0:0:0:
185,190,71088,1,2,2:0:0:0:
185,190,71171,1,2,3:2:0:0:
351,107,71338,2,0,P|301:113|238:139,1,99,2|0,2:0|3:0,2:0:0:0:
280,30,71671,5,2,2:0:0:0:
431,146,71838,1,2,3:2:0:0:
270,238,72005,6,0,P|229:210|185:190,1,99,0|2,2:0|3:2,2:0:0:0:
362,209,72338,1,2,2:0:0:0:
253,337,72505,1,0,3:0:0:0:
184,103,72671,5,2,2:0:0:0:
273,218,72838,1,0,3:0:0:0:
378,329,73005,5,2,2:0:0:0:
378,329,73171,2,0,P|432:309|475:299,1,99,2|2,3:2|2:0,2:0:0:0:
224,353,73505,1,2,3:2:0:0:
155,281,73671,1,2,2:0:0:0:
187,259,73755,1,2,2:0:0:0:
226,254,73838,1,2,3:2:0:0:
395,203,74005,6,0,P|346:191|300:173,1,99,2|0,2:0|3:2,2:0:0:0:
308,375,74338,1,2,2:0:0:0:
231,219,74505,6,0,B|197:153|164:196|126:100,1,148.5,4|0,3:2|2:0,2:0:0:0:
157,92,74838,1,2,3:2:0:0:
112,230,75005,1,2,2:0:0:0:
36,58,75171,1,2,3:2:0:0:
222,36,75338,2,0,B|254:60|254:60|226:149,1,99,2|0,2:0|3:2,2:0:0:0:
47,160,75671,5,2,2:0:0:0:
64,179,75755,1,2,2:0:0:0:
65,204,75838,1,2,3:2:0:0:
19,284,76005,1,2,2:0:0:0:
139,122,76171,5,2,3:2:0:0:
180,355,76338,1,2,2:0:0:0:
312,169,76505,5,2,3:2:0:0:
256,334,76671,1,2,2:0:0:0:
249,312,76755,1,2,2:0:0:0:
242,286,76838,2,0,L|250:231,1,49.5,0|0,3:2|2:0,2:0:0:0:
376,97,77005,5,2,2:0:0:0:
512,304,77171,6,0,B|463:357|463:357|316:268,1,234,4|8,3:2|2:0,2:0:0:0:
466,50,77671,6,0,B|457:89|457:89|461:118|461:118|439:150|439:150|421:236,1,175.5,2|0,3:2|2:0,2:0:0:0:
449,241,78005,1,0,3:2:0:0:
142,290,78171,6,0,P|177:242|243:240,1,117,8|0,2:0|2:0,2:0:0:0:
343,13,78505,5,4,3:2:0:0:
229,200,78671,1,0,3:2:0:0:
274,189,78755,1,0,3:2:0:0:
321,179,78838,1,8,2:0:0:0:
97,19,79005,5,0,3:2:0:0:
142,30,79088,1,0,3:2:0:0:
189,40,79171,1,8,2:0:0:0:
456,260,79338,6,0,L|438:190,1,58.5,2|0,3:2|3:2,2:0:0:0:
371,105,79505,5,10,3:2:0:0:
364,157,79588,1,0,3:2:0:0:
357,209,79671,1,2,3:2:0:0:
350,261,79754,1,0,3:2:0:0:
350,261,80504,6,0,P|229:239|83:225,1,252,4|8,3:2|2:0,2:0:0:0:
222,118,80954,5,2,2:0:0:0:
241,138,81029,1,2,2:0:0:0:
258,157,81104,2,0,B|191:180|191:180|147:159,1,108,2|2,3:2|2:0,2:0:0:0:
85,119,81404,1,10,2:0:0:0:
163,312,81554,1,2,2:0:0:0:
390,198,81704,6,0,B|353:237|353:237|279:223,1,108,6|0,3:2|2:0,2:0:0:0:
207,35,82004,1,10,2:0:0:0:
324,144,82154,1,0,2:0:0:0:
346,158,82229,1,2,2:0:0:0:
368,172,82304,2,0,L|351:290,1,108,2|0,3:2|2:0,2:0:0:0:
441,337,82604,5,8,2:0:0:0:
264,240,82754,1,2,2:0:0:0:
456,235,82904,5,2,3:2:0:0:
251,342,83054,1,2,2:0:0:0:
251,342,83129,1,2,2:0:0:0:
251,342,83204,1,10,2:0:0:0:
286,140,83354,5,2,2:0:0:0:
357,359,83504,2,0,P|303:348|232:340,1,108,2|0,3:2|2:0,2:0:0:0:
198,122,83804,1,10,2:0:0:0:
381,214,83954,6,0,B|327:224|327:224|319:249|281:271,1,108,0|2,2:0|3:2,2:0:0:0:
113,167,84254,1,2,2:0:0:0:
293,77,84404,1,8,2:0:0:0:
102,16,84554,2,0,L|169:26,1,54,2|0,2:0|2:0,2:0:0:0:
27,96,84704,2,0,L|140:58,1,108,2|0,3:2|2:0,2:0:0:0:
104,346,85004,5,12,2:0:0:0:
119,305,85079,1,0,3:2:0:0:
149,271,85154,1,0,3:2:0:0:
233,24,85304,6,0,P|242:62|254:93,1,67.5000000000002,2|0,3:2|2:0,2:0:0:0:
203,345,85604,5,12,2:0:0:0:
218,304,85679,1,0,3:2:0:0:
248,270,85754,1,0,3:2:0:0:
315,36,85904,6,0,P|324:74|336:105,1,67.5000000000002,2|0,3:2|2:0,2:0:0:0:
63,235,86204,6,0,B|98:226|145:260|145:260|149:206|197:175,1,162,12|0,2:0|2:0,2:0:0:0:
197,123,86504,1,2,3:2:0:0:
345,290,86654,1,0,2:0:0:0:
267,147,86804,5,8,2:0:0:0:
218,304,86954,1,0,2:0:0:0:
334,100,87104,5,2,3:2:0:0:
430,305,87254,1,0,2:0:0:0:
411,123,87404,5,12,2:0:0:0:
290,347,87554,1,0,2:0:0:0:
463,205,87704,5,0,3:2:0:0:
359,239,87854,1,2,2:0:0:0:
294,13,88004,2,0,P|334:48|328:109,1,108,8|2,2:0|2:0,2:0:0:0:
254,272,88304,5,0,3:2:0:0:
359,239,88454,1,2,2:0:0:0:
172,121,88604,2,0,P|207:81|268:87,1,108,8|2,2:0|2:0,2:0:0:0:
359,239,88904,5,0,3:2:0:0:
254,272,89054,1,2,2:0:0:0:
131,52,89204,2,0,P|91:87|97:148,1,108,8|2,2:0|2:0,2:0:0:0:
327,172,89504,5,2,3:2:0:0:
284,163,89579,1,0,3:2:0:0:
241,155,89654,1,2,3:2:0:0:
21,273,89804,5,14,2:0:0:0:
62,264,89879,1,2,2:0:0:0:
103,255,89954,1,2,2:0:0:0:
145,247,90029,1,2,2:0:0:0:
186,238,90104,1,2,3:2:0:0:
430,360,90329,5,0,2:0:0:0:
454,354,90404,2,0,P|407:296|313:313,1,162,8|0,2:0|2:1,2:0:0:0:
288,241,90704,2,0,B|261:255|261:255|235:366,1,108,0|0,3:2|2:0,2:0:0:0:
486,140,91004,1,14,2:0:0:0:
316,220,91154,5,2,3:2:0:0:
289,213,91229,1,2,3:2:0:0:
262,207,91304,2,0,L|166:225,1,67.5000000000002,6|0,3:2|2:0,2:0:0:0:
377,129,91604,2,0,L|226:71,1,135,4|2,3:2|2:0,2:0:0:0:
289,70,92054,6,0,B|275:36|275:36|241:46|241:46|252:85,1,108,2|0,2:0|2:0,2:0:0:0:
120,227,92504,6,0,B|135:297|163:272|183:355,1,126,4|0,3:2|3:2,2:0:0:0:
81,361,92804,1,8,2:0:0:0:
257,180,92954,1,2,3:2:0:0:
219,183,93029,1,0,3:2:0:0:
191,158,93104,1,2,3:2:0:0:
279,366,93254,5,0,3:2:0:0:
310,359,93329,1,0,3:2:0:0:
340,353,93404,1,8,2:0:0:0:
183,297,93554,6,0,L|260:273,1,63,2|0,3:2|2:0,2:0:0:0:
411,224,93704,1,4,3:2:0:0:
157,167,93854,6,0,L|233:186,1,63,8|0,2:0|2:0,2:0:0:0:
387,223,94004,1,2,3:2:0:0:
249,101,94154,1,8,2:0:0:0:
314,42,94304,5,2,3:2:0:0:
334,66,94379,1,0,3:2:0:0:
336,97,94454,2,0,L|321:170,1,63,8|8,2:0|2:0,2:0:0:0:
470,318,94604,5,10,2:0:0:0:
413,140,94754,1,2,2:0:0:0:
328,302,94904,1,2,3:2:0:0:
498,173,95054,1,2,3:2:0:0:
242,158,95204,5,8,2:0:0:0:
400,270,95354,1,0,3:2:0:0:
149,331,95504,1,2,3:2:0:0:
156,284,95579,1,0,3:0:0:0:
186,249,95654,1,0,3:2:0:0:
230,234,95729,1,0,3:0:0:0:
276,244,95804,1,8,2:0:0:0:
167,130,95954,5,8,2:0:0:0:
387,46,96104,6,0,L|214:23,1,144,4|8,3:2|2:0,2:0:0:0:
382,187,96329,1,2,2:0:0:0:
412,211,96404,2,0,L|239:234,1,144,4|8,3:2|2:0,2:0:0:0:
117,177,96704,5,4,3:2:0:0:
151,165,96779,1,0,3:0:0:0:
184,153,96854,1,8,2:0:0:0:
217,140,96929,1,8,2:0:0:0:
250,128,97004,1,8,2:0:0:0:
137,29,97154,6,0,B|148:62|148:62|126:101,1,63,8|0,2:0|2:0,2:0:0:0:
56,233,97304,6,0,P|23:282|42:340,1,108,6|0,3:2|2:0,2:0:0:0:
171,368,97604,1,2,3:2:0:0:
119,287,97754,1,2,2:0:0:0:
228,182,97904,5,2,3:2:0:0:
199,273,98054,1,2,2:0:0:0:
267,365,98204,1,0,3:2:0:0:
134,187,98354,5,2,2:0:0:0:
134,187,98429,1,2,2:0:0:0:
134,187,98504,2,0,B|151:163|151:163|119:27,1,162,2|0,3:2|2:0,2:0:0:0:
58,106,98804,1,0,3:2:0:0:
91,13,98954,1,2,2:0:0:0:
227,126,99104,2,0,B|260:151|260:151|339:130,1,108,2|0,3:2|2:0,2:0:0:0:
495,99,99404,2,0,L|381:84,1,108,2|0,3:2|2:0,2:0:0:0:
220,0,99704,6,0,P|273:23|276:75,1,108,2|0,3:2|2:0,2:0:0:0:
455,283,100004,5,2,3:2:0:0:
333,230,100154,1,0,2:0:0:0:
189,352,100304,5,2,3:2:0:0:
311,299,100454,1,0,2:0:0:0:
433,246,100604,5,8,2:0:0:0:
311,193,100754,1,0,2:0:0:0:
33,279,100904,6,0,B|57:304|57:304|77:292|77:292|197:314,1,162,2|0,3:2|2:0,2:0:0:0:
288,317,101204,2,0,B|253:328|253:328|244:326|244:326|238:334|238:334|170:358,1,108,8|0,2:0|2:0,2:0:0:0:
45,194,101504,5,2,3:2:0:0:
209,77,101654,1,0,3:2:0:0:
255,249,101804,2,0,P|192:242|169:177,1,108,8|8,2:0|2:0,2:0:0:0:
114,144,102029,1,8,2:0:0:0:
119,127,102104,1,8,2:0:0:0:
46,71,102254,6,0,P|39:41|29:12,1,53.9999999999999,0|0,2:0|2:0,2:0:0:0:
214,130,102554,2,0,P|221:100|231:71,1,53.9999999999999,0|0,2:0|2:0,2:0:0:0:
159,263,102854,2,0,P|139:220|104:160,1,108,0|0,2:0|2:0,2:0:0:0:
336,38,103304,5,0,3:2:0:0:
336,38,103754,6,0,B|368:69|368:69|383:100|383:100|412:91|412:91|500:134,1,202.5,2|0,2:0|2:0,2:0:0:0:
499,170,104054,1,2,2:0:0:0:
268,297,104204,2,0,B|299:261|297:193|297:193|334:242|410:232,1,202.5,2|0,2:0|2:0,2:0:0:0:
369,311,104504,5,2,3:2:0:0:
508,249,104654,1,2,2:0:0:0:
298,183,104804,5,2,3:2:0:0:
427,243,104954,1,2,2:0:0:0:
275,316,105104,5,2,3:2:0:0:
343,242,105254,1,2,2:0:0:0:
212,165,105404,5,2,3:2:0:0:
258,244,105554,1,2,2:0:0:0:
151,317,105704,5,2,3:2:0:0:
182,244,105854,1,2,2:0:0:0:
86,225,106004,5,2,3:2:0:0:
104,255,106154,1,2,2:0:0:0:
27,349,106304,6,0,L|49:175,1,162,2|2,3:2|2:1,2:0:0:0:
21,166,106604,1,2,3:2:0:0:
162,93,106754,1,2,3:2:0:0:
47,34,106904,5,2,3:2:0:0:
192,54,107054,1,2,2:0:0:0:
99,144,107204,5,2,3:2:0:0:
211,75,107354,1,2,2:0:0:0:
208,180,107504,5,2,3:2:0:0:
242,83,107654,1,2,2:0:0:0:
302,156,107804,5,2,3:2:0:0:
275,77,107954,1,2,2:0:0:0:
359,98,108104,5,2,3:2:0:0:
305,54,108254,1,2,2:0:0:0:
351,13,108404,5,2,3:2:0:0:
321,20,108554,1,2,2:0:0:0:
248,10,108704,6,0,L|271:137,1,108,2|0,3:2|2:0,2:0:0:0:
208,180,108929,2,0,L|185:307,1,108,2|0,3:1|2:0,2:0:0:0:
235,354,109154,1,2,3:2:0:0:
498,329,109304,5,4,3:2:0:0:
298,297,109454,1,0,3:0:0:0:
149,359,109604,1,0,3:2:0:0:
379,328,109754,5,0,3:2:0:0:
379,328,109829,1,0,3:2:0:0:
379,328,109904,2,0,L|361:196,1,108,2|0,3:1|2:0,2:0:0:0:
429,172,110129,1,2,3:1:0:0:
429,172,110204,1,0,3:2:0:0:
318,58,110354,1,2,3:1:0:0:
208,180,110504,5,2,3:2:0:0:
392,92,110654,1,0,3:2:0:0:
125,33,110804,5,0,3:2:0:0:
325,139,110954,1,0,3:2:0:0:
183,364,111104,6,0,B|171:320|171:320|176:308|176:308|158:244,1,108,2|0,3:1|2:0,2:0:0:0:
98,119,111329,2,0,B|64:162|64:162|83:225,1,108,2|0,3:1|2:0,2:0:0:0:
255,331,111554,2,0,L|328:312,1,54,2|0,3:1|2:0,2:0:0:0:
473,231,111704,5,2,3:2:0:0:
446,212,111779,1,0,3:2:0:0:
414,237,111854,1,0,3:2:0:0:
380,247,111929,1,0,3:2:0:0:
341,218,112004,5,0,3:2:0:0:
301,207,112079,1,0,3:2:0:0:
257,195,112154,1,2,3:2:0:0:
214,183,112229,1,0,3:2:0:0:
144,156,112304,6,0,B|137:179|137:179|118:73,1,126,6|0,3:1|2:0,2:0:0:0:
254,6,112529,2,0,B|227:12|227:12|198:130,1,126,2|0,3:1|2:0,2:0:0:0:
82,223,112754,1,2,3:1:0:0:
281,91,112904,6,0,B|369:72|369:72|418:96,1,126,6|0,3:1|2:0,2:0:0:0:
497,209,113129,2,0,B|469:229|469:229|415:216|415:216|397:178,1,126,2|0,3:1|2:0,2:0:0:0:
487,51,113354,1,2,3:1:0:0:
315,275,113504,6,0,B|331:247|331:247|205:279,1,144,6|0,3:1|2:0,2:0:0:0:
481,330,113729,2,0,B|506:310|506:310|378:290,1,144,6|0,3:1|2:0,2:0:0:0:
199,377,113954,2,0,L|268:343,1,72,6|0,3:1|2:0,2:0:0:0:
299,356,114704,6,0,B|209:347|241:297|124:292,1,162,4|0,3:2|2:0,2:0:0:0:
40,183,115154,2,0,P|70:215|107:216,1,81.0000000000001,2|0,2:0|2:0,2:0:0:0:
222,232,115454,1,2,2:0:0:0:
203,148,115604,1,2,2:0:0:0:
184,64,115754,1,2,2:0:0:0:
86,55,115904,6,0,P|98:99|105:138,1,81.0000000000001,2|0,3:2|2:0,2:0:0:0:
318,221,116204,2,0,P|306:177|299:138,1,81.0000000000001,2|0,2:0|2:0,2:0:0:0:
337,66,116504,2,0,P|403:48|468:108,1,162,2|2,2:0|2:0,2:0:0:0:
375,212,116954,5,2,2:0:0:0:
375,212,117029,1,2,2:0:0:0:
375,212,117104,2,0,P|361:258|356:300,1,81.0000000000001,2|0,3:2|2:0,2:0:0:0:
206,280,117404,2,0,P|214:324|235:370,1,81.0000000000001,2|0,2:0|2:0,2:0:0:0:
281,212,117704,2,0,P|304:259|335:377,1,162,2|2,2:0|2:0,2:0:0:0:
105,289,118154,5,2,2:0:0:0:
105,289,118304,2,0,P|119:245|128:203,1,81.0000000000001,0|0,3:0|2:0,2:0:0:0:
31,148,118604,1,2,2:0:0:0:
48,70,118754,1,2,2:0:0:0:
109,121,118904,1,2,2:0:0:0:
320,56,119204,6,0,P|263:50|192:28,1,121.5,2|0,2:0|2:0,2:0:0:0:
181,10,119504,6,0,B|169:32|169:32|188:97,1,90,6|0,3:2|2:0,2:0:0:0:
430,91,119804,6,0,P|374:121|305:137,1,135,2|0,3:2|2:0,2:0:0:0:
214,174,120104,6,0,B|242:184|242:184|261:267,1,90,2|0,3:2|2:0,2:0:0:0:
239,362,120404,1,2,3:2:0:0:
421,313,120554,5,2,2:0:0:0:
421,313,120629,1,2,2:0:0:0:
421,313,120704,2,0,P|369:303|324:289,1,90,2|0,3:2|2:0,2:0:0:0:
138,371,121004,5,2,3:2:0:0:
180,241,121154,2,0,L|131:263,1,45,0|0,2:0|2:0,2:0:0:0:
43,272,121304,2,0,P|95:282|140:296,1,90,2|0,3:2|2:0,2:0:0:0:
323,204,121604,6,0,B|288:181|288:181|272:72,1,135,2|0,3:2|2:0,2:0:0:0:
286,12,121904,6,0,P|209:2|157:93,1,180,2|0,3:2|3:2,2:0:0:0:
399,150,122354,1,2,2:0:0:0:
399,150,122429,1,2,2:0:0:0:
399,150,122504,2,0,B|376:239|331:203|298:303,1,180,2|0,3:2|3:2,2:0:0:0:
482,371,122954,5,2,2:0:0:0:
383,293,123104,2,0,P|398:342|401:384,1,90,2|0,3:2|2:0,2:0:0:0:
500,133,123404,5,2,3:2:0:0:
467,294,123554,1,0,2:0:0:0:
307,105,123704,6,0,L|239:121,2,60,2|2|2,3:2|2:2|2:2,2:0:0:0:
359,31,124004,2,0,B|407:26|407:26|438:69,1,90,2|0,3:2|2:0,2:0:0:0:
440,222,124304,5,6,3:2:0:0:
368,173,124454,1,0,3:2:0:0:
308,232,124604,1,2,3:2:0:0:
315,313,124754,1,0,3:2:0:0:
245,364,124904,1,2,3:2:0:0:
171,318,125054,1,0,3:2:0:0:
176,296,125129,1,0,3:2:0:0:
182,277,125204,1,0,3:2:0:0:
126,212,125354,1,0,3:2:0:0:
51,246,125504,5,2,3:2:0:0:
440,222,125804,5,2,3:2:0:0:
387,213,126254,6,0,L|450:223,1,54.0000000000001,2|0,2:0|2:0,2:0:0:0:
457,144,126704,5,4,3:2:0:0:
500,283,126854,1,0,3:2:0:0:
354,121,127004,5,8,2:0:0:0:
273,334,127154,1,0,3:2:0:0:
440,221,127304,5,2,3:2:0:0:
297,177,127454,1,0,3:2:0:0:
263,182,127529,1,0,3:2:0:0:
229,188,127604,1,8,2:0:0:0:
92,296,127754,6,0,L|73:221,1,67.5,2|0,3:2|2:0,2:0:0:0:
39,100,127904,1,2,3:2:0:0:
166,337,128054,6,0,L|190:260,1,67.5,8|0,2:0|2:0,2:0:0:0:
247,103,128204,1,0,3:2:0:0:
49,199,128354,1,8,2:0:0:0:
297,177,128504,5,0,3:2:0:0:
325,136,128579,1,0,3:0:0:0:
329,86,128654,1,8,2:0:0:0:
305,42,128729,1,8,2:0:0:0:
262,16,128804,1,8,2:0:0:0:
188,231,128954,5,2,3:2:0:0:
408,119,129104,5,0,3:2:0:0:
440,245,129254,1,0,3:2:0:0:
247,103,129404,5,8,2:0:0:0:
369,278,129554,1,2,3:2:0:0:
282,379,129704,5,0,3:2:0:0:
254,338,129779,1,0,3:0:0:0:
250,288,129854,1,0,3:2:0:0:
274,244,129929,1,0,3:2:0:0:
317,218,130004,1,8,2:0:0:0:
175,149,130154,5,10,2:0:0:0:
467,79,130304,6,0,L|310:140,1,153,4|10,3:2|2:0,2:0:0:0:
459,324,130529,1,2,2:0:0:0:
482,359,130604,2,0,L|325:298,1,153,4|10,3:2|2:0,2:0:0:0:
223,153,130904,5,4,3:2:0:0:
185,158,130979,1,0,3:0:0:0:
147,164,131054,1,8,2:0:0:0:
109,170,131129,1,8,2:0:0:0:
85,139,131204,1,8,2:0:0:0:
205,60,131354,6,0,B|173:51|173:51|128:90,1,67.5,8|0,2:0|2:0,2:0:0:0:
131,284,131504,6,0,P|83:245|10:254,1,117,6|0,3:2|2:0,2:0:0:0:
57,334,131804,1,2,3:2:0:0:
241,268,131954,5,2,2:0:0:0:
241,268,132029,1,2,2:0:0:0:
241,268,132104,2,0,L|218:122,1,117,2|2,3:2|2:0,2:0:0:0:
423,158,132404,1,0,3:2:0:0:
461,57,132554,1,2,2:0:0:0:
163,91,132704,6,0,B|201:121|201:121|279:99|279:99|318:126,1,175.5,2|0,3:2|2:0,2:0:0:0:
334,129,133004,1,0,3:2:0:0:
371,25,133154,1,2,2:0:0:0:
286,280,133304,2,0,B|247:255|247:255|267:179,1,117,2|0,3:2|2:0,2:0:0:0:
50,25,133604,2,0,B|89:50|89:50|69:126,1,117,0|0,3:2|2:0,2:0:0:0:
9,184,133829,1,2,2:0:0:0:
9,184,133904,6,0,B|79:161|79:161|134:176,1,117,2|0,3:2|2:0,2:0:0:0:
202,361,134204,5,2,3:2:0:0:
85,244,134354,1,0,2:0:0:0:
236,108,134504,5,2,3:2:0:0:
167,278,134654,1,0,2:0:0:0:
486,317,134804,6,0,P|451:246|340:259,1,189,10|0,2:0|2:0,2:0:0:0:
307,313,135104,6,0,B|239:308|198:264|198:264|191:311|160:340,1,202.5,2|0,3:2|2:0,2:0:0:0:
85,379,135404,2,0,B|67:361|67:361|92:271|92:271|132:259,1,135,10|0,2:0|2:0,2:0:0:0:
260,203,135704,5,2,3:2:0:0:
339,13,135854,1,0,3:2:0:0:
89,123,136004,5,8,2:0:0:0:
223,76,136154,1,8,2:0:0:0:
252,85,136229,1,8,2:0:0:0:
277,95,136304,2,0,B|318:88|318:88|392:151,1,117,2|0,3:2|2:0,2:0:0:0:
494,43,136604,5,2,3:2:0:0:
409,63,136754,1,0,2:0:0:0:
494,222,136904,1,2,3:2:0:0:
465,215,136979,1,2,2:0:0:0:
435,209,137054,1,2,2:0:0:0:
470,343,137204,1,2,3:2:0:0:
388,363,137354,1,0,3:2:0:0:
354,255,137504,5,0,3:2:0:0:
354,255,137654,1,0,3:2:0:0:
289,303,137804,1,0,3:2:0:0:
283,301,137879,1,0,3:2:0:0:
277,299,137954,1,0,3:2:0:0:
271,298,138029,1,0,3:2:0:0:
265,297,138104,1,0,3:2:0:0:
259,296,138179,1,0,3:2:0:0:
253,295,138254,1,0,3:2:0:0:
247,294,138329,1,0,3:2:0:0:
241,293,138404,1,2,2:0:0:0:
150,364,138554,6,0,L|197:348,1,33.7500000000001,2|0,2:0|2:0,2:0:0:0:
277,213,138704,5,4,3:2:0:0:
67,332,138854,1,0,3:2:0:0:
309,375,139004,5,8,2:0:0:0:
139,264,139154,1,0,3:2:0:0:
354,255,139304,5,2,3:2:0:0:
358,221,139379,1,0,3:0:0:0:
362,187,139454,1,0,3:2:0:0:
367,153,139529,1,0,3:2:0:0:
372,119,139604,1,8,2:0:0:0:
440,184,139754,5,2,3:2:0:0:
288,115,139904,1,2,3:2:0:0:
496,38,140054,6,0,L|434:80,1,67.5,8|0,2:0|2:0,2:0:0:0:
264,194,140204,1,0,3:2:0:0:
455,269,140354,6,0,L|374:246,1,67.5,8|0,2:0|2:0,2:0:0:0:
185,198,140504,1,0,3:2:0:0:
185,198,140579,1,0,3:2:0:0:
185,198,140654,1,8,2:0:0:0:
146,33,140804,5,0,3:2:0:0:
100,12,140879,1,0,3:2:0:0:
52,23,140954,1,8,0:2:0:0:
21,61,141029,1,0,3:2:0:0:
19,111,141104,1,2,3:2:0:0:
148,288,141254,5,0,3:2:0:0:
99,174,141404,1,8,2:0:0:0:
29,344,141554,1,0,3:2:0:0:
97,92,141704,5,2,3:2:0:0:
130,98,141779,1,0,3:0:0:0:
163,104,141854,1,0,3:2:0:0:
196,110,141929,1,0,3:2:0:0:
223,90,142004,1,8,2:0:0:0:
205,352,142154,5,2,2:0:0:0:
383,297,142304,1,4,3:2:0:0:
174,212,142454,6,0,L|223:264,1,67.5,8|0,2:0|2:0,2:0:0:0:
314,354,142604,1,0,3:2:0:0:
324,98,142754,6,0,L|312:179,1,67.5,8|0,2:0|2:0,2:0:0:0:
285,339,142904,1,0,3:2:0:0:
487,292,143054,5,8,2:0:0:0:
487,292,143129,2,0,L|465:145,1,135,8|0,2:0|2:0,2:0:0:0:
488,131,143354,1,8,2:0:0:0:
276,11,143504,5,2,3:2:0:0:
247,15,143579,1,2,2:0:0:0:
225,33,143654,1,2,3:2:0:0:
215,61,143729,1,2,2:0:0:0:
222,89,143804,2,0,L|231:154,1,58.5,10|2,2:0|2:0,2:0:0:0:
391,190,143954,2,0,L|382:254,1,58.5,2|2,3:2|2:0,2:0:0:0:
324,358,144104,5,2,3:2:0:0:
290,336,144179,1,2,2:0:0:0:
269,293,144254,1,2,3:2:0:0:
276,250,144329,1,2,3:2:0:0:
291,221,144404,1,10,2:0:0:0:
272,246,144479,1,2,2:0:0:0:
248,265,144554,1,2,3:2:0:0:
219,279,144629,1,2,2:0:0:0:
189,278,144704,5,2,3:2:0:0:
176,262,144779,1,2,2:0:0:0:
164,244,144854,2,0,L|92:254,1,58.5,10|0,2:0|2:0,2:0:0:0:
226,155,145004,1,0,3:2:0:0:
234,136,145079,1,2,2:0:0:0:
245,113,145154,1,10,2:0:0:0:
256,91,145229,1,2,2:0:0:0:
266,71,145304,6,0,L|194:62,1,58.5,0|0,3:2|3:2,2:0:0:0:
102,25,145454,1,8,2:0:0:0:
77,34,145529,1,8,2:0:0:0:
70,62,145604,2,0,P|85:93|91:128,3,58.5,0|0|8|0,3:2|3:2|2:0|2:0,2:0:0:0:
25,188,145904,5,2,3:2:0:0:
25,188,145979,1,2,2:0:0:0:
25,188,146054,1,2,3:2:0:0:
25,188,146129,1,2,2:0:0:0:
25,188,146204,2,0,L|13:258,1,58.5,10|2,2:0|2:0,2:0:0:0:
82,345,146354,5,2,3:2:0:0:
107,363,146429,1,2,2:0:0:0:
139,361,146504,1,2,3:2:0:0:
168,342,146579,1,2,2:0:0:0:
182,311,146654,1,2,3:2:0:0:
206,296,146729,1,2,3:2:0:0:
236,297,146804,2,0,L|303:314,1,58.5,10|2,2:0|2:0,2:0:0:0:
441,231,146954,5,2,3:2:0:0:
468,243,147029,1,2,2:0:0:0:
492,253,147104,2,0,L|478:314,1,58.5,2|0,3:2|2:0,2:0:0:0:
376,363,147254,5,10,2:0:0:0:
349,343,147329,1,2,2:0:0:0:
336,309,147404,1,2,3:2:0:0:
343,271,147479,1,2,2:0:0:0:
370,236,147554,1,10,2:0:0:0:
403,218,147629,1,2,2:0:0:0:
442,200,147704,1,2,3:2:0:0:
467,156,147779,1,2,2:0:0:0:
472,107,147854,1,10,2:0:0:0:
449,60,147929,1,10,2:0:0:0:
410,33,148004,1,10,3:2:0:0:
355,33,148079,1,10,2:0:0:0:
299,85,148154,6,0,B|274:81|274:81|267:76|267:76|224:68,1,58.5,10|10,2:0|2:0,2:0:0:0:
22,31,148304,6,0,B|79:56|92:119|92:119|120:79|170:80,1,202.5,4|0,3:2|2:0,2:0:0:0:
213,147,148604,2,0,B|193:176|193:176|212:276,1,117,8|0,2:0|2:0,2:0:0:0:
27,345,148904,5,2,3:2:0:0:
108,199,149054,1,2,2:0:0:0:
77,204,149129,1,2,2:0:0:0:
50,189,149204,1,10,2:0:0:0:
144,358,149354,5,0,2:0:0:0:
282,210,149504,2,0,B|373:240|337:282|436:310,1,175.5,4|0,3:2|2:0,2:0:0:0:
453,294,149804,1,8,2:0:0:0:
365,110,149954,1,2,2:0:0:0:
279,298,150104,1,2,3:2:0:0:
399,240,150254,5,2,2:0:0:0:
399,240,150329,1,2,2:0:0:0:
399,240,150404,2,0,L|390:174,1,58.5,8|0,2:0|2:0,2:0:0:0:
477,122,150554,2,0,L|494:58,1,58.5,2|8,2:0|2:0,2:0:0:0:
342,28,150704,5,2,3:2:0:0:
302,45,150779,1,0,3:0:0:0:
276,79,150854,1,0,3:2:0:0:
271,122,150929,1,0,3:2:0:0:
289,162,151004,1,8,2:0:0:0:
196,264,151154,5,0,3:2:0:0:
360,314,151304,1,8,2:0:0:0:
110,364,151454,5,0,3:2:0:0:
110,364,151529,1,0,3:2:0:0:
110,364,151604,1,8,2:0:0:0:
285,251,151754,1,2,3:2:0:0:
153,140,151904,5,2,3:2:0:0:
245,340,152054,1,8,2:0:0:0:
244,84,152204,5,0,3:2:0:0:
170,289,152354,1,8,2:0:0:0:
25,166,152504,5,2,3:2:0:0:
67,157,152579,1,0,3:0:0:0:
110,148,152654,1,8,2:0:0:0:
153,140,152729,1,8,2:0:0:0:
190,165,152804,1,0,3:2:0:0:
309,47,152954,1,8,2:0:0:0:
47,24,153104,6,0,P|96:84|172:69,1,162,4|0,3:2|2:0,2:0:0:0:
240,21,153404,2,0,B|279:55|279:55|269:111,1,108,0|0,3:2|2:0,2:0:0:0:
372,107,153704,5,2,3:2:0:0:
494,46,153854,1,2,2:0:0:0:
467,19,153929,1,2,2:0:0:0:
429,21,154004,1,2,3:2:0:0:
365,92,154154,1,0,2:0:0:0:
448,331,154304,5,2,3:2:0:0:
483,250,154454,1,2,2:0:0:0:
406,207,154604,1,0,3:2:0:0:
370,289,154754,1,2,2:0:0:0:
494,221,154904,6,0,L|353:252,1,108,2|2,3:2|2:0,2:0:0:0:
341,175,155129,1,2,2:0:0:0:
341,175,155204,2,0,B|317:188|308:211|308:211|285:193|247:198,1,108,0|2,3:2|2:0,2:0:0:0:
22,354,155504,6,0,P|73:336|133:323,1,108,2|0,3:2|2:0,2:0:0:0:
211,368,155804,1,0,3:2:0:0:
265,270,155954,1,2,2:0:0:0:
266,297,156029,1,2,2:0:0:0:
286,315,156104,1,0,3:2:0:0:
89,246,156254,5,2,2:0:0:0:
282,125,156404,5,8,2:0:0:0:
47,19,156554,5,8,2:0:0:0:
138,166,156704,6,0,L|63:153,1,54,4|0,3:2|2:0,2:0:0:0:
194,66,156854,2,0,L|130:84,1,54,2|0,2:0|2:0,2:0:0:0:
239,206,157004,6,0,L|171:254,1,54,8|0,2:0|2:0,2:0:0:0:
298,45,157154,2,0,L|230:-3,1,54,0|0,2:0|2:0,2:0:0:0:
339,223,157304,6,0,L|322:283,1,54,2|0,3:2|2:0,2:0:0:0:
396,51,157454,2,0,L|379:-9,1,54,2|0,3:2|2:0,2:0:0:0:
452,261,157604,6,0,L|475:314,1,54,10|0,2:0|2:0,2:0:0:0:
491,77,157754,2,0,L|514:24,1,54,6|0,3:2|2:0,2:0:0:0:
