osu file format v14

[General]
AudioFilename: audio.mp3
AudioLeadIn: 0
PreviewTime: 80421
Countdown: 0
SampleSet: Soft
StackLeniency: 0.9
Mode: 0
LetterboxInBreaks: 0
WidescreenStoryboard: 1

[Editor]
DistanceSpacing: 2.8
BeatDivisor: 4
GridSize: 8
TimelineZoom: 1.5

[Metadata]
Title:Daemonisch
TitleUnicode:デモーニッシュ
Artist:TUYU
ArtistUnicode:ツユ
Creator:Keqing
Version:Ajisai's Insane
Source:
Tags:devilish dämonisch demonish bongo guanineso stratos iljaaz -aqua captin1 ajisai- Woood13 SnowNiNo_ frozz -Keqing kazato asa shikibe mayu shizuku- pusu ぷす omutatsu おむたつ jpop j-pop japanese pop female vocals
BeatmapID:2982918
BeatmapSetID:1443294

[Difficulty]
HPDrainRate:5
CircleSize:4
OverallDifficulty:8
ApproachRate:9
SliderMultiplier:1.44
SliderTickRate:1

[Events]
//Background and Video events
Video,-54,"aa.mp4"
0,0,"tuyu.png",0,0
//Break Periods
//Storyboard Layer 0 (Background)
//Storyboard Layer 1 (Fail)
//Storyboard Layer 2 (Pass)
//Storyboard Layer 3 (Foreground)
//Storyboard Layer 4 (Overlay)
//Storyboard Sound Samples

[TimingPoints]
850,428.571428571429,4,2,4,50,1,0
850,-156.25,4,2,4,50,0,0
3421,-96.1538461538461,4,2,4,50,0,0
4278,333.333333333333,4,2,4,65,1,0
4278,-106.382978723404,4,2,4,65,0,0
12277,-87.7192982456139,4,2,4,65,0,0
14944,-106.382978723404,4,2,4,75,0,0
22944,-87.7192982456139,4,2,4,75,0,0
26277,300,4,2,4,90,1,0
26277,-87.719298245614,4,2,4,90,0,0
28527,-87.719298245614,4,2,4,90,0,0
30777,-80.6451612903226,4,2,4,90,0,0
31077,-96.1538461538461,4,2,4,90,0,0
31377,-80.6451612903226,4,2,4,90,0,0
31677,-96.1538461538461,4,2,4,90,0,0
31977,-80.6451612903226,4,2,4,90,0,0
32277,-87.719298245614,4,2,4,90,0,0
37377,-135.135135135135,4,2,4,90,0,0
37827,-106.382978723404,4,2,4,90,0,0
38277,-87.7192982456139,4,2,4,90,0,0
41802,-87.7192982456139,4,2,4,5,0,0
41877,-87.7192982456139,4,2,4,90,0,0
42102,-87.7192982456139,4,2,4,5,0,0
42177,-87.7192982456139,4,2,4,90,0,0
42402,-87.7192982456139,4,2,4,5,0,0
42477,-87.7192982456139,4,2,4,90,0,0
43077,-106.382978723404,4,2,4,90,0,0
46377,-96.153846153846,4,2,4,90,0,0
46677,-87.719298245614,4,2,4,90,0,0
47877,-156.25,4,2,4,90,0,0
49527,-87.7192982456139,4,2,4,90,0,0
50277,-87.7192982456139,4,2,4,90,0,0
55077,428.571428571429,4,2,4,90,1,0
55077,-156.25,4,2,4,90,0,0
55934,-156.25,4,2,4,50,0,0
58077,-96.1538461538461,4,2,4,50,0,0
58505,333.333333333333,4,2,4,65,1,0
58505,-106.382978723404,4,2,4,65,0,0
66504,-87.7192982456139,4,2,4,65,0,0
69171,-106.382978723404,4,2,4,75,0,0
77171,-87.7192982456139,4,2,4,75,0,0
80504,300,4,2,4,90,1,0
80504,-87.719298245614,4,2,4,90,0,0
85004,-80.6451612903226,4,2,4,90,0,0
85304,-96.1538461538461,4,2,4,90,0,0
85604,-80.6451612903226,4,2,4,90,0,0
85904,-96.1538461538461,4,2,4,90,0,0
86204,-80.6451612903226,4,2,4,90,0,0
86504,-87.719298245614,4,2,4,90,0,0
91604,-135.135135135135,4,2,4,90,0,0
92054,-106.382978723404,4,2,4,90,0,0
92504,-87.719298245614,4,2,4,90,0,0
96028,-96.1538461538461,4,2,4,5,0,0
96104,-96.1538461538461,4,2,4,90,0,0
96329,-96.1538461538461,4,2,4,5,0,0
96404,-96.1538461538461,4,2,4,90,0,0
96629,-96.1538461538461,4,2,4,5,0,0
96704,-87.719298245614,4,2,4,90,0,0
97304,-106.382978723404,4,2,4,75,0,0
100604,-96.153846153846,4,2,4,75,0,0
100904,-87.7192982456139,4,2,4,75,0,0
102104,-156.25,4,2,4,75,0,0
103754,-87.7192982456139,4,2,4,75,0,0
104504,-87.719298245614,4,2,4,75,0,0
106604,-96.1538461538461,4,2,4,75,0,0
109304,-96.1538461538461,4,2,4,90,0,0
109454,-87.719298245614,4,2,4,90,0,0
112454,-96.1538461538461,4,2,4,5,0,0
112529,-96.1538461538461,4,2,4,90,0,0
112679,-96.1538461538461,4,2,4,5,0,0
112754,-96.1538461538461,4,2,4,90,0,0
112829,-96.1538461538461,4,2,4,5,0,0
112904,-87.719298245614,4,2,4,90,0,0
113054,-96.1538461538461,4,2,4,5,0,0
113129,-96.1538461538461,4,2,4,90,0,0
113279,-96.1538461538461,4,2,4,5,0,0
113354,-96.1538461538461,4,2,4,90,0,0
113429,-96.1538461538461,4,2,4,5,0,0
113504,-87.719298245614,4,2,4,90,0,0
113654,-96.1538461538461,4,2,4,5,0,0
113729,-87.719298245614,4,2,4,90,0,0
113879,-96.1538461538461,4,2,4,5,0,0
113954,-96.1538461538461,4,2,4,90,0,0
114029,-96.1538461538461,4,2,4,5,0,0
114104,-96.1538461538461,4,2,4,80,0,0
114704,300,4,2,4,60,1,0
114704,-135.135135135135,4,2,4,60,0,0
119504,-106.382978723404,4,2,4,75,0,0
124304,-135.135135135135,4,2,4,75,0,0
125804,-156.25,4,2,4,75,0,0
126704,-87.719298245614,4,2,4,90,0,0
130229,-87.719298245614,4,2,4,5,0,0
130304,-87.719298245614,4,2,4,90,0,0
130529,-87.719298245614,4,2,4,5,0,0
130604,-87.719298245614,4,2,4,90,0,0
130829,-87.719298245614,4,2,4,5,0,0
130904,-87.719298245614,4,2,4,90,0,0
131504,-106.382978723404,4,2,4,90,0,0
134804,-96.153846153846,4,2,4,90,0,0
136304,-119.047619047619,4,2,4,90,0,0
138704,-87.719298245614,4,2,4,90,0,0
153104,-96.1538461538461,4,2,4,75,0,0
156704,-87.719298245614,4,2,4,90,0,0

[Colours]
Combo1 : 181,74,74
Combo2 : 255,0,0
Combo3 : 255,140,140

[HitObjects]
460,68,850,6,0,B|400:48|368:96|368:96|360:140|320:156,1,184.32,2|2,0:0|0:0,0:0:0:0:
256,192,1921,1,2,0:0:0:0:
256,192,2135,2,0,P|244:172|248:144,1,46.08,2|0,0:0|0:0,0:0:0:0:
300,56,2564,6,0,P|279:48|258:39,1,46.08,2|0,0:0|0:0,0:0:0:0:
202,165,2992,2,0,P|224:158|245:149,1,46.08,2|2,0:0|0:0,0:0:0:0:
160,28,3421,6,0,P|108:24|76:120,1,149.759999085937,2|2,0:0|0:0,0:0:0:0:
67,101,4064,1,2,0:0:0:0:
4,216,4278,6,0,P|32:224|68:236,1,67.6799989672852,2|0,3:2|0:0,0:0:0:0:
180,300,4611,2,0,P|152:308|116:320,1,67.6799989672852,2|0,3:2|0:0,0:0:0:0:
40,344,4944,1,2,3:2:0:0:
176,216,5111,2,0,B|226:229|226:229|245:251|245:251|299:265,1,135.35999793457,2|2,0:0|0:0,0:0:0:0:
416,376,5611,6,0,P|460:340|448:264,1,135.35999793457,0|2,3:2|3:2,0:0:0:0:
496,208,6111,1,2,0:0:0:0:
384,144,6277,1,2,3:2:0:0:
432,32,6444,2,0,L|448:104,1,67.6799989672852,2|0,0:0|3:2,0:0:0:0:
446,98,6777,1,2,0:0:0:0:
328,208,6944,6,0,L|256:184,1,67.6799989672852,2|0,3:2|0:0,0:0:0:0:
200,80,7277,2,0,L|272:56,1,67.6799989672852,2|2,3:2|0:0,0:0:0:0:
312,120,7611,1,0,3:2:0:0:
168,0,7777,2,0,P|112:32|128:112,1,135.35999793457,2|2,0:0|0:0,0:0:0:0:
16,184,8277,6,0,L|0:112,1,67.6799989672852,2|0,3:2|0:0,0:0:0:0:
128,232,8611,2,0,L|142:165,1,67.6799989672852,2|0,3:2|0:0,0:0:0:0:
40,280,8944,1,2,3:2:0:0:
141,165,9111,2,0,P|197:197|181:277,1,135.35999793457,2|2,0:0|0:0,0:0:0:0:
88,344,9611,6,0,B|168:344|128:384|232:384,1,135.35999793457,2|2,3:2|3:2,0:0:0:0:
320,304,10111,1,2,0:0:0:0:
368,360,10277,2,0,L|432:384,1,67.6799989672852,0|2,3:2|0:0,0:0:0:0:
488,264,10611,2,0,L|424:288,1,67.6799989672852,0|2,3:2|0:0,0:0:0:0:
288,208,10944,2,0,P|264:176|280:128,1,67.6799989672852,2|0,3:2|0:2,0:2:0:0:
280,136,11194,1,0,0:0:0:0:
280,136,11277,1,2,3:2:0:0:
184,48,11444,1,2,0:0:0:0:
320,0,11611,6,0,P|344:32|328:80,1,67.6799989672852,0|2,3:2|0:0,0:0:0:0:
206,106,11944,2,0,P|182:74|198:26,1,67.6799989672852,0|2,3:2|0:0,0:0:0:0:
312,200,12277,6,0,B|400:160|400:160|328:168,1,164.159997996094,2|8,3:2|0:2,0:0:0:0:
232,240,12777,1,0,3:2:0:0:
232,240,12944,2,0,P|208:272|224:328,1,82.0799989980469,0|0,0:0|3:2,0:0:0:0:
320,384,13277,2,0,P|344:352|328:296,1,82.0799989980469,8|0,0:0|0:0,0:0:0:0:
224,224,13611,6,0,L|144:240,1,82.0799989980469,2|0,3:2|3:2,0:0:0:0:
128,252,13861,1,0,3:2:0:0:
128,252,13944,1,10,0:2:0:0:
232,152,14111,1,2,3:2:0:0:
128,252,14277,6,0,P|80:212|104:140,1,123.11999849707,8|0,0:0|0:0,0:0:0:0:
104,128,14611,1,8,0:0:0:0:
0,8,14777,1,0,3:2:0:0:
0,8,14861,1,0,3:2:0:0:
0,8,14944,6,0,B|80:8|48:40|128:40,1,135.35999793457,6|2,3:2|3:2,0:0:0:0:
240,104,15444,1,0,0:0:0:0:
296,48,15611,2,0,P|264:24|224:32,1,67.6799989672852,2|2,3:2|0:0,0:0:0:0:
352,140,15944,2,0,P|320:164|280:156,1,67.6799989672852,0|2,3:2|0:0,0:0:0:0:
244,108,16194,1,0,0:0:0:0:
244,108,16277,6,0,B|186:123|186:123|176:134|176:134|114:150,1,135.35999793457,2|2,3:2|3:2,0:0:0:0:
48,176,16777,1,2,0:0:0:0:
176,272,16944,1,2,3:2:0:0:
75,322,17111,2,0,P|115:266|179:274,1,135.35999793457,2|2,0:0|0:0,0:0:0:0:
280,352,17611,6,0,P|248:368|216:384,1,67.6799989672852,2|0,3:2|0:0,0:2:0:0:
280,248,17944,2,0,P|312:264|344:280,1,67.6799989672852,2|2,3:2|0:0,0:0:0:0:
408,312,18277,1,0,3:2:0:0:
512,160,18444,2,0,P|448:192|456:256,1,135.35999793457,2|2,0:0|0:2,0:0:0:0:
408,312,18944,5,2,3:2:0:0:
408,312,19111,1,0,0:0:0:0:
488,384,19277,2,0,P|512:352|496:304,1,67.6799989672852,2|2,3:2|0:0,0:0:0:0:
504,304,19527,1,2,0:2:0:0:
504,304,19611,1,0,3:2:0:0:
368,232,19777,2,0,L|208:272,1,135.35999793457,2|2,0:0|0:0,0:0:0:0:
56,304,20277,6,0,L|72:232,1,67.6799989672852,4|0,3:2|0:0,0:0:0:0:
24,112,20611,1,0,3:2:0:0:
0,192,20777,1,2,0:0:0:0:
0,192,20861,1,0,0:0:0:0:
0,192,20944,1,0,3:2:0:0:
96,152,21111,2,0,L|160:128,1,67.6799989672852,2|0,0:0|3:2,0:0:0:0:
232,160,21444,1,2,0:2:0:0:
128,32,21611,6,0,L|256:80,1,135.35999793457,0|0,3:2|3:2,0:0:0:0:
328,104,22111,1,2,0:0:0:0:
255,223,22277,2,0,L|231:159,1,67.6799989672852,2|2,3:2|0:0,0:0:0:0:
351,40,22611,2,0,L|327:104,1,67.6799989672852,2|2,3:2|0:0,0:0:0:0:
392,224,22944,6,0,B|456:248|456:248|496:160,1,164.159997996094,4|8,3:2|0:0,0:0:0:0:
327,103,23444,1,0,3:2:0:0:
392,56,23611,2,0,P|352:24|312:32,1,82.0799989980469,0|0,0:0|3:2,0:0:0:0:
184,104,23944,2,0,P|224:102|252:74,1,82.0799989980469,8|0,0:0|0:0,0:0:0:0:
72,0,24277,6,0,L|88:80,1,82.0799989980469,4|8,3:2|0:0,0:0:0:0:
96,104,24527,1,8,0:0:0:0:
96,104,24611,1,8,0:0:0:0:
32,176,24777,1,0,3:2:0:0:
176,240,24944,5,8,0:0:0:0:
72,312,25111,1,2,3:2:0:0:
72,312,25194,1,0,3:2:0:0:
72,312,25277,1,10,0:2:0:0:
96,224,25444,5,2,3:2:0:0:
96,224,26277,6,0,B|190:241|137:284|240:304,1,164.159997996094,4|8,3:2|0:0,0:0:0:0:
408,352,26727,2,0,B|368:376|368:376|296:344|336:264,1,164.159997996094,2|0,0:0|0:0,0:0:0:0:
424,168,27177,1,10,0:0:0:0:
488,128,27327,1,2,0:0:0:0:
408,24,27477,6,0,P|376:56|392:112,1,82.0799989980469,6|0,3:2|0:0,0:0:0:0:
248,216,27777,2,0,P|216:184|232:128,1,82.0799989980469,10|0,0:2|0:0,0:0:0:0:
280,104,28002,1,2,0:0:0:0:
280,104,28077,2,0,B|210:122|210:122|197:134|197:134|119:155,1,164.159997996094,2|8,3:2|0:2,0:0:0:0:
125,153,28527,1,2,0:0:0:0:
24,80,28677,5,2,3:2:0:0:
88,40,28827,1,2,0:0:0:0:
128,160,28977,1,10,0:0:0:0:
192,200,29127,1,2,0:0:0:0:
64,304,29277,2,0,P|24:264|56:192,1,123.11999849707,2|0,3:2|0:0,0:0:0:0:
56,184,29577,1,8,0:0:0:0:
176,288,29727,6,0,B|276:314|209:346|318:375,1,164.159997996094,2|0,0:2|0:0,0:0:0:0:
400,328,30177,1,10,0:0:0:0:
400,328,30327,1,2,0:0:0:0:
336,248,30477,2,0,L|424:224,1,82.0799989980469,2|0,3:2|0:0,0:0:0:0:
512,128,30777,6,0,B|457:113|457:113|438:91|438:91|384:77,1,133.919994687012,12|0,0:0|0:0,0:0:0:0:
360,72,31077,2,0,L|440:56,1,74.8799995429687,2|0,3:2|0:0,0:0:0:0:
368,208,31377,6,0,B|313:223|313:223|294:245|294:245|240:259,1,133.919994687012,12|0,0:0|0:0,0:0:0:0:
216,264,31677,2,0,L|296:280,1,74.8799995429687,2|0,3:2|0:0,0:0:0:0:
448,192,31977,2,0,P|392:232|400:296,1,133.919994687012,10|0,0:0|0:0,0:0:0:0:
408,304,32277,6,0,L|384:384,1,82.0799989980469,2|0,3:2|0:0,0:0:0:0:
312,224,32577,2,0,L|289:146,1,82.0799989980469,10|0,0:2|0:0,0:0:0:0:
200,364,32877,2,0,L|317:328,1,123.11999849707,0|0,3:2|0:0,0:0:0:0:
352,316,33177,2,0,P|384:348|376:396,1,82.0799989980469,12|0,0:0|0:0,0:0:0:0:
312,224,33477,6,0,B|331:151|331:151|338:140|338:140|358:67,1,164.159997996094,2|10,3:2|0:0,0:0:0:0:
264,104,33927,1,2,0:0:0:0:
481,14,34077,6,0,P|433:78|353:62,1,164.159997996094,2|10,3:2|0:0,0:0:0:0:
312,8,34527,1,2,0:0:0:0:
264,104,34677,6,0,L|184:128,1,82.0799989980469,0|2,3:2|0:0,0:0:0:0:
168,136,34902,1,0,0:0:0:0:
168,136,34977,1,8,0:0:0:0:
96,96,35127,1,2,0:0:0:0:
16,216,35277,6,0,L|96:192,1,82.0799989980469,2|2,3:2|0:0,0:0:0:0:
160,312,35577,2,0,L|82:288,1,82.0799989980469,12|0,0:0|0:0,0:0:0:0:
224,216,35877,6,0,P|248:240|248:288,1,82.0799989980469,2|0,3:2|0:0,0:0:0:0:
160,312,36177,2,0,P|136:288|136:240,1,82.0799989980469,10|0,0:0|0:0,0:0:0:0:
208,112,36477,2,0,B|269:128|269:128|296:152|296:152|358:168,1,164.159997996094,2|12,3:2|0:0,0:2:0:0:
224,216,36927,1,0,0:0:0:0:
336,80,37077,5,4,3:2:0:0:
336,80,37377,2,0,P|376:128|432:120,1,106.560002601563,4|2,3:2|0:0,0:0:0:0:
432,120,37827,6,0,B|354:140|393:163|316:184,1,135.35999793457,2|2,0:0|0:0,0:0:0:0:
192,368,38277,6,0,P|168:336|184:280,1,82.0799989980469,4|0,3:2|3:2,0:0:0:0:
128,168,38577,1,10,0:0:0:0:
192,208,38727,1,2,3:2:0:0:
248,312,38877,2,0,L|272:224,1,82.0799989980469,2|0,3:2|3:2,0:0:0:0:
280,208,39102,1,0,3:2:0:0:
280,208,39177,1,10,0:0:0:0:
192,72,39327,6,0,L|368:24,1,164.159997996094,0|8,3:2|0:0,0:0:0:0:
440,136,39777,2,0,L|360:114,1,82.0799989980469,0|8,3:2|0:0,0:0:0:0:
256,24,40077,1,0,3:2:0:0:
152,136,40302,1,8,0:0:0:0:
136,128,40377,2,0,P|112:96|128:40,1,82.0799989980469,2|10,3:2|0:0,0:0:0:0:
136,40,40602,1,0,0:0:0:0:
136,40,40677,5,2,3:2:0:0:
200,72,40827,1,0,3:2:0:0:
248,192,40977,2,0,P|272:160|256:104,1,82.0799989980469,8|2,0:0|3:2,0:0:0:0:
144,208,41277,1,2,3:2:0:0:
80,240,41427,1,0,3:2:0:0:
80,240,41502,1,0,0:0:0:0:
80,240,41577,2,0,L|0:264,1,82.0799989980469,8|8,0:0|0:2,0:0:0:0:
88,152,41877,5,4,3:2:0:0:
144,208,42027,1,8,0:2:0:0:
88,344,42177,5,4,3:2:0:0:
144,288,42327,1,8,0:2:0:0:
224,352,42477,6,0,L|304:328,1,82.0799989980469,4|8,3:2|0:0,0:0:0:0:
336,320,42702,1,8,0:2:0:0:
336,320,42777,1,8,0:0:0:0:
408,288,42927,1,8,0:0:0:0:
280,224,43077,6,0,P|328:240|384:184,1,135.35999793457,6|2,3:2|3:2,0:0:0:0:
456,152,43527,1,2,0:0:0:0:
352,72,43677,2,0,L|288:48,1,67.6799989672852,2|2,3:2|0:0,0:0:0:0:
216,160,43977,2,0,L|280:136,1,67.6799989672852,0|2,3:2|0:0,0:0:0:0:
192,8,44277,6,0,P|136:40|144:112,1,135.35999793457,2|0,3:2|3:2,0:0:0:0:
72,160,44727,1,2,0:0:0:0:
116,247,44877,2,0,P|139:220|140:187,1,67.6799989672852,2|0,3:2|0:0,0:0:0:0:
72,160,45177,2,0,P|48:186|47:219,1,67.6799989672852,2|2,3:2|0:0,0:0:0:0:
96,336,45477,6,0,P|144:288|208:304,1,135.35999793457,2|2,3:2|3:2,0:0:0:0:
280,272,45927,1,0,0:0:0:0:
368,376,46077,2,0,L|296:352,1,67.6799989672852,0|0,3:2|0:0,0:0:0:0:
416,240,46377,6,0,P|456:272|440:344,1,112.319999314453,8|0,0:0|0:0,0:0:0:0:
453,328,46677,6,0,P|421:288|437:240,1,82.0799989980469,0|0,3:2|0:0,0:0:0:0:
480,112,46977,2,0,P|512:152|496:200,1,82.0799989980469,8|0,0:0|0:0,0:0:0:0:
392,88,47277,1,0,3:2:0:0:
328,48,47427,1,0,3:2:0:0:
256,144,47577,2,0,P|200:96|224:32,1,123.11999849707,8|2,0:0|0:0,0:0:0:0:
216,40,47877,1,2,0:0:0:0:
216,40,48327,5,0,0:0:0:0:
128,80,48477,2,0,B|168:72|216:40|216:40|208:80|224:128,1,184.32,0|0,0:0|3:2,0:0:0:0:
223,125,49527,6,0,P|175:93|183:29,1,123.11999849707,2|0,0:0|0:0,0:0:0:0:
192,16,49827,1,2,0:0:0:0:
312,104,49977,2,0,L|288:224,1,123.11999849707,2|0,0:0|0:0,0:0:0:0:
360,256,50277,6,0,L|374:328,3,41.0399994990234,2|0|0|0,3:2|0:0|3:2|3:2,0:0:0:0:
376,328,50577,1,2,3:2:0:0:
200,384,50727,1,0,3:2:0:0:
200,384,50802,1,0,3:2:0:0:
200,384,50877,2,0,L|120:360,1,82.0799989980469,2|2,3:2|3:2,0:0:0:0:
8,312,51177,2,0,L|88:280,1,82.0799989980469,2|2,3:2|3:2,0:0:0:0:
224,224,51477,6,0,P|248:184|232:144,1,82.0799989980469,2|0,3:2|3:2,0:0:0:0:
232,136,51702,1,0,3:2:0:0:
232,136,51777,1,2,3:2:0:0:
152,40,51927,1,2,3:2:0:0:
152,40,52002,1,2,0:0:0:0:
152,40,52077,2,0,L|232:8,1,82.0799989980469,2|2,3:1|0:0,0:0:0:0:
280,64,52302,2,0,L|360:96,1,82.0799989980469,2|2,3:1|0:0,0:0:0:0:
376,104,52527,1,2,3:1:0:0:
456,176,52677,6,0,L|512:160,3,41.0399994990234,6|0|0|0,3:2|3:2|3:2|3:2,0:0:0:0:
432,184,52977,1,2,3:2:0:0:
328,256,53127,1,0,3:2:0:0:
328,256,53202,1,0,3:2:0:0:
328,256,53277,2,0,P|304:224|328:168,1,82.0799989980469,2|0,3:2|3:2,0:0:0:0:
224,88,53577,6,0,L|216:128,3,41.0399994990234,2|0|0|0,3:2|3:2|3:2|3:2,0:0:0:0:
232,56,53877,2,0,L|152:88,1,82.0799989980469,2|0,3:2|3:2,0:0:0:0:
32,136,54177,1,2,3:2:0:0:
160,184,54327,1,0,3:2:0:0:
160,184,54627,5,8,0:0:0:0:
0,272,54777,1,8,0:0:0:0:
0,272,55077,6,0,P|64:248|128:328,1,184.32,4|2,3:2|3:2,0:0:0:0:
192,384,56148,1,0,0:0:0:0:
192,384,56362,2,0,L|240:368,1,46.08
336,288,56791,6,0,L|350:244,1,46.08,2|0,3:2|0:0,0:0:0:0:
235,369,57219,2,0,L|220:325,1,46.08,2|0,3:2|0:0,0:0:0:0:
264,240,57648,1,2,3:2:0:0:
264,240,57862,1,2,3:2:0:0:
400,352,58077,6,0,P|441:355|483:300,1,112.319999314453,10|0,0:0|0:0,0:0:0:0:
488,280,58505,6,0,L|416:256,1,67.6799989672852,6|0,3:2|0:0,0:0:0:0:
304,176,58838,2,0,L|376:152,1,67.6799989672852,2|0,3:2|0:0,0:0:0:0:
440,128,59171,1,2,3:2:0:0:
288,32,59338,2,0,P|232:48|224:120,1,135.35999793457,2|2,0:0|0:0,0:0:0:0:
96,216,59838,1,2,3:2:0:0:
40,160,60005,6,0,L|176:200,1,135.35999793457
264,288,60505,1,2,3:2:0:0:
156,330,60671,2,0,P|196:282|268:290,1,135.35999793457,2|2,0:0|0:0,0:0:0:0:
397,356,61171,6,0,L|381:284,1,67.6799989672852,2|2,3:2|0:0,0:0:0:0:
278,221,61504,2,0,L|262:293,1,67.6799989672852,0|2,3:2|0:0,0:0:0:0:
317,340,61838,1,0,3:2:0:0:
206,197,62005,2,0,P|246:149|330:165,1,135.35999793457,2|2,0:0|0:0,0:0:0:0:
416,24,62504,6,0,L|352:0,1,67.6799989672852,2|2,3:2|0:0,0:0:0:0:
472,128,62838,2,0,L|408:152,1,67.6799989672852,2|2,3:2|0:0,0:0:0:0:
496,48,63171,1,2,3:2:0:0:
408,151,63338,2,0,B|368:191|368:191|400:271,1,135.35999793457,2|2,0:0|0:0,0:0:0:0:
512,384,63838,6,0,B|454:368|454:368|444:357|444:357|374:339,1,135.35999793457,2|2,3:2|3:2,0:0:0:0:
240,296,64338,1,2,0:0:0:0:
320,192,64504,2,0,L|304:264,1,67.6799989672852,0|2,3:2|0:0,0:0:0:0:
176,352,64838,2,0,L|160:280,1,67.6799989672852,0|2,3:2|0:0,0:0:0:0:
48,176,65171,6,0,L|120:200,1,67.6799989672852,0|2,3:2|0:0,0:0:0:0:
144,208,65421,1,2,0:2:0:0:
144,208,65504,1,2,3:2:0:0:
272,148,65671,1,2,0:0:0:0:
184,52,65838,2,0,P|160:84|176:132,1,67.6799989672852,2|0,3:2|0:0,0:0:0:0:
272,148,66171,2,0,P|296:116|280:68,1,67.6799989672852,2|2,3:2|0:0,0:0:0:0:
144,208,66504,6,0,B|100:196|92:140|92:140|112:176|148:184,1,164.159997996094,4|8,3:2|0:0,0:0:0:0:
264,296,67004,1,0,3:2:0:0:
264,296,67171,2,0,L|184:272,1,82.0799989980469,0|0,0:0|3:2,0:0:0:0:
72,384,67504,2,0,L|150:360,1,82.0799989980469,8|0,0:0|0:0,0:0:0:0:
248,192,67838,6,0,L|264:112,1,82.0799989980469,2|0,3:2|3:2,0:0:0:0:
276,88,68088,1,0,3:2:0:0:
276,88,68171,1,8,0:0:0:0:
144,208,68338,1,0,3:2:0:0:
276,88,68504,6,0,P|336:120|328:184,1,123.11999849707,8|0,0:0|0:0,0:0:0:0:
328,192,68838,1,8,0:0:0:0:
464,288,69004,1,0,3:2:0:0:
464,288,69088,1,0,3:2:0:0:
464,288,69171,6,0,B|406:303|406:303|396:314|396:314|334:330,1,135.35999793457,4|2,3:2|3:2,0:0:0:0:
208,376,69671,1,2,0:0:0:0:
200,296,69838,2,0,L|264:320,1,67.6799989672852,2|2,3:2|0:0,0:0:0:0:
344,208,70171,2,0,L|280:232,1,67.6799989672852,0|2,3:2|0:2,0:0:0:0:
216,192,70421,1,0,0:0:0:0:
216,192,70504,6,0,B|176:152|176:152|208:72,1,135.35999793457,0|2,3:2|3:2,0:0:0:0:
240,8,71004,1,2,0:0:0:0:
112,88,71171,1,2,3:2:0:0:
11,37,71338,2,0,P|75:33|111:87,1,135.35999793457,2|2,0:0|0:0,0:0:0:0:
40,224,71838,6,0,L|104:200,1,67.6799989672852,2|0,3:2|0:0,0:0:0:0:
248,144,72171,2,0,L|184:120,1,67.6799989672852,2|2,3:2|0:0,0:0:0:0:
112,88,72504,1,0,3:0:0:0:
216,248,72671,2,0,L|352:208,1,135.35999793457,2|2,0:0|0:0,0:0:0:0:
416,256,73171,5,2,3:2:0:0:
416,256,73338,1,2,0:0:0:0:
512,160,73504,2,0,L|448:136,1,67.6799989672852,2|2,3:2|0:0,0:0:0:0:
424,128,73754,1,2,0:0:0:0:
424,128,73838,1,2,3:2:0:0:
288,0,74004,2,0,P|344:40|328:112,1,135.35999793457,2|2,0:0|0:0,0:0:0:0:
216,248,74504,6,0,P|192:216|200:176,1,67.6799989672852,4|0,3:2|0:0,0:0:0:0:
256,80,74838,1,2,3:2:0:0:
192,40,75004,1,2,0:0:0:0:
192,40,75088,1,0,0:0:0:0:
192,40,75171,1,2,3:2:0:0:
64,152,75338,2,0,L|128:128,1,67.6799989672852,2|0,0:0|3:2,0:0:0:0:
64,56,75671,1,2,0:0:0:0:
128,216,75838,6,0,L|80:342,1,135.35999793457,2|2,3:2|3:2,0:0:0:0:
8,248,76338,1,2,0:0:0:0:
184,296,76504,2,0,L|120:320,1,67.6799989672852,2|2,3:2|0:0,0:0:0:0:
64,192,76838,2,0,L|128:216,1,67.6799989672852,0|2,3:2|0:0,0:0:0:0:
216,376,77171,6,0,P|272:336|248:248,1,164.159997996094,4|8,3:2|0:0,0:0:0:0:
304,176,77671,1,2,3:2:0:0:
208,48,77838,2,0,P|176:80|184:128,1,82.0799989980469,0|0,0:0|3:2,0:0:0:0:
304,176,78171,2,0,P|336:144|328:96,1,82.0799989980469,8|0,0:0|0:0,0:0:0:0:
488,40,78504,6,0,L|408:16,1,82.0799989980469,4|0,3:2|3:2,0:0:0:0:
384,8,78754,1,0,3:2:0:0:
384,8,78838,1,8,0:0:0:0:
424,128,79004,1,0,3:2:0:0:
304,176,79171,5,8,0:0:0:0:
344,80,79338,1,2,3:2:0:0:
344,80,79421,1,0,3:2:0:0:
344,80,79504,1,10,0:0:0:0:
400,240,79671,5,2,3:2:0:0:
400,240,80504,6,0,P|312:232|280:296,1,164.159997996094,4|8,3:2|0:0,0:0:0:0:
152,384,80954,2,0,B|120:288|120:288|144:320|176:328,1,164.159997996094,2|2,0:0|0:0,0:0:0:0:
64,360,81404,1,10,0:0:0:0:
192,248,81554,1,2,0:0:0:0:
72,152,81704,6,0,L|152:128,1,82.0799989980469,6|0,3:2|0:0,0:0:0:0:
270,271,82004,2,0,L|191:247,1,82.0799989980469,10|0,0:2|0:0,0:0:0:0:
124,220,82229,1,2,0:0:0:0:
124,220,82304,2,0,B|195:200|195:200|208:188|208:188|278:170,1,164.159997996094,2|8,3:2|0:0,0:0:0:0:
278,169,82754,1,2,0:2:0:0:
416,96,82904,5,2,3:2:0:0:
352,136,83054,1,2,0:0:0:0:
280,8,83204,1,10,0:0:0:0:
344,48,83354,1,2,0:0:0:0:
200,96,83504,2,0,L|80:136,1,123.11999849707,2|0,3:2|0:0,0:0:0:0:
64,144,83804,1,10,0:0:0:0:
216,192,83954,6,0,B|273:207|273:207|302:240|302:240|364:256,1,164.159997996094,0|2,3:2|0:0,0:0:0:0:
224,288,84404,1,8,0:0:0:0:
224,288,84554,1,2,0:0:0:0:
272,384,84704,2,0,P|296:352|272:288,1,82.0799989980469,2|0,3:2|0:0,0:0:0:0:
144,224,85004,6,0,L|112:360,1,133.919994687012,12|0,0:0|0:0,0:0:0:0:
128,376,85304,2,0,L|145:303,1,74.8799995429687,2|0,3:2|0:0,0:0:0:0:
72,128,85604,6,0,L|40:264,1,133.919994687012,12|0,0:0|0:0,0:0:0:0:
56,280,85904,2,0,L|73:207,1,74.8799995429687,2|0,3:2|0:0,0:0:0:0:
48,48,86204,6,0,P|96:104|160:88,1,133.919994687012,12|0,0:0|0:0,0:0:0:0:
176,80,86504,6,0,L|152:160,1,82.0799989980469,2|0,3:2|0:0,0:0:0:0:
264,232,86804,2,0,L|240:152,1,82.0799989980469,8|0,0:2|0:0,0:0:0:0:
144,48,87104,2,0,L|108:168,1,123.11999849707,2|0,3:2|0:0,0:0:0:0:
104,192,87404,2,0,P|136:224|184:216,1,82.0799989980469,12|0,0:2|0:0,0:0:0:0:
304,104,87704,6,0,B|369:121|369:121|389:139|389:139|463:159,1,164.159997996094,0|8,3:2|0:0,0:0:0:0:
512,104,88154,1,2,0:0:0:0:
328,192,88304,2,0,P|256:240|280:320,1,164.159997996094,0|8,3:2|0:0,0:0:0:0:
224,368,88754,1,2,0:0:0:0:
336,272,88904,6,0,L|416:248,1,82.0799989980469,0|2,3:2|0:2,0:0:0:0:
448,240,89129,1,0,0:0:0:0:
448,240,89204,1,8,0:0:0:0:
487,174,89354,1,2,0:0:0:0:
424,72,89504,2,0,P|397:102|399:142,1,82.0799989980469,2|2,3:2|0:2,0:0:0:0:
487,174,89804,2,0,P|513:143|511:103,1,82.0799989980469,14|0,0:0|0:0,0:0:0:0:
376,216,90104,6,0,L|296:192,1,82.0799989980469,2|0,3:2|0:0,0:0:0:0:
232,304,90404,2,0,L|310:280,1,82.0799989980469,8|0,0:0|0:0,0:0:0:0:
192,160,90704,2,0,L|160:0,1,164.159997996094,0|14,3:2|0:0,0:0:0:0:
256,64,91154,1,0,0:0:0:0:
128,208,91304,5,6,3:2:0:0:
128,208,91604,2,0,P|88:256|32:248,1,106.560002601563,4|2,3:2|0:0,0:0:0:0:
40,248,92054,6,0,B|94:262|94:262|110:279|110:279|164:293,1,135.35999793457,2|0,0:0|0:0,0:0:0:0:
280,352,92504,6,0,P|304:320|296:272,1,82.0799989980469,4|0,3:2|3:2,0:0:0:0:
224,176,92804,1,8,0:2:0:0:
160,144,92954,1,2,3:2:0:0:
40,248,93104,2,0,L|64:168,1,82.0799989980469,2|0,3:2|0:0,0:0:0:0:
76,148,93329,1,0,3:2:0:0:
76,148,93404,1,8,0:0:0:0:
176,18,93554,6,0,L|224:178,1,164.159997996094,2|8,3:2|0:0,0:0:0:0:
112,264,94004,2,0,L|136:184,1,82.0799989980469,2|8,3:2|0:0,0:0:0:0:
224,80,94304,1,2,3:2:0:0:
352,176,94529,1,8,0:0:0:0:
368,184,94604,2,0,L|448:160,1,82.0799989980469,10|2,0:0|0:0,0:0:0:0:
472,156,94829,1,0,0:0:0:0:
472,156,94904,5,2,3:2:0:0:
512,96,95054,1,2,3:2:0:0:
416,16,95204,2,0,P|384:56|400:96,1,82.0799989980469,8|0,0:0|3:2,0:0:0:0:
264,176,95504,1,2,3:2:0:0:
240,104,95654,1,0,3:2:0:0:
240,104,95729,1,0,0:0:0:0:
240,104,95804,2,0,L|216:24,1,82.0799989980469,8|8,0:0|0:0,0:0:0:0:
320,120,96104,5,4,3:2:0:0:
264,176,96254,1,8,0:0:0:0:
216,296,96404,5,4,3:2:0:0:
160,240,96554,1,8,0:0:0:0:
88,336,96704,6,0,L|64:256,1,82.0799989980469,4|8,3:2|0:0,0:0:0:0:
56,224,96929,1,8,0:0:0:0:
56,224,97004,1,8,0:0:0:0:
96,160,97154,1,8,0:0:0:0:
72,56,97304,6,0,L|144:80,1,67.6799989672852,6|0,3:2|0:0,0:0:0:0:
160,104,97529,1,0,0:0:0:0:
160,104,97604,2,0,L|232:80,1,67.6799989672852,2|2,3:2|0:0,0:0:0:0:
296,48,97904,1,2,3:2:0:0:
392,136,98054,6,0,P|328:128|288:184,1,135.35999793457,2|2,0:0|0:0,0:0:0:0:
272,320,98504,2,0,L|401:281,1,135.35999793457,2|0,3:2|3:2,0:0:0:0:
456,224,98954,1,2,0:0:0:0:
392,136,99104,2,0,L|377:202,1,67.6799989672852,2|0,3:2|0:0,0:0:0:0:
456,224,99404,2,0,L|472:152,1,67.6799989672852,2|0,3:2|0:0,0:0:0:0:
400,40,99704,6,0,B|342:55|342:55|332:66|332:66|270:82,1,135.35999793457,2|2,3:2|3:2,0:0:0:0:
208,40,100154,1,0,0:0:0:0:
152,128,100304,2,0,L|224:152,1,67.6799989672852,2|0,3:2|0:0,0:0:0:0:
112,264,100604,6,0,P|72:232|88:160,1,112.319999314453,8|0,0:0|0:0,0:0:0:0:
74,176,100904,6,0,P|106:216|90:264,1,82.0799989980469,2|0,3:2|0:0,0:0:0:0:
184,352,101204,2,0,P|216:312|200:264,1,82.0799989980469,8|0,0:0|0:0,0:0:0:0:
248,144,101504,1,2,3:2:0:0:
184,184,101654,1,0,3:2:0:0:
296,240,101804,2,0,B|365:258|334:283|403:301,1,123.11999849707,8|8,0:0|0:0,0:0:0:0:
424,304,102104,1,8,0:0:0:0:
424,304,102554,5,0,0:0:0:0:
504,352,102704,2,0,B|456:344|424:304|424:304|424:352|384:384,1,184.32,0|0,0:0|3:2,0:0:0:0:
387,381,103754,6,0,L|411:261,1,123.11999849707,2|0,0:0|0:0,0:0:0:0:
416,232,104054,1,2,0:0:0:0:
504,104,104204,2,0,P|464:152|400:136,1,123.11999849707,2|0,0:0|0:0,0:0:0:0:
400,136,104504,6,0,L|416:56,1,82.0799989980469,2|2,3:2|0:0,0:0:0:0:
424,40,104729,1,0,0:0:0:0:
424,40,104804,1,2,3:2:0:0:
320,88,104954,1,2,0:0:0:0:
256,24,105104,6,0,L|336:0,1,82.0799989980469,2|2,3:2|0:0,0:0:0:0:
208,136,105404,2,0,L|288:160,1,82.0799989980469,2|2,3:2|0:0,0:0:0:0:
416,352,105704,6,0,P|440:320|432:272,1,82.0799989980469,2|2,3:2|0:0,0:0:0:0:
312,240,106004,2,0,P|288:272|296:320,1,82.0799989980469,2|2,3:2|0:0,0:0:0:0:
291,312,106229,1,0,0:0:0:0:
291,312,106304,1,2,3:2:0:0:
168,384,106454,5,0,0:0:0:0:
168,384,106529,1,2,0:1:0:0:
168,384,106604,1,2,3:2:0:0:
48,248,106754,1,2,3:2:0:0:
48,248,106904,6,0,L|120:272,1,74.8799995429687,2|2,3:2|0:0,0:0:0:0:
264,192,107204,6,0,P|288:160|280:120,1,74.8799995429687,2|2,3:2|0:0,0:0:0:0:
208,104,107504,2,0,P|184:136|192:176,1,74.8799995429687,2|2,3:2|0:0,0:0:0:0:
208,264,107804,1,2,3:2:0:0:
208,264,107954,1,2,0:0:0:0:
97,343,108104,6,0,L|121:263,1,74.8799995429687,2|2,3:2|0:0,0:0:0:0:
48,248,108404,2,0,L|26:319,1,74.8799995429687,2|2,3:2|0:0,0:0:0:0:
168,384,108704,6,0,P|208:368|256:352,1,74.8799995429687,2|0,3:2|0:0,0:0:0:0:
293,298,108929,1,2,0:1:0:0:
277,290,109004,2,0,P|241:277|206:263,1,74.8799995429687,2|2,3:2|3:2,0:0:0:0:
136,232,109304,1,4,3:2:0:0:
0,136,109454,6,0,B|67:117|67:117|82:104|82:104|158:83,1,164.159997996094,0|0,0:0|3:2,0:0:0:0:
296,40,109904,1,2,3:1:0:0:
208,0,110054,1,0,3:2:0:0:
208,0,110129,1,0,3:2:0:0:
208,0,110204,1,0,3:2:0:0:
288,112,110354,6,0,P|352:160|328:240,1,164.159997996094,2|0,3:1|3:2,0:0:0:0:
384,296,110804,1,0,3:2:0:0:
384,296,110954,1,0,3:2:0:0:
288,376,111104,2,0,L|200:352,1,82.0799989980469,2|0,3:1|0:0,0:0:0:0:
168,288,111329,2,0,L|80:312,1,82.0799989980469,2|0,3:1|0:0,0:0:0:0:
64,320,111554,1,2,3:1:0:0:
0,192,111704,6,0,L|80:216,1,82.0799989980469,2|0,3:2|3:2,0:0:0:0:
104,224,111929,1,0,3:2:0:0:
104,224,112004,1,0,3:2:0:0:
208,152,112154,1,2,3:2:0:0:
208,152,112229,1,0,3:2:0:0:
208,152,112304,6,0,P|144:112|168:24,1,164.159997996094,6|0,3:1|0:0,0:0:0:0:
280,0,112754,1,2,3:1:0:0:
280,0,112904,6,0,L|424:40,1,123.11999849707,6|2,3:1|3:1,0:0:0:0:
424,40,113204,1,0,0:0:0:0:
312,96,113354,1,2,3:1:0:0:
496,136,113504,6,0,P|520:176|512:208,1,82.0799989980469,6|0,3:1|0:0,0:0:0:0:
424,232,113729,2,0,P|400:192|408:160,1,82.0799989980469,6|0,3:1|0:0,0:0:0:0:
408,159,113954,1,6,3:1:0:0:
312,96,114104,1,2,0:0:0:0:
312,96,114704,6,0,L|200:72,1,106.560002601563,4|0,3:2|0:0,0:0:0:0:
88,40,115154,2,0,P|128:80|120:128,1,106.560002601563,2|2,0:0|0:0,0:0:0:0:
64,176,115604,2,0,P|48:152|56:108,1,53.2800013007813,2|0,0:0|0:0,0:0:0:0:
192,176,115904,6,0,L|248:192,1,53.2800013007813,2|0,3:2|0:0,0:0:0:0:
224,264,116204,2,0,L|168:248,1,53.2800013007813,2|0,0:0|0:0,0:0:0:0:
72,352,116504,2,0,L|184:328,1,106.560002601563,2|2,0:0|0:0,0:0:0:0:
176,329,116954,1,2,0:0:0:0:
320,280,117104,6,0,L|336:336,1,53.2800013007813,2|0,3:2|0:0,0:0:0:0:
240,384,117404,2,0,L|255:332,1,53.2800013007813,2|0,0:0|0:0,0:0:0:0:
304,208,117704,2,0,P|344:168|408:184,1,106.560002601563,2|2,0:0|0:0,0:0:0:0:
488,80,118154,1,2,0:0:0:0:
488,80,118229,1,2,0:0:0:0:
488,80,118304,6,0,L|384:48,1,106.560002601563,0|2,3:2|0:0,0:0:0:0:
264,8,118754,1,2,0:0:0:0:
256,88,118904,2,0,L|312:72,1,53.2800013007813,2|0,0:0|0:0,0:0:0:0:
168,0,119204,2,0,P|136:24|144:80,1,79.9200019511719,2|0,0:0|0:0,0:0:0:0:
128,88,119504,6,0,P|112:56|120:24,1,67.6799989672852,6|0,3:2|0:0,0:0:0:0:
304,160,119804,2,0,L|200:192,1,101.519998450928,2|0,3:2|0:0,0:0:0:0:
184,184,120104,2,0,L|256:160,1,67.6799989672852,2|0,3:2|0:0,0:0:0:0:
400,72,120404,2,0,L|376:144,1,67.6799989672852,2|0,3:2|0:0,0:0:0:0:
512,264,120704,6,0,P|480:240|440:248,1,67.6799989672852,2|0,3:2|0:0,0:0:0:0:
332,316,121004,2,0,P|368:300|381:261,1,67.6799989672852,2|0,3:2|0:0,0:0:0:0:
378,136,121304,2,0,P|373:175|400:206,1,67.6799989672852,2|0,3:2|0:0,0:0:0:0:
496,88,121604,2,0,P|500:48|473:17,1,67.6799989672852,2|0,3:2|0:0,0:0:0:0:
324,64,121904,6,0,B|269:78|269:78|253:95|253:95|199:109,1,135.35999793457,2|0,3:2|3:2,0:2:0:0:
136,72,122354,1,2,0:0:0:0:
72,176,122504,2,0,L|48:104,1,67.6799989672852,2|0,3:2|0:0,0:2:0:0:
176,248,122804,2,0,L|200:176,1,67.6799989672852,0|2,3:2|0:0,0:0:0:0:
0,320,123104,6,0,P|48:272|112:288,1,135.35999793457,2|2,3:2|3:2,0:0:0:0:
176,248,123554,1,0,0:0:0:0:
176,248,123704,1,2,3:2:0:0:
264,304,123854,1,2,0:0:0:0:
144,360,124004,2,0,L|216:384,1,67.6799989672852,2|0,3:2|0:0,0:0:0:0:
320,256,124304,5,6,3:2:0:0:
320,256,124604,2,0,L|304:192,1,53.2800013007813,2|0,3:2|3:2,0:0:0:0:
376,128,124904,2,0,L|248:96,1,106.560002601563,2|0,3:2|3:2,0:0:0:0:
272,102,125354,1,0,3:2:0:0:
152,0,125504,5,2,3:2:0:0:
152,0,125804,2,0,P|184:32|176:88,1,92.16,2|2,3:2|0:0,0:0:0:0:
80,144,126254,2,0,B|56:120|56:120|112:144,1,92.16,0|0,3:2|0:0,0:0:0:0:
248,200,126704,6,0,P|272:240|256:280,1,82.0799989980469,4|0,3:2|3:2,0:0:0:0:
112,344,127004,1,8,0:0:0:0:
168,296,127154,1,0,3:2:0:0:
296,344,127304,2,0,L|376:368,1,82.0799989980469,2|0,3:2|0:0,0:0:0:0:
400,376,127529,1,0,3:2:0:0:
400,376,127604,1,8,0:0:0:0:
448,232,127754,6,0,L|496:72,1,164.159997996094,2|8,3:2|0:0,0:0:0:0:
384,0,128204,2,0,L|408:80,1,82.0799989980469,0|8,3:2|0:0,0:0:0:0:
504,168,128504,1,0,3:2:0:0:
368,232,128729,1,8,0:0:0:0:
352,240,128804,2,0,L|272:216,1,82.0799989980469,8|2,0:0|3:2,0:0:0:0:
248,208,129029,1,0,3:2:0:0:
248,208,129104,5,0,3:2:0:0:
192,152,129254,1,0,3:2:0:0:
264,48,129404,2,0,P|288:88|271:135,1,82.0799989980469,8|2,0:0|3:2,0:0:0:0:
168,224,129704,1,0,3:2:0:0:
104,264,129854,1,0,3:2:0:0:
104,264,129929,1,0,3:2:0:0:
104,264,130004,2,0,L|24:296,1,82.0799989980469,8|10,0:0|0:2,0:0:0:0:
216,368,130304,5,4,3:2:0:0:
176,304,130454,1,10,0:2:0:0:
292,236,130604,5,4,3:2:0:0:
252,300,130754,1,10,0:2:0:0:
392,352,130904,6,0,L|472:376,1,82.0799989980469,4|8,3:2|0:0,0:0:0:0:
504,384,131129,1,8,0:0:0:0:
504,384,131204,1,8,0:0:0:0:
456,288,131354,1,8,0:0:0:0:
384,344,131504,6,0,P|336:304|352:232,1,135.35999793457,6|2,3:2|3:2,0:2:0:0:
304,176,131954,1,2,0:0:0:0:
368,104,132104,2,0,L|296:80,1,67.6799989672852,2|2,3:2|0:0,0:0:0:0:
239,197,132404,2,0,L|303:175,1,67.6799989672852,0|2,3:2|0:0,0:0:0:0:
408,80,132704,6,0,L|279:37,1,135.35999793457,2|0,3:2|3:2,0:0:0:0:
216,80,133154,1,2,0:0:0:0:
160,160,133304,2,0,L|145:93,1,67.6799989672852,2|0,3:2|0:0,0:0:0:0:
216,80,133604,2,0,L|230:146,1,67.6799989672852,0|0,3:2|0:0,0:0:0:0:
296,260,133904,6,0,P|360:268|400:212,1,135.35999793457,2|2,3:2|3:2,0:0:0:0:
464,168,134354,1,0,0:0:0:0:
372,68,134504,2,0,L|396:132,1,67.6799989672852,2|0,3:2|0:0,0:0:0:0:
296,260,134804,2,0,P|256:220|272:164,1,112.319999314453,10|0,0:0|0:0,0:0:0:0:
267,169,135104,6,0,P|291:201|283:241,1,74.8799995429687,2|0,3:2|0:0,0:0:0:0:
392,328,135404,2,0,P|416:296|408:256,1,74.8799995429687,10|0,0:0|0:0,0:0:0:0:
512,152,135704,1,2,3:2:0:0:
448,184,135854,1,0,3:2:0:0:
336,128,136004,2,0,L|296:24,1,112.319999314453,8|8,0:0|0:0,0:0:0:0:
304,0,136304,6,0,L|328:64,1,60.4799981542969,2|0,3:2|0:0,0:0:0:0:
248,112,136604,2,0,L|224:176,1,60.4799981542969,2|0,3:2|0:0,0:0:0:0:
288,240,136904,2,0,L|339:220,2,30.2399990771485,2|2|2,3:2|0:0|0:0,0:0:0:0:
352,352,137204,2,0,L|288:328,1,60.4799981542969,2|0,0:0|3:2,0:0:0:0:
224,304,137504,5,0,3:2:0:0:
224,304,137654,1,0,3:2:0:0:
136,384,137804,1,0,3:2:0:0:
133,376,137879,1,0,3:2:0:0:
131,368,137954,1,0,3:2:0:0:
129,360,138029,1,0,3:2:0:0:
127,353,138104,2,0,L|116:314,3,30.2399990771485,0|0|0|0,3:2|3:2|3:2|3:2,0:0:0:0:
112,304,138404,6,0,P|88:336|32:336,1,90.7199972314454,2|0,0:0|0:0,0:0:0:0:
24,336,138704,6,0,B|116:311|65:275|158:250,1,164.159997996094,4|8,3:2|0:0,0:0:0:0:
232,144,139154,1,0,3:2:0:0:
122,63,139304,2,0,P|154:135|234:143,1,164.159997996094,2|8,3:2|0:0,0:0:0:0:
296,8,139754,1,2,3:2:0:0:
304,88,139904,6,0,L|224:64,1,82.0799989980469,2|8,3:2|0:0,0:0:0:0:
368,192,140204,2,0,L|288:216,1,82.0799989980469,0|8,3:2|0:0,0:0:0:0:
112,280,140504,2,0,B|190:252|190:252|227:325,1,164.159997996094,0|0,3:2|3:2,0:0:0:0:
352,384,140954,1,8,0:0:0:0:
352,384,141029,1,8,0:0:0:0:
352,384,141104,6,0,P|380:352|368:296,2,82.0799989980469,2|0|8,3:2|3:2|0:0,0:0:0:0:
304,324,141554,1,0,3:2:0:0:
448,256,141704,2,0,P|384:272|328:200,1,164.159997996094,2|8,3:2|0:0,0:0:0:0:
264,168,142154,1,2,0:0:0:0:
352,96,142304,5,4,3:2:0:0:
248,64,142454,2,0,L|328:88,1,82.0799989980469,8|0,0:0|3:2,0:0:0:0:
504,152,142754,1,8,0:0:0:0:
504,152,142904,2,0,L|424:176,1,82.0799989980469,0|8,3:2|0:0,0:0:0:0:
401,184,143129,1,8,0:0:0:0:
401,184,143204,1,0,3:2:0:0:
328,202,143354,1,8,0:0:0:0:
436,320,143504,6,0,B|396:316|360:288|360:288|348:332|316:360,1,164.159997996094,2|10,3:2|0:0,0:0:0:0:
248,272,143954,1,2,3:2:0:0:
248,272,144104,2,0,L|168:248,1,82.0799989980469,2|2,3:2|3:2,0:0:0:0:
104,368,144404,2,0,L|182:344,1,82.0799989980469,10|2,0:0|3:2,0:0:0:0:
104,192,144704,5,2,3:2:0:0:
104,192,144854,2,0,P|80:232|88:264,1,82.0799989980469,8|0,0:0|3:2,0:0:0:0:
224,184,145154,1,8,0:0:0:0:
152,120,145304,2,0,L|312:168,1,164.159997996094,0|0,3:2|3:2,0:0:0:0:
408,80,145754,1,8,0:0:0:0:
360,20,145904,6,0,P|328:60|344:108,2,82.0799989980469,2|2|10,3:2|3:2|0:0,0:0:0:0:
486,103,146354,1,2,3:2:0:0:
486,103,146429,1,2,3:2:0:0:
486,103,146504,2,0,L|406:79,1,82.0799989980469,2|2,3:2|3:2,0:0:0:0:
312,48,146804,1,10,0:0:0:0:
192,160,146954,5,2,3:2:0:0:
192,160,147029,1,2,0:0:0:0:
192,160,147104,2,0,L|168:80,1,82.0799989980469,0|8,3:2|0:0,0:0:0:0:
72,0,147404,2,0,L|50:71,3,41.0399994990234,0|0|8|0,3:2|3:2|0:2|3:2,0:0:0:0:
40,56,147704,5,2,3:2:0:0:
88,112,147854,1,10,0:0:0:0:
8,216,148004,1,10,3:2:0:0:
23,211,148079,1,10,0:0:0:0:
38,207,148154,1,10,0:0:0:0:
54,203,148229,1,10,0:0:0:0:
72,200,148304,6,0,L|152:176,1,82.0799989980469,4|0,3:2|0:0,0:0:0:0:
168,32,148604,2,0,L|192:112,1,82.0799989980469,8|0,0:0|0:0,0:0:0:0:
336,120,148904,2,0,L|257:143,1,82.0799989980469,2|0,3:2|0:0,0:0:0:0:
240,288,149204,2,0,L|216:209,1,82.0799989980469,10|0,0:0|0:0,0:0:0:0:
344,104,149504,6,0,B|384:72|384:72|456:88|436:160,1,164.159997996094,4|8,3:2|0:0,0:0:0:0:
368,264,149954,1,2,0:0:0:0:
432,320,150104,2,0,P|456:288|448:244,1,82.0799989980469,2|0,3:2|0:0,0:0:0:0:
328,184,150404,1,8,0:0:0:0:
264,144,150554,5,2,0:0:0:0:
264,144,150629,1,8,0:0:0:0:
264,144,150704,2,0,L|184:120,1,82.0799989980469,2|0,3:2|3:2,0:0:0:0:
88,48,151004,1,8,0:2:0:0:
152,8,151154,1,0,3:2:0:0:
32,112,151304,6,0,P|0:80|16:24,1,82.0799989980469,8|0,0:0|3:2,0:0:0:0:
16,24,151529,1,0,3:2:0:0:
16,24,151604,1,8,0:0:0:0:
88,48,151754,1,2,3:2:0:0:
120,168,151904,5,2,3:2:0:0:
16,200,152054,2,0,L|96:176,1,82.0799989980469,8|0,0:0|3:2,0:0:0:0:
200,320,152354,1,8,0:0:0:0:
200,320,152429,1,8,0:0:0:0:
200,320,152504,2,0,L|121:296,1,82.0799989980469,2|8,3:2|0:0,0:0:0:0:
96,288,152729,1,8,0:0:0:0:
96,288,152804,1,0,3:2:0:0:
176,224,152954,1,8,0:0:0:0:
280,336,153104,6,0,P|304:304|288:256,1,74.8799995429687,4|0,3:2|0:0,0:0:0:0:
352,216,153404,1,0,3:2:0:0:
352,216,153554,1,0,0:0:0:0:
464,160,153704,6,0,L|384:136,1,74.8799995429687,2|0,3:2|0:0,0:0:0:0:
320,114,154004,1,0,3:2:0:0:
320,114,154154,1,0,0:0:0:0:
256,48,154304,5,2,3:2:0:0:
328,24,154454,1,2,0:0:0:0:
392,138,154604,5,0,3:2:0:0:
320,114,154754,1,2,0:0:0:0:
224,64,154904,2,0,L|144:88,1,74.8799995429687,2|2,3:2|0:0,0:0:0:0:
160,112,155129,1,2,0:0:0:0:
160,112,155204,2,0,L|231:90,1,74.8799995429687,0|2,3:2|0:0,0:0:0:0:
80,24,155504,6,0,P|56:56|72:104,1,74.8799995429687,2|0,3:2|0:0,0:0:0:0:
179,176,155804,2,0,P|155:144|171:96,1,74.8799995429687,0|2,3:2|0:0,0:0:0:0:
167,96,156029,1,2,0:0:0:0:
167,96,156104,2,0,L|239:72,1,74.8799995429687,0|2,3:2|0:0,0:0:0:0:
272,64,156329,1,2,0:0:0:0:
272,64,156404,1,8,0:0:0:0:
344,40,156554,1,8,0:0:0:0:
448,120,156704,5,4,3:2:0:0:
344,184,156854,1,0,0:0:0:0:
344,184,156929,1,0,0:0:0:0:
344,184,157004,1,8,0:0:0:0:
376,112,157154,1,0,0:0:0:0:
440,240,157304,5,2,3:2:0:0:
504,280,157454,1,2,3:2:0:0:
424,336,157604,5,10,0:0:0:0:
360,376,157754,1,6,3:2:0:0:
