osu file format v14

[General]
AudioFilename: audio.mp3
AudioLeadIn: 0
PreviewTime: 80421
Countdown: 0
SampleSet: Soft
StackLeniency: 0.9
Mode: 0
LetterboxInBreaks: 0
WidescreenStoryboard: 1

[Editor]
Bookmarks: 126704
DistanceSpacing: 1
BeatDivisor: 4
GridSize: 16
TimelineZoom: 1.5

[Metadata]
Title:Daemonisch
TitleUnicode:デモーニッシュ
Artist:TUYU
ArtistUnicode:ツユ
Creator:Keqing
Version:Abgeschiedenheit
Source:
Tags:devilish dämonisch demonish bongo guanineso stratos iljaaz -aqua captin1 ajisai- Woood13 SnowNiNo_ frozz -Keqing kazato asa shikibe mayu shizuku- pusu ぷす omutatsu おむたつ jpop j-pop japanese pop female vocals
BeatmapID:2968792
BeatmapSetID:1443294

[Difficulty]
HPDrainRate:6
CircleSize:4
OverallDifficulty:9
ApproachRate:9.3
SliderMultiplier:1.74
SliderTickRate:1

[Events]
//Background and Video events
Video,-54,"aa.mp4"
0,0,"tuyu.png",0,0
//Break Periods
//Storyboard Layer 0 (Background)
//Storyboard Layer 1 (Fail)
//Storyboard Layer 2 (Pass)
//Storyboard Layer 3 (Foreground)
//Storyboard Layer 4 (Overlay)
//Storyboard Sound Samples

[TimingPoints]
850,428.571428571429,4,2,4,50,1,0
850,-156.25,4,2,4,50,0,0
3421,-80.6451612903226,4,2,4,50,0,0
4278,333.333333333333,4,2,4,65,1,0
4278,-106.382978723404,4,2,4,65,0,0
14944,-87.7192982456139,4,2,4,75,0,0
26277,300,4,2,4,90,1,0
26277,-74.6268656716418,4,2,4,90,0,0
27777,-57.4712643678161,4,2,4,90,0,0
28077,-46.7289719626168,4,2,4,90,0,0
28377,-57.4712643678161,4,2,4,90,0,0
28527,-74.6268656716418,4,2,4,90,0,0
30777,-57.4712643678161,4,2,4,90,0,1
31077,-119.047619047619,4,2,4,90,0,0
31377,-57.4712643678161,4,2,4,90,0,1
31677,-119.047619047619,4,2,4,90,0,0
31977,-74.6268656716418,4,2,4,90,0,0
32277,-57.4712643678161,4,2,4,90,0,0
32577,-46.7289719626168,4,2,4,90,0,0
32877,-119.047619047619,4,2,4,90,0,0
33177,-57.4712643678161,4,2,4,90,0,0
33477,-74.6268656716418,4,2,4,90,0,0
35877,-119.047619047619,4,2,4,90,0,0
36177,-74.6268656716418,4,2,4,90,0,0
37827,-185.185185185185,4,2,4,90,0,0
38277,-74.6268656716417,4,2,4,90,0,0
38877,-57.4712643678161,4,2,4,90,0,0
40677,-74.6268656716417,4,2,4,90,0,0
40977,-57.4712643678161,4,2,4,90,0,0
41727,-135.135135135135,4,2,4,90,0,0
41802,-135.135135135135,4,2,4,5,0,0
41877,-46.7289719626168,4,2,4,90,0,1
42027,-135.135135135135,4,2,4,90,0,1
42102,-135.135135135135,4,2,4,5,0,1
42177,-46.7289719626168,4,2,4,90,0,1
42327,-135.135135135135,4,2,4,90,0,1
42402,-135.135135135135,4,2,4,5,0,1
42477,-46.7289719626168,4,2,4,90,0,1
43077,-96.1538461538461,4,2,4,90,0,0
46377,-57.4712643678161,4,2,4,90,0,0
46677,-119.047619047619,4,2,4,90,0,0
46977,-57.4712643678161,4,2,4,90,0,0
47277,-119.047619047619,4,2,4,90,0,0
49527,-227.272727272727,4,2,4,90,0,0
50277,-74.6268656716417,4,2,4,90,0,1
54777,-227.272727272727,4,2,4,90,0,1
55077,428.571428571429,4,2,4,90,1,0
55077,-156.25,4,2,4,90,0,0
55934,-156.25,4,2,4,50,0,0
58505,333.333333333333,4,2,4,50,1,0
58505,-106.382978723404,4,2,4,65,0,0
69171,-87.7192982456139,4,2,4,75,0,0
80504,300,4,2,4,90,1,0
80504,-74.6268656716418,4,2,4,90,0,0
82004,-57.4712643678161,4,2,4,90,0,0
82304,-46.7289719626168,4,2,4,90,0,0
82604,-57.4712643678161,4,2,4,90,0,0
82754,-74.6268656716418,4,2,4,90,0,0
85004,-57.4712643678161,4,2,4,90,0,1
85304,-119.047619047619,4,2,4,90,0,0
85604,-57.4712643678161,4,2,4,90,0,1
85904,-119.047619047619,4,2,4,90,0,0
86203,-74.6268656716418,4,2,4,90,0,0
86503,-57.4712643678161,4,2,4,90,0,0
86803,-46.7289719626168,4,2,4,90,0,0
87103,-119.047619047619,4,2,4,90,0,0
87403,-57.4712643678161,4,2,4,90,0,0
87703,-74.6268656716418,4,2,4,90,0,0
90103,-119.047619047619,4,2,4,90,0,0
90403,-74.6268656716418,4,2,4,90,0,0
92053,-185.185185185185,4,2,4,90,0,0
92503,-74.6268656716417,4,2,4,90,0,0
93103,-57.4712643678161,4,2,4,90,0,0
94903,-74.6268656716417,4,2,4,90,0,0
95203,-57.4712643678161,4,2,4,90,0,0
95953,-135.135135135135,4,2,4,90,0,0
96028,-135.135135135135,4,2,4,5,0,0
96104,-46.7289719626168,4,2,4,90,0,1
96254,-135.135135135135,4,2,4,90,0,1
96329,-135.135135135135,4,2,4,5,0,1
96404,-46.7289719626168,4,2,4,90,0,1
96554,-135.135135135135,4,2,4,90,0,1
96629,-135.135135135135,4,2,4,5,0,1
96704,-46.7289719626168,4,2,4,90,0,1
97304,-96.1538461538461,4,2,4,75,0,0
100603,-57.4712643678161,4,2,4,75,0,0
100903,-119.047619047619,4,2,4,75,0,0
101203,-57.4712643678161,4,2,4,75,0,0
101503,-119.047619047619,4,2,4,75,0,0
103753,-227.272727272727,4,2,4,75,0,0
104504,-74.6268656716417,4,2,4,75,0,0
109304,-74.6268656716417,4,2,4,90,0,0
112304,-74.6268656716417,4,2,4,90,0,1
112454,-74.6268656716417,4,2,4,5,0,1
112529,-74.6268656716417,4,2,4,90,0,1
112679,-74.6268656716417,4,2,4,5,0,1
112754,-74.6268656716417,4,2,4,90,0,1
112829,-74.6268656716417,4,2,4,5,0,1
112904,-74.6268656716417,4,2,4,90,0,1
113054,-74.6268656716417,4,2,4,5,0,1
113129,-74.6268656716417,4,2,4,90,0,1
113279,-74.6268656716417,4,2,4,5,0,1
113354,-74.6268656716417,4,2,4,90,0,1
113429,-74.6268656716417,4,2,4,5,0,1
113504,-74.6268656716417,4,2,4,90,0,1
113654,-74.6268656716417,4,2,4,5,0,1
113729,-74.6268656716417,4,2,4,90,0,1
113879,-74.6268656716417,4,2,4,5,0,1
113954,-74.6268656716417,4,2,4,90,0,1
114029,-74.6268656716417,4,2,4,5,0,1
114104,-74.6268656716417,4,2,4,80,0,0
114704,300,4,2,4,60,1,0
114704,-156.25,4,2,4,60,0,0
119504,-87.719298245614,4,2,4,75,0,0
126704,-74.6268656716418,4,2,4,90,0,0
127304,-57.4712643678161,4,2,4,90,0,0
129104,-74.6268656716417,4,2,4,90,0,0
129404,-57.4712643678161,4,2,4,90,0,0
130154,-135.135135135135,4,2,4,90,0,0
130229,-135.135135135135,4,2,4,5,0,0
130304,-46.7289719626168,4,2,4,90,0,1
130454,-135.135135135135,4,2,4,90,0,1
130529,-135.135135135135,4,2,4,5,0,1
130604,-46.7289719626168,4,2,4,90,0,1
130754,-135.135135135135,4,2,4,90,0,1
130829,-135.135135135135,4,2,4,5,0,1
130904,-46.7289719626168,4,2,4,90,0,1
131504,-96.1538461538461,4,2,4,90,0,0
134804,-57.4712643678161,4,2,4,90,0,0
135104,-119.047619047619,4,2,4,90,0,0
135404,-57.4712643678161,4,2,4,90,0,0
135704,-119.047619047619,4,2,4,90,0,0
138704,-74.6268656716418,4,2,4,90,0,0
140054,-46.7289719626168,4,2,4,90,0,0
140504,-74.6268656716418,4,2,4,90,0,0
141404,-57.4712643678161,4,2,4,90,0,0
143504,-57.4712643678161,4,2,4,90,0,1
148304,-57.4712643678161,4,2,4,90,0,0
148604,-74.6268656716418,4,2,4,90,0,0
152054,-57.4712643678161,4,2,4,90,0,0
153104,-119.047619047619,4,2,4,75,0,0
156704,-57.4712643678161,4,2,4,90,0,0

[Colours]
Combo1 : 181,74,74
Combo2 : 255,0,0
Combo3 : 255,140,140

[HitObjects]
481,384,850,6,0,B|540:325|511:225,1,167.04,2|0,0:0|0:0,0:0:0:0:
511,228,1707,1,2,0:0:0:0:
446,201,1921,1,2,0:0:0:0:
413,271,2135,1,2,0:0:0:0:
413,271,2564,6,0,B|355:285|311:233,1,111.36,2|2,0:0|0:0,0:0:0:0:
313,236,3207,1,2,0:0:0:0:
220,269,3421,6,0,B|148:221|67:264|78:360,1,215.759991440186,2|2,0:0|0:0,0:0:0:0:
77,354,4064,1,2,0:0:0:0:
220,269,4278,6,0,P|226:231|230:176,1,81.7799987521363,2|0,3:2|0:0,0:0:0:0:
57,89,4611,2,0,P|50:126|47:182,1,81.7799987521363,2|0,3:2|0:0,0:0:0:0:
237,47,4944,1,2,3:2:0:0:
237,47,5111,2,0,P|197:33|145:29,1,81.7799987521363,2|0,0:0|3:2,0:0:0:0:
47,170,5444,6,0,P|102:180|177:90,1,163.559997504273,2|2,0:0|0:0,0:0:0:0:
297,295,5944,2,0,P|255:279|211:267,1,81.7799987521363,2|2,3:2|0:0,0:0:0:0:
363,175,6277,1,2,3:2:0:0:
363,175,6444,2,0,P|401:189|444:201,1,81.7799987521363,2|0,0:0|3:2,0:0:0:0:
490,261,6777,1,2,0:0:0:0:
490,261,6944,6,0,P|469:174|460:85,1,163.559997504273,2|2,3:2|3:2,0:0:0:0:
285,209,7444,2,0,P|278:166|263:123,1,81.7799987521363,2|0,0:0|3:2,0:0:0:0:
396,267,7777,2,0,P|404:314|415:352,1,81.7799987521363,2|0,0:0|3:2,0:0:0:0:
490,261,8111,1,2,0:0:0:0:
285,209,8277,6,0,P|245:218|201:231,1,81.7799987521363,2|0,3:2|0:0,0:0:0:0:
372,133,8611,2,0,P|412:124|456:111,1,81.7799987521363,2|0,3:2|0:0,0:0:0:0:
267,51,8944,1,2,3:2:0:0:
322,0,9111,2,0,P|375:44|357:151,1,163.559997504273,2|2,0:0|0:0,0:0:0:0:
137,289,9611,6,0,P|128:247|117:208,1,81.7799987521363,2|0,3:2|0:0,0:0:0:0:
204,108,9944,1,2,3:2:0:0:
134,73,10111,1,2,0:0:0:0:
189,182,10277,1,0,3:2:0:0:
189,182,10444,2,0,P|108:185|47:246,1,163.559997504273,2|2,0:0|0:0,0:0:0:0:
201,349,10944,6,0,P|242:357|292:374,1,81.7799987521363,2|0,3:2|0:2,0:2:0:0:
444,286,11277,1,2,3:2:0:0:
395,340,11444,1,2,0:0:0:0:
324,312,11611,5,0,3:2:0:0:
327,300,11777,1,2,0:0:0:0:
444,286,11944,5,0,3:2:0:0:
441,274,12110,1,2,0:0:0:0:
369,222,12277,6,0,B|343:141|422:167|384:48,1,163.559997504273,2|8,3:2|0:2,0:0:0:0:
318,104,12777,2,0,P|282:113|233:122,1,81.7799987521363,0|0,3:2|0:0,0:0:0:0:
274,185,13111,1,0,3:2:0:0:
98,304,13277,2,0,P|171:281|270:264,1,163.559997504273,8|2,0:0|3:2,0:0:0:0:
157,136,13777,5,0,3:2:0:0:
157,136,13861,1,0,3:2:0:0:
157,136,13944,1,10,0:2:0:0:
236,119,14111,1,2,3:2:0:0:
98,304,14277,2,0,B|77:271|77:271|92:222,1,81.7799987521363,8|0,0:0|3:2,0:0:0:0:
67,158,14611,5,8,0:0:0:0:
256,265,14777,1,0,3:2:0:0:
345,190,14944,6,0,P|357:149|366:89,1,99.1799987893067,6|0,3:2|0:0,0:0:0:0:
98,304,15277,2,0,P|144:315|193:333,1,99.1799987893067,2|0,3:2|0:0,0:0:0:0:
67,158,15611,1,2,3:2:0:0:
162,185,15777,2,0,P|114:174|62:156,1,99.1799987893067,2|0,0:0|3:2,0:0:0:0:
197,339,16111,1,2,0:0:0:0:
197,339,16277,6,0,P|287:345|361:267,1,198.359997578613,2|2,3:2|3:2,0:0:0:0:
428,234,16777,1,2,0:0:0:0:
285,296,16944,1,2,3:2:0:0:
343,343,17111,1,2,0:0:0:0:
384,171,17277,2,0,P|382:124|385:66,1,99.1799987893067,2|2,3:2|0:0,0:0:0:0:
205,262,17611,6,0,P|155:263|68:138,1,198.359997578613,2|2,3:2|3:2,0:2:0:0:
66,157,18111,2,0,P|71:112|69:59,1,99.1799987893067,2|0,0:0|3:2,0:0:0:0:
205,262,18444,1,2,0:0:0:0:
202,163,18611,2,0,P|199:212|204:261,1,99.1799987893067,0|2,3:2|0:2,0:0:0:0:
15,375,18944,6,0,P|44:336|100:331,1,99.1799987893067,2|0,3:2|0:0,0:0:0:0:
280,208,19277,2,0,P|328:227|349:271,1,99.1799987893067,2|2,3:2|0:0,0:0:0:0:
414,316,19527,1,2,0:2:0:0:
414,316,19611,1,0,3:2:0:0:
375,384,19777,6,0,L|401:164,1,198.359997578613,2|2,0:0|0:0,0:0:0:0:
215,72,20277,6,0,B|189:113|189:113|203:169,1,99.1799987893067,4|0,3:2|0:0,0:0:0:0:
413,109,20611,1,0,3:2:0:0:
481,150,20777,2,0,B|497:197|497:197|469:252,2,99.1799987893067,2|0|2,0:0|3:2|0:0,0:0:0:0:
286,212,21277,1,0,3:2:0:0:
286,212,21444,6,0,L|273:319,1,99.1799987893067,2|0,0:2|3:2,0:0:0:0:
348,288,21777,1,2,0:2:0:0:
249,380,21944,1,0,3:2:0:0:
157,244,22111,1,2,0:0:0:0:
106,302,22277,2,0,L|3:320,1,99.1799987893067,2|2,3:2|0:0,0:0:0:0:
63,382,22611,5,2,3:2:0:0:
286,212,22777,1,2,0:0:0:0:
150,66,22944,6,0,P|94:95|108:183,1,148.76999818396,4|0,3:2|0:0,0:0:0:0:
97,172,23277,1,8,0:0:0:0:
275,310,23444,2,0,P|283:260|286:204,1,99.1799987893067,0|0,3:2|0:0,0:0:0:0:
407,81,23777,1,0,3:2:0:0:
445,147,23944,2,0,P|483:201|436:287,1,148.76999818396,8|0,0:0|0:0,0:0:0:0:
457,273,24277,5,4,3:2:0:0:
298,135,24444,1,8,0:0:0:0:
298,135,24527,1,8,0:0:0:0:
298,135,24611,1,8,0:0:0:0:
285,211,24777,5,0,3:2:0:0:
120,289,24944,1,8,0:0:0:0:
41,194,25111,6,0,P|63:203|93:213,1,49.5899993946533,2|0,3:2|0:0,0:0:0:0:
198,360,25277,6,0,P|208:337|225:311,1,49.5899993946533,10|0,0:2|0:0,0:0:0:0:
362,245,25444,6,0,L|470:277,1,99.1799987893067,2|0,3:2|3:2,0:0:0:0:
457,273,26277,6,0,B|444:222|397:201|351:224|351:224|365:265,1,174.869991728257,4|0,3:2|0:0,0:0:0:0:
317,321,26577,1,8,0:0:0:0:
154,197,26727,2,0,L|167:133,1,58.2899972427522,2|0,0:0|0:0,0:0:0:0:
244,92,26877,6,0,B|234:67|201:68|201:68|233:84|244:127,1,116.579994485504,2|0,3:2|0:0,0:0:0:0:
83,232,27177,1,10,0:0:0:0:
62,160,27327,6,0,P|61:140|63:160,1,58.2899972427522,2|0,0:0|0:0,0:0:0:0:
118,295,27477,6,0,B|107:317|109:352|109:352|101:321|72:307,1,116.579994485504,6|0,3:2|0:0,0:0:0:0:
301,212,27777,6,0,B|263:224|248:261|248:261|259:222|236:189,1,151.380001270432,10|0,0:2|0:0,0:0:0:0:
486,233,28002,5,2,0:0:0:0:
486,233,28077,2,0,B|438:222|400:254|400:254|438:221|432:169,1,186.179994318237,2|0,3:2|0:0,0:0:0:0:
464,310,28377,6,0,P|491:333|505:380,1,75.6900006352158,8|0,0:2|0:2,0:2:0:0:
301,212,28527,2,0,P|325:191|366:192,1,58.2899972427522,2|0,0:0|0:0,0:0:0:0:
485,26,28677,5,2,3:2:0:0:
461,96,28827,1,2,0:0:0:0:
391,65,28977,5,10,0:0:0:0:
511,162,29127,1,2,0:0:0:0:
330,302,29277,6,0,P|338:242|352:175,1,116.579994485504,2|2,3:2|0:0,0:0:0:0:
251,31,29577,1,8,0:0:0:0:
251,31,29652,2,0,P|241:63|235:112,1,58.2899972427522,2|2,0:1|0:2,0:1:0:0:
104,188,29802,1,2,0:1:0:0:
104,188,29877,2,0,P|119:123|21:94,1,174.869991728257,0|0,3:2|0:0,0:0:0:0:
5,94,30177,6,0,B|28:111|28:111|70:106,1,58.2899972427522,10|0,0:0|0:0,0:0:0:0:
196,243,30327,2,0,B|220:226|220:226|261:229,1,58.2899972427522,2|0,0:0|0:0,0:0:0:0:
23,379,30477,6,0,B|-17:345|3:291|3:291|3:341|49:376,1,174.869991728257,2|0,3:2|0:0,0:0:0:0:
85,301,30777,6,0,P|196:318|332:354,1,227.070001905647,12|0,0:0|0:0,0:0:0:0:
370,302,31077,2,0,B|378:281|412:275|412:275|372:269|360:304,1,109.619996654663,2|0,3:2|0:0,0:0:0:0:
307,346,31377,6,0,P|197:318|85:301,1,227.070001905647,12|0,0:0|0:0,0:0:0:0:
42,236,31677,2,0,B|35:211|10:199|10:199|51:201|55:244,1,109.619996654663,2|0,3:2|0:0,0:0:0:0:
85,301,31977,6,0,P|142:302|162:253,1,116.579994485504,10|0,0:0|0:0,0:0:0:0:
307,346,32277,6,0,P|346:280|302:224,1,151.380001270432,2|0,3:2|0:0,0:0:0:0:
458,158,32502,5,2,0:0:0:0:
458,158,32577,2,0,P|413:77|328:89,1,186.179994318237,10|0,0:2|0:0,0:0:0:0:
144,147,32802,5,2,0:0:0:0:
144,147,32877,2,0,P|176:159|215:168,1,73.0799977697755,0|0,3:2|0:0,0:0:0:0:
53,50,33177,6,0,B|40:8|-1:-8|-1:-8|89:3|89:123,1,227.070001905647,12|0,0:0|0:0,0:0:0:0:
144,147,33477,1,2,3:2:0:0:
24,226,33627,1,2,0:0:0:0:
57,161,33777,1,10,0:0:0:0:
174,299,33927,6,0,B|187:312|187:312|196:295|196:295|182:280,1,58.2899972427522,2|0,0:0|0:0,0:0:0:0:
57,161,34077,5,2,3:2:0:0:
24,226,34227,1,2,0:0:0:0:
144,147,34377,1,10,0:0:0:0:
182,280,34527,6,0,B|196:295|196:295|187:312|187:312|173:298,1,58.2899972427522,2|0,0:0|0:0,0:0:0:0:
24,226,34677,5,0,3:2:0:0:
144,147,34827,1,2,0:0:0:0:
0,100,34977,5,8,0:0:0:0:
99,274,35127,1,2,0:0:0:0:
227,134,35277,6,0,L|210:203,1,58.2899972427522,2|0,3:2|0:0,0:0:0:0:
99,274,35427,2,0,L|84:349,1,58.2899972427522,2|0,0:0|0:0,0:0:0:0:
213,190,35577,6,0,B|310:167|310:167|314:207|328:243,1,174.869991728257,12|0,0:0|0:0,0:0:0:0:
379,297,35877,2,0,P|401:267|398:220,1,73.0799977697755,2|0,3:2|0:0,0:0:0:0:
373,52,36177,5,10,0:0:0:0:
373,52,36252,1,2,0:1:0:0:
206,112,36402,5,2,0:1:0:0:
206,112,36477,2,0,B|187:56|187:56|234:-10,1,116.579994485504,2|0,3:2|0:2,0:2:0:0:
311,158,36777,2,0,L|275:348,1,174.869991728257,12|0,0:0|0:0,0:0:0:0:
342,375,37077,6,0,B|278:399|234:324|269:335|222:254|142:295,2,233.159988971009,4|4|2,3:2|3:2|0:0,0:0:0:0:
451,168,37827,6,0,P|445:119|432:65,1,93.9600022939454,2|2,0:0|0:0,0:0:0:0:
417,1,38277,5,4,3:2:0:0:
314,106,38427,1,0,3:2:0:0:
314,106,38502,1,0,3:2:0:0:
314,106,38577,2,0,P|322:135|325:172,1,58.2899972427522,10|0,0:0|0:0,0:0:0:0:
389,210,38727,2,0,P|396:244|396:278,1,58.2899972427522,2|0,3:2|0:0,0:0:0:0:
178,363,38877,6,0,P|165:285|237:265,1,151.380001270432,2|0,3:2|3:2,0:0:0:0:
291,233,39102,1,0,3:2:0:0:
291,233,39177,2,0,P|312:266|297:315,1,75.6900006352158,10|0,0:0|0:0,0:0:0:0:
169,177,39327,2,0,L|175:92,1,75.6900006352158,0|0,3:2|0:0,0:0:0:0:
192,9,39477,5,6,3:2:0:0:
33,104,39627,6,0,B|18:107|4:120|4:120|11:97|60:83,1,75.6900006352158,8|0,0:0|0:0,0:0:0:0:
192,9,39777,1,0,3:2:0:0:
308,141,39927,6,0,B|321:147|332:163|332:163|331:139|286:114,1,75.6900006352158,8|0,0:0|0:0,0:0:0:0:
192,9,40077,1,0,3:2:0:0:
126,64,40227,5,8,0:0:0:0:
175,102,40302,1,8,0:0:0:0:
235,84,40377,1,2,3:2:0:0:
192,9,40527,1,10,0:0:0:0:
80,176,40677,6,0,L|68:244,1,58.2899972427522,2|0,3:2|0:0,0:0:0:0:
27,301,40827,2,0,P|56:307|86:316,1,58.2899972427522,0|0,3:2|0:0,0:0:0:0:
238,237,40977,6,0,P|244:201|256:151,1,75.6900006352158,8|0,0:0|0:0,0:0:0:0:
307,104,41127,2,0,P|269:95|226:81,1,75.6900006352158,2|0,3:2|0:0,0:0:0:0:
80,176,41277,5,2,3:2:0:0:
160,208,41427,1,0,3:2:0:0:
238,237,41577,1,8,0:0:0:0:
390,260,41727,6,0,L|384:222,1,32.1900007858887,8|0,0:2|0:0,0:0:0:0:
362,157,41877,2,0,B|372:136|370:112|370:112|373:136|393:158,1,93.0899971591187,4|0,3:2|0:0,0:0:0:0:
390,260,42027,6,0,L|359:283,1,32.1900007858887,8|0,0:2|0:0,0:0:0:0:
314,333,42177,2,0,B|290:334|271:348|271:348|290:333|299:305,1,93.0899971591187,4|0,3:2|0:0,0:0:0:0:
390,260,42327,6,0,L|425:274,1,32.1900007858887,8|0,0:2|0:0,0:0:0:0:
494,287,42477,2,0,B|507:306|528:316|528:316|506:307|477:313,1,93.0899971591187,4|0,3:2|0:0,0:0:0:0:
398,268,42627,5,8,0:0:0:0:
398,268,42702,1,8,0:2:0:0:
398,268,42777,1,8,0:0:0:0:
389,188,42927,1,8,0:0:0:0:
238,237,43077,6,0,P|179:246|129:351,1,180.959998895508,6|2,3:2|3:2,0:0:0:0:
238,237,43527,1,2,0:0:0:0:
62,93,43677,5,2,3:2:0:0:
135,130,43827,2,0,P|87:123|57:78,1,90.4799994477539,2|0,0:0|3:2,0:0:0:0:
126,249,44127,5,2,0:0:0:0:
34,269,44277,2,0,L|241:325,1,180.959998895508,2|0,3:2|3:2,0:0:0:0:
126,249,44727,5,2,0:0:0:0:
208,316,44877,2,0,L|34:269,1,180.959998895508,2|2,3:2|3:2,0:0:0:0:
123,342,45327,1,2,0:0:0:0:
274,185,45477,6,0,P|230:193|196:230,1,90.4799994477539,2|0,3:2|0:0,0:0:0:0:
5,130,45777,2,0,P|41:155|60:216,1,90.4799994477539,2|0,3:2|0:0,0:0:0:0:
126,249,46077,1,0,3:2:0:0:
126,249,46377,6,0,L|168:12,1,227.070001905647,8|0,0:0|0:0,0:0:0:0:
176,48,46677,2,0,L|154:167,1,109.619996654663,0|0,3:2|0:0,0:0:0:0:
405,354,46977,6,0,L|363:117,1,227.070001905647,8|0,0:0|0:0,0:0:0:0:
355,154,47277,2,0,L|373:256,1,73.0799977697755,0|0,3:2|3:2,0:0:0:0:
185,382,47577,5,8,0:0:0:0:
229,222,47727,1,2,0:0:0:0:
229,222,47802,1,2,0:0:0:0:
229,222,47877,1,2,0:0:0:0:
229,222,49077,5,0,3:2:0:0:
229,222,49527,6,0,L|216:272,1,38.2800011682129,2|0,0:0|0:0,0:0:0:0:
185,382,49827,1,2,0:0:0:0:
229,222,49977,6,0,L|244:157,1,57.4200017523194,2|0,0:0|0:0,0:0:0:0:
292,109,50277,6,0,P|268:94|234:91,1,58.2899972427522,2|0,3:2|0:0,0:0:0:0:
170,0,50427,1,0,3:2:0:0:
161,4,50502,1,0,3:2:0:0:
153,9,50577,2,0,P|152:42|170:75,1,58.2899972427522,2|0,3:2|0:0,0:0:0:0:
92,151,50727,1,0,3:2:0:0:
97,162,50802,1,0,3:2:0:0:
101,172,50877,6,0,P|129:166|168:129,1,58.2899972427522,2|0,3:2|0:0,0:0:0:0:
238,90,51027,6,0,P|267:93|292:109,1,58.2899972427522,2|0,3:2|3:2,0:0:0:0:
374,212,51177,6,0,L|356:290,1,58.2899972427522,2|0,3:2|0:0,0:0:0:0:
320,338,51327,2,0,L|333:281,1,58.2899972427522,2|0,3:2|3:2,0:0:0:0:
400,121,51477,5,2,3:2:0:0:
420,133,51552,1,0,3:2:0:0:
430,151,51627,1,0,3:2:0:0:
434,176,51702,1,0,3:2:0:0:
429,195,51777,2,0,L|364:214,1,58.2899972427522,2|0,3:2|0:0,0:0:0:0:
198,315,51927,5,2,3:2:0:0:
198,315,52002,1,2,0:0:0:0:
198,315,52077,2,0,L|130:295,1,58.2899972427522,2|0,3:1|0:0,0:0:0:0:
70,182,52227,5,2,0:0:0:0:
70,182,52302,2,0,L|84:247,1,58.2899972427522,2|0,3:1|0:0,0:0:0:0:
20,358,52452,5,2,0:0:0:0:
20,358,52527,2,0,L|65:315,1,58.2899972427522,2|0,3:1|0:0,0:0:0:0:
262,192,52677,5,6,3:2:0:0:
296,190,52752,1,0,3:2:0:0:
324,209,52827,1,0,3:2:0:0:
336,246,52902,1,0,3:2:0:0:
333,281,52977,6,0,L|318:342,1,58.2899972427522,2|0,3:2|0:0,0:0:0:0:
177,167,53127,1,0,3:2:0:0:
173,160,53202,1,0,3:2:0:0:
169,155,53277,2,0,L|185:91,1,58.2899972427522,2|0,3:2|0:0,0:0:0:0:
220,276,53427,5,0,3:2:0:0:
215,281,53502,1,0,3:2:0:0:
209,288,53577,2,0,P|183:277|152:271,1,58.2899972427522,2|0,3:2|0:0,0:0:0:0:
281,192,53727,5,0,3:2:0:0:
287,187,53802,1,0,3:2:0:0:
293,183,53877,2,0,P|322:192|352:199,1,58.2899972427522,2|0,3:2|0:0,0:0:0:0:
414,244,54027,2,0,P|387:234|345:223,1,58.2899972427522,0|0,3:2|3:2,0:0:0:0:
209,370,54177,6,0,P|235:357|273:348,1,58.2899972427522,2|0,3:2|0:0,0:0:0:0:
462,187,54327,1,0,3:2:0:0:
490,210,54402,1,0,3:2:0:0:
488,249,54477,1,2,3:2:0:0:
446,315,54627,5,8,0:0:0:0:
252,107,54777,2,0,L|265:25,1,76.5600023364259,8|4,0:0|3:2,0:0:0:0:
263,31,55934,6,0,B|357:35|380:131,1,167.04,2|0,3:2|0:0,0:0:0:0:
243,242,56791,2,0,P|194:254|129:263,1,111.36,2|2,3:2|3:2,0:0:0:0:
73,211,57648,1,2,3:2:0:0:
241,332,57862,1,2,3:2:0:0:
21,371,58077,5,10,0:0:0:0:
83,322,58291,1,2,0:0:0:0:
86,130,58505,6,0,P|77:172|72:222,1,81.7799987521363,6|0,3:2|0:0,0:0:0:0:
241,332,58838,2,0,P|248:297|254:242,1,81.7799987521363,2|0,3:2|0:0,0:0:0:0:
417,109,59171,1,2,3:2:0:0:
417,109,59338,2,0,P|365:96|297:185,1,163.559997504273,2|2,0:0|0:0,0:0:0:0:
186,18,59838,6,0,P|225:31|270:41,1,81.7799987521363,2|0,3:2|0:0,0:0:0:0:
465,223,60171,2,0,P|428:209|384:200,1,81.7799987521363,2|0,3:2|0:0,0:0:0:0:
243,351,60505,1,2,3:2:0:0:
243,351,60671,2,0,P|299:355|351:263,1,163.559997504273,2|2,0:0|0:0,0:0:0:0:
208,180,61171,5,2,3:2:0:0:
155,237,61338,2,0,P|116:244|73:256,1,81.7799987521363,2|0,0:0|3:2,0:0:0:0:
208,180,61671,2,0,P|248:168|299:163,1,81.7799987521363,2|0,0:0|3:2,0:0:0:0:
123,25,62005,2,0,P|86:73|139:161,1,163.559997504273,2|2,0:0|0:0,0:0:0:0:
229,263,62504,5,2,3:2:0:0:
155,239,62671,1,2,0:0:0:0:
208,180,62838,1,2,3:2:0:0:
283,205,63004,1,2,0:0:0:0:
123,381,63171,1,2,3:2:0:0:
123,381,63338,2,0,P|112:345|108:301,1,81.7799987521363,2|0,0:0|3:2,0:0:0:0:
283,205,63671,1,2,0:0:0:0:
349,253,63838,6,0,P|361:291|369:341,1,81.7799987521363,2|0,3:2|0:0,0:0:0:0:
283,205,64171,1,2,3:2:0:0:
333,145,64338,1,2,0:0:0:0:
240,39,64504,1,0,3:2:0:0:
240,39,64671,2,0,P|198:50|151:72,1,81.7799987521363,2|0,0:0|3:2,0:0:0:0:
333,145,65004,6,0,P|412:116|495:76,1,163.559997504273,2|2,0:0|0:0,0:0:0:0:
279,286,65504,2,0,P|285:331|299:374,1,81.7799987521363,2|2,3:2|0:0,0:0:0:0:
368,332,65838,2,0,P|361:292|349:253,1,81.7799987521363,2|0,3:2|0:0,0:0:0:0:
162,196,66171,1,2,3:2:0:0:
90,222,66338,1,2,0:0:0:0:
24,116,66504,6,0,B|114:126|77:181|170:197,1,163.559997504273,4|8,3:2|0:0,0:0:0:0:
164,119,67004,2,0,P|202:106|242:97,1,81.7799987521363,0|0,3:2|0:0,0:0:0:0:
393,190,67338,1,0,3:2:0:0:
349,253,67504,2,0,P|409:267|476:296,1,122.669998128204,8|0,0:0|0:0,0:0:0:0:
475,300,67838,5,2,3:2:0:0:
393,190,68004,1,0,3:2:0:0:
394,181,68088,1,0,3:2:0:0:
395,172,68171,1,8,0:0:0:0:
459,126,68338,1,0,3:2:0:0:
349,253,68504,2,0,P|308:268|265:276,1,81.7799987521363,8|0,0:0|3:2,0:0:0:0:
393,342,68838,5,8,0:0:0:0:
218,208,69004,1,0,3:2:0:0:
218,208,69088,1,0,3:2:0:0:
218,208,69171,6,0,P|281:241|295:375,1,198.359997578613,4|2,3:2|3:2,0:0:0:0:
150,156,69671,1,2,0:0:0:0:
223,125,69838,1,2,3:2:0:0:
223,125,70004,2,0,P|234:81|242:17,1,99.1799987893067,2|0,0:0|3:2,0:0:0:0:
220,304,70338,6,0,P|126:269|30:245,1,198.359997578613,2|2,0:2|0:0,0:0:0:0:
223,125,70838,2,0,P|270:145|319:155,1,99.1799987893067,2|2,3:2|0:0,0:0:0:0:
421,332,71171,1,2,3:2:0:0:
442,262,71338,2,0,P|385:257|305:375,1,198.359997578613,2|2,0:0|0:0,0:0:0:0:
442,262,71838,6,0,P|453:220|461:158,1,99.1799987893067,2|0,3:2|0:0,0:0:0:0:
348,26,72171,1,2,3:2:0:0:
423,8,72338,2,0,P|416:57|402:108,1,99.1799987893067,2|0,0:0|3:0,0:0:0:0:
203,221,72671,2,0,P|210:172|224:121,1,99.1799987893067,2|0,0:0|3:0,0:0:0:0:
181,62,73004,1,2,0:0:0:0:
279,199,73171,5,2,3:2:0:0:
203,221,73338,1,2,0:0:0:0:
304,122,73504,5,2,3:2:0:0:
365,188,73671,1,2,0:0:0:0:
365,188,73754,1,2,0:0:0:0:
365,188,73838,1,2,3:2:0:0:
222,124,74004,6,0,P|174:136|121:156,1,99.1799987893067,2|0,0:0|3:2,0:0:0:0:
260,55,74338,1,2,0:0:0:0:
416,294,74504,6,0,P|330:289|285:166,1,198.359997578613,4|2,3:2|3:2,0:0:0:0:
141,63,75004,1,2,0:0:0:0:
24,190,75171,1,2,3:2:0:0:
24,190,75338,2,0,P|34:141|38:79,1,99.1799987893067,2|0,0:0|3:2,0:0:0:0:
207,236,75671,1,2,0:0:0:0:
145,282,75838,6,0,P|136:331|133:390,1,99.1799987893067,2|2,3:2|0:0,0:0:0:0:
278,198,76171,1,2,3:2:0:0:
216,156,76338,1,2,0:0:0:0:
145,282,76504,1,2,3:2:0:0:
214,322,76671,1,2,0:0:0:0:
207,236,76838,5,0,3:2:0:0:
61,322,77004,1,2,0:0:0:0:
207,236,77171,6,0,P|301:263|347:364,1,198.359997578613,4|8,3:2|0:0,0:0:0:0:
141,182,77671,2,0,P|132:134|127:72,1,99.1799987893067,2|0,3:2|0:0,0:0:0:0:
278,198,78004,1,0,3:2:0:0:
385,132,78171,2,0,P|395:179|399:256,1,99.1799987893067,8|0,0:0|0:0,0:0:0:0:
230,336,78504,5,4,3:2:0:0:
288,206,78671,1,0,3:2:0:0:
288,206,78754,1,0,3:2:0:0:
288,206,78838,1,8,0:0:0:0:
239,346,79004,1,0,3:2:0:0:
239,346,79087,1,0,3:2:0:0:
239,346,79171,1,8,0:0:0:0:
183,279,79338,5,2,3:2:0:0:
365,369,79504,1,10,0:0:0:0:
175,275,79671,5,2,0:0:0:0:
288,206,79838,1,0,3:2:0:0:
157,59,80504,6,0,B|125:53|86:32|86:32|15:53|44:107,1,174.869991728257,4|0,3:2|0:0,0:0:0:0:
1,166,80804,1,8,0:0:0:0:
157,59,80954,6,0,P|166:35|172:0,1,58.2899972427522,2|0,0:0|0:0,0:0:0:0:
288,206,81104,2,0,B|333:223|333:223|340:231|340:231|401:252,1,116.579994485504,2|2,3:2|0:0,0:0:0:0:
223,367,81404,1,10,0:0:0:0:
269,298,81554,6,0,P|273:282|271:300,1,58.2899972427522,2|0,0:0|0:0,0:0:0:0:
216,372,81704,6,0,B|182:364|173:331|173:331|188:353|217:361,1,116.579994485504,6|0,3:2|0:0,0:0:0:0:
44,248,82004,6,0,B|30:204|62:173|62:173|47:204|56:242,1,151.380001270432,10|0,0:2|0:0,0:0:0:0:
86,32,82229,5,2,0:0:0:0:
86,32,82304,2,0,B|124:-8|176:5|176:5|134:8|100:42,1,186.179994318237,2|0,3:2|0:0,0:0:0:0:
232,118,82604,6,0,P|194:115|169:69,1,75.6900006352158,8|0,0:0|0:0,0:0:0:0:
129,214,82754,2,0,P|156:206|178:187,1,58.2899972427522,2|0,0:2|0:0,0:0:0:0:
269,298,82904,5,2,3:2:0:0:
216,372,83054,1,2,0:0:0:0:
208,363,83129,1,2,0:0:0:0:
210,347,83204,1,10,0:0:0:0:
269,298,83354,1,2,0:0:0:0:
349,348,83504,6,0,B|370:351|389:374|389:374|376:337|328:331,1,116.579994485504,2|0,3:2|0:0,0:0:0:0:
184,194,83804,1,10,0:0:0:0:
184,194,83879,2,0,L|167:255,1,58.2899972427522,2|0,0:1|0:0,0:0:0:0:
364,139,84029,1,2,0:1:0:0:
364,139,84104,6,0,L|328:266,1,116.579994485504,2|2,3:2|0:0,0:0:0:0:
285,52,84404,6,0,B|270:38|270:38|309:54,1,58.2899972427522,8|0,0:0|0:0,0:0:0:0:
436,213,84554,2,0,B|470:204|470:204|441:201,1,58.2899972427522,2|0,0:0|0:0,0:0:0:0:
364,139,84704,6,0,P|301:149|275:207,1,116.579994485504,2|0,3:2|0:0,0:0:0:0:
142,321,85004,6,0,P|129:197|111:77,1,227.070001905647,12|0,0:0|0:0,0:0:0:0:
46,54,85304,2,0,B|30:32|2:34|2:34|35:52|45:83,1,109.619996654663,2|0,3:2|0:0,0:0:0:0:
114,95,85604,6,0,P|130:208|142:321,1,227.070001905647,12|0,0:0|0:0,0:0:0:0:
211,362,85904,2,0,B|227:384|255:382|255:382|222:364|212:333,1,109.619996654663,2|0,3:2|0:0,0:0:0:0:
142,321,86204,6,0,P|102:284|128:234,1,116.579994485504,12|0,0:0|0:0,0:0:0:0:
374,235,86504,6,0,P|358:302|287:305,1,151.380001270432,2|0,3:2|0:0,0:0:0:0:
172,88,86729,5,2,0:0:0:0:
172,88,86804,2,0,P|253:62|300:137,1,186.179994318237,8|0,0:2|0:0,0:0:0:0:
221,257,87029,5,2,0:0:0:0:
221,257,87104,2,0,P|217:221|208:176,1,73.0799977697755,2|0,3:2|0:0,0:0:0:0:
422,117,87404,6,0,B|455:80|511:90|511:90|458:93|422:124|419:169,1,227.070001905647,12|0,0:2|0:0,0:0:0:0:
455,230,87704,5,0,3:2:0:0:
300,136,87854,1,2,0:0:0:0:
374,235,88004,1,8,0:0:0:0:
362,63,88154,6,0,B|356:44|356:44|374:33|374:33|379:50,1,58.2899972427522,2|0,0:0|0:0,0:0:0:0:
374,235,88304,5,0,3:2:0:0:
300,136,88454,1,2,0:0:0:0:
457,230,88604,1,8,0:0:0:0:
379,50,88754,6,0,B|374:33|374:33|356:44|356:44|362:63,1,58.2899972427522,2|0,0:0|0:0,0:0:0:0:
457,230,88904,5,0,3:2:0:0:
300,136,89054,1,2,0:2:0:0:
511,90,89204,5,8,0:0:0:0:
374,235,89354,1,2,0:0:0:0:
208,58,89504,6,0,L|223:124,1,58.2899972427522,2|0,3:2|0:0,0:0:0:0:
374,235,89654,2,0,L|389:301,1,58.2899972427522,2|0,0:2|0:0,0:0:0:0:
218,383,89804,6,0,B|186:362|147:356|147:356|104:295|172:264,1,174.869991728257,14|0,0:0|0:0,0:0:0:0:
167,197,90104,2,0,P|213:215|222:260,1,73.0799977697755,2|0,3:2|0:0,0:0:0:0:
68,88,90404,5,8,0:0:0:0:
68,88,90479,1,2,0:1:0:0:
241,0,90629,5,2,0:1:0:0:
241,0,90704,2,0,P|229:56|218:126,1,116.579994485504,0|0,3:2|0:0,0:0:0:0:
386,291,91004,6,0,P|399:205|425:112,1,174.869991728257,14|0,0:0|0:0,0:0:0:0:
502,183,91304,6,0,B|468:210|425:199|410:156|410:156|395:111|349:93|312:117,2,233.159988971009,6|4|2,3:2|3:2|0:0,0:0:0:0:
312,330,92054,6,0,L|211:351,1,93.9600022939454,2|0,0:0|0:0,0:0:0:0:
81,161,92504,5,4,3:2:0:0:
141,221,92654,1,0,3:2:0:0:
141,221,92729,1,0,3:2:0:0:
141,221,92804,2,0,L|127:290,1,58.2899972427522,8|0,0:2|0:2,0:2:0:0:
60,311,92954,2,0,L|44:378,1,58.2899972427522,2|0,3:2|0:0,0:0:0:0:
288,240,93104,6,0,P|335:184|298:100,1,151.380001270432,2|0,3:2|0:0,0:0:0:0:
282,50,93329,1,0,3:2:0:0:
282,50,93404,2,0,P|250:43|210:29,1,75.6900006352158,8|0,0:0|0:0,0:0:0:0:
288,240,93554,2,0,P|320:247|360:261,1,75.6900006352158,2|0,3:2|0:0,0:0:0:0:
459,291,93704,5,4,3:2:0:0:
316,361,93854,6,0,B|304:371|281:374|281:374|312:378|347:354,1,75.6900006352158,8|0,0:0|0:0,0:0:0:0:
459,291,94004,1,2,3:2:0:0:
364,157,94154,6,0,B|353:145|331:138|331:138|363:139|393:169,1,75.6900006352158,8|0,0:0|0:0,0:0:0:0:
459,291,94304,1,2,3:2:0:0:
404,226,94454,5,8,0:0:0:0:
360,261,94529,1,8,0:0:0:0:
380,313,94604,1,10,0:0:0:0:
459,291,94754,5,2,0:0:0:0:
297,146,94904,6,0,P|270:157|233:166,1,58.2899972427522,2|0,3:2|0:0,0:0:0:0:
188,215,95054,2,0,P|214:203|252:195,1,58.2899972427522,2|0,3:2|0:0,0:0:0:0:
101,62,95204,6,0,P|116:98|126:139,1,75.6900006352158,8|0,0:0|0:0,0:0:0:0:
380,313,95354,2,0,P|365:277|355:236,1,75.6900006352158,0|0,3:2|0:0,0:0:0:0:
297,146,95504,5,2,3:2:0:0:
188,215,95654,1,0,3:2:0:0:
79,284,95804,1,8,0:0:0:0:
221,383,95954,6,0,L|213:338,1,32.1900007858887,8|0,0:0|0:0,0:0:0:0:
203,279,96104,2,0,B|212:261|212:261|195:241|195:241|184:265|184:265|200:284,1,93.0899971591187,4|0,3:2|0:0,0:0:0:0:
406,60,96254,6,0,L|371:89,1,32.1900007858887,8|0,0:0|0:0,0:0:0:0:
324,127,96404,2,0,B|303:128|303:128|295:152|295:152|321:150|321:150|329:127,1,93.0899971591187,4|0,3:2|0:0,0:0:0:0:
21,61,96554,6,0,L|63:76,1,32.1900007858887,8|0,0:0|0:0,0:0:0:0:
120,98,96704,2,0,B|131:114|131:114|156:110|156:110|141:88|141:88|117:92,1,93.0899971591187,4|0,3:2|0:0,0:0:0:0:
220,170,96854,5,8,0:0:0:0:
220,170,96929,1,8,0:0:0:0:
220,170,97004,1,8,0:0:0:0:
203,279,97154,1,8,0:0:0:0:
308,231,97304,6,0,P|375:235|438:350,1,180.959998895508,6|2,3:2|3:2,0:0:0:0:
308,231,97754,1,2,0:0:0:0:
252,341,97904,5,2,3:2:0:0:
203,279,98054,2,0,P|211:239|216:183,1,90.4799994477539,2|0,0:0|3:2,0:0:0:0:
371,59,98354,5,2,0:0:0:0:
324,0,98504,2,0,P|283:31|300:152,1,180.959998895508,2|0,3:2|3:2,0:0:0:0:
202,279,98954,1,2,0:0:0:0:
139,231,99104,2,0,P|95:215|49:204,1,90.4799994477539,2|0,3:2|0:0,0:0:0:0:
252,341,99404,2,0,P|297:357|351:373,1,90.4799994477539,2|0,3:2|0:0,0:0:0:0:
139,231,99704,6,0,P|78:241|27:354,2,180.959998895508,2|2|2,3:2|3:2|3:2,0:0:0:0:
324,0,100604,6,0,P|299:112|280:234,1,227.070001905647,8|0,0:0|0:0,0:0:0:0:
302,205,100904,2,0,P|309:150|322:91,1,109.619996654663,2|0,3:2|0:0,0:0:0:0:
87,110,101204,6,0,P|111:222|131:344,1,227.070001905647,8|0,0:0|0:0,0:0:0:0:
109,315,101504,2,0,P|102:260|91:217,1,73.0799977697755,2|0,3:2|3:2,0:0:0:0:
219,147,101804,5,8,0:0:0:0:
357,280,101954,1,8,0:0:0:0:
357,280,102029,1,8,0:0:0:0:
357,280,102104,1,8,0:0:0:0:
357,280,103304,5,0,3:2:0:0:
357,280,103754,6,0,L|369:230,1,38.2800011682129,2|0,0:0|0:0,0:0:0:0:
426,193,104054,1,2,0:0:0:0:
426,193,104204,2,0,L|439:141,1,38.2800011682129,2|0,0:0|0:0,0:0:0:0:
140,6,104504,5,2,3:2:0:0:
260,220,104654,1,2,0:0:0:0:
105,78,104804,5,2,3:2:0:0:
294,147,104954,1,2,0:0:0:0:
121,157,105104,5,2,3:2:0:0:
278,68,105254,1,2,0:0:0:0:
180,211,105404,5,2,3:2:0:0:
219,14,105554,1,2,0:0:0:0:
260,220,105704,5,2,3:2:0:0:
139,5,105854,1,2,0:0:0:0:
294,147,106004,5,2,3:2:0:0:
105,78,106154,1,2,0:0:0:0:
219,14,106304,5,2,3:2:0:0:
106,236,106529,1,2,0:1:0:0:
106,236,106604,1,2,3:2:0:0:
180,211,106754,1,2,3:2:0:0:
368,152,106904,5,2,3:2:0:0:
284,300,107054,1,2,0:0:0:0:
391,201,107204,5,2,3:2:0:0:
261,249,107354,1,2,0:0:0:0:
380,256,107504,5,2,3:2:0:0:
272,195,107654,1,2,0:0:0:0:
339,294,107804,5,2,3:2:0:0:
313,157,107954,1,2,0:0:0:0:
284,300,108104,5,2,3:2:0:0:
368,151,108254,1,2,0:0:0:0:
261,249,108404,5,2,3:2:0:0:
392,201,108554,1,2,0:0:0:0:
313,157,108704,5,2,3:2:0:0:
404,353,108929,1,2,0:1:0:0:
404,353,109004,1,2,3:2:0:0:
449,288,109154,1,2,3:2:0:0:
238,175,109304,6,0,P|171:187|133:299,1,174.869991728257,4|0,3:2|0:0,0:0:0:0:
127,276,109604,1,0,3:2:0:0:
313,157,109754,1,0,3:2:0:0:
78,21,109904,6,0,P|95:73|113:146,1,116.579994485504,2|0,3:1|0:0,0:0:0:0:
181,152,110129,2,0,P|198:204|216:277,1,116.579994485504,2|0,3:1|0:0,0:0:0:0:
190,338,110354,1,2,3:1:0:0:
190,338,110429,1,0,3:2:0:0:
190,338,110504,5,2,3:2:0:0:
331,247,110654,1,0,3:2:0:0:
213,263,110804,5,0,3:2:0:0:
336,384,110954,1,0,3:2:0:0:
396,336,111104,6,0,P|405:279|424:213,1,116.579994485504,2|0,3:1|0:0,0:0:0:0:
378,159,111329,2,0,P|387:102|406:36,1,116.579994485504,2|0,3:1|0:0,0:0:0:0:
468,6,111554,1,2,3:1:0:0:
512,101,111704,5,2,3:2:0:0:
472,134,111779,1,0,3:2:0:0:
425,123,111854,1,0,3:2:0:0:
406,80,111929,1,0,3:2:0:0:
373,46,112004,1,0,3:2:0:0:
333,21,112079,1,0,3:2:0:0:
284,24,112154,1,2,3:2:0:0:
257,55,112229,1,0,3:2:0:0:
252,71,112304,6,0,P|265:123|273:187,1,116.579994485504,6|0,3:1|0:0,0:0:0:0:
158,332,112529,2,0,P|200:289|259:253,1,116.579994485504,2|0,3:1|0:0,0:0:0:0:
379,275,112754,2,0,P|353:264|325:242,1,58.2899972427522,2|0,3:1|0:0,0:0:0:0:
86,152,112904,6,0,P|142:167|203:194,1,116.579994485504,6|0,3:1|0:0,0:0:0:0:
441,96,113129,2,0,P|389:127|341:178,1,116.579994485504,2|0,3:1|0:0,0:0:0:0:
305,373,113354,2,0,P|299:344|296:309,1,58.2899972427522,2|0,3:1|0:0,0:0:0:0:
252,71,113504,6,0,B|232:48|249:17|249:17|273:43|256:78,1,116.579994485504,6|0,3:1|0:0,0:0:0:0:
114,255,113729,6,0,B|104:283|68:284|68:284|79:250|118:248,1,116.579994485504,6|0,3:1|0:0,0:0:0:0:
379,275,113954,6,0,B|393:272|403:287|403:287|385:291|374:274,1,58.2899972427522,6|0,3:1|0:0,0:0:0:0:
272,185,114104,5,2,0:0:0:0:
272,185,114704,6,0,P|221:168|156:152,1,111.36,4|0,3:2|0:0,0:0:0:0:
30,312,115154,2,0,B|92:321|117:253,1,111.36,2|2,0:0|0:0,0:0:0:0:
52,207,115604,2,0,P|47:181|43:148,1,55.68,2|0,0:0|0:0,0:0:0:0:
143,50,115904,2,0,B|189:95|166:153|166:153,2,111.36,2|2|2,3:2|0:0|0:0,0:0:0:0:
338,285,116804,5,2,0:0:0:0:
338,285,116954,1,2,0:0:0:0:
299,216,117104,2,0,P|302:190|308:156,1,55.68,2|0,3:2|0:0,0:0:0:0:
396,330,117404,2,0,P|393:361|387:389,1,55.68,2|0,0:0|0:0,0:0:0:0:
338,285,117704,1,2,0:0:0:0:
506,216,118004,5,2,0:0:0:0:
506,216,118154,2,0,B|475:271|406:249|406:249,1,111.36,2|0,0:0|0:0,0:0:0:0:
307,160,118604,5,2,0:0:0:0:
340,94,118754,2,0,P|335:65|325:25,2,55.68,2|2|0,0:0|0:0|0:0,0:0:0:0:
406,122,119204,5,2,0:0:0:0:
252,15,119354,1,2,0:0:0:0:
200,74,119504,6,0,P|154:82|97:98,1,99.1799987893067,6|0,3:2|0:0,0:0:0:0:
311,271,119804,2,0,P|356:262|414:247,1,99.1799987893067,2|0,3:2|0:0,0:0:0:0:
267,158,120104,6,0,P|210:192|216:334,1,198.359997578613,2|2,3:2|3:2,0:0:0:0:
262,365,120554,1,0,0:0:0:0:
407,249,120704,6,0,P|397:202|389:143,1,99.1799987893067,2|0,3:2|0:0,0:0:0:0:
200,314,121004,2,0,P|151:324|102:340,1,99.1799987893067,2|0,3:2|0:0,0:0:0:0:
76,225,121304,6,0,P|125:214|181:193,1,99.1799987893067,2|0,3:2|0:0,0:0:0:0:
407,249,121604,2,0,P|418:302|427:363,1,99.1799987893067,2|0,3:2|0:0,0:0:0:0:
291,248,121904,6,0,P|268:154|265:43,1,198.359997578613,2|0,3:2|3:2,0:2:0:0:
351,145,122354,1,2,0:0:0:0:
196,384,122504,6,0,P|193:285|170:189,1,198.359997578613,2|0,3:2|3:2,0:2:0:0:
110,292,122954,1,2,0:0:0:0:
291,248,123104,6,0,P|340:262|387:283,1,99.1799987893067,2|0,3:2|0:0,0:0:0:0:
230,114,123404,2,0,P|181:100|134:79,1,99.1799987893067,2|0,3:2|0:0,0:0:0:0:
279,37,123704,1,2,3:2:0:0:
169,188,123854,1,2,0:0:0:0:
113,5,124004,1,2,3:2:0:0:
301,156,124304,6,0,B|314:206|314:206|283:262,1,99.1799987893067,6|0,3:2|3:2,0:0:0:0:
30,323,124604,2,0,B|17:273|17:273|48:217,1,99.1799987893067,2|0,3:2|3:2,0:0:0:0:
169,188,124904,1,2,3:2:0:0:
126,257,125054,1,0,3:2:0:0:
126,257,125129,1,0,3:2:0:0:
126,257,125204,1,0,3:2:0:0:
37,157,125354,1,0,3:2:0:0:
169,188,125504,6,0,P|153:279|137:400,1,198.359997578613,2|2,3:2|3:2,0:0:0:0:
138,384,126104,1,2,0:0:0:0:
489,365,126704,5,4,3:2:0:0:
392,237,126854,1,0,3:2:0:0:
392,237,126929,1,0,3:2:0:0:
392,237,127004,1,8,0:0:0:0:
462,203,127154,1,0,3:2:0:0:
331,313,127304,6,0,P|253:292|236:208,1,151.380001270432,2|0,3:2|0:0,0:0:0:0:
168,191,127529,1,0,3:2:0:0:
168,191,127604,2,0,P|194:166|259:163,1,75.6900006352158,8|0,0:0|0:0,0:0:0:0:
374,21,127754,2,0,P|363:57|355:99,1,75.6900006352158,2|0,3:2|0:0,0:0:0:0:
332,181,127904,5,2,3:2:0:0:
242,49,128054,6,0,B|235:32|220:23|220:23|252:26|271:64,1,75.6900006352158,8|0,0:0|0:0,0:0:0:0:
332,181,128204,1,0,3:2:0:0:
475,98,128354,6,0,B|485:83|505:80|505:80|470:73|443:105,1,75.6900006352158,8|0,0:0|0:0,0:0:0:0:
332,181,128504,1,0,3:2:0:0:
300,103,128654,5,8,0:0:0:0:
355,94,128729,1,8,0:0:0:0:
394,137,128804,1,8,0:0:0:0:
332,181,128954,1,2,3:2:0:0:
401,237,129104,6,0,P|410:263|418:303,1,58.2899972427522,0|0,3:2|0:0,0:0:0:0:
352,328,129254,2,0,P|342:302|335:262,1,58.2899972427522,0|0,3:2|0:0,0:0:0:0:
263,151,129404,6,0,P|299:162|339:186,1,75.6900006352158,8|0,0:0|0:0,0:0:0:0:
485,322,129554,2,0,P|449:311|409:287,1,75.6900006352158,2|0,3:2|0:0,0:0:0:0:
247,384,129704,1,0,3:2:0:0:
262,310,129854,1,0,3:2:0:0:
264,300,129929,1,0,3:2:0:0:
265,292,130004,1,8,0:0:0:0:
190,140,130154,6,0,L|145:123,1,32.1900007858887,10|0,0:2|0:0,0:0:0:0:
281,156,130304,2,0,B|289:176|310:188|310:188|288:183|261:195,1,93.0899971591187,4|0,3:2|0:0,0:0:0:0:
190,140,130454,6,0,L|227:109,1,32.1900007858887,10|0,0:2|0:0,0:0:0:0:
131,207,130604,2,0,B|108:207|87:219|87:219|102:202|106:173,1,93.0899971591187,4|0,3:2|0:0,0:0:0:0:
190,140,130754,6,0,L|197:187,1,32.1900007858887,10|0,0:2|0:0,0:0:0:0:
160,55,130904,2,0,B|172:35|172:10|172:10|178:32|202:50,1,93.0899971591187,4|0,3:2|0:0,0:0:0:0:
198,148,131054,5,8,0:0:0:0:
198,148,131129,1,8,0:0:0:0:
198,148,131204,1,8,0:0:0:0:
72,88,131354,1,8,0:0:0:0:
80,263,131504,6,0,P|92:225|107:167,1,90.4799994477539,6|0,3:2|0:2,0:2:0:0:
183,346,131804,1,2,3:2:0:0:
208,274,131954,1,2,0:0:0:0:
234,202,132104,1,2,3:2:0:0:
295,359,132254,2,0,P|303:314|315:270,1,90.4799994477539,2|0,0:0|3:2,0:0:0:0:
183,346,132554,1,2,0:0:0:0:
317,187,132704,6,0,P|379:176|456:269,1,180.959998895508,2|0,3:2|3:2,0:0:0:0:
317,187,133154,1,2,0:0:0:0:
468,333,133304,6,0,L|496:144,1,180.959998895508,2|0,3:2|3:2,0:0:0:0:
451,88,133754,1,0,0:0:0:0:
317,187,133904,6,0,P|311:234|300:288,1,90.4799994477539,2|0,3:2|0:0,0:0:0:0:
177,107,134204,2,0,P|182:59|194:6,1,90.4799994477539,2|0,3:2|0:0,0:0:0:0:
32,124,134504,2,0,P|26:171|15:225,1,90.4799994477539,2|0,3:2|0:0,0:0:0:0:
144,331,134804,6,0,L|181:79,1,227.070001905647,10|0,0:0|0:0,0:0:0:0:
187,125,135104,2,0,L|170:240,1,109.619996654663,2|0,3:2|0:0,0:0:0:0:
423,255,135404,6,0,L|386:3,1,227.070001905647,10|0,0:0|0:0,0:0:0:0:
380,43,135704,2,0,L|394:139,1,73.0799977697755,2|0,3:2|3:2,0:0:0:0:
276,10,136004,5,8,0:0:0:0:
311,190,136154,1,8,0:0:0:0:
311,190,136229,1,8,0:0:0:0:
311,190,136304,6,0,P|304:155|301:106,1,73.0799977697755,2|0,3:2|0:0,0:0:0:0:
423,255,136604,2,0,P|429:289|433:339,1,73.0799977697755,2|0,3:2|0:0,0:0:0:0:
256,305,136904,5,2,3:2:0:0:
243,291,136979,1,2,0:0:0:0:
238,269,137054,1,2,0:0:0:0:
241,250,137129,1,2,0:0:0:0:
250,233,137204,1,2,0:0:0:0:
311,190,137354,1,0,3:2:0:0:
340,264,137504,5,0,3:2:0:0:
209,166,137654,1,0,3:2:0:0:
147,215,137804,5,0,3:2:0:0:
136,219,137879,1,0,3:2:0:0:
123,222,137954,1,0,3:2:0:0:
110,226,138029,1,0,3:2:0:0:
99,230,138104,5,0,3:2:0:0:
54,206,138179,1,0,3:2:0:0:
48,158,138254,1,0,3:2:0:0:
79,119,138329,1,0,3:2:0:0:
88,110,138404,6,0,P|102:80|96:35,1,73.0799977697755,2|2,0:0|0:0,0:0:0:0:
250,233,138704,5,4,3:2:0:0:
104,350,138854,2,0,P|146:294|192:297,1,116.579994485504,0|8,3:2|0:0,0:0:0:0:
341,185,139154,5,0,3:2:0:0:
350,195,139229,1,0,3:2:0:0:
357,203,139304,2,0,L|339:280,1,58.2899972427522,2|0,3:2|0:0,0:0:0:0:
257,138,139454,1,0,3:2:0:0:
249,111,139529,1,0,3:2:0:0:
272,89,139604,1,8,0:0:0:0:
351,75,139754,1,2,3:2:0:0:
187,295,139904,5,2,3:2:0:0:
84,213,140054,6,0,B|73:192|52:185|52:185|85:188|112:230,1,93.0899971591187,8|0,0:0|0:0,0:0:0:0:
187,295,140204,1,0,3:2:0:0:
68,360,140354,6,0,B|47:366|33:380|33:380|42:356|91:338,1,93.0899971591187,8|0,0:0|0:0,0:0:0:0:
187,295,140504,1,0,3:2:0:0:
264,319,140654,6,0,L|341:345,1,58.2899972427522,8|0,0:0|0:0,0:0:0:0:
389,359,140804,1,0,3:2:0:0:
187,295,140954,1,8,0:0:0:0:
376,219,141104,6,0,P|365:249|357:295,1,58.2899972427522,2|0,3:2|0:0,0:0:0:0:
319,337,141254,2,0,P|329:306|338:261,1,58.2899972427522,0|0,3:2|0:0,0:0:0:0:
251,45,141404,6,0,P|243:82|227:125,1,75.6900006352158,8|0,0:0|0:0,0:0:0:0:
230,196,141554,2,0,P|238:159|254:116,1,75.6900006352158,0|0,3:2|0:0,0:0:0:0:
400,0,141704,6,0,P|461:37|453:109,1,151.380001270432,2|0,3:2|3:2,0:0:0:0:
512,161,141929,1,0,3:2:0:0:
512,161,142004,2,0,P|479:181|431:183,1,75.6900006352158,8|0,0:0|0:0,0:0:0:0:
376,219,142154,2,0,P|341:207|311:172,1,75.6900006352158,2|0,0:0|0:0,0:0:0:0:
171,59,142304,5,4,3:2:0:0:
115,111,142454,2,0,B|101:125|86:131|86:131|118:128|134:108,1,75.6900006352158,8|0,0:0|0:0,0:0:0:0:
171,59,142604,1,0,3:2:0:0:
107,14,142754,6,0,B|93:-2|71:1|71:1|94:5|119:36,1,75.6900006352158,8|0,0:0|0:0,0:0:0:0:
171,59,142904,1,0,3:2:0:0:
294,165,143054,5,8,0:0:0:0:
276,173,143129,1,8,0:0:0:0:
263,180,143204,2,0,P|251:216|244:261,1,75.6900006352158,0|0,3:2|0:0,0:0:0:0:
108,368,143354,2,0,P|92:338|94:292,1,75.6900006352158,8|0,0:0|0:0,0:0:0:0:
34,220,143504,5,2,3:2:0:0:
91,205,143579,1,2,0:0:0:0:
145,223,143654,1,2,3:2:0:0:
171,281,143729,1,2,0:0:0:0:
193,337,143804,1,10,0:0:0:0:
243,366,143879,1,2,0:0:0:0:
304,360,143954,1,2,3:2:0:0:
342,302,144029,1,2,0:0:0:0:
320,238,144104,5,2,3:2:0:0:
264,237,144179,1,2,0:0:0:0:
232,267,144254,1,2,3:2:0:0:
227,286,144329,1,2,3:2:0:0:
230,296,144404,5,10,0:0:0:0:
241,298,144479,1,2,0:0:0:0:
263,278,144554,1,2,3:2:0:0:
270,226,144629,1,2,0:0:0:0:
238,192,144704,1,2,3:2:0:0:
92,297,144854,6,0,B|72:299|57:311|57:311|67:291|106:284,1,75.6900006352158,8|0,0:0|0:0,0:0:0:0:
238,192,145004,1,0,3:2:0:0:
142,49,145154,6,0,B|135:34|116:28|116:28|145:31|160:59,1,75.6900006352158,8|0,0:0|0:0,0:0:0:0:
238,192,145304,1,0,3:2:0:0:
198,212,145379,1,0,3:2:0:0:
155,211,145454,2,0,P|140:180|139:128,1,75.6900006352158,8|8,0:0|0:2,0:0:0:0:
297,0,145604,2,0,P|311:35|316:83,1,75.6900006352158,0|0,3:2|3:2,0:0:0:0:
384,113,145754,2,0,P|380:153|358:191,1,75.6900006352158,8|0,0:0|0:0,0:0:0:0:
467,321,145904,5,2,3:2:0:0:
459,328,145979,1,2,0:0:0:0:
444,332,146054,1,2,3:2:0:0:
430,327,146129,1,2,0:0:0:0:
419,318,146204,5,10,0:0:0:0:
405,350,146279,1,2,0:0:0:0:
371,370,146354,1,2,3:2:0:0:
329,360,146429,1,2,0:0:0:0:
306,315,146504,5,2,3:2:0:0:
256,347,146579,1,2,0:0:0:0:
202,331,146654,1,2,3:2:0:0:
189,277,146729,1,2,3:2:0:0:
225,230,146804,1,10,0:0:0:0:
256,174,146879,1,2,0:0:0:0:
216,118,146954,1,2,3:2:0:0:
149,124,147029,1,2,0:0:0:0:
132,186,147104,1,0,3:2:0:0:
0,0,147254,6,0,P|23:29|57:44,1,75.6900006352158,8|0,0:0|0:0,0:0:0:0:
132,186,147404,1,0,3:2:0:0:
330,18,147554,6,0,P|298:37|275:80,1,75.6900006352158,8|0,0:0|0:0,0:0:0:0:
132,186,147704,1,2,3:2:0:0:
153,230,147779,1,2,0:0:0:0:
197,247,147854,1,10,0:0:0:0:
242,228,147929,1,10,0:0:0:0:
306,187,148004,5,10,3:2:0:0:
380,190,148079,1,10,0:0:0:0:
429,246,148154,1,10,0:0:0:0:
408,313,148229,1,10,0:0:0:0:
338,334,148304,6,0,P|317:269|305:160,1,151.380001270432,4|0,3:2|0:0,0:0:0:0:
133,61,148604,6,0,P|77:74|69:141,1,116.579994485504,8|0,0:0|0:0,0:0:0:0:
14,181,148829,1,2,0:0:0:0:
14,181,148904,2,0,P|45:237|104:222,1,116.579994485504,2|0,3:2|0:0,0:0:0:0:
230,111,149204,6,0,L|425:73,1,174.869991728257,10|0,0:0|0:0,0:0:0:0:
491,39,149504,6,0,B|479:-1|433:1|433:1|486:29|483:96,1,174.869991728257,4|0,3:2|0:0,0:0:0:0:
439,143,149804,1,8,0:0:0:0:
311,54,149954,6,0,L|246:32,1,58.2899972427522,2|0,0:0|0:0,0:0:0:0:
90,233,150104,2,0,B|184:208|184:208|188:263|205:301,1,174.869991728257,2|0,3:2|0:0,0:0:0:0:
263,322,150404,1,8,0:0:0:0:
119,144,150554,5,2,0:0:0:0:
119,144,150629,1,8,0:0:0:0:
119,144,150704,6,0,L|102:76,1,58.2899972427522,2|0,3:2|0:0,0:0:0:0:
271,242,150854,1,0,3:2:0:0:
275,255,150929,1,0,3:2:0:0:
279,265,151004,2,0,L|262:324,1,58.2899972427522,8|0,0:2|0:2,3:2:0:0:
243,139,151154,5,0,3:2:0:0:
249,129,151229,1,0,3:2:0:0:
254,123,151304,2,0,L|318:109,1,58.2899972427522,8|0,0:0|0:0,0:0:0:0:
161,261,151454,5,0,3:2:0:0:
155,271,151529,1,0,3:2:0:0:
150,277,151604,2,0,L|86:291,1,58.2899972427522,8|0,0:0|0:0,0:0:0:0:
2,218,151754,6,0,L|67:203,1,58.2899972427522,2|0,3:2|0:0,0:0:0:0:
257,339,151904,1,2,3:2:0:0:
402,236,152054,6,0,B|413:219|429:211|429:211|397:212|382:243,1,75.6900006352158,8|0,0:0|0:0,0:0:0:0:
257,339,152204,1,0,3:2:0:0:
167,176,152354,6,0,B|165:162|152:149|152:149|176:154|181:197,1,75.6900006352158,8|0,0:0|0:0,0:0:0:0:
257,339,152504,1,2,3:2:0:0:
316,293,152654,5,8,0:0:0:0:
281,253,152729,1,8,0:0:0:0:
225,263,152804,1,0,3:2:0:0:
257,339,152954,1,8,0:0:0:0:
402,236,153104,6,0,P|411:201|420:152,1,73.0799977697755,4|0,3:2|0:0,0:0:0:0:
151,287,153404,2,0,P|142:322|133:371,1,73.0799977697755,0|0,3:2|0:0,0:0:0:0:
66,163,153704,6,0,P|77:131|85:85,1,73.0799977697755,2|0,3:2|0:0,0:0:0:0:
274,268,154004,2,0,P|263:302|256:343,1,73.0799977697755,0|0,3:2|0:0,0:0:0:0:
205,152,154304,5,2,3:2:0:0:
280,131,154454,1,2,0:0:0:0:
213,166,154604,1,0,3:2:0:0:
270,116,154754,1,2,0:0:0:0:
189,68,154904,5,2,3:2:0:0:
327,209,155054,1,2,0:0:0:0:
327,209,155129,1,2,0:0:0:0:
327,209,155204,1,0,3:2:0:0:
194,276,155354,1,2,0:0:0:0:
327,209,155504,6,0,L|411:238,1,73.0799977697755,2|0,3:2|0:0,0:0:0:0:
465,258,155804,1,0,3:2:0:0:
391,141,155954,5,2,0:0:0:0:
391,141,156029,1,2,0:0:0:0:
391,141,156104,2,0,P|396:111|414:60,1,73.0799977697755,0|2,3:2|0:0,0:0:0:0:
471,29,156329,1,2,0:0:0:0:
471,29,156404,1,8,0:0:0:0:
270,116,156554,1,8,0:0:0:0:
143,10,156704,6,0,P|174:17|203:85,1,100.920000846954,4|0,3:2|0:0,0:0:0:0:
304,213,156904,1,2,0:1:0:0:
246,264,157004,2,0,P|215:230|230:166,1,100.920000846954,8|0,0:0|0:0,0:0:0:0:
368,95,157204,1,2,0:1:0:0:
421,153,157304,6,0,P|411:190|402:241,1,75.6900006352158,2|0,3:2|0:0,0:0:0:0:
285,73,157454,2,0,P|296:38|305:-14,1,75.6900006352158,2|0,3:2|0:0,0:0:0:0:
153,135,157604,6,0,L|70:157,1,75.6900006352158,10|0,0:0|0:0,0:0:0:0:
20,205,157754,2,0,B|-1:178|-1:178|6:125,1,75.6900006352158,6|0,3:2|0:0,0:0:0:0:
