osu file format v14

[General]
AudioFilename: audio.mp3
AudioLeadIn: 0
PreviewTime: 80421
Countdown: 0
SampleSet: Soft
StackLeniency: 0.9
Mode: 0
LetterboxInBreaks: 0
WidescreenStoryboard: 1

[Editor]
DistanceSpacing: 0.4
BeatDivisor: 4
GridSize: 16
TimelineZoom: 1.8

[Metadata]
Title:Daemonisch
TitleUnicode:デモーニッシュ
Artist:TUYU
ArtistUnicode:ツユ
Creator:Keqing
Version:Woood's Insane
Source:
Tags:devilish dämonisch demonish bongo guanineso stratos iljaaz -aqua captin1 ajisai- Woood13 SnowNiNo_ frozz -Keqing kazato asa shikibe mayu shizuku- pusu ぷす omutatsu おむたつ jpop j-pop japanese pop female vocals
BeatmapID:2970445
BeatmapSetID:1443294

[Difficulty]
HPDrainRate:5
CircleSize:4.1
OverallDifficulty:8.5
ApproachRate:9
SliderMultiplier:1.74
SliderTickRate:1

[Events]
//Background and Video events
0,0,"tuyu.png",0,0
Video,-54,"aa.mp4"
//Break Periods
//Storyboard Layer 0 (Background)
//Storyboard Layer 1 (Fail)
//Storyboard Layer 2 (Pass)
//Storyboard Layer 3 (Foreground)
//Storyboard Layer 4 (Overlay)
//Storyboard Sound Samples

[TimingPoints]
850,428.571428571429,4,2,4,50,1,0
850,-125,4,2,4,50,0,0
4278,333.333333333333,4,2,4,65,1,0
4278,-111.111111111111,4,2,4,65,0,0
14944,-111.111111111111,4,2,4,75,0,0
26277,300,4,2,4,90,1,0
26277,-90.9090909090909,4,2,4,90,0,0
30777,-90.9090909090909,4,2,4,90,0,0
31077,-111.111111111111,4,2,4,90,0,0
31377,-90.9090909090909,4,2,4,90,0,0
31677,-111.111111111111,4,2,4,90,0,0
32277,-90.9090909090909,4,2,4,90,0,0
37077,-83.3333333333333,4,2,4,90,0,0
37377,-142.857142857143,4,2,4,90,0,0
37752,-142.857142857143,4,2,4,5,0,0
37827,-238.095238095238,4,2,4,90,0,0
38202,-238.095238095238,4,2,4,5,0,0
38277,-83.3333333333333,4,2,4,90,0,0
41802,-83.3333333333333,4,2,4,5,0,0
41877,-66.6666666666667,4,2,4,90,0,1
42102,-66.6666666666667,4,2,4,5,0,1
42177,-66.6666666666667,4,2,4,90,0,1
42402,-66.6666666666667,4,2,4,5,0,1
42477,-66.6666666666667,4,2,4,90,0,1
43077,-100,4,2,4,90,0,0
47877,-333.333333333333,4,2,4,90,0,0
48252,-333.333333333333,4,2,4,5,0,0
48327,-333.333333333333,4,2,4,90,0,0
48477,-200,4,2,4,90,0,0
49002,-200,4,2,4,5,0,0
49077,-200,4,2,4,90,0,0
49527,-125,4,2,4,90,0,0
50277,-100,4,2,4,90,0,1
55077,428.571428571429,4,2,4,90,1,0
55077,-125,4,2,4,90,0,0
55934,-125,4,2,4,50,0,0
58505,333.333333333333,4,2,4,65,1,0
58505,-111.111111111111,4,2,4,65,0,0
66504,-99.9999999999999,4,2,4,65,0,0
69171,-111.111111111111,4,2,4,75,0,0
80504,300,4,2,4,90,1,0
80504,-90.9090909090909,4,2,4,90,0,0
85004,-90.9090909090909,4,2,4,90,0,0
85304,-111.111111111111,4,2,4,90,0,0
85604,-90.9090909090909,4,2,4,90,0,0
85904,-111.111111111111,4,2,4,90,0,0
86204,-90.9090909090909,4,2,4,90,0,0
91604,-200,4,2,4,90,0,0
92054,-238.095238095238,4,2,4,90,0,0
92504,-83.3333333333333,4,2,4,90,0,0
96028,-83.3333333333333,4,2,4,5,0,0
96104,-71.4285714285714,4,2,4,90,0,1
96328,-71.4285714285714,4,2,4,5,0,1
96403,-71.4285714285714,4,2,4,90,0,1
96628,-71.4285714285714,4,2,4,5,0,1
96703,-71.4285714285714,4,2,4,90,0,1
97304,-100,4,2,4,75,0,0
98504,-100,4,2,4,75,0,0
102104,-333.333333333333,4,2,4,75,0,0
102704,-200,4,2,4,75,0,0
103229,-200,4,2,4,5,0,0
103304,-200,4,2,4,75,0,0
103754,-125,4,2,4,75,0,0
104504,-100,4,2,4,75,0,0
109304,-95.2380952380952,4,2,4,90,0,0
112304,-95.2380952380952,4,2,4,90,0,1
112454,-95.2380952380952,4,2,4,5,0,1
112529,-95.2380952380952,4,2,4,90,0,1
112679,-95.2380952380952,4,2,4,5,0,1
112754,-95.2380952380952,4,2,4,90,0,1
112829,-95.2380952380952,4,2,4,5,0,1
112904,-95.2380952380952,4,2,4,90,0,1
113054,-95.2380952380952,4,2,4,5,0,1
113129,-95.2380952380952,4,2,4,90,0,1
113279,-95.2380952380952,4,2,4,5,0,1
113354,-95.2380952380952,4,2,4,90,0,1
113429,-95.2380952380952,4,2,4,5,0,1
113504,-95.2380952380952,4,2,4,90,0,1
113654,-95.2380952380952,4,2,4,5,0,1
113729,-95.2380952380952,4,2,4,90,0,1
113879,-95.2380952380952,4,2,4,5,0,1
113954,-250,4,2,4,90,0,1
114029,-250,4,2,4,5,0,0
114104,-250,4,2,4,80,0,0
114329,-250,4,2,4,80,0,0
114704,300,4,2,4,60,1,0
114704,-166.666666666667,4,2,4,60,0,0
119504,-100,4,2,4,75,0,0
121904,-111.111111111111,4,2,4,75,0,0
126704,-90.9090909090909,4,2,4,90,0,0
130229,-90.9090909090909,4,2,4,5,0,0
130304,-90.9090909090909,4,2,4,90,0,1
130604,-90.9090909090909,4,2,4,90,0,1
130904,-90.9090909090909,4,2,4,90,0,1
131504,-117.647058823529,4,2,4,90,0,0
135104,-100,4,2,4,90,0,0
136304,-142.857142857143,4,2,4,90,0,0
137504,-83.3333333333334,4,2,4,90,0,0
138404,-161.290322580645,4,2,4,90,0,0
138704,-83.3333333333334,4,2,4,90,0,1
143504,-83.3333333333334,4,2,4,90,0,0
144404,-111.111111111111,4,2,4,90,0,0
144704,-83.3333333333334,4,2,4,90,0,0
148304,-90.9090909090909,4,2,4,90,0,1
153104,-111.111111111111,4,2,4,75,0,0
156704,-80,4,2,4,90,0,0
157004,-111.111111111111,4,2,4,90,0,0
157154,-100,4,2,4,90,0,0
157304,-90.9090909090909,4,2,4,90,0,0
157454,-83.3333333333333,4,2,4,90,0,0
157604,-74.0740740740741,4,2,4,90,0,1
157679,-74.0740740740741,4,2,4,90,0,0
157754,-74.0740740740741,4,2,4,90,0,1
157829,-74.0740740740741,4,2,4,90,0,0

[Colours]
Combo1 : 192,192,192
Combo2 : 255,0,0
Combo3 : 255,140,140
Combo4 : 192,255,255

[HitObjects]
323,351,850,6,0,P|374:341|467:329,2,139.2,2|0|2,0:0|0:0|0:0,0:0:0:0:
261,317,1921,1,2,0:0:0:0:
320,236,2135,2,0,P|324:203|335:154,1,69.6,2|0,0:0|0:0,0:0:0:0:
259,54,2564,6,0,P|196:58|162:124,1,139.2,2|2,0:0|0:0,0:0:0:0:
205,273,3207,1,2,0:0:0:0:
249,207,3421,2,0,P|214:204|174:195,1,69.6,2|0,0:0|0:0,0:0:0:0:
88,294,3850,1,2,0:0:0:0:
180,196,4064,1,2,0:0:0:0:
68,99,4278,6,0,P|79:135|85:174,1,78.2999976104737,2|0,3:2|0:0,0:0:0:0:
180,196,4611,2,0,P|169:160|162:120,1,78.2999976104737,2|0,3:2|0:0,0:0:0:0:
233,45,4944,1,2,3:2:0:0:
161,0,5111,1,2,0:0:0:0:
233,45,5277,2,0,P|278:53|318:64,1,78.2999976104737,0|2,3:2|0:0,0:0:0:0:
423,163,5611,5,0,3:2:0:0:
471,99,5778,2,0,P|471:58|420:22,1,78.2999976104737,2|2,0:0|3:2,0:0:0:0:
331,131,6111,1,2,0:0:0:0:
309,61,6278,5,2,3:2:0:0:
423,163,6444,2,0,P|412:208|407:258,1,78.2999976104737,2|0,0:0|3:2,0:0:0:0:
300,299,6777,1,2,0:0:0:0:
300,299,6944,6,0,P|311:254|316:204,1,78.2999976104737,2|0,3:2|2:0,0:0:0:0:
217,142,7277,2,0,P|153:139|117:237,2,156.599995220947,2|0|0,3:2|3:2|3:2,0:0:0:0:
315,222,8111,1,2,0:0:0:0:
203,308,8277,6,0,P|211:271|216:222,1,78.2999976104737,2|0,3:2|0:0,0:0:0:0:
328,144,8611,1,2,3:2:0:0:
250,62,8777,1,0,0:0:0:0:
328,144,8944,2,0,P|369:155|438:175,1,78.2999976104737,2|2,3:2|0:0,0:0:0:0:
315,222,9277,1,0,3:2:0:0:
418,161,9444,1,2,0:0:0:0:
418,161,9611,6,0,P|471:206|451:288,1,156.599995220947,2|2,3:2|3:2,0:0:0:0:
328,144,10111,1,2,0:0:0:0:
399,70,10277,2,0,P|442:81|490:85,1,78.2999976104737,0|2,3:2|0:0,0:0:0:0:
418,161,10611,1,0,3:2:0:0:
318,44,10777,6,0,P|263:39|217:94,1,117.449996415711,2|0,0:0|0:0,0:0:0:0:
220,79,11111,1,0,0:2:0:0:
112,197,11277,1,2,3:2:0:0:
193,223,11444,6,0,P|183:189|172:136,1,78.2999976104737,2|0,0:0|3:2,0:0:0:0:
66,80,11777,1,2,0:0:0:0:
116,18,11944,1,0,3:2:0:0:
66,80,12111,1,2,0:0:0:0:
194,0,12277,6,0,B|236:18|315:30,1,117.449996415711,2|0,3:2|0:0,0:0:0:0:
307,28,12611,1,8,0:2:0:0:
402,154,12777,2,0,P|408:124|424:69,1,78.2999976104737,0|0,3:2|0:0,0:0:0:0:
296,229,13111,1,0,3:2:0:0:
210,99,13277,1,8,0:0:0:0:
210,99,13611,6,0,B|164:109|164:109|186:207,1,117.449996415711,2|0,3:2|3:2,0:0:0:0:
179,177,13944,5,10,0:2:0:0:
255,296,14111,1,2,3:2:0:0:
296,229,14277,5,8,0:0:0:0:
145,336,14444,1,0,3:2:0:0:
111,266,14611,6,0,P|151:257|193:276,1,78.2999976104737,8|0,0:0|3:2,0:0:0:0:
331,361,14861,1,0,3:2:0:0:
331,361,14944,6,0,P|259:326|267:261,1,117.449996415711,6|0,3:2|0:0,0:0:0:0:
296,229,15277,6,0,P|332:217|382:210,1,78.2999976104737,2|0,3:2|0:0,0:0:0:0:
511,172,15611,1,2,3:2:0:0:
471,242,15778,1,2,0:0:0:0:
416,137,15944,2,0,P|380:130|325:113,1,78.2999976104737,0|2,3:2|0:0,0:0:0:0:
296,229,16277,5,2,3:2:0:0:
198,136,16444,2,0,P|237:133|274:160,1,78.2999976104737,0|2,0:0|3:2,0:0:0:0:
188,270,16777,1,2,0:0:0:0:
127,218,16944,1,2,3:2:0:0:
81,282,17111,2,0,P|37:290|-3:303,1,78.2999976104737,2|2,0:0|3:2,0:0:0:0:
118,140,17444,1,2,0:0:0:0:
118,140,17610,6,0,P|121:181|134:252,1,78.2999976104737,2|0,3:2|0:0,0:2:0:0:
25,85,17944,2,0,P|50:41|163:49,2,156.599995220947,2|0|0,3:2|3:2|3:2,0:0:0:0:
118,140,18777,1,2,0:2:0:0:
234,85,18944,6,0,P|228:47|220:-4,1,78.2999976104737,2|0,3:2|0:0,0:0:0:0:
319,63,19277,1,2,3:2:0:0:
237,167,19444,1,2,0:0:0:0:
237,167,19527,1,2,0:2:0:0:
237,167,19611,2,0,P|243:129|251:78,1,78.2999976104737,0|2,3:2|0:0,0:0:0:0:
368,232,19944,1,0,3:2:0:0:
413,171,20110,1,2,0:0:0:0:
292,277,20277,6,0,B|249:271|249:271|197:239|197:239|138:229,1,156.599995220947,4|0,3:2|3:2,0:0:0:0:
1,164,20777,1,2,0:0:0:0:
71,110,20944,2,0,P|75:147|90:203,1,78.2999976104737,0|2,3:2|0:0,0:0:0:0:
38,354,21277,1,0,3:2:0:0:
0,281,21443,6,0,P|60:271|106:312,1,117.449996415711,2|0,0:2|0:0,0:0:0:0:
101,303,21777,1,2,0:2:0:0:
162,375,21943,1,0,3:2:0:0:
234,322,22111,2,0,P|225:288|213:231,1,78.2999976104737,2|2,0:0|3:2,0:0:0:0:
309,162,22443,1,2,3:2:0:0:
309,162,22527,1,0,3:0:0:0:
309,162,22611,1,2,3:2:0:0:
197,93,22777,1,2,0:0:0:0:
309,162,22944,6,0,B|376:143|360:177|429:155,1,117.449996415711,4|0,3:2|0:0,0:0:0:0:
424,156,23277,1,8,0:0:0:0:
512,286,23444,2,0,P|493:242|473:208,1,78.2999976104737,0|0,3:2|0:0,0:0:0:0:
424,156,23777,1,0,3:2:0:0:
499,68,23944,1,8,0:0:0:0:
361,331,24277,6,0,B|317:327|317:327|294:311|294:311|249:305,1,117.449996415711,4|0,3:2|0:0,0:0:0:0:
249,305,24610,5,8,0:0:0:0:
162,168,24777,1,0,3:2:0:0:
137,239,24943,5,8,0:0:0:0:
255,130,25111,1,2,3:2:0:0:
291,196,25277,6,0,P|268:202|248:207,1,39.1499988052369,10|0,0:0|0:0,0:0:0:0:
149,93,25444,2,0,P|126:99|106:104,1,39.1499988052369,2|0,3:2|0:0,0:0:0:0:
59,344,26277,6,0,B|113:354|143:318|143:318|147:311|147:311|184:272|232:290,1,191.400005841065,4|8,3:2|0:0,0:0:0:0:
336,380,26727,1,2,0:0:0:0:
401,338,26877,2,0,L|419:240,1,95.7000029205323,2|0,3:2|0:0,0:0:0:0:
281,142,27177,1,10,0:0:0:0:
330,232,27327,1,2,0:0:0:0:
381,115,27477,6,0,B|426:105|426:105|431:105|431:105|482:95,1,95.7000029205323,6|0,3:2|0:0,0:0:0:0:
223,254,27777,2,0,P|179:202|226:117,1,143.550004380798,10|2,0:2|0:0,0:0:0:0:
204,141,28077,2,0,B|190:194|136:199,1,95.7000029205323,2|0,3:2|0:0,0:0:0:0:
13,102,28377,1,8,0:2:0:0:
136,198,28527,1,2,0:0:0:0:
63,271,28677,6,0,P|56:221|36:157,1,95.7000029205323,2|2,3:2|0:0,0:0:0:0:
152,79,28977,1,10,0:0:0:0:
42,4,29127,1,2,0:0:0:0:
152,79,29277,2,0,P|195:81|241:125,1,95.7000029205323,2|2,3:2|0:0,0:0:0:0:
423,61,29577,1,8,0:0:0:0:
352,3,29727,6,0,P|348:73|340:151,1,143.550004380798,2|0,0:0|0:0,0:0:0:0:
340,145,30027,1,2,0:0:0:0:
450,266,30177,1,10,0:0:0:0:
477,186,30327,1,2,0:0:0:0:
355,282,30477,2,0,B|309:264|309:264|288:230|288:230|221:202,1,143.550004380798,2|0,3:2|0:0,0:0:0:0:
182,149,30777,6,0,P|132:189|178:282,1,143.550004380798,12|0,0:0|0:0,0:0:0:0:
166,328,31077,2,0,P|173:292|137:249,1,78.2999976104737,2|0,3:2|0:0,0:0:0:0:
334,31,31377,6,0,P|384:71|338:164,1,143.550004380798,12|0,0:0|0:0,0:0:0:0:
350,210,31677,2,0,P|343:174|379:131,1,78.2999976104737,2|0,3:2|0:0,0:0:0:0:
232,77,31977,1,10,0:0:0:0:
182,149,32127,1,0,0:0:0:0:
26,56,32277,6,0,B|70:62|92:26|80:18|108:-6|149:2,1,143.550004380798,2|2,3:2|0:0,0:0:0:0:
157,10,32577,2,0,P|117:40|109:102,1,95.7000029205323,10|0,0:2|0:0,0:0:0:0:
206,248,32877,1,0,3:2:0:0:
135,210,33027,1,0,0:0:0:0:
182,149,33177,1,12,0:0:0:0:
422,331,33477,6,0,P|364:272|290:287,1,143.550004380798,2|0,3:2|0:0,0:0:0:0:
308,276,33777,1,10,0:0:0:0:
182,149,33927,1,2,0:0:0:0:
265,74,34077,6,0,B|270:128|283:167,1,95.7000029205323,2|2,3:2|0:0,0:0:0:0:
243,320,34377,1,10,0:0:0:0:
206,248,34527,1,2,0:0:0:0:
102,340,34677,6,0,B|67:360|46:328|46:328|62:225|62:225,1,143.550004380798,0|0,3:2|0:0,0:0:0:0:
55,244,34977,1,8,0:0:0:0:
106,84,35127,1,2,0:0:0:0:
42,131,35277,1,2,3:2:0:0:
126,216,35427,1,2,0:0:0:0:
193,92,35577,6,0,B|236:99|261:68|259:66|254:63|281:37|329:43,1,143.550004380798,12|0,0:0|0:0,0:0:0:0:
329,48,35877,6,0,P|344:99|352:161,1,95.7000029205323,2|0,3:2|0:0,0:0:0:0:
474,237,36177,1,10,0:0:0:0:
411,276,36327,5,0,0:0:0:0:
497,144,36477,2,0,P|482:189|474:236,1,95.7000029205323,2|0,3:2|0:0,0:0:0:0:
336,372,36777,2,0,P|327:324|311:279,1,95.7000029205323,10|0,0:0|0:0,0:0:0:0:
350,140,37077,6,0,B|328:146|305:146|305:146|252:182|252:182|230:180|175:194,1,156.599995220947,4|0,3:2|0:0,0:0:0:0:
111,257,37377,2,0,B|131:221|127:183|127:183|131:221|166:249,1,152.249995353699,4|0,3:2|0:0,0:0:0:0:
137,322,37827,6,0,P|100:294|52:321,1,91.3499972122193,2|0,0:0|0:0,0:0:0:0:
0,384,38277,6,0,P|52:365|62:310,1,104.399996813965,4|0,3:2|3:2,0:0:0:0:
127,118,38577,1,10,0:0:0:0:
57,178,38727,1,2,3:2:0:0:
164,248,38877,2,0,B|222:237|222:237|248:213|248:213|313:202,1,156.599995220947,2|0,3:2|3:2,0:0:0:0:
314,196,39177,1,10,0:0:0:0:
418,276,39327,6,0,P|401:227|457:173,1,104.399996813965,0|6,3:2|3:2,0:0:0:0:
496,123,39627,1,8,0:0:0:0:
512,138,39702,1,0,3:2:0:0:
507,157,39777,1,0,3:2:0:0:
375,77,39927,1,8,0:0:0:0:
449,15,40077,1,0,3:2:0:0:
314,196,40227,6,0,P|308:174|301:137,1,52.1999984069825,8|8,0:0|0:0,0:0:0:0:
264,79,40377,1,2,3:2:0:0:
425,184,40527,1,10,0:0:0:0:
294,280,40677,6,0,P|228:262|135:246,1,156.599995220947,2|0,3:2|0:0,0:0:0:0:
132,253,40977,2,0,P|101:215|116:151,1,104.399996813965,8|2,0:0|3:2,0:0:0:0:
264,79,41277,1,2,3:2:0:0:
174,10,41427,1,0,3:2:0:0:
264,79,41577,1,8,0:0:0:0:
395,256,41877,6,0,B|429:233|470:248|470:248|406:187|317:277,1,195.75000746727,4|0,3:2|0:0,0:0:0:0:
294,280,42177,1,4,3:2:0:0:
225,154,42327,2,0,P|230:127|237:84,1,65.2500024890901,8|0,0:2|0:0,0:0:0:0:
149,217,42477,2,0,P|225:198|291:305,1,195.75000746727,4|8,3:2|0:2,0:0:0:0:
241,333,42777,1,8,0:0:0:0:
149,217,42927,1,8,0:0:0:0:
149,217,43077,6,0,P|190:235|240:217,1,87,6|0,3:2|0:0,0:0:0:0:
386,149,43377,1,2,3:2:0:0:
350,211,43527,1,2,0:0:0:0:
292,107,43677,1,2,3:2:0:0:
292,107,43827,2,0,P|253:104|199:90,1,87,2|0,0:0|3:2,0:0:0:0:
83,183,44127,1,2,0:0:0:0:
154,32,44277,6,0,L|173:163,1,130.5,2|0,3:2|0:0,0:0:0:0:
168,167,44577,2,0,P|124:171|79:185,1,87,0|2,3:2|0:0,0:0:0:0:
138,292,44877,2,0,P|182:296|227:310,1,87,2|0,3:2|0:0,0:0:0:0:
363,184,45177,1,2,3:2:0:0:
308,127,45327,1,2,0:0:0:0:
308,127,45477,6,0,P|249:200|318:271,2,174,2|2|0,3:2|3:2|3:2,0:0:0:0:
362,69,46227,1,0,0:0:0:0:
446,167,46377,1,8,0:0:0:0:
446,167,46677,5,0,3:2:0:0:
512,118,46827,1,0,0:0:0:0:
451,56,46977,2,0,P|442:96|427:178,1,87,8|0,0:0|0:0,0:0:0:0:
283,258,47277,1,0,3:2:0:0:
321,189,47427,5,0,3:2:0:0:
444,335,47577,2,0,P|407:301|359:306,1,87,8|2,0:0|0:0,0:0:0:0:
323,354,47802,1,2,0:0:0:0:
323,354,47877,6,0,L|253:344,1,65.2499980087281,2|0,0:0|0:0,0:0:0:0:
258,344,48327,1,0,0:0:0:0:
199,288,48477,6,0,B|149:304|149:304|124:333|124:333|59:351,1,152.25,2|0,0:0|0:0,0:0:0:0:
65,350,49077,5,0,3:2:0:0:
127,133,49527,2,0,B|154:159|154:159|138:204,1,69.6,2|0,0:0|0:0,0:0:0:0:
61,274,49827,1,2,0:0:0:0:
4,216,49977,1,2,0:0:0:0:
4,216,50277,6,0,P|6:191|10:154,3,43.5,2|0|0|0,3:2|0:0|3:2|3:2,0:0:0:0:
51,117,50577,1,2,3:2:0:0:
143,189,50727,1,0,3:2:0:0:
144,193,50802,1,0,3:2:0:0:
146,197,50877,2,0,L|237:175,1,87,2|2,3:2|3:2,0:0:0:0:
333,87,51177,1,2,3:2:0:0:
329,79,51252,1,0,3:2:0:0:
323,75,51327,1,2,3:2:0:0:
316,73,51402,1,2,3:2:0:0:
310,74,51477,6,0,B|288:153|336:113|316:207,1,130.5,2|0,3:2|3:2,0:0:0:0:
322,208,51777,2,0,P|345:213|403:227,3,43.5,2|0|2|2,3:2|0:0|3:2|0:0,0:0:0:0:
416,278,52077,6,0,P|442:310|417:366,1,87,2|2,3:1|0:0,0:0:0:0:
362,367,52302,2,0,P|336:335|361:279,1,87,2|2,3:1|0:0,0:0:0:0:
416,278,52527,2,0,P|441:270|489:261,1,43.5,2|0,3:1|0:0,0:0:0:0:
510,181,52677,6,0,B|517:160|517:160|503:143,3,43.5,6|0|0|0,3:2|3:2|3:2|3:2,0:0:0:0:
440,106,52977,1,2,3:2:0:0:
501,5,53127,1,0,3:2:0:0:
502,10,53202,1,0,3:2:0:0:
503,15,53277,2,0,L|389:37,1,87,2|0,3:2|3:2,0:0:0:0:
310,74,53577,1,2,3:2:0:0:
307,67,53652,1,0,3:2:0:0:
305,61,53727,1,0,3:2:0:0:
303,56,53802,1,0,3:2:0:0:
301,51,53877,6,0,P|234:37|190:93,1,130.5,2|0,3:2|3:2,0:0:0:0:
149,139,54177,1,2,3:2:0:0:
149,139,54252,1,0,0:0:0:0:
149,139,54327,2,0,P|152:163|159:200,1,43.5,0|0,3:2|3:2,0:0:0:0:
69,313,54627,6,0,B|62:292|62:292|74:275,1,43.5,8|0,0:0|0:0,0:0:0:0:
145,291,54777,2,0,B|152:312|152:312|139:328,1,43.5,8|0,0:0|0:0,0:0:0:0:
252,243,55077,6,0,P|320:232|363:293,1,139.2,4|0,3:2|0:0,0:0:0:0:
438,348,55719,1,0,0:0:0:0:
438,348,55934,2,0,L|454:266,1,69.6,2|0,3:2|0:0,0:0:0:0:
504,227,56362,2,0,L|479:101,1,104.4
483,124,56791,6,0,P|416:108|371:173,2,139.2,2|2|2,3:2|3:2|3:2,0:0:0:0:
387,198,57862,2,0,P|383:182|377:144,1,34.8,2|0,3:2|0:0,0:0:0:0:
275,69,58077,6,0,P|303:118|263:171,1,104.4,10|0,0:0|0:0,0:0:0:0:
227,204,58505,6,0,B|204:188|183:198|183:198|200:202|215:217,1,78.2999976104737,6|0,3:2|0:0,0:0:0:0:
280,259,58838,2,0,B|302:244|323:254|323:254|307:258|291:273,1,78.2999976104737,2|0,3:2|0:0,0:0:0:0:
180,369,59171,1,2,3:2:0:0:
213,301,59338,1,2,0:0:0:0:
276,350,59505,2,0,L|374:371,1,78.2999976104737,0|2,3:2|0:0,0:0:0:0:
456,342,59838,5,2,3:2:0:0:
496,279,60005,2,0,P|496:238|445:202,1,78.2999976104737,0|2,0:0|3:2,0:0:0:0:
396,156,60338,1,0,0:0:0:0:
452,106,60505,1,2,3:2:0:0:
396,156,60671,2,0,P|358:148|284:138,1,78.2999976104737,2|0,0:0|3:2,0:0:0:0:
242,59,61005,1,2,0:0:0:0:
242,59,61171,6,0,P|204:66|130:77,1,78.2999976104737,2|2,3:2|0:0,0:0:0:0:
67,174,61505,2,0,B|97:180|126:186|126:186|152:214|152:214|181:219|209:224,2,156.599995220947,0|0|0,3:2|3:2|3:2,0:0:0:0:
2,234,62338,1,2,0:0:0:0:
80,330,62504,6,0,P|90:299|54:242,1,78.2999976104737,2|2,3:2|0:0,0:0:0:0:
149,160,62838,1,2,3:2:0:0:
208,224,63004,1,2,0:0:0:0:
208,224,63171,2,0,L|322:242,1,78.2999976104737,2|2,3:2|0:0,0:0:0:0:
382,351,63504,1,0,3:2:0:0:
410,281,63671,1,2,0:0:0:0:
410,281,63838,6,0,B|371:268|362:224|362:224|366:267|330:296,1,156.599995220947,2|2,3:2|3:2,0:0:0:0:
285,236,64338,1,2,0:0:0:0:
349,131,64504,2,0,P|385:129|419:157,1,78.2999976104737,0|2,3:2|0:0,0:0:0:0:
263,45,64838,1,0,3:2:0:0:
263,45,65004,6,0,B|256:89|256:89|266:113|266:113|255:187,1,117.449996415711,2|0,0:0|0:0,0:0:0:0:
259,159,65338,1,2,0:0:0:0:
154,273,65504,1,2,3:2:0:0:
142,198,65671,2,0,P|178:197|213:233,1,78.2999976104737,2|2,0:0|3:2,0:0:0:0:
303,335,66004,1,0,0:0:0:0:
346,274,66171,1,2,3:2:0:0:
285,236,66338,1,2,0:0:0:0:
333,130,66504,6,0,B|400:116|400:116|441:138|420:179,1,130.5,4|0,3:2|0:0,0:0:0:0:
425,166,66838,1,8,0:0:0:0:
499,236,67004,2,0,P|504:205|516:131,1,87,0|0,3:2|0:0,0:0:0:0:
387,231,67338,1,0,3:2:0:0:
494,327,67504,1,8,0:0:0:0:
494,327,67838,6,0,B|459:306|427:327|427:327|417:356|375:363,1,130.5,2|0,3:2|3:2,0:0:0:0:
382,361,68171,5,8,0:0:0:0:
257,282,68338,1,0,3:2:0:0:
237,352,68504,5,8,0:0:0:0:
364,249,68671,1,0,3:2:0:0:
305,205,68838,6,0,B|264:189|264:189|228:215,1,87,8|0,0:0|3:2,0:0:0:0:
229,214,69088,1,0,3:2:0:0:
229,214,69171,6,0,P|150:210|132:147,1,117.449996415711,4|0,3:2|0:0,0:0:0:0:
122,176,69504,6,0,P|113:143|142:93,1,78.2999976104737,2|2,3:2|0:0,0:0:0:0:
254,12,69838,1,2,3:2:0:0:
184,47,70005,1,2,0:0:0:0:
262,111,70171,2,0,L|353:133,1,78.2999976104737,0|2,3:2|0:2,0:0:0:0:
466,261,70504,5,0,3:2:0:0:
487,187,70671,2,0,P|445:184|408:209,1,78.2999976104737,2|2,0:0|3:2,0:0:0:0:
367,364,71004,1,2,0:0:0:0:
425,320,71171,1,2,3:2:0:0:
361,273,71338,2,0,P|327:270|249:255,1,78.2999976104737,2|0,0:0|3:2,0:0:0:0:
209,343,71671,1,2,0:0:0:0:
209,343,71837,6,0,P|168:347|97:361,1,78.2999976104737,2|0,3:2|0:0,0:0:0:0:
54,274,72171,2,0,P|36:201|111:152,2,156.599995220947,2|0|0,3:2|3:0|3:0,0:0:0:0:
131,353,73004,1,2,0:0:0:0:
202,242,73171,6,0,P|200:207|188:153,1,78.2999976104737,2|2,3:2|0:0,0:0:0:0:
297,32,73504,1,2,3:2:0:0:
321,112,73671,1,2,0:0:0:0:
321,112,73754,1,2,0:0:0:0:
321,112,73838,6,0,P|280:115|234:70,1,78.2999976104737,2|2,3:2|0:0,0:0:0:0:
396,0,74170,1,0,3:2:0:0:
447,58,74337,1,2,0:0:0:0:
365,178,74504,6,0,B|424:167|424:167|456:144|456:144|519:135,1,156.599995220947,4|2,3:2|3:2,0:0:0:0:
437,274,75004,1,2,0:0:0:0:
512,298,75171,2,0,P|516:259|497:226,1,78.2999976104737,2|2,3:2|0:0,0:0:0:0:
433,360,75504,1,0,3:2:0:0:
394,294,75670,6,0,B|384:278|361:269|361:269|466:275,1,117.449996415711,2|0,0:0|0:0,0:0:0:0:
437,274,76004,1,2,0:0:0:0:
315,184,76170,1,2,3:2:0:0:
406,116,76338,2,0,P|399:154|393:193,1,78.2999976104737,2|2,0:0|3:2,0:0:0:0:
304,299,76670,1,2,3:2:0:0:
304,299,76754,1,0,3:0:0:0:
304,299,76838,1,2,3:2:0:0:
219,173,77004,1,2,0:0:0:0:
304,299,77171,6,0,P|237:309|186:330,1,117.449996415711,4|0,3:2|0:0,0:0:0:0:
191,327,77504,1,8,0:0:0:0:
66,274,77671,2,0,P|74:312|79:351,1,78.2999976104737,2|0,3:2|0:0,0:0:0:0:
167,237,78004,1,0,3:2:0:0:
76,188,78171,1,8,0:0:0:0:
76,188,78504,6,0,B|82:132|82:132|88:129|88:129|97:61,1,117.449996415711,4|0,3:2|3:2,0:0:0:0:
95,75,78837,5,8,0:0:0:0:
250,154,79004,1,0,3:2:0:0:
86,73,79170,5,8,0:0:0:0:
250,0,79337,1,2,3:2:0:0:
174,161,79504,6,0,P|171:142|167:115,1,39.1499988052369,10|0,0:0|0:0,0:0:0:0:
181,53,79671,2,0,P|178:34|174:7,1,39.1499988052369,2|0,3:2|3:2,0:0:0:0:
429,207,80504,6,0,B|461:227|491:223|491:223|354:252,1,191.400005841065,4|8,3:2|0:0,0:0:0:0:
239,159,80954,1,2,0:0:0:0:
297,98,81104,2,0,P|324:132|304:196,1,95.7000029205323,2|2,3:2|0:0,0:0:0:0:
196,352,81404,1,10,0:0:0:0:
149,282,81554,1,2,0:0:0:0:
288,380,81704,6,0,P|292:332|306:280,1,95.7000029205323,6|0,3:2|0:0,0:0:0:0:
213,173,82004,2,0,B|161:184|161:184|136:210|136:210|83:221,1,143.550004380798,10|2,0:2|0:0,0:0:0:0:
77,226,82304,2,0,P|45:193|48:135,1,95.7000029205323,2|0,3:2|0:0,0:0:0:0:
137,64,82604,1,8,0:0:0:0:
47,6,82754,1,2,0:2:0:0:
137,64,82904,6,0,P|182:53|231:44,1,95.7000029205323,2|2,3:2|0:0,0:0:0:0:
373,144,83204,1,10,0:0:0:0:
436,107,83354,1,2,0:0:0:0:
402,40,83504,2,0,P|357:51|295:61,1,95.7000029205323,2|0,3:2|0:0,0:0:0:0:
297,256,83804,1,10,0:0:0:0:
235,181,83954,6,0,P|306:159|378:144,1,143.550004380798,2|0,0:0|0:0,0:0:0:0:
374,145,84254,1,2,0:0:0:0:
485,274,84404,1,8,0:0:0:0:
502,203,84554,1,2,0:0:0:0:
398,326,84704,2,0,P|330:318|298:249,1,143.550004380798,2|0,3:2|0:0,0:0:0:0:
239,184,85004,6,0,P|229:252|217:361,1,143.550004380798,12|0,0:0|0:0,0:0:0:0:
220,326,85304,2,0,B|182:340|182:340|149:322,1,78.2999976104737,2|0,3:2|0:0,0:0:0:0:
0,131,85604,6,0,P|10:199|22:308,1,143.550004380798,12|0,0:0|0:0,0:0:0:0:
19,273,85904,2,0,B|57:287|57:287|90:269,1,78.2999976104737,2|0,3:2|0:0,0:0:0:0:
155,134,86204,1,12,0:0:0:0:
236,180,86354,1,0,0:0:0:0:
383,73,86504,6,0,P|333:18|260:52,1,143.550004380798,2|2,3:2|0:0,0:0:0:0:
224,85,86804,2,0,L|237:188,1,95.7000029205323,8|0,0:2|0:0,0:0:0:0:
359,306,87104,1,2,3:2:0:0:
406,250,87254,1,0,0:0:0:0:
344,204,87404,1,12,0:2:0:0:
206,352,87704,6,0,B|144:341|144:341|136:346|136:346|46:329,1,143.550004380798,0|0,3:2|0:0,0:0:0:0:
66,332,88004,1,8,0:0:0:0:
0,274,88154,1,2,0:0:0:0:
96,166,88304,2,0,P|102:212|114:259,1,95.7000029205323,0|2,3:2|0:0,0:0:0:0:
16,135,88604,1,8,0:0:0:0:
114,259,88754,1,2,0:0:0:0:
180,178,88904,6,0,B|225:168|225:168|264:131|264:131|319:115,1,143.550004380798,0|0,3:2|0:0,0:0:0:0:
368,78,89204,1,8,0:0:0:0:
473,150,89354,1,2,0:0:0:0:
368,78,89504,1,2,3:2:0:0:
456,11,89654,1,2,0:2:0:0:
399,189,89804,6,0,P|336:196|299:126,1,143.550004380798,14|0,0:0|0:0,0:0:0:0:
306,119,90104,6,0,P|317:171|271:226,1,95.7000029205323,2|0,3:2|0:0,0:0:0:0:
153,322,90404,1,8,0:0:0:0:
187,212,90554,1,0,0:0:0:0:
271,290,90704,2,0,L|368:309,1,95.7000029205323,0|0,3:2|0:0,0:0:0:0:
187,212,91004,2,0,L|154:118,1,95.7000029205323,14|0,0:0|0:0,0:0:0:0:
308,0,91304,6,0,P|341:59|270:130,1,143.550004380798,6|0,3:2|0:0,0:0:0:0:
251,69,91604,2,0,P|208:60|166:48,1,87,4|2,3:2|0:0,0:0:0:0:
348,228,92054,6,0,P|396:236|437:247,1,91.3499972122193,2|0,0:0|0:0,0:0:0:0:
496,306,92504,6,0,B|528:265|528:265|505:205,1,104.399996813965,4|0,3:2|3:2,0:0:0:0:
398,149,92804,1,8,0:2:0:0:
348,228,92954,1,2,3:2:0:0:
266,110,93104,2,0,B|229:86|194:110|194:110|169:146|114:138,1,156.599995220947,2|0,3:2|3:2,0:0:0:0:
120,134,93404,1,8,0:0:0:0:
46,230,93554,6,0,L|16:122,1,104.399996813965,2|4,3:2|3:2,0:0:0:0:
133,25,93854,1,8,0:0:0:0:
144,36,93929,1,8,0:0:0:0:
141,50,94004,1,2,3:2:0:0:
188,181,94154,1,8,0:0:0:0:
71,82,94304,1,2,3:2:0:0:
213,1,94454,6,0,P|219:26|224:51,1,52.1999984069825,8|8,0:0|0:0,0:0:0:0:
266,110,94604,1,10,0:0:0:0:
361,14,94754,1,2,0:0:0:0:
340,215,94904,6,0,P|269:200|183:179,1,156.599995220947,2|0,3:2|0:0,0:0:0:0:
136,230,95204,2,0,P|125:289|178:324,1,104.399996813965,8|0,0:0|3:2,0:0:0:0:
247,384,95504,1,2,3:2:0:0:
152,318,95654,1,0,3:2:0:0:
227,266,95804,1,8,0:0:0:0:
59,377,96104,6,0,P|1:349|21:230,1,182.699994424439,4|0,3:2|0:0,0:0:0:0:
46,184,96404,1,4,3:2:0:0:
152,286,96554,2,0,P|152:257|135:226,1,60.8999981414796,8|0,0:0|0:0,0:0:0:0:
203,106,96704,2,0,B|137:128|137:128|118:160|118:160|32:189,1,182.699994424439,4|8,3:2|0:0,0:0:0:0:
46,184,97004,1,8,0:0:0:0:
62,101,97154,1,8,0:0:0:0:
225,182,97304,6,0,P|199:146|207:98,1,87,6|0,3:2|0:0,0:0:0:0:
326,47,97604,1,2,3:2:0:0:
282,108,97754,1,2,0:0:0:0:
213,14,97904,1,2,3:2:0:0:
213,14,98054,2,0,P|169:25|123:31,1,87,2|0,0:0|3:2,0:0:0:0:
7,178,98354,1,2,0:0:0:0:
89,226,98504,6,0,P|79:159|70:93,1,130.5,2|0,3:2|0:0,0:0:0:0:
83,106,98804,2,0,P|89:155|95:201,1,87,0|2,3:2|0:0,0:0:0:0:
215,301,99104,2,0,P|221:251|227:206,1,87,2|0,3:2|0:0,0:0:0:0:
309,170,99404,1,2,3:2:0:0:
256,110,99554,1,0,0:0:0:0:
333,61,99704,6,0,B|347:27|333:-8|333:-8|383:31|348:90,2,174,2|2|2,3:2|3:2|3:2,0:0:0:0:
452,206,100454,1,0,0:0:0:0:
501,144,100604,1,8,0:0:0:0:
501,144,100904,5,2,3:2:0:0:
369,233,101054,1,0,0:0:0:0:
437,291,101204,6,0,P|443:248|452:205,1,87,8|0,0:0|0:0,0:0:0:0:
336,118,101504,1,2,3:2:0:0:
312,191,101654,5,0,3:2:0:0:
433,86,101804,2,0,P|425:51|418:0,1,87,8|8,0:0|0:0,0:0:0:0:
407,0,102029,1,8,0:0:0:0:
407,0,102104,6,0,P|400:37|393:59,1,52.1999984069825,8|0,0:0|0:0,0:0:0:0:
312,191,102554,1,2,0:0:0:0:
312,191,102704,6,0,P|267:146|284:59,1,152.25,2|0,0:0|0:0,0:0:0:0:
279,64,103304,5,0,3:2:0:0:
129,0,103754,2,0,B|96:-7|96:-7|61:23,1,69.6,2|0,0:0|0:0,0:0:0:0:
147,118,104054,1,2,0:0:0:0:
188,54,104204,1,2,0:0:0:0:
31,202,104504,6,0,L|53:303,1,87,2|2,3:2|0:0,0:0:0:0:
15,351,104729,1,2,0:0:0:0:
15,351,104804,1,2,3:2:0:0:
122,259,104954,2,0,P|147:252|196:241,1,43.5,2|0,0:0|0:0,0:0:0:0:
126,186,105104,5,2,3:2:0:0:
240,304,105254,1,2,0:0:0:0:
240,304,105329,1,2,0:0:0:0:
240,304,105404,2,0,P|235:256|281:210,1,87,2|2,3:2|0:0,0:0:0:0:
352,123,105704,5,2,3:2:0:0:
419,180,105854,1,2,0:0:0:0:
352,123,106004,2,0,L|331:36,1,87,2|2,3:2|0:0,0:0:0:0:
337,33,106229,1,2,0:0:0:0:
344,35,106304,5,2,3:2:0:0:
267,121,106529,5,2,0:1:0:0:
206,51,106754,5,2,3:2:0:0:
147,95,106904,6,0,L|38:119,1,87,2|2,3:2|0:0,0:0:0:0:
3,78,107129,1,2,0:0:0:0:
3,78,107204,1,2,3:2:0:0:
43,227,107354,2,0,P|46:207|52:176,1,43.5,2|0,0:0|0:0,0:0:0:0:
38,235,107504,5,2,3:2:0:0:
108,325,107654,1,2,0:0:0:0:
108,325,107729,1,2,0:0:0:0:
108,325,107804,2,0,P|143:328|187:285,1,87,2|2,3:2|0:0,0:0:0:0:
322,229,108104,5,2,3:2:0:0:
233,181,108254,1,2,0:0:0:0:
322,229,108404,2,0,B|371:216|371:216|386:192|386:192|436:178,1,130.5,2|0,3:2|0:0,0:0:0:0:
435,178,108704,1,2,3:2:0:0:
404,26,108929,6,0,P|374:63|401:120,1,87,2|0,0:1|0:0,0:0:0:0:
447,185,109154,6,0,P|446:161|429:134,1,43.5,2|0,3:2|0:0,0:0:0:0:
298,69,109304,5,4,3:2:0:0:
239,163,109454,1,2,0:0:0:0:
239,163,109604,2,0,P|192:170|145:184,1,91.3499972122193,0|0,3:2|3:2,0:0:0:0:
190,24,109904,2,0,P|232:12|298:73,2,137.024995818329,2|2|2,3:1|3:1|3:1,0:0:0:0:
105,7,110504,6,0,P|66:37|60:97,1,91.3499972122193,2|0,3:2|3:2,0:0:0:0:
239,163,110804,1,0,3:2:0:0:
181,109,110954,1,0,3:2:0:0:
149,182,111104,2,0,B|145:235|145:235|155:261|155:261|151:320,2,137.024995818329,2|2|2,3:1|3:1|3:1,0:0:0:0:
239,163,111704,5,2,3:2:0:0:
247,164,111779,1,0,3:2:0:0:
254,169,111854,1,0,3:2:0:0:
259,176,111929,1,0,3:2:0:0:
259,185,112004,2,0,P|255:210|248:247,1,45.6749986061097,0|0,3:2|3:2,0:0:0:0:
317,337,112154,2,0,P|321:362|328:399,1,45.6749986061097,2|0,3:2|3:2,0:0:0:0:
405,384,112304,6,0,L|393:290,1,91.3499972122193,6|0,3:1|0:0,0:0:0:0:
443,246,112529,2,0,L|431:155,1,91.3499972122193,2|0,3:1|0:0,0:0:0:0:
470,95,112754,1,2,3:1:0:0:
310,113,112904,6,0,P|343:172|383:160,1,91.3499972122193,6|0,3:1|0:0,0:0:0:0:
411,32,113129,2,0,P|343:32|333:72,1,91.3499972122193,2|0,3:1|0:0,0:0:0:0:
431,155,113354,1,2,3:1:0:0:
212,41,113504,6,0,B|211:18|211:18|200:38,1,45.6749986061097,6|0,3:1|0:0,0:0:0:0:
166,189,113729,2,0,B|167:212|167:212|177:193,1,45.6749986061097,6|0,3:1|0:0,0:0:0:0:
142,104,113954,6,0,P|194:117|232:123,1,87,6|0,3:1|0:0,0:0:0:0:
238,114,114704,6,0,B|306:143|264:225|264:225,1,104.399996813965,4|0,3:2|0:0,0:0:0:0:
310,262,115154,1,2,0:0:0:0:
226,384,115454,2,0,L|290:368,1,52.1999984069825,2|2,0:0|0:0,0:0:0:0:
346,334,115754,1,0,0:0:0:0:
346,334,115904,6,0,B|387:343|387:343|402:359|402:359|455:370,2,104.399996813965,2|2|2,3:2|0:0|0:0,0:0:0:0:
422,152,116804,2,0,L|432:212,1,52.1999984069825,2|2,0:0|0:0,0:0:0:0:
378,255,117104,6,0,B|352:259|352:259|313:241,1,52.1999984069825,2|0,3:2|0:0,0:0:0:0:
242,154,117404,1,2,0:0:0:0:
242,154,117554,1,0,0:0:0:0:
315,125,117704,2,0,L|306:196,1,52.1999984069825,2|0,0:0|0:0,0:0:0:0:
218,271,118004,2,0,L|209:200,1,52.1999984069825,2|2,0:0|0:0,0:0:0:0:
159,137,118304,6,0,P|86:150|74:181,1,104.399996813965,0|2,3:2|0:0,0:0:0:0:
15,257,118754,1,2,0:0:0:0:
83,292,118904,2,0,L|90:230,1,52.1999984069825,2|0,0:0|0:0,0:0:0:0:
20,29,119204,6,0,B|6:71|30:124|30:124,1,78.2999976104737,2|0,0:0|0:0,0:0:0:0:
23,105,119504,5,6,3:2:0:0:
163,16,119804,2,0,P|207:22|256:34,1,87,2|0,3:2|0:0,0:0:0:0:
326,151,120104,2,0,P|281:144|233:133,1,87,2|0,3:2|0:0,0:0:0:0:
394,3,120404,2,0,B|424:32|413:71|413:71|398:42|368:22,1,130.5,2|0,3:2|0:0,0:0:0:0:
377,28,120704,1,2,3:2:0:0:
499,232,121004,6,0,P|520:198|492:142,1,87,2|0,3:2|0:0,0:0:0:0:
433,141,121304,2,0,P|412:175|440:231,1,87,2|0,3:2|0:0,0:0:0:0:
437,342,121604,1,2,3:2:0:0:
437,342,121904,6,0,B|397:334|358:329|358:329|323:297|361:250,1,156.599995220947,2|0,3:2|3:2,0:2:0:0:
251,187,122354,1,2,0:0:0:0:
311,107,122504,2,0,P|331:140|306:204,1,78.2999976104737,2|0,3:2|0:0,0:2:0:0:
255,273,122804,2,0,L|205:259,1,39.1499988052369,0|0,3:2|0:0,0:0:0:0:
168,205,122954,1,2,0:0:0:0:
104,280,123104,6,0,P|57:248|83:151,2,156.599995220947,2|2|2,3:2|3:2|3:2,0:0:0:0:
168,205,123854,2,0,L|182:155,1,39.1499988052369,2|0,0:0|0:0,0:0:0:0:
240,127,124004,2,0,L|254:77,1,39.1499988052369,2|0,3:2|0:0,0:0:0:0:
162,6,124304,6,0,L|180:95,1,78.2999976104737,6|0,3:2|3:2,0:0:0:0:
318,225,124604,1,2,3:2:0:0:
249,203,124754,1,0,3:2:0:0:
331,68,124904,2,0,L|313:157,1,78.2999976104737,2|0,3:2|3:2,0:0:0:0:
169,307,125204,2,0,P|213:292|255:278,1,78.2999976104737,0|0,3:2|3:2,0:0:0:0:
255,273,125429,1,0,3:2:0:0:
255,273,125504,5,2,3:2:0:0:
468,380,125804,1,2,3:2:0:0:
493,304,126704,6,0,B|484:252|450:240|450:240|477:272|467:337,1,143.550004380798,4|0,3:2|3:2,0:0:0:0:
409,345,127004,2,0,P|365:352|327:318,1,95.7000029205323,8|0,0:0|3:2,0:0:0:0:
216,201,127304,1,2,3:2:0:0:
315,144,127454,1,0,3:2:0:0:
315,144,127529,1,0,3:2:0:0:
315,144,127604,2,0,P|292:200|299:267,1,95.7000029205323,8|2,0:0|3:2,0:0:0:0:
203,338,127904,6,0,L|76:355,1,95.7000029205323,2|8,3:2|0:0,0:0:0:0:
41,323,128129,1,8,0:0:0:0:
34,321,128204,1,0,3:2:0:0:
121,215,128354,1,8,0:0:0:0:
133,228,128429,1,8,0:0:0:0:
131,247,128504,5,0,3:2:0:0:
5,168,128654,2,0,P|30:161|61:152,1,47.8500014602662,8|8,0:0|0:0,0:0:0:0:
108,89,128804,1,8,0:0:0:0:
47,232,128954,1,2,3:2:0:0:
35,48,129104,6,0,P|73:9|164:28,1,143.550004380798,0|0,3:2|0:0,0:0:0:0:
200,74,129404,2,0,L|302:102,1,95.7000029205323,8|2,0:0|3:2,0:0:0:0:
414,7,129704,1,0,3:2:0:0:
343,34,129854,1,0,3:2:0:0:
456,180,130004,6,0,B|456:89|492:142|495:44,1,143.550004380798,8|0,0:0|0:0,0:0:0:0:
488,39,130304,6,0,P|476:83|536:127,1,95.7000029205323,4|10,3:2|0:2,0:0:0:0:
440,262,130529,1,2,0:0:0:0:
440,262,130604,2,0,P|467:224|455:179,1,95.7000029205323,4|10,3:2|0:2,0:0:0:0:
389,135,130829,1,2,0:0:0:0:
380,134,130904,5,4,3:2:0:0:
286,264,131054,1,8,0:0:0:0:
300,270,131129,1,8,0:0:0:0:
312,261,131204,1,8,0:0:0:0:
297,165,131354,1,8,0:0:0:0:
271,64,131504,6,0,B|219:44|164:74|167:137|167:137,1,147.900002820969,6|2,3:2|3:2,0:2:0:0:
108,242,131954,1,2,0:0:0:0:
48,202,132104,2,0,L|32:127,1,73.9500014104843,2|2,3:2|0:0,0:0:0:0:
191,206,132404,2,0,L|175:281,1,73.9500014104843,0|2,3:2|0:0,0:0:0:0:
139,346,132629,1,2,0:0:0:0:
139,346,132704,6,0,B|95:352|95:352|41:338|41:338|-8:343,2,147.900002820969,2|0|2,3:2|3:2|3:2,0:0:0:0:
175,278,133454,1,0,0:0:0:0:
235,364,133604,2,0,P|287:356|308:301,1,110.925002115727,0|0,3:2|0:0,0:0:0:0:
305,301,133904,6,0,L|317:224,1,73.9500014104843,2|0,3:2|0:0,0:0:0:0:
455,108,134204,2,0,P|459:145|467:185,1,73.9500014104843,2|0,3:2|0:0,0:0:0:0:
393,195,134504,6,0,P|388:160|381:118,1,73.9500014104843,2|0,3:2|0:0,0:0:0:0:
434,2,134804,1,10,0:0:0:0:
434,2,135104,6,0,P|375:15|297:27,1,130.5,2|0,3:2|0:0,0:0:0:0:
305,25,135404,1,10,0:0:0:0:
224,129,135554,1,0,0:0:0:0:
156,91,135704,2,0,P|141:47|156:7,1,87,2|0,3:2|3:2,0:0:0:0:
222,48,136004,1,8,0:0:0:0:
164,174,136154,1,8,0:0:0:0:
164,174,136229,1,8,0:0:0:0:
164,174,136304,6,0,P|101:181|35:196,1,121.799996282959,2|2,3:2|3:2,0:0:0:0:
0,272,136754,1,0,0:0:0:0:
0,272,136904,2,0,P|31:275|59:282,1,60.8999981414796,2|2,3:2|0:0,0:0:0:0:
125,356,137204,1,2,0:0:0:0:
192,329,137354,1,0,3:2:0:0:
263,223,137504,5,0,3:2:0:0:
334,248,137654,1,0,3:2:0:0:
277,298,137804,1,0,3:2:0:0:
266,291,137879,1,0,3:2:0:0:
262,279,137954,1,0,3:2:0:0:
264,267,138029,1,0,3:2:0:0:
271,256,138104,6,0,L|289:170,1,52.1999984069825,0|0,3:2|3:2,0:0:0:0:
250,142,138254,2,0,L|268:56,1,52.1999984069825,0|0,3:2|3:2,0:0:0:0:
337,7,138404,6,0,L|320:84,1,53.9399978600465,2|2,0:0|0:0,0:0:0:0:
190,196,138704,6,0,P|125:193|95:96,1,156.599995220947,4|0,3:2|0:0,0:0:0:0:
90,112,139004,2,0,P|112:154|58:217,1,104.399996813965,8|0,0:0|3:2,0:0:0:0:
0,294,139304,1,2,3:2:0:0:
67,360,139454,1,0,3:2:0:0:
0,294,139604,2,0,L|111:269,1,104.399996813965,8|2,0:0|3:2,0:0:0:0:
241,345,139904,5,2,3:2:0:0:
308,216,140054,2,0,L|370:229,1,52.1999984069825,8|0,0:0|0:0,0:0:0:0:
319,290,140204,5,0,3:2:0:0:
243,150,140354,2,0,L|181:163,1,52.1999984069825,8|0,0:0|0:0,0:0:0:0:
231,224,140504,5,0,3:2:0:0:
306,82,140654,2,0,P|351:71|399:128,1,104.399996813965,8|0,0:0|3:2,0:0:0:0:
475,168,140954,1,8,0:0:0:0:
485,179,141029,1,8,0:0:0:0:
481,189,141104,6,0,L|469:79,1,104.399996813965,2|0,3:2|3:2,0:0:0:0:
484,10,141404,1,8,0:0:0:0:
394,104,141554,1,0,3:2:0:0:
305,0,141704,6,0,P|260:-11|212:46,1,104.399996813965,2|0,3:2|3:2,0:0:0:0:
187,87,141929,1,0,3:2:0:0:
190,96,142004,1,8,0:0:0:0:
64,193,142154,1,2,0:0:0:0:
118,113,142304,6,0,L|150:241,1,104.399996813965,4|8,3:2|0:0,0:0:0:0:
212,332,142604,1,0,3:2:0:0:
264,271,142754,2,0,L|281:217,1,52.1999984069825,8|0,0:0|0:0,0:0:0:0:
410,303,142904,1,0,3:2:0:0:
443,236,143054,1,8,0:0:0:0:
428,223,143129,1,8,0:0:0:0:
406,227,143204,1,0,3:2:0:0:
341,273,143354,1,8,0:0:0:0:
488,384,143504,6,0,L|510:277,1,104.399996813965,2|2,3:2|3:2,0:0:0:0:
444,109,143804,2,0,P|404:173|484:243,1,156.599995220947,10|2,0:0|0:0,0:0:0:0:
442,235,144104,1,2,3:2:0:0:
504,182,144254,1,2,3:2:0:0:
397,42,144404,6,0,B|343:23|343:23|299:68,1,117.449996415711,10|2,0:0|0:0,0:0:0:0:
303,76,144704,5,2,3:2:0:0:
229,46,144854,2,0,B|216:45|203:55|203:55|213:52|228:60,1,52.1999984069825,8|0,0:0|0:0,0:0:0:0:
303,76,145004,5,0,3:2:0:0:
240,125,145154,2,0,B|232:135|234:152|234:152|237:141|252:132,1,52.1999984069825,8|0,0:0|0:0,0:0:0:0:
329,182,145304,1,0,3:2:0:0:
236,265,145454,1,8,0:0:0:0:
221,254,145529,1,8,0:2:0:0:
232,235,145604,2,0,P|267:272|259:338,1,104.399996813965,0|8,3:2|0:0,0:0:0:0:
133,374,145904,5,2,3:2:0:0:
123,368,145979,1,2,0:0:0:0:
118,352,146054,1,2,3:2:0:0:
120,330,146129,1,2,0:0:0:0:
138,310,146204,2,0,P|166:318|212:329,3,52.1999984069825,10|2|2|2,0:0|0:0|3:2|0:0,0:0:0:0:
91,243,146504,5,2,3:2:0:0:
88,250,146579,1,2,0:0:0:0:
84,257,146654,2,0,P|55:265|10:276,1,52.1999984069825,2|2,3:2|3:2,0:0:0:0:
146,191,146804,1,10,0:0:0:0:
149,198,146879,1,2,0:0:0:0:
153,205,146954,2,0,P|181:213|227:224,1,52.1999984069825,2|2,3:2|0:0,0:0:0:0:
363,332,147104,5,0,3:2:0:0:
316,272,147254,2,0,P|292:266|264:262,1,52.1999984069825,8|0,0:0|0:0,0:0:0:0:
395,144,147404,1,0,3:2:0:0:
384,219,147554,6,0,P|408:212|436:209,1,52.1999984069825,8|0,0:0|0:0,0:0:0:0:
305,98,147704,1,2,3:2:0:0:
305,98,147854,2,0,P|300:129|292:169,1,52.1999984069825,10|10,0:0|0:0,0:0:0:0:
205,205,148004,1,10,3:2:0:0:
193,194,148079,1,10,0:0:0:0:
188,179,148154,1,10,0:0:0:0:
191,163,148229,1,10,0:0:0:0:
199,149,148304,6,0,B|150:133|150:133|129:108|129:108|61:83,1,143.550004380798,4|0,3:2|0:0,0:0:0:0:
65,76,148604,2,0,P|36:113|57:180,1,95.7000029205323,8|0,0:0|0:0,0:0:0:0:
119,292,148904,1,2,3:2:0:0:
205,205,149054,1,0,0:0:0:0:
119,292,149204,2,0,P|133:338|146:403,1,95.7000029205323,10|0,0:0|0:0,0:0:0:0:
250,292,149504,6,0,B|336:312|336:312|303:305|277:325,1,143.550004380798,4|0,3:2|0:0,0:0:0:0:
282,320,149804,1,8,0:0:0:0:
373,151,149954,1,2,0:0:0:0:
427,201,150104,2,0,P|395:227|321:202,1,95.7000029205323,2|0,3:2|0:0,0:0:0:0:
221,46,150404,1,8,0:0:0:0:
285,94,150554,1,2,0:0:0:0:
199,180,150704,6,0,B|165:144|183:104|183:104|185:137|223:172,1,143.550004380798,2|0,3:2|3:2,0:0:0:0:
217,167,151004,2,0,P|234:212|191:268,1,95.7000029205323,8|0,0:2|3:2,3:2:0:0:
115,371,151304,1,8,0:0:0:0:
56,308,151454,2,0,P|109:298|153:286,1,95.7000029205323,0|8,3:2|0:0,0:0:0:0:
283,383,151754,1,2,3:2:0:0:
213,358,151904,5,2,3:2:0:0:
275,294,152054,2,0,P|304:287|336:276,1,47.8500014602662,8|0,0:0|0:0,0:0:0:0:
354,219,152204,5,0,3:2:0:0:
416,283,152354,2,0,P|445:289|477:301,1,47.8500014602662,8|0,0:0|0:0,0:0:0:0:
495,358,152504,5,2,3:2:0:0:
462,295,152654,1,8,0:0:0:0:
454,276,152729,1,8,0:0:0:0:
466,257,152804,1,0,3:2:0:0:
433,184,152954,1,8,0:0:0:0:
483,75,153104,6,0,B|525:94|539:149|506:181|506:181,1,117.449996415711,4|0,3:2|0:0,0:0:0:0:
510,174,153404,2,0,P|468:174|413:196,1,78.2999976104737,0|0,3:2|0:0,0:0:0:0:
275,294,153704,2,0,B|270:311|321:359|362:299|352:283,1,117.449996415711,2|0,3:2|0:0,0:0:0:0:
307,226,154004,2,0,P|297:183|298:128,1,78.2999976104737,0|0,3:2|0:0,0:0:0:0:
201,25,154304,5,2,3:2:0:0:
262,60,154454,1,2,0:0:0:0:
202,114,154604,1,0,3:2:0:0:
131,73,154754,1,2,0:0:0:0:
73,152,154904,6,0,P|115:138|130:70,1,117.449996415711,2|2,3:2|0:0,0:0:0:0:
128,65,155204,2,0,P|116:113|149:164,1,78.2999976104737,0|2,3:2|0:0,0:0:0:0:
194,235,155504,6,0,B|252:226|252:226|278:200|278:200|338:188,1,156.599995220947,2|0,3:2|3:2,0:0:0:0:
443,287,155954,1,2,0:0:0:0:
433,290,156029,1,2,0:0:0:0:
425,285,156104,2,0,L|445:179,1,78.2999976104737,0|2,3:2|0:0,0:0:0:0:
486,88,156404,2,0,P|489:113|496:142,1,39.1499988052369,8|0,0:0|0:0,0:0:0:0:
422,138,156554,2,0,P|419:113|412:84,1,39.1499988052369,8|0,0:0|0:0,0:0:0:0:
341,35,156704,6,0,P|305:27|229:11,1,108.75,4|0,3:2|0:0,0:0:0:0:
120,122,157004,2,0,P|112:98|92:66,1,39.1499988052369,10|0,0:0|0:0,0:0:0:0:
175,61,157154,2,0,P|183:86|203:117,1,43.5,2|0,0:0|3:2,0:0:0:0:
317,224,157304,6,0,P|325:197|347:163,1,47.8500014602662,2|0,3:2|0:0,0:0:0:0:
256,157,157454,2,0,P|248:184|226:218,1,52.1999984069825,2|0,3:2|0:0,0:0:0:0:
127,353,157604,6,0,P|118:323|94:286,1,58.7250002240181,10|0,0:0|0:0,0:0:0:0:
193,280,157754,2,0,P|201:309|225:346,1,58.7250002240181,10|0,0:0|0:0,0:0:0:0:
