osu file format v14

[General]
AudioFilename: audio.mp3
AudioLeadIn: 0
PreviewTime: 80421
Countdown: 0
SampleSet: Soft
StackLeniency: 0.3
Mode: 0
LetterboxInBreaks: 0
WidescreenStoryboard: 1

[Editor]
DistanceSpacing: 0.7
BeatDivisor: 4
GridSize: 8
TimelineZoom: 2.200001

[Metadata]
Title:Daemonisch
TitleUnicode:デモーニッシュ
Artist:TUYU
ArtistUnicode:ツユ
Creator:Keqing
Version:NiNo's Extra
Source:
Tags:devilish dämonisch demonish bongo guanineso stratos iljaaz -aqua captin1 ajisai- Woood13 SnowNiNo_ frozz -Keqing kazato asa shikibe mayu shizuku- pusu ぷす omutatsu おむたつ jpop j-pop japanese pop female vocals
BeatmapID:2990195
BeatmapSetID:1443294

[Difficulty]
HPDrainRate:6
CircleSize:4
OverallDifficulty:9.5
ApproachRate:9.7
SliderMultiplier:1.8
SliderTickRate:1

[Events]
//Background and Video events
0,0,"tuyu.png",0,0
Video,-54,"aa.mp4"
//Break Periods
//Storyboard Layer 0 (Background)
//Storyboard Layer 1 (Fail)
//Storyboard Layer 2 (Pass)
//Storyboard Layer 3 (Foreground)
//Storyboard Layer 4 (Overlay)
//Storyboard Sound Samples

[TimingPoints]
850,428.571428571429,4,2,4,50,1,0
850,-133.333333333333,4,2,4,50,0,0
4278,333.333333333333,4,2,4,65,1,0
14944,-100,4,2,4,75,0,0
26277,300,4,2,4,90,1,1
26277,-83.3333333333333,4,2,4,90,0,1
27777,-66.6666666666667,4,2,4,90,0,1
28077,-55.5555555555556,4,2,4,90,0,1
28377,-83.3333333333333,4,2,4,90,0,1
34077,-100,4,2,4,90,0,1
34677,-125,4,2,4,90,0,1
35277,-166.666666666667,4,2,4,90,0,1
35877,-83.3333333333333,4,2,4,90,0,1
37077,-83.3333333333333,4,2,4,90,0,0
38277,-71.4285714285714,4,2,4,90,0,1
39627,-50,4,2,4,90,0,1
40677,-71.4285714285714,4,2,4,90,0,1
40977,-62.5,4,2,4,90,0,1
41277,-55.5555555555556,4,2,4,90,0,1
41577,-71.4285714285714,4,2,4,90,0,1
41802,-71.4285714285714,4,2,4,5,0,1
41877,-71.4285714285714,4,2,4,90,0,1
42027,-50,4,2,4,90,0,1
42102,-50,4,2,4,5,0,1
42177,-50,4,2,4,90,0,1
42402,-50,4,2,4,5,0,1
42477,-50,4,2,4,90,0,1
43077,-100,4,2,4,90,0,1
47877,-100,4,2,4,90,0,0
49527,-333.333333333333,4,2,4,90,0,0
50277,-100,4,2,4,90,0,0
55077,428.571428571429,4,2,4,90,1,0
55077,-133.333333333333,4,2,4,90,0,0
55934,-133.333333333333,4,2,4,50,0,0
58505,333.333333333333,4,2,4,65,1,0
69171,-100,4,2,4,75,0,0
80504,300,4,2,4,90,1,1
80504,-83.3333333333333,4,2,4,90,0,1
82004,-71.4285714285714,4,2,4,90,0,1
82304,-62.5,4,2,4,90,0,1
82604,-83.3333333333333,4,2,4,90,0,1
88304,-100,4,2,4,90,0,1
88904,-125,4,2,4,90,0,1
89504,-166.666666666667,4,2,4,90,0,1
90104,-83.3333333333333,4,2,4,90,0,1
91304,-83.3333333333333,4,2,4,90,0,0
92504,-71.4285714285714,4,2,4,90,0,1
93704,-50,4,2,4,90,0,1
94904,-71.4285714285714,4,2,4,90,0,1
95204,-62.5,4,2,4,90,0,1
95504,-55.5555555555556,4,2,4,90,0,1
95804,-71.4285714285714,4,2,4,90,0,1
96028,-71.4285714285714,4,2,4,5,0,1
96104,-83.3333333333333,4,2,4,90,0,1
96254,-50,4,2,4,90,0,1
96329,-50,4,2,4,5,0,1
96404,-50,4,2,4,90,0,1
96629,-50,4,2,4,5,0,1
96704,-50,4,2,4,90,0,1
97304,-100,4,2,4,75,0,1
102104,-100,4,2,4,75,0,0
103754,-200,4,2,4,75,0,0
104504,-100,4,2,4,75,0,0
109304,-100,4,2,4,90,0,0
112454,-100,4,2,4,5,0,0
112529,-100,4,2,4,90,0,0
112679,-100,4,2,4,5,0,0
112754,-100,4,2,4,90,0,0
112829,-100,4,2,4,5,0,0
112904,-100,4,2,4,90,0,0
113054,-100,4,2,4,5,0,0
113129,-100,4,2,4,90,0,0
113279,-100,4,2,4,5,0,0
113354,-100,4,2,4,90,0,0
113429,-100,4,2,4,5,0,0
113504,-83.3333333333333,4,2,4,90,0,0
113654,-83.3333333333333,4,2,4,5,0,0
113729,-83.3333333333333,4,2,4,90,0,0
113879,-83.3333333333333,4,2,4,5,0,0
113954,-83.3333333333333,4,2,4,90,0,0
114029,-83.3333333333333,4,2,4,5,0,0
114104,-83.3333333333333,4,2,4,80,0,0
114704,300,4,2,4,60,1,0
114704,-133.333333333333,4,2,4,60,0,0
119504,-100,4,2,4,75,0,0
126704,-66.6666666666667,4,2,4,90,0,1
127904,-50,4,2,4,90,0,1
128804,-66.6666666666667,4,2,4,90,0,1
129404,-58.8235294117647,4,2,4,90,0,1
129704,-52.6315789473684,4,2,4,90,0,1
130004,-66.6666666666667,4,2,4,90,0,1
130229,-66.6666666666667,4,2,4,5,0,1
130304,-66.6666666666667,4,2,4,90,0,1
130454,-50,4,2,4,90,0,1
130529,-50,4,2,4,5,0,1
130604,-50,4,2,4,90,0,1
130829,-50,4,2,4,5,0,1
130904,-50,4,2,4,90,0,1
131504,-100,4,2,4,90,0,1
136304,-100,4,2,4,90,0,0
138404,-200,4,2,4,90,0,1
138629,-200,4,2,4,90,0,1
138704,-66.6666666666667,4,2,4,90,0,1
153104,-83.3333333333333,4,2,4,75,0,0
156704,-83.3333333333333,4,2,4,90,0,0
156854,-76.9230769230769,4,2,4,90,0,0
157004,-66.6666666666667,4,2,4,90,0,0
157154,-58.8235294117647,4,2,4,90,0,0
157304,-52.6315789473684,4,2,4,90,0,0
157454,-47.6190476190476,4,2,4,90,0,0
157604,-43.4782608695652,4,2,4,90,0,0

[Colours]
Combo1 : 181,74,74
Combo2 : 255,0,0
Combo3 : 255,140,140

[HitObjects]
366,155,850,6,0,L|359:80,2,67.5000025749208,2|0|0,0:0|0:0|0:0,0:0:0:0:
291,221,1492,1,0,0:0:0:0:
291,221,1707,2,0,L|284:288,2,67.5000025749208,2|2|2,0:0|0:0|0:0,0:0:0:0:
223,144,2350,1,0,0:0:0:0:
223,144,2564,2,0,L|216:76,1,67.5000025749208,2|0,0:0|0:0,0:0:0:0:
117,208,2992,2,0,L|123:140,1,67.5000025749208,2|2,0:0|0:0,0:0:0:0:
186,296,3421,1,2,0:0:0:0:
186,296,3850,1,2,0:0:0:0:
252,220,4064,1,2,0:0:0:0:
296,358,4278,6,0,P|345:343|386:341,1,90,2|0,3:2|0:0,0:0:0:0:
487,217,4611,2,0,P|442:213|399:199,1,90,2|0,3:2|0:0,0:0:0:0:
316,65,4944,1,2,3:2:0:0:
252,220,5111,2,0,P|238:161|236:113,1,90,2|0,0:0|3:2,0:0:0:0:
141,34,5444,6,0,P|136:78|124:122,1,90,2|0,0:0|3:2,0:0:0:0:
29,200,5777,1,2,0:0:0:0:
163,243,5944,1,2,3:2:0:0:
32,219,6111,1,2,0:0:0:0:
166,262,6277,1,2,3:2:0:0:
94,367,6444,2,0,P|86:319|86:273,1,90,2|0,0:0|3:2,0:0:0:0:
143,174,6777,1,2,0:0:0:0:
201,347,6944,5,2,3:2:0:0:
300,291,7111,2,0,P|308:243|308:197,1,90,0|2,0:0|3:2,0:0:0:0:
409,163,7444,2,0,P|401:115|401:69,1,90,2|0,0:0|3:2,0:0:0:0:
280,81,7777,2,0,P|216:83|180:77,1,90,2|0,0:0|3:2,0:0:0:0:
101,32,8111,1,2,0:0:0:0:
174,179,8277,5,2,3:2:0:0:
28,105,8444,1,0,0:0:0:0:
190,79,8611,1,2,3:2:0:0:
76,196,8777,1,0,0:0:0:0:
101,32,8944,1,2,3:2:0:0:
183,189,9111,2,0,P|203:232|212:277,1,90,2|0,0:0|3:2,0:0:0:0:
172,368,9444,1,2,0:0:0:0:
291,351,9611,6,0,P|311:308|320:263,1,90,2|0,3:2|0:0,0:0:0:0:
389,135,9944,1,2,3:2:0:0:
409,255,10111,1,2,0:0:0:0:
412,131,10277,1,0,3:2:0:0:
432,251,10444,2,0,P|419:305|416:359,1,90,2|0,0:0|3:2,0:0:0:0:
293,158,10777,6,0,P|288:113|276:69,1,90,2|2,0:0|3:2,0:0:0:0:
109,85,11111,1,0,0:2:0:0:
200,130,11277,1,2,3:2:0:0:
60,167,11444,1,2,0:0:0:0:
151,212,11611,5,0,3:2:0:0:
99,64,11777,1,2,0:0:0:0:
149,232,11944,1,0,3:2:0:0:
235,78,12111,1,2,0:0:0:0:
147,252,12277,6,0,P|148:304|233:329,1,135,2|0,3:2|0:0,0:0:0:0:
259,319,12611,2,0,P|304:304|356:308,1,90,8|0,0:2|3:2,0:0:0:0:
442,360,12944,1,0,0:0:0:0:
398,152,13111,1,0,3:2:0:0:
465,363,13277,2,0,P|477:311|482:259,1,90,8|0,0:0|0:0,0:0:0:0:
309,176,13611,5,2,3:2:0:0:
346,305,13777,1,0,3:2:0:0:
346,305,13861,1,0,3:2:0:0:
346,305,13944,1,10,0:2:0:0:
218,171,14111,1,2,3:2:0:0:
250,323,14277,1,8,0:0:0:0:
127,166,14444,1,0,3:2:0:0:
154,341,14611,1,8,0:0:0:0:
47,273,14777,1,0,3:2:0:0:
47,273,14861,1,0,3:2:0:0:
47,273,14944,6,0,P|41:217|32:166,1,90,6|0,3:2|0:0,0:0:0:0:
138,76,15277,2,0,P|131:120|126:165,1,90,2|0,3:2|0:0,0:0:0:0:
161,271,15611,1,2,3:2:0:0:
235,193,15777,2,0,P|296:183|339:182,1,90,2|0,0:0|3:2,0:0:0:0:
400,90,16111,6,0,P|355:87|310:78,1,90,2|2,0:0|3:2,0:0:0:0:
171,23,16444,2,0,P|184:76|193:121,2,90,0|2|2,0:0|3:2|0:0,0:0:0:0:
64,13,16944,1,2,3:2:0:0:
36,119,17111,2,0,P|23:172|14:217,1,90,2|2,0:0|3:2,0:0:0:0:
41,298,17444,1,2,0:0:0:0:
113,183,17611,5,2,3:2:0:0:
139,275,17777,2,0,P|151:321|155:371,1,90,0|2,0:0|3:2,0:0:0:0:
237,218,18111,2,0,P|241:173|252:129,1,90,2|0,0:0|3:2,0:0:0:0:
369,312,18444,2,0,P|325:330|274:343,1,90,2|0,0:0|3:2,0:0:0:0:
378,176,18777,1,2,0:2:0:0:
471,252,18944,6,0,P|487:316|494:363,1,90,2|0,3:2|0:0,0:0:0:0:
378,176,19277,1,2,3:2:0:0:
369,312,19444,1,2,0:0:0:0:
369,312,19527,1,2,0:2:0:0:
369,312,19611,1,0,3:2:0:0:
265,244,19777,2,0,P|260:204|259:138,1,90,2|0,0:0|3:2,0:0:0:0:
310,51,20111,1,2,0:0:0:0:
157,133,20277,6,0,P|126:80|11:86,1,180,4|0,3:2|3:2,0:0:0:0:
48,246,20777,2,0,P|66:183|70:139,1,90,2|0,0:0|3:2,0:0:0:0:
161,266,21111,2,0,P|168:310|182:353,1,90,2|0,0:0|3:2,0:0:0:0:
284,374,21444,1,2,0:2:0:0:
284,374,21527,1,2,0:0:0:0:
284,374,21611,6,0,L|294:276,1,90,0|2,3:2|0:2,0:0:0:0:
408,236,21861,1,2,0:0:0:0:
408,236,21944,2,0,L|418:334,1,90,0|2,3:2|0:0,0:0:0:0:
302,194,22277,1,2,3:2:0:0:
418,147,22444,1,2,0:0:0:0:
440,145,22527,1,2,0:0:0:0:
462,143,22611,1,2,3:2:0:0:
312,105,22777,1,2,0:0:0:0:
428,58,22944,6,0,P|345:23|247:29,1,180,4|8,3:2|0:0,0:0:0:0:
76,143,23444,1,0,3:2:0:0:
208,192,23611,2,0,P|217:130|220:85,1,90,0|0,0:0|3:2,0:0:0:0:
114,249,23944,2,0,P|118:293|125:338,1,90,8|0,0:0|0:0,0:0:0:0:
306,173,24277,5,4,3:2:0:0:
278,330,24444,1,8,0:0:0:0:
273,351,24527,1,8,0:0:0:0:
268,372,24611,1,8,0:0:0:0:
397,207,24777,1,0,3:2:0:0:
392,186,24861,1,0,3:2:0:0:
387,165,24944,1,8,0:0:0:0:
181,287,25111,1,2,3:2:0:0:
176,308,25194,1,0,3:2:0:0:
171,329,25277,2,0,L|162:380,1,45,10|0,0:2|0:0,0:0:0:0:
479,192,25444,2,0,L|470:141,1,45,2|0,3:2|0:0,0:0:0:0:
248,70,26277,6,0,B|166:26|164:106|72:55,1,161.999995056153,4|0,3:2|0:0,0:0:0:0:
64,62,26577,2,0,P|77:118|72:172,1,107.999996704102,8|2,0:0|0:0,0:0:0:0:
27,317,26877,1,2,3:2:0:0:
180,175,27027,1,2,0:0:0:0:
190,199,27102,1,2,0:0:0:0:
190,225,27177,2,0,P|193:256|190:285,1,53.9999983520508,10|0,0:0|0:0,0:0:0:0:
279,309,27327,2,0,P|276:340|279:369,1,53.9999983520508,2|0,0:0|0:0,0:0:0:0:
341,200,27477,6,0,B|387:227|387:227|444:222,1,107.999996704102,6|0,3:2|0:0,0:0:0:0:
477,106,27702,1,2,0:0:0:0:
477,106,27777,6,0,B|419:71|419:71|343:77,1,135.000005149842,10|0,0:2|0:0,0:0:0:0:
310,231,28002,1,2,0:0:0:0:
310,231,28077,6,0,B|378:271|378:271|467:264,1,161.999995056153,2|0,3:2|0:0,0:0:0:0:
508,75,28302,1,2,0:0:0:0:
508,75,28377,6,0,L|460:44,1,53.9999983520508,8|0,0:2|0:2,0:2:0:0:
405,188,28527,2,0,L|354:157,1,53.9999983520508,2|0,0:0|0:0,0:0:0:0:
286,0,28677,6,0,L|278:58,1,53.9999983520508,2|0,3:2|0:0,0:0:0:0:
175,46,28827,1,2,0:0:0:0:
193,135,28977,1,10,0:0:0:0:
211,224,29127,1,2,0:0:0:0:
357,159,29277,2,0,L|338:295,1,107.999996704102,2|2,3:2|0:0,0:0:0:0:
229,313,29502,1,0,0:0:0:0:
229,313,29577,2,0,L|237:371,1,53.9999983520508,8|2,0:0|0:1,0:0:0:0:
80,271,29727,6,0,L|98:134,1,107.999996704102,2|0,0:2|3:2,0:0:0:0:
235,27,30027,1,2,0:0:0:0:
250,48,30102,1,2,0:0:0:0:
257,73,30177,2,0,P|263:114|263:152,1,53.9999983520508,10|0,0:0|0:0,0:0:0:0:
357,159,30327,2,0,P|351:200|351:238,1,53.9999983520508,2|0,0:0|0:0,0:0:0:0:
202,349,30477,2,0,P|189:285|194:236,1,107.999996704102,2|0,3:2|0:0,0:0:0:0:
41,157,30777,6,0,L|119:167,1,53.9999983520508,12|0,0:0|0:0,0:0:0:0:
257,73,30927,2,0,L|179:83,1,53.9999983520508
192,242,31077,1,2,3:2:0:0:
192,242,31152,1,0,3:2:0:0:
192,242,31227,1,0,3:2:0:0:
37,139,31377,6,0,L|122:150,1,53.9999983520508,12|0,0:0|0:0,0:0:0:0:
266,56,31527,2,0,L|180:67,1,53.9999983520508
217,270,31677,1,2,3:2:0:0:
217,270,31752,1,0,3:2:0:0:
217,270,31827,1,0,3:2:0:0:
36,114,31977,6,0,B|23:61|23:61|41:-2,1,107.999996704102,10|0,0:0|0:0,0:0:0:0:
266,56,32277,1,2,3:2:0:0:
115,59,32427,1,0,0:0:0:0:
357,9,32577,2,0,B|370:62|370:62|352:125,1,107.999996704102,10|0,0:2|0:0,0:0:0:0:
282,146,32802,1,2,0:0:0:0:
282,146,32877,2,0,B|269:199|269:199|287:262,1,107.999996704102,0|0,3:2|0:0,0:0:0:0:
361,275,33102,1,2,0:0:0:0:
365,279,33177,2,0,B|378:332|378:332|360:395,1,107.999996704102,12|0,0:0|0:0,0:0:0:0:
174,346,33477,6,0,L|184:268,1,53.9999983520508,2|0,3:2|0:0,0:0:0:0:
142,71,33627,1,2,0:0:0:0:
191,212,33777,1,10,0:0:0:0:
295,90,33927,1,2,0:0:0:0:
174,336,34077,6,0,L|179:291,1,45,2|0,3:2|0:0,0:0:0:0:
148,76,34227,1,2,0:0:0:0:
192,203,34377,1,10,0:0:0:0:
286,93,34527,1,2,0:0:0:0:
175,327,34677,6,0,L|179:291,1,36,0|0,3:2|0:0,0:0:0:0:
154,81,34827,1,2,0:0:0:0:
194,195,34977,1,8,0:0:0:0:
278,96,35127,1,2,0:0:0:0:
176,318,35277,6,0,L|179:291,1,26.9999991760254,2|0,3:2|0:0,0:0:0:0:
160,85,35427,1,2,0:0:0:0:
196,188,35577,1,12,0:0:0:0:
271,99,35727,1,0,0:0:0:0:
176,318,35877,6,0,B|118:324|118:324|45:299,1,107.999996704102,2|0,3:2|0:0,0:0:0:0:
20,233,36102,1,2,0:0:0:0:
24,237,36177,2,0,L|39:106,1,107.999996704102,10|0,0:0|0:0,0:0:0:0:
187,58,36477,1,2,3:2:0:0:
145,213,36627,1,2,0:2:0:0:
145,213,36702,1,2,0:0:0:0:
149,217,36777,2,0,P|198:244|257:235,1,107.999996704102,12|0,0:0|0:0,0:0:0:0:
374,161,37077,6,0,L|359:227,1,53.9999983520508,4|0,3:2|0:0,0:0:0:0:
340,298,37227,1,0,0:0:0:0:
391,72,37377,1,4,3:2:0:0:
395,76,37677,1,2,0:0:0:0:
314,20,37827,1,2,0:0:0:0:
314,20,38127,1,2,0:0:0:0:
213,288,38277,6,0,B|230:229|230:229|214:162,1,125.999996154785,4|0,3:2|3:2,0:0:0:0:
188,78,38502,1,0,3:2:0:0:
192,82,38577,2,0,L|125:72,1,62.9999980773926,10|0,0:0|0:0,0:0:0:0:
387,156,38727,2,0,L|320:166,1,62.9999980773926,2|0,3:2|0:0,0:0:0:0:
450,22,38877,1,2,3:2:0:0:
400,279,39027,1,0,3:2:0:0:
384,251,39102,1,0,3:2:0:0:
380,219,39177,2,0,L|389:139,1,62.9999980773926,10|0,0:0|0:0,0:0:0:0:
84,68,39327,2,0,B|105:121|105:121|97:212,1,125.999996154785,0|6,3:2|3:2,0:0:0:0:
123,274,39552,1,2,0:0:0:0:
127,278,39627,6,0,B|153:316|153:316|187:284,1,90,8|0,0:0|0:0,0:0:0:0:
203,165,39777,1,0,3:2:0:0:
315,243,39927,6,0,B|303:287|303:287|260:269,1,90,8|0,0:0|0:0,0:0:0:0:
200,150,40077,1,0,3:2:0:0:
279,363,40227,5,8,0:0:0:0:
241,378,40302,1,8,0:0:0:0:
200,377,40377,1,2,3:2:0:0:
198,134,40527,1,10,0:0:0:0:
165,295,40677,6,0,B|222:268|222:268|285:273,1,125.999996154785,2|0,3:2|3:2,0:0:0:0:
284,201,40902,1,2,3:2:0:0:
284,201,40977,6,0,B|209:193|209:193|144:225,1,144,8|2,0:0|3:2,0:0:0:0:
122,156,41202,1,2,3:2:0:0:
122,156,41277,6,0,B|195:119|195:119|276:128,1,161.999995056153,2|0,3:2|3:2,0:0:0:0:
357,152,41577,1,8,0:0:0:0:
65,225,41727,1,8,0:2:0:0:
185,44,41877,5,4,3:2:0:0:
321,170,42027,2,0,B|343:206|343:206|336:256,1,90,8|0,0:2|0:0,0:0:0:0:
183,31,42177,5,4,3:2:0:0:
100,208,42327,2,0,B|91:250|91:250|115:294,1,90,8|0,0:2|0:0,0:0:0:0:
180,19,42477,5,4,3:2:0:0:
221,252,42627,1,8,0:0:0:0:
229,296,42702,1,8,0:2:0:0:
237,341,42777,1,8,0:0:0:0:
201,136,42927,1,8,0:0:0:0:
325,341,43077,6,0,P|336:288|332:221,1,90,6|0,3:2|0:0,0:0:0:0:
451,84,43377,2,0,P|452:128|462:172,1,90,2|2,3:2|0:0,0:0:0:0:
475,297,43677,1,2,3:2:0:0:
346,152,43827,2,0,P|287:136|234:138,1,90,2|0,0:0|3:2,0:0:0:0:
175,205,44127,1,2,0:0:0:0:
106,39,44277,6,0,P|86:107|76:253,1,180,2|0,3:2|3:2,0:0:0:0:
110,336,44727,1,2,0:0:0:0:
242,140,44877,2,0,P|268:195|276:246,1,90,2|0,3:2|0:0,0:0:0:0:
381,329,45177,2,0,P|392:285|413:245,1,90,2|2,3:2|0:0,0:0:0:0:
462,64,45477,5,2,3:2:0:0:
357,159,45627,1,0,0:0:0:0:
360,49,45777,1,2,3:2:0:0:
463,172,45927,1,0,0:0:0:0:
270,96,46077,2,0,P|218:75|172:73,1,90,0|0,3:2|0:0,0:0:0:0:
428,282,46377,2,0,P|403:291|364:295,1,45,8|0,0:0|0:0,0:0:0:0:
291,266,46527,1,0,0:0:0:0:
437,86,46677,6,0,P|455:127|463:172,1,90,0|0,3:2|0:0,0:0:0:0:
211,305,46977,2,0,P|203:280|200:255,1,45,8|0,0:0|0:0,0:0:0:0:
217,161,47127,1,0,0:0:0:0:
317,351,47277,1,0,3:2:0:0:
356,191,47427,1,0,3:2:0:0:
455,373,47577,2,0,P|449:342|448:318,1,45,8|0,0:0|0:0,0:0:0:0:
475,184,47727,1,2,0:0:0:0:
475,184,47802,1,2,0:0:0:0:
475,184,47877,5,2,0:0:0:0:
256,192,49077,5,0,3:2:0:0:
256,192,49527,2,0,L|251:247,1,53.9999983520508,2|2,0:0|0:0,0:0:0:0:
251,245,49977,1,2,0:0:0:0:
104,340,50277,5,6,3:2:0:0:
135,308,50352,1,0,3:2:0:0:
146,265,50427,1,0,3:2:0:0:
133,222,50502,1,0,3:2:0:0:
100,192,50577,1,8,3:2:0:0:
67,162,50652,1,0,3:2:0:0:
54,119,50727,1,0,3:2:0:0:
64,76,50802,1,0,3:2:0:0:
96,44,50877,1,8,3:2:0:0:
140,39,50952,1,0,3:2:0:0:
180,58,51027,1,0,3:2:0:0:
207,93,51102,1,0,3:2:0:0:
207,138,51177,1,8,3:2:0:0:
207,183,51252,1,0,3:2:0:0:
234,218,51327,1,0,3:2:0:0:
274,237,51402,1,0,3:2:0:0:
318,232,51477,5,8,3:2:0:0:
319,209,51552,1,0,3:2:0:0:
321,187,51627,1,0,3:2:0:0:
323,164,51702,1,0,3:2:0:0:
325,142,51777,1,8,3:2:0:0:
327,119,51852,1,0,3:2:0:0:
329,97,51927,1,0,3:2:0:0:
330,75,52002,1,0,3:2:0:0:
332,52,52077,6,0,P|382:33|432:32,1,90,2|2,3:1|0:0,0:0:0:0:
499,149,52302,2,0,P|449:130|399:129,1,90,2|2,3:1|0:0,0:0:0:0:
406,229,52527,1,2,3:1:0:0:
229,75,52677,5,6,3:2:0:0:
198,42,52752,1,0,3:2:0:0:
156,26,52827,1,0,3:2:0:0:
112,28,52902,1,0,3:2:0:0:
72,48,52977,1,8,3:2:0:0:
44,83,53052,1,0,3:2:0:0:
33,126,53127,1,0,3:2:0:0:
41,170,53202,1,0,3:2:0:0:
67,207,53277,1,8,3:2:0:0:
105,230,53352,1,0,3:2:0:0:
149,235,53427,1,0,3:2:0:0:
192,221,53502,1,0,3:2:0:0:
225,191,53577,1,8,3:2:0:0:
256,160,53652,1,0,3:2:0:0:
299,146,53727,1,0,3:2:0:0:
343,151,53802,1,0,3:2:0:0:
381,174,53877,5,8,3:2:0:0:
382,196,53952,1,0,3:2:0:0:
383,218,54027,1,0,3:2:0:0:
384,241,54102,1,0,3:2:0:0:
385,263,54177,1,0,3:2:0:0:
386,286,54252,1,0,3:2:0:0:
387,308,54327,1,0,3:2:0:0:
388,331,54402,1,0,3:2:0:0:
389,353,54477,1,0,3:2:0:0:
270,263,54627,2,0,L|277:206,1,45,8|0,0:0|0:0,0:0:0:0:
171,332,54777,2,0,L|178:389,1,45,8|0,0:0|0:0,0:0:0:0:
198,86,55077,6,0,P|156:75|58:74,1,135.000005149842,4|0,3:2|0:0,0:0:0:0:
245,216,55719,1,0,0:0:0:0:
309,126,55934,2,0,P|306:86|303:54,1,67.5000025749208,2|0,3:2|0:0,0:0:0:0:
397,184,56362,2,0,P|399:150|402:116,1,67.5000025749208
198,110,56791,6,0,P|162:99|121:94,1,67.5000025749208,2|0,3:2|0:0,0:0:0:0:
61,204,57219,2,0,P|97:193|138:188,1,67.5000025749208,2|0,3:2|0:0,0:0:0:0:
215,252,57648,1,2,3:2:0:0:
96,294,57862,1,2,3:2:0:0:
303,338,58077,1,10,0:0:0:0:
303,338,58505,6,0,P|320:277|322:242,1,90,6|0,3:2|0:0,0:0:0:0:
295,106,58838,1,2,3:2:0:0:
231,238,59005,1,0,0:0:0:0:
359,168,59171,1,2,3:2:0:0:
215,148,59338,1,2,0:0:0:0:
192,147,59421,1,2,0:0:0:0:
169,146,59505,1,2,3:2:0:0:
65,57,59671,6,0,P|119:47|174:30,1,90,2|2,0:0|3:2,0:0:0:0:
95,242,60005,2,0,P|51:230|7:222,1,90,0|2,0:0|3:2,0:0:0:0:
142,342,60338,1,0,0:0:0:0:
202,197,60505,1,2,3:2:0:0:
249,297,60671,2,0,P|292:308|336:316,1,90,2|0,0:0|3:2,0:0:0:0:
466,323,61005,1,2,0:0:0:0:
466,323,61088,1,2,0:0:0:0:
466,323,61171,5,2,3:2:0:0:
399,218,61338,2,0,P|396:174|401:100,1,90,2|0,0:0|3:2,0:0:0:0:
262,53,61671,2,0,P|263:97|260:142,1,90,2|0,0:0|3:2,0:0:0:0:
157,263,62005,2,0,P|209:255|255:256,1,90,2|0,0:0|3:2,0:0:0:0:
396,295,62338,1,2,0:0:0:0:
396,295,62421,1,0,0:0:0:0:
396,295,62504,6,0,P|405:237|402:200,1,90,2|2,3:2|0:0,0:0:0:0:
365,97,62838,1,2,3:2:0:0:
307,210,63004,1,2,0:0:0:0:
263,73,63171,1,2,3:2:0:0:
211,214,63338,2,0,P|203:269|203:315,1,90,2|0,0:0|3:2,0:0:0:0:
289,368,63671,1,2,0:0:0:0:
98,341,63838,6,0,P|90:286|90:240,1,90,2|0,3:2|0:0,0:0:0:0:
131,124,64171,1,2,3:2:0:0:
211,214,64338,1,2,0:0:0:0:
243,67,64504,1,0,3:2:0:0:
243,67,64588,1,2,0:0:0:0:
243,67,64671,2,0,P|293:55|344:56,1,90,2|0,0:0|3:2,0:0:0:0:
410,150,65004,1,2,0:0:0:0:
410,150,65088,1,2,0:0:0:0:
410,150,65171,6,0,P|400:195|400:260,1,90,0|2,3:2|0:0,0:0:0:0:
304,342,65504,2,0,P|294:297|294:232,1,90,2|2,3:2|0:0,0:0:0:0:
201,144,65838,1,2,3:2:0:0:
168,342,66004,1,0,0:0:0:0:
292,253,66171,1,2,3:2:0:0:
77,233,66338,1,2,0:0:0:0:
387,308,66504,6,0,P|398:246|386:148,1,135,4|0,3:2|0:0,0:0:0:0:
382,130,66838,2,0,P|320:124|277:106,1,90,8|0,0:0|3:2,0:0:0:0:
180,28,67171,1,0,0:0:0:0:
212,208,67338,1,0,3:2:0:0:
87,97,67504,2,0,P|75:143|74:197,1,90,8|0,0:0|0:0,0:0:0:0:
263,324,67838,5,2,3:2:0:0:
291,137,68004,1,0,3:2:0:0:
294,114,68088,1,0,3:2:0:0:
297,91,68171,1,8,0:0:0:0:
359,336,68338,1,0,3:2:0:0:
380,135,68504,5,8,0:0:0:0:
172,285,68671,1,0,3:2:0:0:
391,260,68838,1,8,0:0:0:0:
161,160,69004,1,0,3:2:0:0:
138,157,69088,1,0,3:2:0:0:
115,155,69171,6,0,L|15:144,1,90,4|0,3:2|0:0,0:0:0:0:
237,59,69504,1,2,3:2:0:0:
265,212,69671,1,2,0:0:0:0:
329,45,69838,1,2,3:2:0:0:
357,198,70004,2,0,P|374:239|383:304,1,90,2|0,0:0|3:2,0:0:0:0:
154,376,70338,6,0,P|162:331|179:290,1,90,2|0,0:2|3:2,0:0:0:0:
213,146,70671,1,2,0:0:0:0:
289,306,70838,1,2,3:2:0:0:
304,118,71004,1,2,0:0:0:0:
137,212,71171,1,2,3:2:0:0:
390,246,71338,2,0,P|404:186|405:148,1,90,2|0,0:0|3:2,0:0:0:0:
198,58,71671,1,2,0:0:0:0:
198,58,71754,1,0,0:0:0:0:
198,58,71838,6,0,P|201:102|213:146,1,90,2|0,3:2|0:0,0:0:0:0:
288,267,72171,1,2,3:2:0:0:
405,157,72338,2,0,P|355:145|307:145,1,90,2|0,0:0|3:0,0:0:0:0:
228,344,72671,2,0,P|278:356|326:356,1,90,2|0,0:0|3:0,0:0:0:0:
176,217,73004,1,2,0:0:0:0:
134,346,73171,5,2,3:2:0:0:
82,219,73338,1,2,0:0:0:0:
228,344,73504,1,2,3:2:0:0:
270,215,73671,1,2,0:0:0:0:
272,192,73754,1,2,0:0:0:0:
274,169,73838,1,2,3:2:0:0:
322,342,74004,2,0,P|373:347|424:339,1,90,2|0,0:0|3:2,0:0:0:0:
493,261,74338,1,2,0:0:0:0:
270,215,74504,6,0,P|303:152|301:8,1,180,4|2,3:2|3:2,0:0:0:0:
126,184,75004,2,0,P|152:242|162:282,1,90,2|2,0:0|3:2,0:0:0:0:
352,237,75338,2,0,P|378:179|388:139,1,90,2|0,0:0|3:2,0:0:0:0:
230,88,75671,1,2,0:0:0:0:
159,267,75838,5,2,3:2:0:0:
122,143,76004,1,2,0:0:0:0:
70,280,76171,1,2,3:2:0:0:
222,177,76338,1,2,0:0:0:0:
234,307,76504,1,2,3:2:0:0:
190,77,76671,1,2,0:0:0:0:
188,54,76754,1,2,0:0:0:0:
186,31,76838,1,0,3:2:0:0:
46,199,77004,1,2,0:0:0:0:
326,99,77171,6,0,P|315:151|307:246,1,135,4|0,3:2|0:0,0:0:0:0:
338,265,77504,2,0,P|348:306|348:372,1,90,8|2,0:0|3:2,0:0:0:0:
222,293,77838,1,0,0:0:0:0:
411,201,78004,1,0,3:2:0:0:
218,124,78171,2,0,P|172:102|119:100,1,90,8|0,0:0|0:0,0:0:0:0:
256,224,78504,5,4,3:2:0:0:
379,98,78671,1,0,3:2:0:0:
375,75,78754,1,0,3:2:0:0:
371,52,78838,1,8,0:0:0:0:
133,98,79004,1,0,3:2:0:0:
137,75,79087,1,0,3:2:0:0:
141,52,79171,1,8,0:0:0:0:
256,314,79338,1,2,3:2:0:0:
256,291,79421,1,0,3:2:0:0:
256,269,79504,2,0,L|256:197,1,45,10|0,0:0|0:0,0:0:0:0:
256,0,79671,2,0,L|256:72,1,45,2|0,3:2|3:2,0:0:0:0:
111,280,80504,6,0,B|164:318|164:318|281:303,1,161.999995056153,4|0,3:2|0:0,0:0:0:0:
314,300,80804,2,0,P|295:244|296:195,1,107.999996704102,8|2,0:0|0:0,0:0:0:0:
388,109,81104,1,2,3:2:0:0:
185,192,81254,1,2,0:0:0:0:
177,166,81329,1,0,0:0:0:0:
176,139,81404,2,0,P|180:108|189:80,1,53.9999983520508,10|0,0:0|0:0,0:0:0:0:
51,210,81554,2,0,P|46:179|38:151,1,53.9999983520508,2|0,0:0|0:0,0:0:0:0:
117,327,81704,6,0,L|247:320,1,107.999996704102,6|0,3:2|0:0,0:0:0:0:
132,243,81929,1,2,0:0:0:0:
132,243,82004,6,0,L|262:236,1,125.999996154785,10|0,0:2|0:0,0:0:0:0:
147,159,82229,1,2,0:0:0:0:
147,159,82304,6,0,L|297:150,1,144,2|0,3:2|0:0,0:0:0:0:
162,75,82529,1,2,0:0:0:0:
162,75,82604,6,0,L|237:70,1,53.9999983520508,8|0,0:0|0:0,0:0:0:0:
321,20,82754,2,0,L|396:15,1,53.9999983520508,2|0,0:2|0:0,0:0:0:0:
448,162,82904,5,2,3:2:0:0:
303,268,83054,1,2,0:0:0:0:
295,242,83129,1,2,0:0:0:0:
296,215,83204,2,0,P|303:150|315:102,1,107.999996704102,10|2,0:0|0:0,0:0:0:0:
159,349,83504,2,0,P|152:284|140:236,1,107.999996704102,2|0,3:2|0:0,0:0:0:0:
65,194,83729,1,2,0:0:0:0:
65,194,83804,2,0,P|65:161|70:136,1,53.9999983520508,10|2,0:0|0:1,0:0:0:0:
178,12,83954,6,0,P|192:63|200:137,1,107.999996704102,0|2,0:0|3:2,0:0:0:0:
343,305,84254,1,2,0:0:0:0:
343,305,84329,1,2,0:0:0:0:
343,305,84404,1,8,0:0:0:0:
312,108,84554,1,2,0:0:0:0:
142,242,84704,2,0,P|202:256|260:257,1,107.999996704102,2|0,3:2|0:0,0:0:0:0:
453,91,85004,6,0,L|396:78,1,53.9999983520508,12|0,0:0|0:0,0:0:0:0:
161,138,85154,2,0,L|213:150,1,53.9999983520508
357,286,85304,1,2,3:2:0:0:
357,286,85379,1,0,3:2:0:0:
357,286,85454,1,0,3:2:0:0:
464,78,85604,6,0,L|401:64,1,53.9999983520508,12|0,0:0|0:0,0:0:0:0:
143,130,85754,2,0,L|201:143,1,53.9999983520508
359,292,85904,1,2,3:2:0:0:
359,292,85979,1,0,3:2:0:0:
359,292,86054,1,0,3:2:0:0:
310,12,86204,6,0,P|292:66|284:132,1,107.999996704102,12|0,0:0|0:0,0:0:0:0:
473,326,86504,2,0,P|464:272|447:221,1,107.999996704102,2|0,3:2|0:0,0:0:0:0:
169,277,86804,1,8,0:2:0:0:
359,292,86954,1,0,0:0:0:0:
64,315,87104,2,0,P|72:261|89:210,1,107.999996704102,2|0,3:2|0:0,0:0:0:0:
48,134,87329,1,2,0:0:0:0:
48,134,87404,2,0,P|98:114|151:103,1,107.999996704102,12|0,0:2|0:0,0:0:0:0:
196,29,87629,1,2,0:0:0:0:
196,29,87704,6,0,P|221:44|261:81,1,53.9999983520508,0|0,3:2|0:0,0:0:0:0:
225,276,87854,1,2,0:0:0:0:
280,155,88004,1,8,0:0:0:0:
384,228,88154,1,2,0:0:0:0:
202,42,88304,6,0,P|227:57|267:94,1,45,0|0,3:2|0:0,0:0:0:0:
232,270,88454,1,2,0:0:0:0:
281,161,88604,1,8,0:0:0:0:
375,227,88754,1,2,0:0:0:0:
208,55,88904,6,0,P|228:67|260:97,1,36,0|0,3:2|0:0,0:0:0:0:
238,265,89054,1,2,0:2:0:0:
283,167,89204,1,8,0:0:0:0:
367,226,89354,1,2,0:0:0:0:
213,67,89504,6,0,P|228:76|252:98,1,26.9999991760254,2|0,3:2|0:0,0:0:0:0:
244,260,89654,1,2,0:2:0:0:
284,172,89804,1,14,0:0:0:0:
360,225,89954,1,0,0:0:0:0:
155,167,90104,6,0,P|122:220|104:278,1,107.999996704102,2|0,3:2|0:0,0:0:0:0:
47,344,90329,1,2,0:0:0:0:
47,344,90404,2,0,P|28:293|0:248,1,107.999996704102,8|0,0:0|0:0,0:0:0:0:
103,45,90704,1,0,3:2:0:0:
155,167,90854,1,0,0:0:0:0:
252,16,91004,2,0,P|244:73|245:141,1,107.999996704102,14|0,0:0|0:0,0:0:0:0:
317,172,91229,1,2,0:0:0:0:
317,172,91304,6,0,L|323:249,1,53.9999983520508,6|0,3:2|0:0,0:0:0:0:
258,308,91454,1,0,0:0:0:0:
355,77,91604,1,4,3:2:0:0:
355,77,91904,1,2,0:0:0:0:
252,16,92054,1,2,0:0:0:0:
252,16,92354,1,0,0:0:0:0:
298,212,92504,6,0,B|255:181|255:181|172:198,1,125.999996154785,4|0,3:2|3:2,0:0:0:0:
95,212,92729,1,0,3:2:0:0:
95,212,92804,2,0,B|120:253|135:356,1,125.999996154785,8|2,0:2|3:2,0:2:0:0:
225,381,93029,1,0,0:0:0:0:
225,381,93104,2,0,P|224:346|227:313,1,62.9999980773926,2|0,3:2|0:0,0:0:0:0:
386,256,93254,1,0,3:2:0:0:
393,225,93329,1,0,3:2:0:0:
399,194,93404,2,0,P|400:159|397:126,1,62.9999980773926,8|0,0:0|0:0,0:0:0:0:
222,9,93554,2,0,P|219:40|221:71,1,62.9999980773926,2|0,3:2|0:0,0:0:0:0:
261,220,93704,5,4,3:2:0:0:
399,36,93854,2,0,B|355:53|355:53|319:84,1,90,8|0,0:0|0:0,0:0:0:0:
270,233,94004,5,2,3:2:0:0:
32,191,94154,2,0,B|68:219|68:219|113:235,1,90,8|0,0:0|0:0,0:0:0:0:
279,246,94304,5,2,3:2:0:0:
170,8,94454,1,8,0:0:0:0:
163,52,94529,1,8,0:0:0:0:
172,96,94604,1,10,0:0:0:0:
288,259,94754,1,2,0:0:0:0:
360,74,94904,6,0,P|296:70|225:108,1,125.999996154785,2|2,3:2|3:2,0:0:0:0:
248,191,95129,1,2,3:2:0:0:
248,191,95204,6,0,P|312:195|383:157,1,144,8|0,0:0|3:2,0:0:0:0:
370,57,95429,1,2,3:2:0:0:
370,57,95504,6,0,P|295:52|213:96,1,161.999995056153,2|0,3:2|3:2,0:0:0:0:
237,207,95729,1,2,3:2:0:0:
237,207,95804,6,0,L|248:288,1,62.9999980773926,8|0,0:0|0:0,0:0:0:0:
376,45,95954,2,0,L|367:107,1,62.9999980773926,8|0,0:0|0:0,0:0:0:0:
352,267,96104,5,4,3:2:0:0:
158,154,96254,2,0,B|186:122|186:122|251:105,1,90,8|0,0:0|0:0,0:0:0:0:
354,282,96404,5,4,3:2:0:0:
507,105,96554,2,0,B|470:82|470:82|404:84,1,90,8|0,0:0|0:0,0:0:0:0:
356,298,96704,5,4,3:2:0:0:
317,21,96854,1,8,0:0:0:0:
323,65,96929,1,8,0:0:0:0:
330,110,97004,1,8,0:0:0:0:
358,314,97154,1,8,0:0:0:0:
209,202,97304,6,0,P|200:151|196:95,1,90,6|0,3:2|0:0,0:0:0:0:
98,34,97604,2,0,P|93:78|85:123,1,90,2|2,3:2|0:0,0:0:0:0:
26,227,97904,1,2,3:2:0:0:
159,356,98054,2,0,P|154:311|146:266,1,90,2|0,0:0|3:2,0:0:0:0:
4,217,98354,1,2,0:0:0:0:
85,123,98504,6,0,P|133:113|196:111,1,90,2|0,3:2|0:0,0:0:0:0:
308,20,98804,2,0,P|263:16|219:7,1,90,0|2,3:2|0:0,0:0:0:0:
299,150,99104,2,0,P|308:192|310:264,1,90,2|0,3:2|0:0,0:0:0:0:
434,108,99404,2,0,P|436:63|446:19,1,90,2|0,3:2|0:0,0:0:0:0:
463,340,99704,6,0,P|412:337|269:338,1,180,2|2,3:2|3:2,0:0:0:0:
173,368,100154,1,0,0:0:0:0:
115,190,100304,2,0,P|134:244|149:296,1,90,2|0,3:2|0:0,0:0:0:0:
237,139,100604,2,0,P|250:95|258:71,1,45,8|0,0:0|0:0,0:0:0:0:
324,14,100754,1,0,0:0:0:0:
400,175,100904,6,0,P|382:223|365:286,1,90,2|0,3:2|0:0,0:0:0:0:
269,369,101204,2,0,P|264:338|259:316,1,45,8|0,0:0|0:0,0:0:0:0:
244,219,101354,1,0,0:0:0:0:
145,344,101504,1,2,3:2:0:0:
171,161,101654,1,0,3:2:0:0:
43,286,101804,2,0,P|38:308|35:330,1,45,8|0,0:0|0:0,0:0:0:0:
56,153,101954,1,8,0:0:0:0:
51,130,102029,1,8,0:0:0:0:
46,107,102104,5,8,0:0:0:0:
256,40,103304,5,0,3:2:0:0:
256,328,103754,2,0,L|248:216,1,90,2|2,0:0|0:0,0:0:0:0:
249,238,104204,1,2,0:0:0:0:
206,70,104504,6,0,L|200:121,1,45,2|0,3:2|0:0,0:0:0:0:
415,179,104654,1,2,0:0:0:0:
212,75,104804,6,0,L|206:126,1,45,2|0,3:2|0:0,0:0:0:0:
409,174,104954,1,2,0:0:0:0:
219,79,105104,6,0,L|214:126,1,45,2|0,3:2|0:0,0:0:0:0:
401,169,105254,1,2,0:0:0:0:
225,83,105404,6,0,L|219:139,1,45,2|0,3:2|0:0,0:0:0:0:
395,165,105554,1,2,0:0:0:0:
231,87,105704,6,0,L|226:137,1,45,2|0,3:2|0:0,0:0:0:0:
389,161,105854,1,2,0:0:0:0:
236,91,106004,6,0,L|231:135,1,45,2|0,3:2|0:0,0:0:0:0:
384,157,106154,1,2,0:0:0:0:
244,94,106304,6,0,L|230:217,1,90,2|0,3:2|0:0,0:0:0:0:
110,169,106529,2,0,L|123:292,1,90,2|0,0:1|0:0,0:0:0:0:
204,322,106754,2,0,L|197:383,1,45,2|0,3:2|0:0,0:0:0:0:
331,264,106904,6,0,L|324:202,1,45,2|0,3:2|0:0,0:0:0:0:
244,94,107054,1,2,0:0:0:0:
326,255,107204,6,0,L|320:200,1,45,2|0,3:2|0:0,0:0:0:0:
248,102,107354,1,2,0:0:0:0:
322,247,107504,6,0,L|317:197,1,45,2|0,3:2|0:0,0:0:0:0:
252,110,107654,1,2,0:0:0:0:
319,240,107804,6,0,L|314:195,1,45,2|0,3:2|0:0,0:0:0:0:
255,117,107954,1,2,0:0:0:0:
315,234,108104,6,0,L|309:178,1,45,2|0,3:2|0:0,0:0:0:0:
259,123,108254,1,2,0:0:0:0:
313,228,108404,6,0,L|307:178,1,45,2|0,3:2|0:0,0:0:0:0:
261,129,108554,1,2,0:0:0:0:
310,223,108704,6,0,L|299:119,1,90,2|0,3:2|0:0,0:0:0:0:
389,115,108929,2,0,L|377:10,1,90,2|0,0:1|0:0,0:0:0:0:
452,202,109154,2,0,L|444:268,1,45,2|0,3:2|0:0,0:0:0:0:
267,366,109304,5,4,3:2:0:0:
310,223,109454,1,0,3:2:0:0:
373,363,109604,1,0,3:2:0:0:
211,224,109754,1,0,3:2:0:0:
116,355,109904,2,0,P|105:295|102:243,1,90,2|0,3:1|0:0,0:0:0:0:
28,193,110129,2,0,P|39:133|42:81,1,90,2|0,3:1|0:0,0:0:0:0:
135,24,110354,2,0,P|140:47|147:83,1,45,2|0,3:1|3:2,0:0:0:0:
211,224,110504,5,2,3:2:0:0:
253,53,110654,1,0,3:2:0:0:
315,213,110804,1,0,3:2:0:0:
344,35,110954,1,0,3:2:0:0:
430,173,111104,2,0,P|450:230|456:278,1,90,2|0,3:1|0:0,0:0:0:0:
384,350,111329,2,0,P|324:338|280:320,1,90,2|0,3:1|0:0,0:0:0:0:
315,213,111554,2,0,P|316:186|322:157,1,45,2|0,3:1|0:0,0:0:0:0:
249,65,111704,5,2,3:2:0:0:
210,42,111779,1,0,3:2:0:0:
166,35,111854,1,0,3:2:0:0:
122,46,111929,1,0,3:2:0:0:
85,71,112004,1,0,3:2:0:0:
61,109,112079,1,0,3:2:0:0:
52,153,112154,1,2,3:2:0:0:
60,197,112229,1,0,3:2:0:0:
84,235,112304,2,0,P|120:264|179:281,1,90,6|0,3:1|0:0,0:0:0:0:
246,355,112529,2,0,P|281:326|340:309,1,90,2|0,3:1|0:0,0:0:0:0:
447,340,112754,2,0,P|474:352|500:357,1,45,2|0,3:1|0:0,0:0:0:0:
414,137,112904,6,0,P|403:198|402:249,1,90,6|0,3:1|0:0,0:0:0:0:
322,311,113129,2,0,P|318:266|309:222,1,90,2|0,3:1|0:0,0:0:0:0:
250,128,113354,2,0,P|253:105|262:76,1,45,2|0,3:1|0:0,0:0:0:0:
189,292,113504,6,0,L|175:161,1,107.999996704102,6|0,3:1|0:0,0:0:0:0:
105,322,113729,2,0,L|91:191,1,107.999996704102,6|0,3:1|0:0,0:0:0:0:
21,352,113954,1,6,3:1:0:0:
334,83,114704,6,0,P|294:59|205:68,1,135.000005149842,4|0,3:2|0:0,0:0:0:0:
198,161,115154,2,0,P|238:185|327:176,1,135.000005149842,2|2,0:0|0:0,0:0:0:0:
413,137,115604,1,2,0:0:0:0:
413,137,115754,1,0,0:0:0:0:
436,231,115904,2,0,P|429:273|425:312,1,67.5000025749208,2|0,3:2|0:0,0:0:0:0:
332,292,116204,2,0,P|346:331|362:367,1,67.5000025749208,2|0,0:0|0:0,0:0:0:0:
246,367,116504,2,0,P|207:352|166:349,1,67.5000025749208,2|0,0:0|0:0,0:0:0:0:
86,362,116804,1,2,0:0:0:0:
53,279,116954,1,2,0:0:0:0:
122,210,117104,6,0,P|127:169|126:127,1,67.5000025749208,2|0,3:2|0:0,0:0:0:0:
81,57,117404,1,2,0:0:0:0:
81,57,117554,1,0,0:0:0:0:
200,13,117704,2,0,P|220:52|240:154,1,135.000005149842,2|2,0:0|0:0,0:0:0:0:
334,204,118154,2,0,P|346:152|356:124,1,67.5000025749208,2|0,0:0|3:2,0:0:0:0:
444,81,118454,1,0,0:0:0:0:
473,165,118604,1,2,0:0:0:0:
423,238,118754,1,2,0:0:0:0:
452,322,118904,1,2,0:0:0:0:
452,322,119204,2,0,P|409:338|374:344,1,67.5000025749208,2|2,0:0|0:0,0:0:0:0:
279,346,119504,6,0,L|284:235,1,90,6|0,3:2|0:0,0:0:0:0:
150,148,119804,2,0,L|145:237,1,90,2|0,3:2|0:0,0:0:0:0:
300,355,120104,2,0,L|305:244,1,90,2|0,3:2|0:0,0:0:0:0:
315,42,120404,1,2,3:2:0:0:
255,137,120554,1,0,0:0:0:0:
361,142,120704,6,0,P|428:131|465:114,1,90,2|0,3:2|0:0,0:0:0:0:
209,37,121004,2,0,P|166:22|121:17,1,90,2|0,3:2|0:0,0:0:0:0:
46,146,121304,1,2,3:2:0:0:
165,129,121454,1,0,0:0:0:0:
106,227,121604,2,0,P|94:278|84:346,1,90,2|0,3:2|0:0,0:0:0:0:
351,288,121904,6,0,P|315:235|186:254,1,180,2|0,3:2|3:2,0:2:0:0:
261,310,122354,1,2,0:0:0:0:
357,178,122504,2,0,P|317:154|257:146,1,90,2|0,3:2|0:0,0:2:0:0:
258,323,122804,1,0,3:2:0:0:
258,323,122954,1,2,0:0:0:0:
351,288,123104,2,0,P|315:235|186:254,1,180,2|2,3:2|3:2,0:0:0:0:
255,336,123554,1,0,0:0:0:0:
320,155,123704,1,2,3:2:0:0:
252,349,123854,1,2,0:0:0:0:
249,362,124004,1,2,3:2:0:0:
249,362,124304,6,0,L|246:310,1,45,6|0,3:2|0:0,0:0:0:0:
167,303,124454,2,0,L|170:251,1,45,0|0,3:2|0:0,0:0:0:0:
346,328,124604,6,0,L|343:276,1,45,2|0,3:2|0:0,0:0:0:0:
257,229,124754,2,0,L|260:177,1,45,0|0,3:2|0:0,0:0:0:0:
370,183,124904,6,0,L|367:131,1,45,2|0,3:2|0:0,0:0:0:0:
186,148,125054,2,0,L|189:96,1,45,0|0,3:2|3:2,0:0:0:0:
451,131,125204,6,0,L|448:79,1,45,0|0,3:2|0:0,0:0:0:0:
271,49,125354,1,0,3:2:0:0:
272,26,125429,1,0,3:2:0:0:
273,4,125504,5,2,3:2:0:0:
223,358,125804,1,2,3:2:0:0:
223,358,126104,1,2,0:0:0:0:
174,263,126254,1,2,0:0:0:0:
174,263,126554,1,2,0:0:0:0:
343,332,126704,6,0,B|334:253|334:253|356:182,1,135.000005149842,4|0,3:2|3:2,0:0:0:0:
403,126,126929,1,0,3:2:0:0:
403,126,127004,2,0,P|402:86|392:56,1,67.5000025749208,8|0,0:0|0:0,0:0:0:0:
230,16,127154,2,0,P|231:56|241:86,1,67.5000025749208,0|0,3:2|0:0,0:0:0:0:
245,227,127304,1,2,3:2:0:0:
108,89,127454,1,0,3:2:0:0:
91,118,127529,1,0,3:2:0:0:
88,152,127604,2,0,B|85:209|85:209|117:292,1,135.000005149842,8|2,0:0|3:2,0:0:0:0:
184,345,127829,1,0,0:0:0:0:
184,345,127904,5,2,3:2:0:0:
228,92,128054,2,0,B|211:137|211:137|212:178,1,90,8|0,0:0|0:0,0:0:0:0:
182,352,128204,5,0,3:2:0:0:
370,207,128354,2,0,B|322:215|322:215|287:237,1,90,8|0,0:0|0:0,0:0:0:0:
181,360,128504,5,0,3:2:0:0:
393,381,128654,1,8,0:0:0:0:
370,355,128729,1,8,0:0:0:0:
345,335,128804,2,0,B|311:319|311:319|278:316,1,67.5000025749208,8|0,0:0|0:0,0:0:0:0:
16,306,128954,2,0,B|50:322|50:322|83:325,1,67.5000025749208,2|0,3:2|0:0,0:0:0:0:
193,124,129104,6,0,B|161:169|161:169|175:273,1,135.000005149842,0|0,3:2|3:2,0:0:0:0:
250,194,129329,1,2,3:2:0:0:
250,194,129404,6,0,B|282:149|282:149|268:45,1,153.000002918243,8|2,0:0|3:2,0:0:0:0:
115,92,129629,1,2,3:2:0:0:
115,92,129704,6,0,B|78:142|78:142|94:259,1,170.999995433807,0|0,3:2|3:2,0:0:0:0:
161,314,129929,1,2,3:2:0:0:
161,314,130004,6,0,L|174:232,1,67.5000025749208,8|0,0:0|0:0,0:0:0:0:
267,363,130154,2,0,L|254:281,1,67.5000025749208,10|0,0:2|0:0,0:0:0:0:
271,128,130304,5,4,3:2:0:0:
354,283,130454,2,0,B|373:246|373:246|376:169,1,90,10|0,0:2|0:0,0:0:0:0:
273,112,130604,5,4,3:2:0:0:
139,245,130754,2,0,B|132:204|132:204|157:130,1,90,10|0,0:2|0:0,0:0:0:0:
276,96,130904,5,4,3:2:0:0:
282,341,131054,1,8,0:0:0:0:
233,340,131129,1,8,0:0:0:0:
187,324,131204,1,8,0:0:0:0:
279,80,131354,1,8,0:0:0:0:
299,226,131504,6,0,P|253:225|207:204,1,90,6|0,3:2|0:2,0:2:0:0:
391,123,131804,2,0,P|437:124|483:145,1,90,2|2,3:2|0:0,0:0:0:0:
452,286,132104,1,2,3:2:0:0:
308,314,132254,2,0,P|297:262|300:215,1,90,2|0,0:0|3:2,0:0:0:0:
284,117,132554,1,2,0:0:0:0:
158,221,132704,6,0,P|185:136|179:24,1,180,2|0,3:2|3:2,0:0:0:0:
64,22,133154,1,2,0:0:0:0:
24,153,133304,2,0,P|30:216|37:269,1,90,2|0,3:2|0:0,0:0:0:0:
167,310,133604,2,0,P|161:247|154:194,1,90,0|0,3:2|0:0,0:0:0:0:
306,61,133904,6,0,P|278:108|264:158,1,90,2|0,3:2|0:0,0:0:0:0:
413,238,134204,1,2,3:2:0:0:
402,115,134354,1,0,0:0:0:0:
298,259,134504,2,0,P|313:307|323:369,1,90,2|0,3:2|0:0,0:0:0:0:
137,362,134804,2,0,P|138:337|144:308,1,45,10|0,0:0|0:0,0:0:0:0:
182,208,134954,1,0,0:0:0:0:
35,241,135104,6,0,P|61:186|97:143,1,90,2|0,3:2|0:0,0:0:0:0:
206,77,135404,2,0,P|176:71|140:67,1,45,10|0,0:0|0:0,0:0:0:0:
33,74,135554,1,0,0:0:0:0:
226,182,135704,1,2,3:2:0:0:
35,241,135854,1,0,3:2:0:0:
258,288,136004,1,8,0:0:0:0:
59,366,136154,1,8,0:0:0:0:
59,366,136229,1,8,0:0:0:0:
59,366,136304,6,0,L|70:271,1,90,2|0,3:2|0:0,0:0:0:0:
272,279,136604,2,0,L|261:368,1,90,2|0,3:2|0:0,0:0:0:0:
75,245,136904,6,0,L|86:150,1,90,2|2,3:2|0:0,0:0:0:0:
288,158,137204,2,0,L|277:247,1,90,2|0,0:0|3:2,0:0:0:0:
90,126,137504,6,0,L|95:78,1,45,0|0,3:2|0:0,0:0:0:0:
296,92,137654,2,0,L|290:139,1,45,0|0,3:2|0:0,0:0:0:0:
201,21,137804,1,0,3:2:0:0:
198,43,137879,1,0,3:2:0:0:
195,65,137954,1,0,3:2:0:0:
193,88,138029,1,0,3:2:0:0:
190,110,138104,1,0,3:2:0:0:
188,132,138179,1,0,3:2:0:0:
185,155,138254,1,0,3:2:0:0:
182,177,138329,1,0,3:2:0:0:
180,199,138404,6,0,L|171:268,1,67.5,2|0,0:0|0:0,0:0:0:0:
415,275,138704,6,0,B|415:238|415:238|401:188,1,67.5000025749208,4|0,3:2|0:0,0:0:0:0:
364,71,138854,1,0,3:2:0:0:
277,367,139004,2,0,B|263:300|263:300|285:223,1,135.000005149842,8|0,0:0|3:2,0:0:0:0:
363,45,139304,1,2,3:2:0:0:
204,165,139454,1,0,3:2:0:0:
192,133,139529,1,0,3:2:0:0:
191,99,139604,2,0,B|195:63|195:63|211:29,1,67.5000025749208,8|0,0:0|0:0,0:0:0:0:
335,155,139754,1,2,3:2:0:0:
127,203,139904,5,2,3:2:0:0:
377,246,140054,2,0,B|343:250|343:250|294:247,1,67.5000025749208,8|0,0:0|0:0,0:0:0:0:
107,200,140204,5,0,3:2:0:0:
252,332,140354,2,0,B|231:304|231:304|209:260,1,67.5000025749208,8|0,0:0|0:0,0:0:0:0:
87,197,140504,5,0,3:2:0:0:
366,95,140654,1,8,0:0:0:0:
352,125,140729,1,8,0:0:0:0:
334,154,140804,2,0,B|302:169|302:169|262:176,1,67.5000025749208,0|0,3:2|0:0,0:0:0:0:
80,69,140954,2,0,B|112:54|112:54|152:47,1,67.5000025749208,8|0,0:0|0:0,0:0:0:0:
189,266,141104,6,0,B|166:225|166:225|191:120,1,135.000005149842,2|0,3:2|3:2,0:0:0:0:
230,61,141329,1,0,3:2:0:0:
230,61,141404,2,0,P|262:47|300:46,1,67.5000025749208,8|0,0:0|0:0,0:0:0:0:
396,254,141554,2,0,P|362:251|331:238,1,67.5000025749208,0|0,3:2|0:0,0:0:0:0:
392,122,141704,1,2,3:2:0:0:
379,330,141854,1,0,3:2:0:0:
345,327,141929,1,0,3:2:0:0:
314,314,142004,2,0,P|280:303|245:297,1,67.5000025749208,8|0,0:0|0:0,0:0:0:0:
100,348,142154,1,2,3:2:0:0:
100,348,142229,1,0,3:2:0:0:
100,348,142304,5,4,3:2:0:0:
84,147,142454,2,0,B|66:181|66:181|62:233,1,67.5000025749208,8|0,0:0|0:0,0:0:0:0:
85,355,142604,5,0,3:2:0:0:
264,337,142754,2,0,B|243:304|243:304|219:288,1,67.5000025749208,8|0,0:0|0:0,0:0:0:0:
70,362,142904,5,0,3:2:0:0:
229,190,143054,1,8,0:0:0:0:
195,191,143129,1,8,0:0:0:0:
164,203,143204,1,0,3:2:0:0:
55,369,143354,1,8,0:0:0:0:
47,240,143504,5,2,3:2:0:0:
17,199,143579,1,2,3:2:0:0:
5,150,143654,1,2,3:2:0:0:
12,100,143729,1,2,3:2:0:0:
37,57,143804,1,10,0:2:0:0:
77,26,143879,1,2,3:2:0:0:
126,13,143954,1,2,3:2:0:0:
176,18,144029,1,2,3:2:0:0:
220,42,144104,5,2,3:2:0:0:
222,76,144179,1,2,3:2:0:0:
225,110,144254,1,2,3:2:0:0:
228,143,144329,1,2,3:2:0:0:
255,170,144404,5,10,0:0:0:0:
252,196,144479,1,2,3:2:0:0:
250,223,144554,1,2,3:2:0:0:
247,249,144629,1,2,3:2:0:0:
245,277,144704,5,2,3:2:0:0:
373,135,144854,2,0,L|369:222,1,67.5000025749208,8|0,0:0|0:0,0:0:0:0:
243,305,145004,5,0,3:2:0:0:
172,99,145154,2,0,L|145:182,1,67.5000025749208,8|0,0:0|0:0,0:0:0:0:
241,333,145304,5,0,3:2:0:0:
279,80,145454,1,8,0:0:0:0:
273,112,145529,1,8,0:2:0:0:
268,146,145604,2,0,L|257:213,1,67.5000025749208,0|0,3:2|3:2,0:0:0:0:
93,309,145754,2,0,L|82:242,1,67.5000025749208,8|0,0:0|0:0,0:0:0:0:
72,21,145904,6,0,B|123:61|123:61|204:52,1,135.000005149842,2|2,3:2|3:2,0:0:0:0:
289,13,146129,1,2,0:0:0:0:
289,13,146204,2,0,L|278:80,1,67.5000025749208,10|2,0:0|0:0,0:0:0:0:
209,130,146354,2,0,L|220:197,1,67.5000025749208,2|2,3:2|0:0,0:0:0:0:
297,237,146504,1,2,3:2:0:0:
147,250,146654,1,2,3:2:0:0:
147,250,146729,1,2,3:2:0:0:
147,250,146804,2,0,L|158:317,1,67.5000025749208,10|2,0:0|0:0,0:0:0:0:
349,367,146954,1,2,3:2:0:0:
349,367,147029,1,2,3:2:0:0:
349,367,147104,6,0,L|360:300,1,67.5000025749208,0|0,3:2|0:0,0:0:0:0:
103,101,147254,1,8,0:0:0:0:
103,101,147329,1,8,0:0:0:0:
103,101,147404,6,0,L|114:168,1,67.5000025749208,0|0,3:2|0:0,0:0:0:0:
387,218,147554,1,8,0:0:0:0:
387,218,147629,1,8,0:0:0:0:
387,218,147704,6,0,L|398:151,1,67.5000025749208,2|2,3:2|0:0,0:0:0:0:
314,40,147854,1,10,0:0:0:0:
256,5,147929,1,10,0:0:0:0:
190,6,148004,1,10,3:2:0:0:
133,41,148079,1,10,0:0:0:0:
103,101,148154,1,10,0:0:0:0:
109,167,148229,1,10,0:0:0:0:
149,221,148304,6,0,P|209:255|284:250,1,135.000005149842,4|0,3:2|0:0,0:0:0:0:
372,216,148529,1,2,0:2:0:0:
372,216,148604,2,0,L|354:362,1,135.000005149842,8|0,0:0|0:0,0:0:0:0:
226,135,148904,1,2,3:2:0:0:
254,348,149054,1,0,0:0:0:0:
311,75,149204,2,0,B|256:38|256:38|163:40,1,135.000005149842,10|0,0:0|0:0,0:0:0:0:
100,49,149429,1,2,0:0:0:0:
100,49,149504,6,0,P|120:107|128:183,1,135.000005149842,4|0,3:2|0:0,0:0:0:0:
60,305,149804,1,8,0:0:0:0:
29,160,149954,1,2,0:0:0:0:
199,317,150104,2,0,P|219:259|227:183,1,135.000005149842,2|0,3:2|0:0,0:0:0:0:
228,29,150404,1,10,0:0:0:0:
250,54,150479,1,2,0:0:0:0:
279,71,150554,1,2,0:0:0:0:
311,79,150629,1,10,0:0:0:0:
345,77,150704,6,0,P|434:74|491:107,1,135.000005149842,2|0,3:2|3:2,0:0:0:0:
496,182,150929,1,0,3:2:0:0:
496,182,151004,2,0,L|479:341,1,135.000005149842,8|0,0:2|3:2,3:2:0:0:
226,312,151304,1,8,0:0:0:0:
399,254,151454,1,0,3:2:0:0:
234,164,151604,2,0,P|199:154|163:151,1,67.5000025749208,8|0,0:0|0:0,0:0:0:0:
77,227,151754,1,2,3:2:0:0:
315,45,151904,5,2,3:2:0:0:
77,72,152054,2,0,P|110:57|143:51,1,67.5000025749208,8|0,0:0|0:0,0:0:0:0:
327,30,152204,5,0,3:2:0:0:
119,215,152354,2,0,P|122:178|133:147,1,67.5000025749208,8|0,0:0|0:0,0:0:0:0:
339,15,152504,5,2,3:2:0:0:
263,250,152654,1,8,0:0:0:0:
235,230,152729,1,8,0:0:0:0:
213,205,152804,1,0,3:2:0:0:
413,111,152954,1,8,0:0:0:0:
454,328,153104,6,0,B|402:347|402:347|341:341,1,107.999996704102,4|0,3:2|0:0,0:0:0:0:
152,114,153404,2,0,B|204:95|204:95|265:101,1,107.999996704102,0|0,3:2|0:0,0:0:0:0:
245,378,153704,2,0,B|198:334|198:334|215:182,1,215.999993408203,2|0,3:2|3:2,0:0:0:0:
355,46,154154,1,0,0:0:0:0:
457,218,154304,6,0,P|403:243|342:244,1,107.999996704102,2|2,3:2|0:0,0:0:0:0:
256,100,154604,1,0,3:2:0:0:
443,126,154754,1,2,0:0:0:0:
254,232,154904,1,2,3:2:0:0:
343,23,155054,1,2,0:0:0:0:
343,23,155129,1,2,0:0:0:0:
343,23,155204,1,0,3:2:0:0:
362,265,155354,1,2,0:0:0:0:
175,52,155504,6,0,P|108:38|41:42,1,107.999996704102,2|0,3:2|0:0,0:0:0:0:
290,334,155804,2,0,P|357:348|424:344,1,107.999996704102,0|2,3:2|0:0,0:0:0:0:
487,316,156029,1,2,0:0:0:0:
487,316,156104,2,0,L|477:182,1,107.999996704102,0|2,3:2|0:0,0:0:0:0:
420,126,156329,1,2,0:0:0:0:
420,126,156404,2,0,L|425:59,1,53.9999983520508,8|0,0:0|0:0,0:0:0:0:
104,192,156554,2,0,L|109:259,1,53.9999983520508,8|0,0:0|0:0,0:0:0:0:
256,360,156704,5,4,3:2:0:0:
319,225,156854,6,0,L|310:293,1,58.4999973220826,2|0,3:2|0:0,0:0:0:0:
206,177,157004,6,0,L|215:245,1,67.5000025749208,8|0,0:0|0:0,0:0:0:0:
402,263,157154,6,0,L|391:343,1,76.5000014591217,0|0,3:2|0:0,0:0:0:0:
108,245,157304,6,0,L|119:331,1,85.4999977169037,2|0,3:2|0:0,0:0:0:0:
432,32,157454,6,0,L|417:142,1,94.499997116089,2|0,3:2|0:0,0:0:0:0:
115,43,157604,6,0,L|129:153,1,103.500001974106,10|0,0:0|0:0,0:0:0:0:
256,368,157754,5,6,3:2:0:0:
260,348,157829,1,2,0:1:0:0:
