osu file format v14

[General]
AudioFilename: audio.mp3
AudioLeadIn: 0
PreviewTime: 80421
Countdown: 0
SampleSet: Soft
StackLeniency: 0.9
Mode: 0
LetterboxInBreaks: 0
WidescreenStoryboard: 1

[Editor]
Bookmarks: 12277,38277,66504,92504,104504,109304,124304,126704,138704,157904
DistanceSpacing: 0.7
BeatDivisor: 4
GridSize: 4
TimelineZoom: 1.5

[Metadata]
Title:Daemonisch
TitleUnicode:デモーニッシュ
Artist:TUYU
ArtistUnicode:ツユ
Creator:Keqing
Version:Mayu's Expert
Source:
Tags:devilish dämonisch demonish bongo guanineso stratos iljaaz -aqua captin1 ajisai- Woood13 SnowNiNo_ frozz -Keqing kazato asa shikibe mayu shizuku- pusu ぷす omutatsu おむたつ jpop j-pop japanese pop female vocals
BeatmapID:2970594
BeatmapSetID:1443294

[Difficulty]
HPDrainRate:6
CircleSize:4
OverallDifficulty:9
ApproachRate:9.3
SliderMultiplier:1.76
SliderTickRate:1

[Events]
//Background and Video events
0,0,"tuyu.png",0,0
Video,-54,"aa.mp4"
//Break Periods
//Storyboard Layer 0 (Background)
//Storyboard Layer 1 (Fail)
//Storyboard Layer 2 (Pass)
//Storyboard Layer 3 (Foreground)
//Storyboard Layer 4 (Overlay)
//Storyboard Sound Samples

[TimingPoints]
850,428.571428571429,4,2,4,50,1,0
4278,333.333333333333,4,2,4,65,1,0
9611,-90.9090909090909,4,2,4,65,0,0
10444,-100,4,2,4,65,0,0
12277,-90.9090909090909,4,2,4,65,0,0
13611,-83.3333333333333,4,2,4,65,0,0
14944,-90.9090909090909,4,2,4,75,0,0
22944,-83.3333333333333,4,2,4,75,0,0
26277,300,4,2,4,90,1,0
26277,-76.9230769230769,4,2,4,90,0,0
30777,-66.6666666666667,4,2,4,90,0,1
31077,-100,4,2,4,90,0,0
31377,-66.6666666666667,4,2,4,90,0,1
31677,-100,4,2,4,90,0,0
31977,-76.9230769230769,4,2,4,90,0,0
37677,-125,4,2,4,90,0,0
38277,-76.9230769230769,4,2,4,90,0,0
41877,-100,4,2,4,90,0,1
42102,-100,4,2,4,5,0,1
42177,-100,4,2,4,90,0,1
42402,-100,4,2,4,5,0,1
42477,-100,4,2,4,90,0,1
43077,-90.9090909090909,4,2,4,90,0,0
43377,-111.111111111111,4,2,4,90,0,0
50277,-76.9230769230769,4,2,4,90,0,1
55077,428.571428571429,4,2,4,90,1,0
55077,-142.857142857143,4,2,4,90,0,0
55934,-142.857142857143,4,2,4,50,0,0
58077,-50,4,2,4,50,0,0
58505,333.333333333333,4,2,4,65,1,0
63838,-90.9090909090909,4,2,4,65,0,0
64171,-100,4,2,4,65,0,0
66504,-83.3333333333333,4,2,4,65,0,0
69171,-90.9090909090909,4,2,4,75,0,0
77171,-83.3333333333333,4,2,4,75,0,0
80504,300,4,2,4,90,1,0
80504,-76.9230769230769,4,2,4,90,0,0
85004,-66.6666666666667,4,2,4,90,0,1
85304,-100,4,2,4,90,0,0
85604,-66.6666666666667,4,2,4,90,0,1
85904,-100,4,2,4,90,0,0
86204,-76.9230769230769,4,2,4,90,0,0
90704,-71.4285714285714,4,2,4,90,0,0
91004,-76.9230769230769,4,2,4,90,0,0
91604,-111.111111111111,4,2,4,90,0,0
92504,-76.9230769230769,4,2,4,90,0,0
96028,-100,4,2,4,5,0,0
96104,-66.6666666666667,4,2,4,90,0,1
96329,-100,4,2,4,5,0,1
96404,-66.6666666666667,4,2,4,90,0,1
96629,-100,4,2,4,5,0,1
96704,-66.6666666666667,4,2,4,90,0,1
97304,-90.9090909090909,4,2,4,75,0,0
97754,-100,4,2,4,75,0,0
100604,-76.9230769230769,4,2,4,75,0,0
100904,-100,4,2,4,75,0,0
101204,-76.9230769230769,4,2,4,75,0,0
104504,-166.666666666667,4,2,4,75,0,0
109304,-90.9090909090909,4,2,4,90,0,0
112304,-90.9090909090909,4,2,4,90,0,1
112454,-90.9090909090909,4,2,4,5,0,1
112529,-90.9090909090909,4,2,4,90,0,1
112679,-90.9090909090909,4,2,4,5,0,1
112754,-90.9090909090909,4,2,4,90,0,1
112829,-90.9090909090909,4,2,4,5,0,1
112904,-90.9090909090909,4,2,4,90,0,1
113054,-90.9090909090909,4,2,4,5,0,1
113129,-90.9090909090909,4,2,4,90,0,1
113279,-90.9090909090909,4,2,4,5,0,1
113354,-90.9090909090909,4,2,4,90,0,1
113429,-90.9090909090909,4,2,4,5,0,1
113504,-66.6666666666667,4,2,4,90,0,1
113654,-66.6666666666667,4,2,4,5,0,1
113729,-66.6666666666667,4,2,4,90,0,1
113879,-66.6666666666667,4,2,4,5,0,1
113954,-55.5555555555556,4,2,4,90,0,1
114029,-50,4,2,4,5,0,1
114104,-50,4,2,4,80,0,0
114704,300,4,2,4,60,1,0
119504,-100,4,2,4,75,0,0
126704,-76.9230769230769,4,2,4,90,0,0
130304,-33.3333333333333,4,2,4,90,0,1
130454,-100,4,2,4,90,0,1
130529,-100,4,2,4,5,0,1
130604,-33.3333333333333,4,2,4,90,0,1
130754,-100,4,2,4,90,0,1
130829,-100,4,2,4,5,0,1
130904,-33.3333333333333,4,2,4,90,0,1
131504,-100,4,2,4,90,0,0
134804,-76.9230769230769,4,2,4,90,0,0
135104,-100,4,2,4,90,0,0
135404,-76.9230769230769,4,2,4,90,0,0
136304,-83.3333333333333,4,2,4,90,0,0
138704,-76.9230769230769,4,2,4,90,0,0
143504,-76.9230769230769,4,2,4,90,0,1
148304,-76.9230769230769,4,2,4,90,0,0
153104,-90.9090909090909,4,2,4,75,0,0
156704,-90.9090909090909,4,2,4,90,0,0

[Colours]
Combo1 : 181,74,74
Combo2 : 255,0,0
Combo3 : 255,140,140

[HitObjects]
410,88,850,6,0,B|418:65|458:59|458:59|384:38|357:105|357:105|381:137|370:182,1,264,2|0,0:0|0:0,0:0:0:0:
270,147,1707,2,0,B|240:166|240:166|291:156,1,88,2|2,0:0|0:0,0:0:0:0:
434,245,2135,2,0,B|464:264|464:264|413:254,1,88,2|0,0:0|0:0,0:0:0:0:
313,287,2564,6,0,B|354:282|396:273|396:273|398:316|412:363,1,176,2|2,0:0|0:0,0:0:0:0:
412,363,3207,1,2,0:0:0:0:
313,287,3421,2,0,B|216:273|246:343|149:330,1,176,2|2,0:0|0:0,0:0:0:0:
75,300,4064,1,2,0:0:0:0:
191,159,4278,6,0,P|180:201|176:245,1,88,2|0,3:2|0:0,0:0:0:0:
78,86,4611,2,0,P|88:43|92:0,1,88,2|0,3:2|0:0,0:0:0:0:
191,159,4944,1,2,3:2:0:0:
22,197,5111,2,0,P|64:185|107:174,1,88,2|0,0:0|3:2,0:0:0:0:
334,81,5444,6,0,P|253:89|221:13,1,176,2|2,0:0|0:0,0:0:0:0:
413,207,5944,2,0,P|455:193|498:185,1,88,2|2,3:2|0:0,0:0:0:0:
429,111,6277,1,2,3:2:0:0:
337,272,6444,6,0,P|294:258|251:250,1,88,2|0,0:0|3:2,0:0:0:0:
320,176,6777,1,2,0:0:0:0:
430,297,6944,5,2,3:2:0:0:
462,384,7111,2,0,P|432:352|427:309,1,88,0|2,0:0|3:2,0:0:0:0:
320,176,7444,2,0,P|351:98|435:86,1,176,2|2,0:0|0:0,0:0:0:0:
509,136,7944,1,0,3:2:0:0:
509,136,8111,1,2,0:0:0:0:
320,176,8277,6,0,B|286:182|286:182|284:187|284:187|237:197,1,88,2|0,3:2|0:0,0:0:0:0:
128,66,8611,2,0,B|94:60|94:60|92:55|92:55|45:44,1,88,2|0,3:2|0:0,0:0:0:0:
215,17,8944,5,2,3:2:0:0:
141,158,9111,2,0,P|118:122|121:79,1,88,2|0,0:0|3:2,0:0:0:0:
237,197,9444,1,2,0:0:0:0:
32,288,9611,6,0,B|82:265|124:307|124:307|132:360|190:369,1,193.600005908203,2|2,3:2|3:2,0:0:0:0:
279,338,10111,1,2,0:0:0:0:
408,189,10277,5,0,3:2:0:0:
470,253,10444,2,0,B|435:279|435:279|391:272,1,88,2|0,0:0|3:2,0:0:0:0:
311,132,10777,6,0,B|301:86|285:36|285:36|311:1|357:14,1,176,2|0,0:0|0:2,0:0:0:0:
168,108,11277,2,0,B|128:97|128:97|128:92|128:92|87:81,1,88,2|2,3:2|0:0,0:0:0:0:
20,222,11611,5,0,3:2:0:0:
104,254,11777,1,2,0:0:0:0:
184,208,11944,5,0,3:2:0:0:
36,306,12111,1,2,0:0:0:0:
256,288,12277,6,0,B|319:307|319:307|339:349|339:349|418:366,1,193.600005908203,2|8,3:2|0:2,0:0:0:0:
493,165,12777,2,0,P|426:152|387:208,1,145.200004431152,0|0,3:2|0:0,0:0:0:0:
399,227,13111,1,0,3:2:0:0:
310,107,13277,2,0,B|303:78|303:78|317:50|317:50|308:15,1,96.8000029541017,8|0,0:0|0:0,0:0:0:0:
90,182,13611,6,0,P|141:173|181:204,1,105.599996777344,2|0,3:2|3:2,0:0:0:0:
232,264,13861,1,0,3:2:0:0:
239,274,13944,1,10,0:2:0:0:
387,208,14111,1,2,3:2:0:0:
350,384,14277,2,0,B|320:344|320:344|331:289,1,105.599996777344,8|0,0:0|3:2,0:0:0:0:
491,242,14611,1,8,0:0:0:0:
429,110,14777,5,0,3:2:0:0:
418,105,14861,1,0,3:2:0:0:
405,98,14944,2,0,P|335:99|294:155,1,145.200004431152,6|0,3:2|0:0,0:0:0:0:
300,170,15277,2,0,L|205:151,1,96.8000029541017,2|0,3:2|0:0,0:0:0:0:
121,21,15611,5,2,3:2:0:0:
62,86,15777,2,0,P|52:132|77:172,1,96.8000029541017,2|0,0:0|3:2,0:0:0:0:
26,274,16111,2,0,P|117:265|168:341,1,193.600005908203,2|0,0:0|0:0,0:0:0:0:
297,239,16611,2,0,B|334:229|334:229|347:217|347:217|387:207,1,96.8000029541017,2|2,3:2|0:0,0:0:0:0:
451,141,16944,5,2,3:2:0:0:
482,316,17111,2,0,P|435:320|397:292,1,96.8000029541017,2|2,0:0|3:2,0:0:0:0:
246,107,17444,5,2,0:0:0:0:
314,48,17611,2,0,B|328:107|285:127|285:127|232:154|253:211,1,193.600005908203,2|2,3:2|3:2,0:0:0:0:
130,338,18111,2,0,B|92:309|92:309|44:321,1,96.8000029541017,2|0,0:0|3:2,0:0:0:0:
20,178,18444,5,2,0:0:0:0:
119,165,18611,2,0,B|81:194|81:194|33:181,1,96.8000029541017,0|2,3:2|0:2,0:0:0:0:
217,305,18944,6,0,P|264:295|312:289,1,96.8000029541017,2|0,3:2|0:0,0:0:0:0:
346,169,19277,2,0,P|298:178|250:184,1,96.8000029541017,2|2,3:2|0:0,0:0:0:0:
250,184,19527,1,2,0:2:0:0:
250,184,19611,1,0,3:2:0:0:
393,254,19777,1,2,0:0:0:0:
445,120,19944,2,0,P|435:72|429:24,1,96.8000029541017,0|2,3:2|0:0,0:0:0:0:
504,293,20277,6,0,B|458:268|411:308|411:308|411:356|359:378,1,193.600005908203,4|0,3:2|3:2,0:0:0:0:
217,305,20777,2,0,B|177:314|177:314|174:321|174:321|127:333,1,96.8000029541017,2|0,0:0|3:2,0:0:0:0:
38,261,21111,5,2,0:0:0:0:
0,172,21277,2,0,P|39:198|46:244,1,96.8000029541017,0|2,3:2|0:2,0:0:0:0:
234,123,21611,5,0,3:2:0:0:
150,97,21777,1,2,0:2:0:0:
124,181,21944,1,0,3:2:0:0:
208,207,22111,1,2,0:0:0:0:
381,73,22277,6,0,P|419:45|466:50,1,96.8000029541017,2|2,3:2|0:0,0:0:0:0:
466,50,22527,1,2,0:0:0:0:
466,50,22611,1,2,3:2:0:0:
326,154,22777,1,2,0:0:0:0:
466,266,22944,6,0,B|475:239|501:225|501:225|401:251,1,158.399995166016,4|0,3:2|0:0,0:0:0:0:
393,254,23277,1,8,0:0:0:0:
280,367,23444,2,0,B|306:321|266:285|266:285|252:280|252:280|205:238|234:186,1,211.199993554688,0|0,3:2|3:2,0:0:0:0:
147,76,23944,2,0,B|167:15|233:22|233:22|205:38|202:56,1,158.399995166016,8|0,0:0|0:0,0:0:0:0:
273,95,24277,6,0,B|317:86|317:86|325:89|325:89|375:77,1,105.599996777344,4|8,3:2|0:0,0:0:0:0:
375,77,24527,1,8,0:0:0:0:
375,77,24611,1,8,0:0:0:0:
320,378,24777,1,0,3:2:0:0:
501,223,24944,5,8,0:0:0:0:
200,160,25111,1,2,3:2:0:0:
154,145,25194,1,2,3:2:0:0:
113,172,25277,1,10,3:2:0:0:
96,216,25361,1,2,3:2:0:0:
57,243,25444,1,2,3:2:0:0:
9,235,25527,1,2,3:2:0:0:
9,235,26277,6,0,B|91:254|91:254|110:309|110:309|201:332,1,228.799989526368,4|8,3:2|0:0,0:0:0:0:
344,200,26727,2,0,B|397:188|397:188|401:182|401:182|452:170,1,114.399994763184,2|2,0:0|3:2,0:0:0:0:
336,288,27027,5,0,0:0:0:0:
295,130,27177,2,0,P|261:173|263:229,1,114.399994763184,10|2,0:0|0:0,0:0:0:0:
59,374,27477,6,0,B|43:300|43:300|28:295|28:295|14:216,1,171.599992144776,6|0,3:2|0:0,0:0:0:0:
43,136,27777,2,0,B|70:104|105:124|105:124|81:138|76:157,1,114.399994763184,10|0,0:2|0:0,0:0:0:0:
150,192,28002,1,2,0:0:0:0:
161,189,28077,2,0,L|273:168,1,114.399994763184,2|0,3:2|0:0,0:0:0:0:
495,318,28377,6,0,P|466:322|440:312,1,57.1999973815919,8|0,0:2|0:2,0:0:0:0:
401,384,28527,2,0,P|376:369|362:344,1,57.1999973815919,2|0,0:0|0:0,0:0:0:0:
424,216,28677,5,2,3:2:0:0:
446,98,28827,1,2,0:0:0:0:
510,173,28977,5,10,0:0:0:0:
356,136,29127,1,2,0:0:0:0:
272,288,29277,2,0,B|216:307|216:307|202:343|202:343|131:366,1,171.599992144776,2|0,3:2|0:0,0:0:0:0:
131,366,29577,1,8,0:0:0:0:
32,274,29727,2,0,B|31:262|6:239|6:239|73:257,1,114.399994763184,2|0,0:2|3:2,0:0:0:0:
206,101,30027,5,0,0:0:0:0:
118,73,30177,1,10,0:0:0:0:
272,212,30327,5,2,0:0:0:0:
377,176,30477,2,0,B|399:164|401:124|401:124|389:155|363:161,1,114.399994763184,2|0,3:2|0:0,0:0:0:0:
290,375,30777,6,0,B|223:360|223:360|207:314|207:314|128:296,1,198.000007553101,12|0,0:0|0:0,0:0:0:0:
26,328,31077,6,0,B|15:285|55:264|55:264|42:295|52:317,1,132,2|0,3:2|0:0,0:0:0:0:
128,296,31377,6,0,B|195:281|195:281|211:235|211:235|289:217,1,198.000007553101,12|0,0:0|0:0,0:0:0:0:
393,185,31677,6,0,B|404:228|364:249|364:249|377:218|367:196,1,132,2|0,3:2|0:0,0:0:0:0:
308,139,31977,2,0,B|260:107|260:107|288:216,1,171.599992144776,10|0,0:0|0:0,0:0:0:0:
272,320,32277,6,0,B|303:316|325:333|325:333|314:305|280:305,1,114.399994763184,2|0,3:2|0:0,0:0:0:0:
83,366,32577,2,0,B|76:314|76:314|28:284|28:284|18:222,1,171.599992144776,10|2,0:2|0:0,0:0:0:0:
19,212,32877,1,0,3:2:0:0:
122,166,33027,1,0,0:0:0:0:
60,69,33177,2,0,B|18:28|18:28|29:82,1,114.399994763184,12|0,0:0|0:0,0:0:0:0:
172,239,33477,6,0,P|209:198|208:142,1,114.399994763184,2|2,3:2|0:0,0:0:0:0:
192,112,33702,1,0,0:0:0:0:
184,104,33777,1,10,0:0:0:0:
280,14,33927,1,2,0:0:0:0:
320,187,34077,6,0,B|328:229|364:249|364:249|350:197|389:165,1,171.599992144776,2|0,3:2|0:0,0:0:0:0:
467,201,34377,2,0,B|486:196|508:211|508:211|439:227,1,114.399994763184,10|2,0:0|0:0,0:0:0:0:
249,142,34677,5,0,3:2:0:0:
164,167,34827,1,2,0:0:0:0:
60,11,34977,5,8,0:0:0:0:
145,24,35127,1,2,0:0:0:0:
72,240,35277,5,2,3:2:0:0:
91,116,35427,1,2,0:0:0:0:
38,108,35502,1,2,0:0:0:0:
0,142,35577,1,12,0:0:0:0:
72,240,35727,1,0,0:0:0:0:
260,54,35877,6,0,B|321:68|321:68|341:110|341:110|401:126,1,171.599992144776,2|0,3:2|0:0,0:0:0:0:
484,162,36177,5,10,0:0:0:0:
474,163,36252,2,0,B|433:172|433:172|420:200|420:200|380:210,1,114.399994763184,2|2,0:1|0:1,0:0:0:0:
279,228,36477,6,0,B|325:233|363:214|363:214|354:254|364:299,1,171.599992144776,2|0,3:2|0:0,0:0:0:0:
438,326,36777,2,0,P|401:367|345:372,1,114.399994763184,12|0,0:0|0:0,0:0:0:0:
299,356,37002,1,0,3:2:0:0:
293,342,37077,1,4,3:2:0:0:
192,132,37377,1,4,3:2:0:0:
0,273,37677,5,2,0:0:0:0:
79,314,37827,2,0,B|149:298|149:298|151:293|151:293|214:279,1,140.8,2|2,0:0|0:0,0:0:0:0:
403,348,38277,6,0,P|481:342|485:263,1,171.599992144776,4|0,3:2|3:2,0:0:0:0:
475,251,38577,2,0,L|419:238,1,57.1999973815919,10|0,0:0|0:0,0:0:0:0:
338,270,38727,1,2,3:2:0:0:
244,70,38877,5,2,3:2:0:0:
348,10,39027,1,0,3:2:0:0:
376,48,39102,1,0,3:2:0:0:
363,99,39177,1,10,0:0:0:0:
244,70,39327,1,0,3:2:0:0:
152,240,39477,5,6,3:2:0:0:
36,193,39627,2,0,P|61:181|89:181,1,57.1999973815919,8|0,0:0|0:0,0:0:0:0:
243,260,39777,1,0,3:2:0:0:
100,324,39927,1,8,0:0:0:0:
217,179,40077,5,0,3:2:0:0:
400,256,40227,1,8,0:0:0:0:
400,256,40302,1,8,0:0:0:0:
400,256,40377,2,0,B|449:233|449:233|431:175,1,114.399994763184,2|10,3:2|0:0,0:0:0:0:
418,135,40602,1,8,0:0:0:0:
412,119,40677,1,2,3:2:0:0:
382,25,40827,1,0,3:2:0:0:
486,52,40977,1,8,0:0:0:0:
319,169,41127,5,2,3:2:0:0:
244,70,41277,2,0,B|183:85|183:85|155:122|155:122|94:135,1,171.599992144776,2|0,3:2|0:0,0:0:0:0:
56,203,41577,2,0,P|19:161|23:105,1,114.399994763184,8|8,0:0|0:2,0:0:0:0:
56,32,41802,5,8,0:0:0:0:
64,35,41877,2,0,L|106:44,1,44,4|0,3:2|0:0,0:0:0:0:
219,193,42027,1,8,0:2:0:0:
286,60,42177,6,0,L|243:69,1,44,4|0,3:2|0:0,0:0:0:0:
141,239,42327,1,8,0:2:0:0:
22,105,42477,6,0,L|64:114,1,44,4|0,3:2|0:0,0:0:0:0:
200,320,42627,1,8,0:0:0:0:
163,354,42702,1,8,0:2:0:0:
118,341,42777,1,8,0:0:0:0:
141,239,42927,1,8,0:0:0:0:
294,367,43077,6,0,P|364:347|434:328,1,145.200004431152,6|0,3:2|0:0,0:0:0:0:
434,328,43377,2,0,P|451:292|445:254,1,79.1999975830079,2|2,3:2|0:0,0:0:0:0:
431,127,43677,5,2,3:2:0:0:
501,177,43827,2,0,P|478:145|441:131,1,79.1999975830079,2|0,0:0|3:2,0:0:0:0:
284,79,44127,5,2,0:0:0:0:
414,18,44277,2,0,P|372:82|296:86,1,158.399995166016,2|0,3:2|3:2,0:0:0:0:
214,24,44727,1,2,0:0:0:0:
169,204,44877,6,0,B|110:188|110:188|95:154|95:154|37:135,1,158.399995166016,2|2,3:2|3:2,0:0:0:0:
169,204,45327,1,2,0:0:0:0:
34,297,45477,6,0,P|71:283|109:274,1,79.1999975830079,2|0,3:2|0:0,0:0:0:0:
245,338,45777,2,0,P|207:351|169:360,1,79.1999975830079,2|0,3:2|0:0,0:0:0:0:
224,136,46077,6,0,P|271:170|329:165,1,118.799996374512,0|0,3:2|0:0,0:0:0:0:
353,152,46377,2,0,P|360:113|369:74,1,79.1999975830079,8|0,0:0|0:0,0:0:0:0:
360,296,46677,6,0,P|407:261|465:266,1,118.799996374512,0|0,3:2|0:0,0:0:0:0:
489,280,46977,2,0,P|496:318|505:357,1,79.1999975830079,8|0,0:0|0:0,0:0:0:0:
272,256,47277,5,0,3:2:0:0:
184,280,47427,1,0,3:2:0:0:
96,304,47577,2,0,P|58:291|19:282,1,79.1999975830079,8|2,0:0|0:0,0:0:0:0:
19,282,47802,1,2,0:0:0:0:
19,282,47877,1,2,0:0:0:0:
256,192,49077,5,0,3:2:0:0:
256,192,50277,6,0,B|312:169|353:218|353:218|332:238|327:274,1,171.599992144776,2|0,3:2|3:2,0:0:0:0:
439,301,50577,2,0,B|468:260|468:260|406:277,1,114.399994763184,2|0,3:2|3:2,0:0:0:0:
361,350,50802,1,0,3:2:0:0:
361,350,50877,2,0,P|305:357|263:321,1,114.399994763184,2|2,3:2|3:2,0:0:0:0:
186,271,51102,1,0,3:2:0:0:
175,274,51177,2,0,L|118:284,1,57.1999973815919,2|0,3:2|0:0,0:0:0:0:
10,367,51327,2,0,L|66:356,1,57.1999973815919,2|0,3:2|3:2,0:0:0:0:
186,271,51477,6,0,B|194:236|194:236|179:198|179:198|186:161,1,114.399994763184,2|0,3:2|3:2,0:0:0:0:
198,122,51702,1,0,3:2:0:0:
202,108,51777,1,2,3:2:0:0:
31,12,51927,5,2,3:2:0:0:
31,12,52002,1,2,0:0:0:0:
30,12,52077,2,0,P|-8:51|0:106,1,114.399994763184,2|2,3:1|0:0,0:0:0:0:
13,125,52302,2,0,L|68:113,2,57.1999973815919,2|0|2,3:1|0:0|0:0,0:0:0:0:
113,191,52527,2,0,L|168:202,1,57.1999973815919,2|0,3:1|0:0,0:0:0:0:
253,115,52677,6,0,B|297:108|334:93|334:93|341:139|360:176,1,171.599992144776,6|0,3:2|3:2,0:0:0:0:
429,217,52977,2,0,P|440:192|435:164,1,57.1999973815919,2|0,3:2|0:0,0:0:0:0:
500,344,53127,1,0,3:2:0:0:
488,350,53202,1,0,3:2:0:0:
474,357,53277,2,0,P|419:340|363:326,1,114.399994763184,2|0,3:2|3:2,0:0:0:0:
360,332,53502,1,0,3:2:0:0:
353,340,53577,1,2,3:2:0:0:
250,223,53727,1,0,3:2:0:0:
257,189,53802,1,0,3:2:0:0:
289,181,53877,5,2,3:2:0:0:
282,241,53952,1,2,0:0:0:0:
235,262,54027,1,2,3:2:0:0:
179,251,54102,1,2,3:2:0:0:
159,196,54177,1,2,3:2:0:0:
116,163,54252,1,2,0:0:0:0:
57,163,54327,1,2,3:2:0:0:
11,198,54402,2,0,P|18:225|24:253,1,57.1999973815919,0|2,3:2|3:2,0:0:0:0:
160,348,54627,5,8,0:0:0:0:
212,96,54777,1,8,0:0:0:0:
212,96,55077,6,0,B|268:60|323:112|323:112|323:182|390:206,1,246.399992480469,4|2,3:2|3:2,0:0:0:0:
480,168,56362,1,0,0:0:0:0:
427,1,56791,6,0,P|417:61|408:122,2,123.199996240234,2|2|2,3:2|3:2|3:2,0:0:0:0:
464,232,57862,1,2,3:2:0:0:
321,112,58077,2,0,B|282:80|229:103|219:142|219:142|216:156|216:156|209:189|163:222|116:197,1,264,10|0,0:0|0:0,0:0:0:0:
26,171,58505,6,0,P|36:213|43:257,1,88,6|0,3:2|0:0,0:0:0:0:
152,371,58838,2,0,P|141:328|134:284,1,88,2|0,3:2|0:0,0:0:0:0:
201,223,59171,5,2,3:2:0:0:
318,290,59338,2,0,P|274:297|232:308,1,88,2|0,0:0|3:2,0:0:0:0:
374,152,59671,6,0,P|409:203|470:194,1,132,2|0,0:0|0:0,0:0:0:0:
481,184,60005,2,0,P|486:141|498:99,1,88,0|2,0:0|3:2,0:0:0:0:
445,21,60338,1,0,0:0:0:0:
364,43,60505,1,2,3:2:0:0:
293,174,60671,2,0,B|235:157|235:157|212:115|212:115|146:97,1,176,2|2,0:0|0:0,0:0:0:0:
207,31,61171,5,2,3:2:0:0:
86,151,61338,2,0,P|65:114|69:71,1,88,2|0,0:0|3:2,0:0:0:0:
160,288,61671,6,0,P|122:340|59:350,1,132,2|0,0:0|0:0,0:0:0:0:
38,338,62005,2,0,P|32:294|23:251,1,88,2|0,0:0|0:0,0:0:0:0:
244,335,62338,5,2,0:0:0:0:
331,259,62504,1,2,3:2:0:0:
457,294,62671,1,2,0:0:0:0:
376,374,62838,5,2,3:2:0:0:
331,259,63004,1,2,0:0:0:0:
418,178,63171,1,2,3:2:0:0:
331,259,63338,6,0,B|296:249|296:249|293:244|293:244|248:232,1,88,2|0,0:0|3:2,0:0:0:0:
72,212,63671,5,2,0:0:0:0:
0,261,63838,2,0,B|49:233|100:276|100:276|101:322|141:347,1,193.600005908203,2|2,3:2|3:2,0:0:0:0:
215,315,64338,1,2,0:0:0:0:
353,171,64504,5,0,3:2:0:0:
272,145,64671,2,0,P|261:102|257:58,1,88,2|0,0:0|3:2,0:0:0:0:
444,189,65004,6,0,P|383:256|302:241,1,176,2|2,0:0|0:0,0:0:0:0:
166,166,65504,5,2,3:2:0:0:
41,81,65671,1,2,0:0:0:0:
0,168,65838,5,2,3:2:0:0:
127,91,66004,1,0,0:0:0:0:
208,249,66171,5,2,3:2:0:0:
352,288,66338,1,2,0:0:0:0:
421,125,66504,6,0,B|428:109|454:92|454:92|347:122,1,158.399995166016,4|0,3:2|0:0,0:0:0:0:
347,122,66838,1,8,0:0:0:0:
243,66,67004,2,0,B|199:75|199:75|196:86|196:86|147:97,1,105.599996777344,0|0,3:2|0:0,0:0:0:0:
243,66,67338,1,0,3:2:0:0:
89,161,67504,2,0,P|61:118|65:66,1,105.599996777344,8|0,0:0|0:0,0:0:0:0:
183,299,67838,5,2,3:2:0:0:
69,281,68004,1,0,3:2:0:0:
53,326,68088,1,0,3:2:0:0:
87,366,68171,1,8,0:0:0:0:
183,299,68338,1,0,3:2:0:0:
168,132,68504,5,8,0:0:0:0:
76,92,68671,1,0,3:2:0:0:
261,213,68838,5,8,0:0:0:0:
301,50,69004,1,0,3:2:0:0:
328,38,69088,1,0,3:2:0:0:
351,25,69171,2,0,P|396:40|444:48,1,96.8000029541017,4|0,3:2|0:0,0:0:0:0:
497,173,69504,2,0,P|451:157|403:149,1,96.8000029541017,2|2,3:2|0:0,0:0:0:0:
305,326,69838,5,2,3:2:0:0:
403,288,70004,2,0,P|355:285|314:309,1,96.8000029541017,2|0,0:0|3:2,0:0:0:0:
214,191,70338,6,0,P|120:199|58:129,1,193.600005908203,2|2,0:2|0:0,0:0:0:0:
11,255,70838,2,0,B|55:244|55:244|59:239|59:239|102:228,1,96.8000029541017,2|2,3:2|0:0,0:0:0:0:
288,112,71171,5,2,3:2:0:0:
183,85,71338,2,0,B|227:95|227:95|231:100|231:100|274:111,1,96.8000029541017,2|0,0:0|3:2,0:0:0:0:
360,48,71671,1,2,0:0:0:0:
395,246,71838,6,0,B|446:231|493:220|493:220|528:176|480:142,1,193.600005908203,2|2,3:2|3:2,0:0:0:0:
292,228,72338,2,0,P|307:273|313:321,1,96.8000029541017,2|0,0:0|3:0,0:0:0:0:
416,339,72671,2,0,P|400:293|394:245,1,96.8000029541017,2|0,0:0|3:0,0:0:0:0:
239,377,73004,5,2,0:0:0:0:
157,337,73171,2,0,P|109:345|62:356,1,96.8000029541017,2|2,3:2|0:0,0:0:0:0:
35,194,73504,2,0,P|82:185|129:174,1,96.8000029541017,2|2,3:2|0:0,0:0:0:0:
129,174,73755,1,2,0:0:0:0:
129,174,73838,1,2,3:2:0:0:
91,21,74004,2,0,P|63:58|72:105,1,96.8000029541017,2|0,0:0|3:2,0:0:0:0:
207,240,74338,1,2,0:0:0:0:
281,197,74504,6,0,B|385:173|352:232|470:206,1,193.600005908203,4|2,3:2|3:2,0:0:0:0:
470,205,75004,1,2,0:0:0:0:
349,86,75171,5,2,3:2:0:0:
412,38,75338,2,0,B|436:81|436:81|416:135,1,96.8000029541017,2|0,0:0|3:2,0:0:0:0:
370,370,75671,5,2,0:0:0:0:
457,317,75838,2,0,P|362:336|268:361,1,193.600005908203,2|2,3:2|3:2,0:0:0:0:
139,254,76338,1,2,0:0:0:0:
76,336,76504,5,2,3:2:0:0:
232,288,76671,1,2,0:0:0:0:
232,288,76754,1,2,0:0:0:0:
232,288,76838,1,0,3:2:0:0:
119,129,77004,2,0,B|111:147|111:147|117:175,1,48.4000014770508,2|0,0:0|0:0,0:0:0:0:
139,254,77171,6,0,B|114:195|165:158|170:169|214:137|186:63,1,211.199993554688,4|8,3:2|0:0,0:0:0:0:
338,25,77671,2,0,B|376:28|401:57|396:91|396:91|377:58|350:55,1,158.399995166016,2|0,3:2|0:0,0:0:0:0:
351,55,78004,1,0,3:2:0:0:
226,151,78171,2,0,B|274:141|274:141|275:137|275:137|326:127,1,105.599996777344,8|0,0:0|0:0,0:0:0:0:
482,321,78504,5,4,3:2:0:0:
512,147,78671,1,0,3:2:0:0:
512,147,78754,1,0,3:2:0:0:
512,147,78838,1,8,0:0:0:0:
343,208,79004,2,0,L|394:219,1,52.7999983886719,0|0,3:2|3:2,0:0:0:0:
417,225,79171,5,8,0:0:0:0:
256,320,79338,1,2,3:2:0:0:
210,332,79421,1,2,3:2:0:0:
165,317,79504,1,10,0:0:0:0:
139,276,79588,1,2,3:2:0:0:
93,261,79671,1,2,3:2:0:0:
49,278,79754,1,2,3:2:0:0:
49,278,80504,6,0,B|128:261|128:261|154:209|154:209|242:192,1,228.799989526368,4|8,3:2|0:0,0:0:0:0:
440,336,80954,2,0,B|389:326|389:326|387:320|387:320|332:308,1,114.399994763184,2|2,0:0|3:2,0:0:0:0:
272,104,81254,5,2,0:0:0:0:
335,37,81404,2,0,P|366:82|356:137,1,114.399994763184,10|2,0:0|0:0,0:0:0:0:
320,288,81704,6,0,B|258:299|258:299|239:327|239:327|165:340,1,171.599992144776,6|0,3:2|0:0,0:0:0:0:
87,286,82004,2,0,B|70:309|86:346|86:346|85:314|101:298,1,114.399994763184,10|0,0:2|0:0,0:0:0:0:
173,257,82229,1,2,0:0:0:0:
171,244,82304,2,0,B|163:197|163:197|166:192|166:192|155:131,1,114.399994763184,2|0,3:2|0:0,0:0:0:0:
282,21,82604,6,0,P|309:29|335:40,1,57.1999973815919,8|0,0:0|0:0,0:0:0:0:
421,91,82754,2,0,P|393:99|367:110,1,57.1999973815919,2|0,0:2|0:0,0:0:0:0:
371,254,82904,5,2,3:2:0:0:
486,264,83054,1,2,0:0:0:0:
497,230,83129,1,2,0:0:0:0:
475,196,83204,1,10,0:0:0:0:
371,254,83354,1,2,0:0:0:0:
272,114,83504,6,0,B|198:130|198:130|175:177|175:177|77:202,1,228.799989526368,2|10,3:2|0:0,0:0:0:0:
40,120,83954,2,0,B|34:98|11:81|11:81|46:78|68:104,1,114.399994763184,0|2,0:0|3:2,0:0:0:0:
188,306,84254,1,2,0:0:0:0:
102,286,84404,1,8,0:0:0:0:
216,104,84554,5,2,0:0:0:0:
294,79,84704,2,0,B|322:128|322:128|305:183,1,114.399994763184,2|0,3:2|0:0,0:0:0:0:
372,253,84929,5,2,0:0:0:0:
385,256,85004,2,0,B|414:246|446:244|446:244|512:202|467:126,1,198.000007553101,12|0,0:0|0:0,0:0:0:0:
416,69,85304,2,0,P|394:105|396:149,1,88,2|0,3:2|0:0,0:0:0:0:
320,320,85604,6,0,B|278:289|234:323|234:323|234:329|234:329|204:375|147:363,1,198.000007553101,12|0,0:0|0:0,0:0:0:0:
128,351,85904,2,0,P|121:308|115:264,1,88,2|0,3:2|0:0,0:0:0:0:
144,72,86204,2,0,B|194:44|194:44|80:66,1,171.599992144776,12|0,0:0|0:0,0:0:0:0:
13,24,86504,6,0,B|78:42|119:53|119:53|103:102|93:168,1,228.799989526368,2|8,3:2|0:2,0:0:0:0:
31,232,86954,1,0,0:0:0:0:
128,351,87104,6,0,P|182:334|237:319,1,114.399994763184,2|0,3:2|0:0,0:0:0:0:
343,173,87404,1,12,0:2:0:0:
461,312,87554,5,2,0:0:0:0:
449,309,87629,1,2,0:0:0:0:
434,306,87704,2,0,B|382:296|382:296|365:258|365:258|289:244,1,171.599992144776,2|0,3:2|0:0,0:0:0:0:
279,240,88004,1,8,0:0:0:0:
188,120,88154,1,2,0:0:0:0:
103,259,88304,6,0,B|76:260|54:281|54:281|-7:273|-33:181|29:151,1,228.799989526368,0|8,3:2|0:0,0:0:0:0:
111,171,88754,1,2,0:0:0:0:
254,39,88904,5,0,3:2:0:0:
309,123,89054,1,2,0:2:0:0:
282,150,89129,1,2,0:0:0:0:
245,143,89204,1,8,0:0:0:0:
254,39,89354,1,2,0:0:0:0:
403,180,89504,5,2,3:2:0:0:
441,4,89654,1,2,0:2:0:0:
403,180,89804,2,0,B|433:213|433:213|443:253|426:281,1,114.399994763184,14|0,0:0|0:0,0:0:0:0:
502,352,90029,1,2,0:0:0:0:
486,365,90104,2,0,P|436:311|346:326,1,171.599992144776,2|0,3:2|0:0,0:0:0:0:
296,246,90404,5,8,0:0:0:0:
283,248,90479,2,0,B|238:257|238:257|230:249|230:249|173:259,1,114.399994763184,2|2,0:1|0:1,0:0:0:0:
100,198,90704,6,0,B|132:221|152:227|152:227|179:268|168:316|124:335,1,184.799994360352,0|0,3:2|0:0,0:0:0:0:
59,384,91004,2,0,P|9:360|0:305,1,114.399994763184,14|0,0:0|0:0,0:0:0:0:
12,266,91229,1,0,3:2:0:0:
20,255,91304,1,6,3:2:0:0:
147,85,91604,6,0,B|206:99|206:99|222:133|222:133|280:148,1,158.399995166016,4|2,3:2|0:0,0:0:0:0:
281,149,92054,1,2,0:0:0:0:
424,334,92354,6,0,L|463:325,1,39.5999987915039,2|0,0:0|0:0,0:0:0:0:
474,323,92504,2,0,B|426:314|426:314|422:317|422:317|362:308,1,114.399994763184,4|0,3:2|3:2,0:0:0:0:
286,246,92729,1,0,3:2:0:0:
277,239,92804,2,0,P|250:235|224:247,1,57.1999973815919,8|0,0:2|0:2,0:0:0:0:
181,322,92954,1,2,3:2:0:0:
54,118,93104,5,2,3:2:0:0:
154,48,93254,1,0,3:0:0:0:
182,88,93329,1,0,3:2:0:0:
176,137,93404,1,8,0:0:0:0:
54,118,93554,1,2,3:2:0:0:
287,39,93704,6,0,L|398:66,1,114.399994763184,4|8,3:2|0:0,0:0:0:0:
443,82,93929,1,8,0:0:0:0:
466,87,94004,1,2,3:2:0:0:
252,175,94154,1,8,0:0:0:0:
435,310,94304,5,2,3:2:0:0:
380,173,94454,1,8,0:0:0:0:
380,173,94529,1,8,0:0:0:0:
380,173,94604,1,10,0:0:0:0:
185,249,94754,2,0,L|199:304,1,57.1999973815919,2|0,0:0|0:0,0:0:0:0:
146,378,94904,6,0,B|187:364|202:318|202:318|234:351|281:346,1,171.599992144776,2|0,3:2|0:0,0:0:0:0:
309,334,95204,1,8,0:0:0:0:
290,248,95354,1,0,3:2:0:0:
460,137,95504,5,2,3:2:0:0:
495,244,95654,1,0,3:2:0:0:
443,262,95729,1,0,3:0:0:0:
397,230,95804,1,8,0:0:0:0:
460,137,95954,1,8,0:0:0:0:
460,345,96104,6,0,P|428:347|398:334,1,66.0000025177003,4|0,3:2|0:0,0:0:0:0:
324,167,96254,1,8,0:0:0:0:
227,258,96404,6,0,P|259:260|289:247,1,66.0000025177003,4|0,3:2|0:0,0:0:0:0:
341,66,96554,1,8,0:0:0:0:
460,137,96704,6,0,P|427:139|397:126,1,66.0000025177003,4|0,3:2|0:0,0:0:0:0:
184,146,96854,5,8,0:0:0:0:
145,97,96929,1,8,0:0:0:0:
165,41,97004,1,8,0:0:0:0:
250,83,97154,1,8,0:0:0:0:
59,188,97304,6,0,B|138:207|138:207|154:242|154:242|226:257,1,193.600005908203,6|2,3:2|3:2,0:0:0:0:
295,209,97754,1,2,0:0:0:0:
422,329,97904,5,2,3:2:0:0:
349,374,98054,2,0,B|335:329|335:329|348:290,1,88,2|0,0:0|3:2,0:0:0:0:
321,126,98354,1,2,0:0:0:0:
486,215,98504,6,0,B|383:186|383:186|414:207|421:242,1,176,2|0,3:2|3:2,0:0:0:0:
457,113,98954,1,2,0:0:0:0:
293,208,99104,2,0,B|251:203|218:223|218:223|199:175|145:165,1,176,2|2,3:2|3:2,0:0:0:0:
145,164,99704,6,0,P|138:121|129:78,1,88,2|0,3:2|0:0,0:0:0:0:
45,98,100004,2,0,P|51:141|60:184,1,88,2|0,3:2|0:0,0:0:0:0:
18,274,100304,6,0,P|84:282|146:304,1,132,2|0,3:2|0:0,0:0:0:0:
193,366,100604,2,0,P|224:320|216:265,1,114.399994763184,8|0,0:0|0:0,0:0:0:0:
397,60,100904,6,0,P|331:68|269:90,1,132,2|0,3:2|0:0,0:0:0:0:
222,152,101204,2,0,P|190:105|198:50,1,114.399994763184,8|0,0:0|0:0,0:0:0:0:
308,220,101504,5,2,3:2:0:0:
394,200,101654,1,0,3:2:0:0:
479,180,101804,2,0,P|471:236|471:293,1,114.399994763184,8|8,0:0|0:0,0:0:0:0:
471,293,102029,1,8,0:0:0:0:
471,293,102104,1,8,0:0:0:0:
308,220,103304,5,0,3:2:0:0:
6,28,104504,6,0,P|32:24|57:16,1,52.7999983886719,2|2,3:2|0:0,0:0:0:0:
122,65,104804,2,0,P|125:91|133:116,1,52.7999983886719,2|2,3:2|0:0,0:0:0:0:
211,133,105104,2,0,P|237:129|262:121,1,52.7999983886719,2|2,3:2|0:0,0:0:0:0:
327,170,105404,2,0,P|330:196|338:221,1,52.7999983886719,2|2,3:2|0:0,0:0:0:0:
381,289,105704,2,0,P|407:285|432:277,1,52.7999983886719,2|2,3:2|0:0,0:0:0:0:
497,326,106004,2,0,P|500:352|508:377,1,52.7999983886719,2|2,3:2|0:0,0:0:0:0:
432,277,106304,6,0,L|439:224,1,52.7999983886719,2|0,3:2|0:0,0:0:0:0:
445,197,106529,1,2,0:1:0:0:
446,186,106604,1,2,3:2:0:0:
421,22,106754,1,2,3:2:0:0:
497,90,106904,6,0,P|470:93|445:101,1,52.7999983886719,2|2,3:2|0:0,0:0:0:0:
365,85,107204,2,0,P|361:111|353:136,1,52.7999983886719,2|2,3:2|0:0,0:0:0:0:
387,213,107504,2,0,P|360:216|335:224,1,52.7999983886719,2|2,3:2|0:0,0:0:0:0:
261,196,107804,2,0,P|257:222|249:247,1,52.7999983886719,2|2,3:2|0:0,0:0:0:0:
294,318,108104,2,0,P|267:321|242:329,1,52.7999983886719,2|2,3:2|0:0,0:0:0:0:
162,329,108404,2,0,P|158:355|150:380,1,52.7999983886719,2|2,3:2|0:0,0:0:0:0:
104,264,108704,6,0,P|107:237|115:212,1,52.7999983886719,2|0,3:2|0:0,0:0:0:0:
115,212,108929,1,2,0:1:0:0:
115,212,109004,1,2,3:2:0:0:
24,312,109154,1,2,3:2:0:0:
29,138,109304,6,0,B|55:197|122:182|122:182|144:143|190:145,1,193.600005908203,4|0,3:2|3:2,0:0:0:0:
259,97,109754,1,0,3:2:0:0:
394,234,109904,5,2,3:1:0:0:
274,186,110054,1,0,3:2:0:0:
274,186,110129,1,2,3:1:0:0:
274,186,110204,1,2,0:0:0:0:
356,154,110354,1,2,3:1:0:0:
450,368,110504,5,2,3:2:0:0:
327,329,110654,1,0,3:2:0:0:
394,234,110804,5,0,3:2:0:0:
220,287,110954,1,0,3:2:0:0:
32,336,111104,2,0,B|37:311|37:311|25:274|25:274|30:242,1,96.8000029541017,2|0,3:1|0:0,0:0:0:0:
35,212,111329,1,2,3:1:0:0:
38,199,111404,1,2,0:0:0:0:
159,165,111554,1,2,3:1:0:0:
220,287,111704,5,2,3:2:0:0:
256,310,111779,1,0,3:2:0:0:
298,302,111854,1,0,3:2:0:0:
321,265,111929,1,0,3:2:0:0:
312,222,112004,1,0,3:2:0:0:
324,180,112079,1,0,3:2:0:0:
364,163,112154,1,2,3:2:0:0:
406,172,112229,1,0,3:2:0:0:
428,209,112304,6,0,B|421:251|421:251|424:257|424:257|415:303,1,96.8000029541017,6|0,3:1|0:0,0:0:0:0:
411,341,112529,1,2,3:1:0:0:
409,356,112604,1,2,0:0:0:0:
220,286,112754,6,0,P|213:263|208:239,1,48.4000014770508,2|0,3:1|0:0,0:0:0:0:
202,224,112904,6,0,P|154:214|107:205,1,96.8000029541017,6|0,3:1|0:0,0:0:0:0:
40,279,113129,2,0,P|87:288|134:297,1,96.8000029541017,2|0,3:1|0:0,0:0:0:0:
107,205,113354,2,0,P|100:181|95:157,1,48.4000014770508,2|0,3:1|0:0,0:0:0:0:
193,28,113504,6,0,P|256:16|309:52,1,132.000005035401,6|0,3:1|0:0,0:0:0:0:
289,158,113729,2,0,P|225:169|172:133,1,132.000005035401,6|0,3:1|0:0,0:0:0:0:
241,93,113954,6,0,L|396:65,1,158.399995166016,6|2,3:1|0:0,0:0:0:0:
396,65,114704,5,4,3:2:0:0:
480,84,115904,5,2,3:2:0:0:
505,166,117104,5,2,3:2:0:0:
446,229,118304,5,2,3:2:0:0:
363,209,119504,6,0,P|298:221|233:236,1,132,6|0,3:2|0:0,0:0:0:0:
233,236,119804,2,0,P|209:201|216:159,1,88,2|0,3:2|0:0,0:0:0:0:
109,56,120104,2,0,P|133:91|126:133,1,88,2|0,3:2|0:0,0:0:0:0:
17,323,120404,2,0,P|82:335|145:355,1,132,2|0,3:2|0:0,0:0:0:0:
145,355,120704,2,0,P|134:312|126:269,1,88,2|0,3:2|0:0,0:0:0:0:
216,158,121004,2,0,P|227:201|235:244,1,88,2|0,3:2|0:0,0:0:0:0:
292,369,121304,6,0,P|352:344|416:329,1,132,2|0,3:2|0:0,0:0:0:0:
416,329,121604,2,0,B|437:291|437:291|424:248,1,88,2|0,3:2|0:0,0:0:0:0:
512,160,121904,6,0,B|452:182|427:138|437:137|406:91|356:110,1,176,2|0,3:2|3:2,0:0:0:0:
288,160,122354,1,2,0:0:0:0:
119,6,122504,6,0,P|56:59|81:138,1,176,2|0,3:2|3:2,0:0:0:0:
29,199,122954,1,2,0:0:0:0:
86,312,123104,6,0,L|172:294,1,88,2|0,3:2|0:0,0:0:0:0:
206,288,123329,1,2,0:0:0:0:
217,286,123404,1,2,3:2:0:0:
347,259,123554,1,0,0:0:0:0:
261,193,123704,5,2,3:2:0:0:
296,371,123854,1,2,0:0:0:0:
261,192,124004,2,0,P|268:149|275:106,1,88,2|0,3:2|0:0,0:0:0:0:
252,15,124304,5,6,3:2:0:0:
375,60,124454,1,0,3:2:0:0:
512,216,124604,5,2,3:2:0:0:
347,259,124754,1,0,3:2:0:0:
414,323,124904,5,2,3:2:0:0:
448,158,125054,1,0,3:2:0:0:
285,119,125204,5,0,3:2:0:0:
261,124,125279,1,0,3:0:0:0:
224,132,125354,5,0,3:2:0:0:
200,137,125429,1,0,3:0:0:0:
163,145,125504,5,2,3:2:0:0:
437,237,125804,1,2,3:2:0:0:
437,237,126704,6,0,B|372:247|372:247|356:277|356:277|285:290,1,171.599992144776,4|0,3:2|3:2,0:0:0:0:
223,336,127004,2,0,P|209:311|211:282,1,57.1999973815919,8|0,0:0|0:0,0:0:0:0:
250,215,127154,1,0,3:2:0:0:
168,80,127304,6,0,B|126:90|126:90|121:97|121:97|60:111,1,114.399994763184,2|0,3:2|0:0,0:0:0:0:
26,122,127529,1,0,3:2:0:0:
12,126,127604,1,8,0:0:0:0:
80,16,127754,1,2,3:2:0:0:
176,168,127904,5,2,3:2:0:0:
272,53,128054,2,0,P|271:24|258:0,1,57.1999973815919,8|0,0:0|0:0,0:0:0:0:
168,80,128204,5,0,3:2:0:0:
330,134,128354,1,8,0:0:0:0:
285,290,128504,6,0,L|172:310,1,114.399994763184,0|8,3:2|0:0,0:0:0:0:
133,317,128729,1,8,0:0:0:0:
116,320,128804,1,8,0:0:0:0:
243,382,128954,1,2,3:2:0:0:
372,218,129104,5,0,3:2:0:0:
435,321,129254,1,0,3:2:0:0:
400,352,129329,1,0,3:0:0:0:
352,342,129404,1,8,0:0:0:0:
372,218,129554,1,2,3:2:0:0:
405,87,129704,6,0,B|365:95|365:95|362:101|362:101|296:115,1,114.399994763184,0|0,3:2|3:2,0:0:0:0:
270,124,129929,1,0,3:2:0:0:
256,128,130004,1,8,0:0:0:0:
110,41,130154,5,10,0:2:0:0:
116,46,130229,1,8,0:0:0:0:
122,51,130304,2,0,B|156:44|170:13|170:13|155:44|167:79,1,132.000005035401,4|0,3:2|0:0,0:0:0:0:
241,47,130454,2,0,L|285:38,1,44,10|0,0:2|0:0,0:0:0:0:
417,189,130604,6,0,B|383:182|369:151|369:151|384:182|372:217,1,132.000005035401,4|0,3:2|0:0,0:0:0:0:
298,185,130754,2,0,L|254:176,1,44,10|0,0:2|0:0,0:0:0:0:
122,327,130904,6,0,B|156:320|170:289|170:289|155:320|167:355,1,132.000005035401,4|0,3:2|0:0,0:0:0:0:
241,323,131054,1,8,0:0:0:0:
262,318,131129,1,8,0:0:0:0:
284,314,131204,1,8,0:0:0:0:
398,151,131354,6,0,B|407:121|433:106|464:121|464:121|437:124|423:141,1,132.000005035401,8|0,0:0|0:0,0:0:0:0:
413,230,131504,6,0,B|352:220|352:220|329:189|329:189|254:176,1,176,6|2,3:2|3:2,0:0:0:0:
181,160,131954,1,2,0:0:0:0:
57,270,132104,5,2,3:2:0:0:
32,348,132254,2,0,B|74:357|74:357|111:331,1,88,2|0,0:0|3:2,0:0:0:0:
272,276,132554,5,2,0:0:0:0:
240,364,132704,2,0,P|225:277|211:190,1,176,2|0,3:2|3:2,0:0:0:0:
392,20,133154,1,2,0:0:0:0:
448,84,133304,2,0,B|400:100|368:68|376:56|344:24|288:48,1,176,2|0,3:2|3:2,0:0:0:0:
287,48,133904,6,0,P|297:90|304:134,1,88,2|0,3:2|0:0,0:0:0:0:
226,211,134204,2,0,P|215:168|208:124,1,88,2|0,3:2|0:0,0:0:0:0:
162,320,134504,2,0,P|98:301|34:284,1,132,2|0,3:2|0:0,0:0:0:0:
34,284,134804,2,0,B|24:295|7:307|7:307|35:293|82:285,1,114.399994763184,10|0,0:0|0:0,0:0:0:0:
292,252,135104,6,0,P|355:233|419:216,1,132,2|0,3:2|0:0,0:0:0:0:
420,216,135404,2,0,B|430:227|447:239|447:239|419:225|371:217,1,114.399994763184,10|0,0:0|0:0,0:0:0:0:
168,108,135704,5,2,3:2:0:0:
168,108,135854,1,0,3:2:0:0:
252,59,136004,1,8,0:0:0:0:
212,211,136154,1,8,0:0:0:0:
67,138,136304,6,0,B|39:160|8:168|8:168|-12:211|-4:264|57:287,1,211.199993554688,2|2,3:2|3:2,0:0:0:0:
131,248,136754,1,0,0:0:0:0:
249,364,136904,5,2,3:2:0:0:
270,349,136979,1,2,0:0:0:0:
281,325,137054,1,2,0:0:0:0:
281,298,137129,1,2,0:0:0:0:
267,275,137204,1,2,0:0:0:0:
212,211,137354,1,0,3:2:0:0:
67,138,137504,5,0,3:2:0:0:
88,47,137654,1,0,3:2:0:0:
208,104,137804,5,0,3:2:0:0:
253,119,137879,1,0,3:2:0:0:
298,104,137954,1,0,3:2:0:0:
314,59,138029,1,0,3:2:0:0:
356,36,138104,1,0,3:2:0:0:
402,46,138179,1,0,3:2:0:0:
434,80,138254,1,0,3:2:0:0:
436,127,138329,1,0,3:2:0:0:
407,164,138404,2,0,B|423:265|423:265|433:236|458:223,1,158.399995166016,2|0,0:0|0:0,0:0:0:0:
504,296,138704,6,0,B|448:256|392:296|392:296|384:360|318:359,1,228.799989526368,4|8,3:2|0:0,0:0:0:0:
196,218,139154,1,0,3:2:0:0:
62,306,139304,6,0,B|110:315|110:315|114:322|114:322|170:333,1,114.399994763184,2|0,3:2|3:2,0:0:0:0:
170,333,139529,1,0,3:2:0:0:
170,333,139604,1,8,0:0:0:0:
298,228,139754,1,2,3:2:0:0:
319,342,139904,5,2,3:2:0:0:
196,218,140054,6,0,P|181:166|234:128,1,114.399994763184,8|0,0:0|3:2,0:0:0:0:
128,0,140354,1,8,0:0:0:0:
221,129,140504,2,0,L|108:149,1,114.399994763184,0|8,3:2|0:0,0:0:0:0:
68,158,140729,1,8,0:0:0:0:
43,163,140804,1,0,3:2:0:0:
159,218,140954,1,8,0:0:0:0:
281,47,141104,6,0,B|348:29|366:94|366:94|383:164|455:143,1,228.799989526368,2|8,3:2|0:0,0:0:0:0:
492,74,141554,1,0,3:2:0:0:
358,260,141704,5,2,3:2:0:0:
487,317,141854,1,0,3:2:0:0:
509,281,141929,1,0,3:2:0:0:
495,241,142004,1,8,0:0:0:0:
358,260,142154,1,2,0:0:0:0:
299,384,142304,5,4,3:2:0:0:
111,273,142454,1,8,0:0:0:0:
48,365,142604,5,0,3:2:0:0:
261,289,142754,1,8,0:0:0:0:
104,181,142904,2,0,B|112:130|112:130|109:121|109:121|115:68,1,114.399994763184,0|8,3:2|0:0,0:0:0:0:
123,34,143129,1,8,0:0:0:0:
126,11,143204,1,0,3:2:0:0:
28,112,143354,1,8,0:0:0:0:
199,154,143504,6,0,P|254:139|310:131,1,114.399994763184,2|2,3:2|3:2,0:0:0:0:
346,150,143729,1,2,0:0:0:0:
386,149,143804,1,10,0:0:0:0:
422,133,143879,1,2,0:0:0:0:
445,100,143954,1,2,3:2:0:0:
445,59,144029,1,2,0:0:0:0:
422,25,144104,5,2,3:2:0:0:
400,59,144179,1,2,0:0:0:0:
399,99,144254,1,2,3:2:0:0:
416,135,144329,1,2,3:2:0:0:
448,158,144404,1,10,0:0:0:0:
466,193,144479,1,2,0:0:0:0:
479,230,144554,1,2,3:2:0:0:
464,267,144629,1,2,0:0:0:0:
429,287,144704,6,0,P|400:281|372:277,1,57.1999973815919,2|0,3:2|0:0,0:0:0:0:
315,218,144854,1,8,0:0:0:0:
178,369,145004,6,0,P|206:363|234:359,1,57.1999973815919,0|0,3:2|0:0,0:0:0:0:
286,296,145154,1,8,0:0:0:0:
70,265,145304,6,0,P|58:208|47:152,1,114.399994763184,0|8,3:2|0:0,0:0:0:0:
37,113,145529,1,8,0:2:0:0:
32,96,145604,1,0,3:2:0:0:
160,7,145754,1,8,0:0:0:0:
246,148,145904,6,0,P|193:158|154:119,1,114.399994763184,2|2,3:2|3:2,0:0:0:0:
21,355,146204,2,0,P|83:301|165:315,1,171.599992144776,10|2,0:0|0:0,0:0:0:0:
192,342,146504,1,2,3:2:0:0:
323,226,146654,2,0,L|378:237,1,57.1999973815919,2|2,3:2|3:2,0:0:0:0:
393,240,146804,1,10,0:0:0:0:
504,164,146954,6,0,L|448:175,1,57.1999973815919,2|2,3:2|0:0,0:0:0:0:
338,318,147104,2,0,L|282:306,1,57.1999973815919,0|0,3:2|0:0,0:0:0:0:
224,149,147254,5,10,0:0:0:0:
230,116,147329,1,2,0:0:0:0:
223,85,147404,1,2,3:2:0:0:
198,65,147479,1,2,0:0:0:0:
164,60,147554,1,10,0:0:0:0:
132,71,147629,1,2,0:0:0:0:
114,96,147704,5,2,3:2:0:0:
143,117,147779,1,2,0:0:0:0:
185,119,147854,1,10,0:0:0:0:
230,95,147929,1,10,0:0:0:0:
259,51,148004,1,10,3:2:0:0:
308,31,148079,1,10,0:0:0:0:
364,47,148154,2,0,P|366:75|373:103,1,57.1999973815919,10|10,0:0|0:0,0:0:0:0:
475,145,148304,6,0,P|394:134|347:201,1,171.599992144776,4|0,3:2|0:0,0:0:0:0:
404,266,148604,2,0,B|427:279|433:306|433:306|442:271|419:246,1,114.399994763184,8|0,0:0|0:0,0:0:0:0:
277,356,148904,2,0,B|231:348|231:348|230:343|230:343|168:331,1,114.399994763184,2|0,3:2|0:0,0:0:0:0:
125,320,149129,1,2,0:0:0:0:
114,317,149204,1,10,0:0:0:0:
217,238,149354,1,0,0:0:0:0:
51,383,149504,6,0,B|29:365|-6:351|-6:351|-35:298|-22:241|43:219,1,228.799989526368,4|8,3:2|0:0,0:0:0:0:
130,195,149954,1,2,0:0:0:0:
282,305,150104,6,0,P|337:291|393:280,1,114.399994763184,2|0,3:2|0:0,0:0:0:0:
427,275,150329,1,2,0:0:0:0:
441,273,150404,1,8,0:0:0:0:
341,118,150554,5,2,0:0:0:0:
332,72,150629,1,8,0:0:0:0:
370,44,150704,2,0,P|291:118|188:82,1,228.799989526368,2|8,3:2|0:2,0:0:0:0:
106,261,151154,1,0,3:2:0:0:
8,191,151304,2,0,P|63:175|117:158,1,114.399994763184,8|0,0:0|3:2,0:0:0:0:
304,384,151604,1,8,0:0:0:0:
192,360,151754,1,2,3:2:0:0:
117,157,151904,5,2,3:2:0:0:
248,128,152054,1,8,0:0:0:0:
378,336,152204,5,0,3:2:0:0:
264,304,152354,1,8,0:0:0:0:
408,180,152504,5,2,3:2:0:0:
487,312,152654,1,8,0:0:0:0:
437,346,152729,1,8,0:0:0:0:
378,336,152804,1,0,3:2:0:0:
420,264,152954,1,8,0:0:0:0:
294,126,153104,6,0,B|232:139|232:139|211:179|211:179|128:199,1,193.600005908203,4|0,3:2|3:2,0:0:0:0:
128,199,153554,1,0,0:0:0:0:
14,213,153704,2,0,B|60:223|107:232|107:232|98:278|90:328,1,193.600005908203,2|0,3:2|3:2,0:0:0:0:
352,379,154304,6,0,P|346:332|335:284,1,96.8000029541017,2|2,3:2|0:0,0:0:0:0:
425,225,154604,2,0,P|431:272|442:320,1,96.8000029541017,0|2,3:2|0:0,0:0:0:0:
245,314,154904,2,0,P|251:266|262:218,1,96.8000029541017,2|2,3:2|0:0,0:0:0:0:
262,218,155129,1,2,0:0:0:0:
262,218,155204,1,0,3:2:0:0:
239,144,155354,1,2,0:0:0:0:
316,25,155504,6,0,B|216:1|242:61|127:47,1,193.600005908203,2|0,3:2|3:2,0:0:0:0:
0,176,155954,1,2,0:0:0:0:
0,176,156029,1,2,0:0:0:0:
0,176,156104,2,0,P|69:163|126:205,1,145.200004431152,0|2,3:2|0:0,0:0:0:0:
139,224,156404,1,8,0:0:0:0:
279,160,156554,1,8,0:0:0:0:
320,313,156704,5,4,3:2:0:0:
320,313,156854,1,2,0:0:0:0:
233,235,157004,2,0,P|241:163|246:90,1,145.200004431152,8|0,0:0|0:0,0:0:0:0:
247,91,157304,6,0,P|270:86|294:80,1,48.4000014770508,2|0,3:2|0:0,0:0:0:0:
438,185,157454,2,0,P|415:190|391:196,1,48.4000014770508,2|0,3:2|0:0,0:0:0:0:
389,45,157604,2,0,P|394:66|400:89,1,48.4000014770508,10|0,0:0|0:0,0:0:0:0:
296,234,157754,2,0,P|291:210|285:187,1,48.4000014770508,6|0,3:2|0:0,0:0:0:0:
