osu file format v14

[General]
AudioFilename: audio.mp3
AudioLeadIn: 0
PreviewTime: 166480
Countdown: 0
SampleSet: Soft
StackLeniency: 0.5
Mode: 0
LetterboxInBreaks: 0
WidescreenStoryboard: 1

[Editor]
DistanceSpacing: 1.3
BeatDivisor: 4
GridSize: 8
TimelineZoom: 1.599999

[Metadata]
Title:Yappari Ame wa Furun da ne
TitleUnicode:やっぱり雨は降るんだね
Artist:TUYU
ArtistUnicode:ツユ
Creator:Seros
Version:Kuse's Expert
Source:
Tags:Japanese pop tsuyu pusu rei omutatsu It's Raining After All ぷす 礼衣 おむたつ kuse KuBsNia_ZhoYL_ climbx3145 irin binfhone bf too deca decaedeus rolua [paw]ochikouri
BeatmapID:2768567
BeatmapSetID:1217474

[Difficulty]
HPDrainRate:5
CircleSize:4.3
OverallDifficulty:8.5
ApproachRate:9.3
SliderMultiplier:2.5
SliderTickRate:1

[Events]
//Background and Video events
Video,100,"video.mp4"
0,0,"4k.jpg",0,0
//Break Periods
2,152603,162040
2,167372,173117
//Storyboard Layer 0 (Background)
//Storyboard Layer 1 (Fail)
//Storyboard Layer 2 (Pass)
//Storyboard Layer 3 (Foreground)
//Storyboard Layer 4 (Overlay)
//Storyboard Sound Samples

[TimingPoints]
1019,461.538461538462,4,2,1,50,1,0
1019,-200,4,2,1,50,0,0
15788,-125,4,2,1,60,0,0
32403,-100,4,2,1,60,0,0
39788,-83.3333333333333,4,2,1,60,0,0
43480,-100,4,2,1,60,0,0
46249,-250,4,2,1,60,0,0
46942,-250,4,2,1,40,0,0
47172,-76.9230769230769,4,2,1,70,0,1
61942,-66.6666666666667,4,2,1,60,0,1
65634,-66.6666666666667,4,2,1,70,0,1
69326,-76.9230769230769,4,2,1,60,0,1
73019,-66.6666666666667,4,2,1,70,0,1
76711,-133.333333333333,4,2,1,50,0,0
90557,-100,4,2,1,40,0,0
90788,-100,4,2,1,45,0,0
91019,-100,4,2,1,50,0,0
91249,-100,4,2,1,55,0,0
91480,-125,4,2,1,60,0,0
102557,-125,4,2,1,50,0,0
108095,-100,4,2,1,60,0,0
115480,-83.3333333333333,4,2,1,60,0,0
119172,-100,4,2,1,60,0,0
121942,-125,4,2,1,60,0,0
122057,-125,4,2,1,5,0,0
122172,-125,4,2,1,60,0,0
122865,-76.9230769230769,4,2,1,70,0,1
137634,-66.6666666666667,4,2,1,60,0,1
141326,-66.6666666666667,4,2,1,70,0,1
145019,-76.9230769230769,4,2,1,60,0,1
148711,-66.6666666666667,4,2,1,70,0,1
152403,-76.9230769230769,4,2,1,50,0,0
165326,-434.782608695652,4,2,1,50,0,0
166480,-250,4,2,1,50,0,0
166653,-250,4,2,1,5,0,0
166711,-200,4,2,1,50,0,0
166884,-200,4,2,1,5,0,0
166942,-142.857142857143,4,2,1,50,0,0
167115,-142.857142857143,4,2,1,5,0,0
167172,-100,4,2,1,40,0,0
174557,-100,4,2,1,60,0,0
176403,-166.666666666667,4,2,1,60,0,0
178711,-66.6666666666667,4,2,1,70,0,0
179172,-1000,4,2,1,70,0,0
179865,-1000,4,2,1,40,0,0
180095,-62.5,4,2,1,80,0,1
180557,-76.9230769230769,4,2,1,80,0,1
193019,-66.6666666666667,4,2,1,80,0,1
193480,-76.9230769230769,4,2,1,80,0,1
194865,-66.6666666666667,4,2,1,80,0,1
198557,-66.6666666666667,4,2,1,80,0,1
202249,-76.9230769230769,4,2,1,80,0,1
205941,-66.6666666666667,4,2,1,80,0,1
209634,-100,4,2,1,50,0,0
211480,-66.6666666666667,4,2,1,70,0,0
211826,-76.9230769230769,4,2,1,70,0,0
218172,-62.5,4,2,1,70,0,0
218865,-76.9230769230769,4,2,1,70,0,0
226249,-76.9230769230769,4,2,1,60,0,0
229942,-66.6666666666667,4,2,1,70,0,0
230288,-76.9230769230769,4,2,1,70,0,0
233634,-76.9230769230769,4,2,1,60,0,0
237326,-66.6666666666667,4,2,1,70,0,0

[Colours]
Combo1 : 226,223,109
Combo2 : 210,91,136
Combo3 : 198,117,186
Combo4 : 111,206,149

[HitObjects]
22,330,1019,5,0,3:2:0:0:
59,258,1249,1,2,0:0:0:0:
119,312,1480,1,2,3:2:0:0:
160,202,1711,2,0,L|106:218,1,31.25,2|2,0:0|0:0,0:0:0:0:
59,258,1942,6,0,L|40:172,2,62.5,2|2|2,3:2|0:0|3:2,0:0:0:0:
119,312,2634,2,0,L|173:301,1,31.25,2|2,0:0|0:0,0:0:0:0:
230,284,2865,5,2,3:2:0:0:
265,356,3095,1,2,0:0:0:0:
327,303,3326,1,2,3:2:0:0:
294,228,3557,1,2,0:0:0:0:
402,149,3788,5,2,3:2:0:0:
412,229,4019,1,2,0:0:0:0:
423,309,4249,2,0,L|493:317,1,62.5,2|0,3:2|0:0,0:0:0:0:
477,179,4711,5,2,3:2:0:0:
402,149,4942,1,2,0:0:0:0:
453,86,5172,1,2,3:2:0:0:
340,61,5403,2,0,L|345:103,1,31.25,2|2,0:0|0:0,0:0:0:0:
288,156,5634,6,0,L|278:200,2,31.25,2|2|2,3:2|0:0|0:0,0:0:0:0:
248,74,6095,1,2,3:2:0:0:
197,218,6326,2,0,L|159:206,1,31.25,2|2,0:0|0:0,0:0:0:0:
93,178,6557,5,2,3:2:0:0:
19,142,6788,1,2,0:0:0:0:
60,71,7019,1,2,3:2:0:0:
133,104,7249,2,0,L|171:95,1,31.25,2|0,0:0|0:0,0:0:0:0:
248,74,7480,6,0,L|257:33,2,31.25,2|2|2,3:2|0:0|0:0,0:0:0:0:
197,218,7942,2,0,L|210:288,1,62.5,2|2,3:2|0:0,0:0:0:0:
227,361,8403,5,2,3:2:0:0:
149,335,8634,1,2,0:0:0:0:
208,279,8865,1,2,3:2:0:0:
311,366,9095,2,0,L|350:353,1,31.25,2|2,0:0|0:0,0:0:0:0:
400,297,9326,6,0,L|430:371,2,62.5,2|2|2,3:2|0:0|3:2,0:0:0:0:
344,179,10019,2,0,L|349:138,1,31.25,2|2,0:0|0:0,0:0:0:0:
361,71,10249,5,2,3:2:0:0:
305,11,10480,1,2,0:0:0:0:
269,83,10711,1,2,3:2:0:0:
344,179,10942,2,0,L|292:198,1,31.25,2|2,0:0|0:0,0:0:0:0:
238,225,11172,5,2,3:2:0:0:
129,279,11403,2,0,L|181:287,1,31.25,2|0,0:0|0:0,0:0:0:0:
258,308,11634,1,2,3:2:0:0:
238,225,11865,1,2,0:0:0:0:
204,95,12095,5,6,3:2:0:0:
269,150,12326,1,2,0:0:0:0:
238,225,12557,1,10,3:2:0:0:
170,167,12788,2,0,L|118:181,1,31.25,2|2,0:0|0:0,0:0:0:0:
64,123,13019,6,0,L|33:118,2,31.25,2|0|2,3:2|0:0|3:2,0:0:0:0:
138,80,13480,2,0,L|142:49,1,31.25,10|0,3:2|0:0,0:0:0:0:
170,167,13711,1,2,0:0:0:0:
254,79,13942,1,6,3:2:0:0:
256,192,14057,12,0,15326,0:0:0:0:
441,111,15788,5,2,3:2:0:0:
299,17,16019,1,2,0:0:0:0:
293,186,16249,1,2,3:2:0:0:
343,106,16480,2,0,L|283:98,1,50,2|2,0:0|0:0,0:0:0:0:
210,94,16711,5,2,3:2:0:0:
105,222,16942,1,2,0:0:0:0:
32,75,17172,1,2,3:2:0:0:
120,88,17403,2,0,L|110:172,1,50,2|2,0:0|0:0,0:0:0:0:
105,222,17634,5,2,3:2:0:0:
121,247,17749,1,2,0:0:0:0:
130,275,17865,1,2,0:0:0:0:
2,342,18095,1,2,3:2:0:0:
37,169,18326,1,2,0:0:0:0:
165,347,18557,5,2,3:2:0:0:
191,332,18672,1,2,0:0:0:0:
220,327,18788,1,2,0:0:0:0:
249,332,18903,1,2,0:0:0:0:
275,347,19019,2,0,P|326:352|369:317,1,100,2|2,3:2|0:0,0:0:0:0:
470,185,19480,5,2,3:2:0:0:
302,254,19711,1,2,0:0:0:0:
370,77,19942,1,2,3:2:0:0:
393,165,20172,2,0,L|328:156,1,50,2|2,0:0|0:0,0:0:0:0:
266,144,20403,5,2,3:2:0:0:
131,41,20634,1,2,0:0:0:0:
120,211,20865,1,2,3:2:0:0:
52,134,21095,2,0,L|103:127,1,50,2|2,0:0|0:0,0:0:0:0:
179,149,21326,5,2,3:2:0:0:
270,5,21557,1,2,0:0:0:0:
349,155,21788,1,2,3:2:0:0:
387,64,22019,2,0,L|324:70,1,50,2|0,0:0|0:0,0:0:0:0:
270,168,22249,5,2,3:2:0:0:
365,309,22480,1,2,0:0:0:0:
446,161,22711,2,0,L|482:282,1,100,2|2,3:2|0:0,0:0:0:0:
280,352,23172,5,2,3:2:0:0:
232,188,23403,1,2,0:0:0:0:
104,301,23634,1,2,3:2:0:0:
133,210,23865,2,0,L|169:244,1,50,2|2,0:0|0:0,0:0:0:0:
225,296,24095,5,2,3:2:0:0:
357,188,24326,1,2,0:0:0:0:
217,90,24557,1,2,3:2:0:0:
232,188,24788,2,0,L|302:188,1,50,2|2,0:0|0:0,0:0:0:0:
357,188,25019,5,2,3:2:0:0:
379,144,25134,1,2,0:0:0:0:
371,95,25249,1,2,0:0:0:0:
314,264,25480,1,2,3:2:0:0:
482,242,25711,1,2,0:0:0:0:
359,362,25942,5,2,3:2:0:0:
324,341,26057,1,2,0:0:0:0:
284,333,26172,1,2,0:0:0:0:
247,350,26288,1,2,0:0:0:0:
215,374,26403,2,0,P|187:386|97:375,1,100,2|2,3:2|0:0,0:0:0:0:
14,198,26865,6,0,L|27:58,1,100,6|0,3:2|0:0,0:0:0:0:
37,10,27326,1,10,3:2:0:0:
126,154,27557,1,2,0:0:0:0:
241,29,27788,5,0,3:2:0:0:
241,29,28019,1,2,3:2:0:0:
352,161,28249,1,10,3:2:0:0:
322,190,28365,1,0,0:0:0:0:
280,200,28480,1,2,0:0:0:0:
349,69,28711,6,0,P|397:81|458:107,1,100,6|2,3:2|0:0,0:0:0:0:
476,174,29172,2,0,L|466:292,1,100,0|2,3:2|0:0,0:0:0:0:
260,111,29634,6,0,P|207:120|145:154,1,100,2|2,3:2|0:0,0:0:0:0:
138,220,30095,2,0,L|157:332,1,100,0|2,3:2|0:0,0:0:0:0:
315,375,30557,5,2,3:2:0:0:
414,236,30788,1,2,0:0:0:0:
276,135,31019,1,0,3:2:0:0:
171,268,31249,1,2,0:0:0:0:
400,336,31480,5,0,3:2:0:0:
380,146,31711,1,2,0:0:0:0:
191,172,31942,1,2,3:2:0:0:
216,367,32172,1,2,3:2:0:0:
233,371,32288,1,2,0:0:0:0:
301,324,32403,6,0,B|189:263|185:437|32:341,1,250,6|8,3:2|3:2,0:0:0:0:
153,240,33095,1,2,0:0:0:0:
11,147,33326,5,2,3:2:0:0:
151,60,33557,1,0,3:2:0:0:
148,86,33672,1,2,0:0:0:0:
91,14,33788,2,0,P|152:19|199:58,1,125,10|0,3:2|0:0,0:0:0:0:
233,315,34249,6,0,B|294:300|294:300|338:239,1,125,2|0,3:2|0:0,0:0:0:0:
402,213,34595,1,2,0:0:0:0:
402,189,34711,1,10,3:2:0:0:
285,65,34942,1,0,0:0:0:0:
476,154,35172,6,0,B|443:106|363:100|363:100|344:141|284:140,1,187.5,2|0,3:2|0:0,0:0:0:0:
285,65,35634,1,10,3:2:0:0:
65,79,35865,1,2,0:0:0:0:
83,46,35980,1,2,0:0:0:0:
118,34,36095,5,0,3:2:0:0:
184,119,36326,1,2,0:0:0:0:
41,270,36557,1,10,3:2:0:0:
82,155,36788,1,2,0:0:0:0:
182,328,37019,6,0,P|135:365|63:358,1,125,2|2,3:2|3:2,0:0:0:0:
146,201,37480,1,10,3:2:0:0:
307,262,37711,1,2,0:0:0:0:
327,284,37826,1,2,0:0:0:0:
301,356,37942,6,0,P|359:302|438:302,1,125,2|2,3:2|0:0,0:0:0:0:
512,180,38403,1,10,3:2:0:0:
470,165,38519,1,2,0:0:0:0:
429,181,38634,1,2,0:0:0:0:
471,261,38865,5,2,3:2:0:0:
269,163,39095,1,2,3:2:0:0:
484,88,39326,1,10,3:2:0:0:
347,36,39557,1,10,0:0:0:0:
345,62,39672,1,8,0:0:0:0:
373,9,39788,6,0,L|356:326,1,299.999990844727,6|10,3:2|3:2,0:0:0:0:
356,308,40480,1,0,3:2:0:0:
236,159,40711,5,10,3:2:0:0:
217,332,40942,1,0,3:2:0:0:
86,96,41172,1,10,3:2:0:0:
19,354,41403,1,0,3:2:0:0:
236,159,41634,5,8,3:2:0:0:
17,239,41865,1,0,3:2:0:0:
217,332,42095,1,8,3:2:0:0:
86,96,42326,1,0,3:2:0:0:
330,81,42557,5,10,3:2:0:0:
140,34,42788,1,2,3:2:0:0:
91,223,43019,1,10,3:2:0:0:
277,276,43249,1,2,3:2:0:0:
279,256,43365,1,0,3:0:0:0:
344,211,43480,6,0,B|215:194|263:333|131:322,1,250,6|8,3:2|3:2,0:0:0:0:
91,223,44172,1,2,0:0:0:0:
234,384,44403,5,0,3:2:0:0:
234,384,44634,1,0,3:2:0:0:
295,215,44865,2,0,P|338:175|432:184,1,125,10|2,3:2|0:0,0:0:0:0:
470,215,45211,1,8,3:2:0:0:
468,232,45326,5,6,3:2:0:0:
509,95,45557,1,10,3:2:0:0:
485,74,45672,1,8,3:2:0:0:
455,62,45788,1,10,3:2:0:0:
423,59,45903,1,8,3:2:0:0:
393,70,46019,1,10,3:2:0:0:
278,32,46249,6,0,P|317:84|400:61,1,150,0|0,3:2|0:0,0:0:0:0:
278,32,47172,6,0,P|383:52|456:186,1,243.749988842011,6|0,3:2|0:0,0:0:0:0:
243,266,47634,2,0,B|301:212|301:212|390:223,1,162.499992561341,10|0,0:0|0:0,0:0:0:0:
436,309,47980,1,2,0:0:0:0:
367,375,48095,6,0,P|347:338|354:262,1,81.2499962806703,2|0,3:2|0:0,0:0:0:0:
454,160,48326,2,0,P|472:205|450:272,1,81.2499962806703,2|0,3:2|0:0,0:0:0:0:
298,142,48557,1,10,0:0:0:0:
235,345,48788,1,2,0:0:0:0:
206,50,49019,6,0,P|145:3|27:33,1,162.499992561341,2|0,3:2|0:0,0:0:0:0:
103,126,49365,1,2,0:0:0:0:
0,154,49480,2,0,P|1:132|95:83,1,81.2499962806703,10|0,0:0|0:0,0:0:0:0:
140,192,49711,2,0,P|131:152|34:128,1,81.2499962806703,2|0,0:0|0:0,0:0:0:0:
0,289,49942,6,0,L|82:300,1,81.2499962806703,0|0,3:2|0:0,0:0:0:0:
209,347,50172,2,0,L|312:322,1,81.2499962806703,10|0,3:2|0:0,0:0:0:0:
421,265,50403,2,0,P|447:256|425:279,1,81.2499962806703,10|0,3:2|0:0,0:0:0:0:
256,221,50634,1,10,0:0:0:0:
347,205,50749,1,10,0:0:0:0:
292,87,50865,5,6,3:2:0:0:
236,40,50980,1,2,0:0:0:0:
162,43,51096,1,2,0:0:0:0:
117,102,51211,2,0,L|111:214,1,81.2499962806703,2|10,0:0|3:2,0:0:0:0:
157,350,51442,2,0,L|164:226,1,81.2499962806703,2|0,0:0|0:0,0:0:0:0:
21,227,51672,1,2,0:0:0:0:
0,315,51788,6,0,L|93:300,1,81.2499962806703,2|0,3:2|0:0,0:0:0:0:
192,169,52019,2,0,L|75:189,1,81.2499962806703,2|0,3:2|0:0,0:0:0:0:
26,54,52249,2,0,P|18:36|44:55,1,81.2499962806703,10|0,0:0|0:0,0:0:0:0:
117,102,52480,1,2,0:0:0:0:
170,28,52596,1,8,0:0:0:0:
231,98,52711,6,0,P|274:107|321:82,1,81.2499962806703,2|0,3:2|0:0,0:0:0:0:
376,26,52942,2,0,P|455:28|510:87,1,162.499992561341,2|8,0:0|0:0,0:0:0:0:
445,198,53288,1,2,0:0:0:0:
359,207,53403,2,0,P|369:156|408:119,1,81.2499962806703,2|8,0:0|0:0,0:0:0:0:
213,296,53634,5,0,3:2:0:0:
135,276,53749,1,8,0:0:0:0:
57,251,53865,2,0,L|58:147,1,81.2499962806703,10|2,3:2|0:0,0:0:0:0:
262,228,54095,1,10,3:2:0:0:
7,313,54326,1,10,0:0:0:0:
157,69,54557,6,0,P|258:107|245:249,1,243.749988842011,6|0,3:2|0:0,0:0:0:0:
57,251,55019,2,0,L|58:157,1,81.2499962806703,8|0,0:0|0:0,0:0:0:0:
157,69,55249,2,0,L|157:178,1,81.2499962806703,2|0,0:0|0:0,0:0:0:0:
3,342,55480,6,0,P|70:278|147:312,1,162.499992561341,2|0,3:2|0:0,0:0:0:0:
239,376,55826,1,2,0:0:0:0:
296,312,55942,2,0,P|340:319|395:359,1,81.2499962806703,10|0,0:0|0:0,0:0:0:0:
353,149,56172,2,0,P|383:146|359:165,1,81.2499962806703,2|0,0:0|0:0,0:0:0:0:
232,161,56403,6,0,P|200:130|148:117,1,81.2499962806703,2|0,3:2|0:0,0:0:0:0:
70,268,56634,1,2,0:0:0:0:
119,193,56749,1,2,0:0:0:0:
1,218,56865,2,0,P|-1:297|51:356,1,162.499992561341,10|0,0:0|0:0,0:0:0:0:
150,281,57211,1,2,0:0:0:0:
200,342,57326,6,0,P|279:299|387:307,1,162.499992561341,2|10,3:2|3:2,0:0:0:0:
437,366,57672,1,2,0:0:0:0:
392,217,57788,2,0,L|399:120,1,81.2499962806703,10|0,3:2|0:0,0:0:0:0:
257,51,58019,1,10,0:0:0:0:
271,130,58134,1,8,0:0:0:0:
287,208,58249,6,0,P|338:129|501:206,1,243.749988842011,6|0,3:2|0:0,0:0:0:0:
389,295,58711,2,0,P|382:248|418:183,1,81.2499962806703,10|0,0:0|0:0,0:0:0:0:
437,366,58942,2,0,P|404:376|358:372,1,81.2499962806703,2|0,0:0|0:0,0:0:0:0:
207,221,59172,6,0,P|247:209|321:218,1,81.2499962806703,2|0,3:2|0:0,0:0:0:0:
262,106,59403,1,2,0:0:0:0:
281,26,59519,1,2,0:0:0:0:
252,109,59634,2,0,P|208:101|156:79,1,81.2499962806703,10|2,0:0|0:0,0:0:0:0:
7,165,59865,2,0,P|54:151|91:132,1,81.2499962806703,2|2,0:0|0:0,0:0:0:0:
216,341,60095,6,0,P|109:343|55:228,1,243.749988842011,6|0,3:2|0:0,0:0:0:0:
173,88,60557,2,0,L|155:311,1,162.499992561341,8|2,0:0|3:2,0:0:0:0:
216,341,60903,1,10,0:0:0:0:
319,272,61019,5,10,0:2:0:0:
290,196,61134,1,8,0:0:0:0:
323,122,61249,1,0,3:0:0:0:
308,290,61480,5,10,3:2:0:0:
273,200,61595,1,8,0:0:0:0:
312,113,61711,1,10,3:2:0:0:
400,79,61826,1,8,0:0:0:0:
451,159,61942,6,0,B|356:207|322:131|286:45|180:101,1,281.250010728836,6|0,3:2|0:0,0:0:0:0:
25,169,62403,2,0,P|95:216|196:82,1,281.250010728836,10|2,0:0|0:0,0:0:0:0:
110,126,62865,6,0,P|141:167|197:191,1,93.7500035762788,2|0,3:2|0:0,0:0:0:0:
261,164,63095,2,0,P|287:123|291:72,1,93.7500035762788,2|0,0:0|2:0,2:0:0:0:
471,0,63326,2,0,P|505:37|506:105,1,93.7500035762788,10|0,0:0|0:0,0:0:0:0:
491,278,63557,2,0,P|463:316|395:332,1,93.7500035762788,2|8,0:0|0:0,0:0:0:0:
225,246,63788,6,0,P|262:311|323:185,1,281.250010728836,2|0,3:2|0:0,0:0:0:0:
241,65,64249,2,0,L|241:206,1,93.7500035762788,10|0,0:0|0:0,0:0:0:0:
117,251,64480,2,0,P|130:193|184:160,1,93.7500035762788,2|0,0:0|0:0,0:0:0:0:
241,65,64711,5,0,3:2:0:0:
202,325,64942,1,10,0:0:0:0:
462,349,65172,1,10,3:2:0:0:
479,87,65403,2,0,P|433:96|391:121,1,93.7500035762788,10|8,0:0|0:0,0:0:0:0:
286,206,65634,5,6,3:2:0:0:
238,148,65749,1,2,0:0:0:0:
236,72,65865,1,2,0:0:0:0:
281,11,65980,2,0,P|324:19|379:41,1,93.7500035762788,2|10,0:0|0:0,0:0:0:0:
460,177,66211,1,2,0:0:0:0:
479,87,66327,2,0,P|433:96|391:121,1,93.7500035762788,2|0,0:0|0:0,0:0:0:0:
196,180,66557,6,0,P|241:188|298:213,1,93.7500035762788,2|0,3:2|0:0,0:0:0:0:
56,292,66788,2,0,P|48:246|52:184,1,93.7500035762788,2|0,3:2|0:0,0:0:0:0:
188,84,67019,2,0,P|131:112|89:124,1,93.7500035762788,10|0,0:0|0:0,0:0:0:0:
148,269,67249,1,2,0:0:0:0:
178,348,67365,1,8,0:0:0:0:
244,296,67480,6,0,P|289:305|353:338,1,93.7500035762788,2|0,3:2|0:0,0:0:0:0:
397,124,67711,2,0,P|401:75|432:36,1,93.7500035762788,2|0,0:0|0:0,0:0:0:0:
512,125,67942,2,0,P|506:173|466:217,1,93.7500035762788,10|0,0:0|0:0,0:0:0:0:
244,296,68172,2,0,P|203:266|196:185,1,93.7500035762788,2|8,0:0|0:0,0:0:0:0:
222,139,68403,5,0,3:2:0:0:
283,209,68518,1,8,0:0:0:0:
244,296,68634,2,0,P|209:334|149:345,1,93.7500035762788,10|0,3:2|0:0,0:0:0:0:
108,123,68865,1,10,3:2:0:0:
0,327,69095,1,10,0:0:0:0:
37,75,69326,6,0,B|172:47|115:206|278:139,1,243.749988842011,6|0,3:2|0:0,0:0:0:0:
403,9,69788,2,0,P|363:17|303:62,1,81.2499962806703,8|0,0:0|0:0,0:0:0:0:
249,149,70019,2,0,P|309:167|382:223,1,81.2499962806703,2|0,0:0|0:0,0:0:0:0:
456,329,70249,6,0,P|359:317|324:219,1,162.499992561341,2|0,3:2|0:0,0:0:0:0:
325,175,70595,1,2,0:0:0:0:
415,158,70711,2,0,P|394:237|323:268,1,162.499992561341,10|2,0:0|0:0,0:0:0:0:
184,233,71057,1,2,0:0:0:0:
244,166,71172,6,0,P|192:113|109:116,1,162.499992561341,2|0,3:2|0:0,0:0:0:0:
11,162,71519,1,2,0:0:0:0:
109,199,71634,2,0,P|177:174|170:63,1,162.499992561341,10|0,0:0|0:0,0:0:0:0:
169,0,71980,1,2,0:0:0:0:
191,92,72095,6,0,B|232:80|247:37|247:37|271:74|321:75,1,162.499992561341,2|8,3:2|0:0,0:0:0:0:
398,31,72442,1,2,0:0:0:0:
314,74,72557,2,0,L|322:179,1,81.2499962806703,10|0,3:2|0:0,0:0:0:0:
327,260,72788,1,10,0:0:0:0:
336,365,72903,1,8,0:0:0:0:
457,338,73019,6,0,P|363:244|237:291,1,281.250010728836,6|0,3:2|0:0,0:0:0:0:
97,384,73480,2,0,P|150:376|195:331,1,93.7500035762788,10|0,0:0|0:0,0:0:0:0:
191,204,73711,2,0,P|148:172|77:167,1,93.7500035762788,2|0,0:0|0:0,0:0:0:0:
32,269,73942,6,0,L|160:283,1,93.7500035762788,2|0,3:2|0:0,0:0:0:0:
191,204,74172,1,2,0:0:0:0:
237,290,74288,1,2,0:0:0:0:
315,234,74403,2,0,L|324:125,1,93.7500035762788,10|2,0:0|0:0,0:0:0:0:
246,0,74634,2,0,L|263:118,1,93.7500035762788,2|8,0:0|0:0,0:0:0:0:
500,81,74865,6,0,P|461:51|381:55,1,93.7500035762788,14|0,3:2|0:0,0:0:0:0:
315,234,75095,2,0,P|363:234|408:159,1,93.7500035762788,10|0,3:2|0:0,0:0:0:0:
500,81,75326,2,0,L|483:318,1,187.500007152558,8|2,3:2|0:0,0:0:0:0:
411,339,75672,1,10,0:0:0:0:
315,234,75788,5,2,3:2:0:0:
258,185,75903,1,10,0:0:0:0:
183,174,76019,1,10,3:2:0:0:
114,203,76134,1,10,0:0:0:0:
67,261,76249,5,10,3:2:0:0:
122,209,76365,1,8,0:0:0:0:
142,137,76480,1,10,0:0:0:0:
120,65,76595,1,8,0:0:0:0:
65,15,76711,5,4,3:2:0:0:
15,119,76942,2,0,B|13:168|13:168|29:114,2,93.7500035762788,2|2|2,0:0|0:0|3:2,0:0:0:0:
65,15,77634,2,0,P|41:86|118:171,1,187.500007152558,10|0,3:2|0:0,0:0:0:0:
252,96,78326,1,0,3:2:0:0:
293,105,78442,1,0,3:2:0:0:
334,110,78557,6,0,P|384:69|332:28,2,140.625005364418,0|0|0,3:2|3:2|3:2,0:0:0:0:
252,96,79480,2,0,L|258:161,1,46.8750017881394,10|2,3:2|0:0,0:0:0:0:
180,137,79711,2,0,L|185:200,1,46.8750017881394,2|0,3:2|0:0,0:0:0:0:
334,110,79942,2,0,L|329:63,1,46.8750017881394,10|0,3:2|0:0,0:0:0:0:
183,183,80172,1,8,3:2:0:0:
187,225,80288,1,8,3:2:0:0:
192,266,80403,5,4,3:2:0:0:
297,216,80634,2,0,B|346:214|346:214|301:233,2,93.7500035762788,2|0|0,0:2|0:2|3:2,0:0:0:0:
192,266,81326,2,0,P|258:260|340:364,1,187.500007152558,10|0,3:2|0:0,0:0:0:0:
466,238,82019,1,0,3:2:0:0:
470,196,82134,1,0,3:2:0:0:
478,154,82249,6,0,P|455:110|389:160,2,140.625005364418,0|0|0,3:2|3:2|3:2,0:0:0:0:
466,238,83172,2,0,L|398:230,1,46.8750017881394,10|0,3:2|0:0,0:0:0:0:
388,143,83403,2,0,L|302:132,1,46.8750017881394,2|0,3:2|0:0,0:0:0:0:
484,319,83634,2,0,L|419:312,1,46.8750017881394,10|0,3:2|0:0,0:0:0:0:
260,124,83865,1,10,3:2:0:0:
265,82,83980,1,8,3:2:0:0:
271,40,84095,5,4,3:2:0:0:
156,60,84326,2,0,B|107:61|107:61|155:46,2,93.7500035762788,2|0|0,0:0|0:0|3:2,0:0:0:0:
271,40,85019,2,0,P|182:66|154:172,1,187.500007152558,8|0,3:2|0:0,0:0:0:0:
259,327,85711,1,0,3:2:0:0:
301,327,85826,1,0,3:2:0:0:
343,327,85942,6,0,P|391:288|323:258,2,140.625005364418,0|0|0,3:2|3:2|3:2,0:0:0:0:
259,327,86865,2,0,L|261:254,1,46.8750017881394,10|2,3:2|0:0,0:0:0:0:
181,303,87095,2,0,L|184:236,1,46.8750017881394,0|0,3:2|0:0,0:0:0:0:
343,327,87326,2,0,L|340:401,1,46.8750017881394,10|0,3:2|0:0,0:0:0:0:
183,256,87557,1,8,3:2:0:0:
186,214,87672,1,8,3:2:0:0:
191,171,87788,5,4,3:2:0:0:
103,108,88019,2,0,B|54:111|54:111|110:123,2,93.7500035762788,2|0|0,0:0|0:0|3:2,0:0:0:0:
191,171,88711,2,0,P|131:120|142:7,1,187.500007152558,10|0,3:2|0:0,0:0:0:0:
355,118,89403,1,0,3:2:0:0:
352,160,89519,1,0,3:2:0:0:
347,201,89634,6,0,P|307:243|268:186,2,140.625005364418,0|0|0,3:2|3:2|3:2,0:0:0:0:
355,118,90557,5,14,3:2:0:0:
396,130,90672,1,8,3:2:0:0:
427,160,90788,1,8,3:2:0:0:
438,202,90903,1,8,3:2:0:0:
479,224,91019,5,10,3:2:0:0:
459,150,91134,1,8,3:2:0:0:
405,98,91250,1,8,3:2:0:0:
335,77,91365,1,8,3:2:0:0:
266,104,91480,5,2,3:2:0:0:
200,261,91711,1,2,0:0:0:0:
86,129,91942,1,2,3:2:0:0:
169,58,92172,2,0,L|175:108,1,50,2|2,0:0|0:0,0:0:0:0:
184,181,92403,5,2,3:2:0:0:
34,263,92634,1,2,0:0:0:0:
167,368,92864,1,2,3:2:0:0:
130,275,93095,2,0,L|200:281,1,50,2|2,0:0|0:0,0:0:0:0:
258,287,93326,5,2,3:2:0:0:
393,183,93557,1,2,0:0:0:0:
418,350,93787,1,2,3:2:0:0:
452,261,94019,2,0,L|402:268,1,50,2|2,0:0|0:0,0:0:0:0:
316,277,94249,5,2,3:2:0:0:
287,249,94365,1,2,0:0:0:0:
276,210,94480,1,2,0:0:0:0:
286,171,94595,1,2,0:0:0:0:
308,137,94711,2,0,P|336:89|318:29,1,100,2|2,3:2|0:0,0:0:0:0:
263,2,95172,5,2,3:2:0:0:
185,153,95403,1,2,0:0:0:0:
79,19,95634,1,2,3:2:0:0:
172,58,95864,2,0,L|115:96,1,50,2|2,0:0|0:0,0:0:0:0:
97,161,96095,5,2,3:2:0:0:
0,69,96326,2,0,L|70:104,1,50,2|0,0:0|0:0,0:0:0:0:
97,161,96557,1,2,3:2:0:0:
104,289,96788,2,0,L|100:220,1,50,2|2,0:0|0:0,0:0:0:0:
97,161,97018,5,2,3:2:0:0:
123,130,97134,1,2,0:0:0:0:
161,117,97249,1,2,0:0:0:0:
199,127,97365,1,0,0:0:0:0:
225,156,97480,1,2,3:2:0:0:
220,289,97711,2,0,L|224:216,1,50,2|2,0:0|0:0,0:0:0:0:
225,156,97941,5,2,3:2:0:0:
351,40,98172,1,2,0:0:0:0:
438,185,98403,2,0,L|421:315,1,100,2|2,3:2|0:0,0:0:0:0:
305,163,98864,5,2,3:2:0:0:
250,324,99095,1,2,0:0:0:0:
126,207,99326,1,2,3:2:0:0:
226,233,99557,2,0,L|208:156,1,50,2|2,0:0|0:0,0:0:0:0:
191,102,99788,5,2,3:2:0:0:
167,69,99903,1,2,0:0:0:0:
131,51,100018,1,2,0:0:0:0:
90,51,100134,1,2,0:0:0:0:
55,71,100249,1,2,3:2:0:0:
31,103,100365,2,0,P|50:150|33:224,1,100,2|0,0:0|0:0,0:0:0:0:
0,260,100711,5,2,3:2:0:0:
37,274,100826,1,2,0:0:0:0:
76,268,100941,1,2,0:0:0:0:
167,124,101172,1,2,3:2:0:0:
264,263,101403,1,2,0:0:0:0:
173,288,101634,5,2,3:2:0:0:
170,248,101749,1,2,0:0:0:0:
184,210,101864,1,2,0:0:0:0:
212,182,101980,1,2,0:0:0:0:
249,169,102095,2,0,P|298:184|349:162,1,100,2|2,3:2|0:0,0:0:0:0:
284,7,102557,6,0,L|293:106,1,100,6|0,3:2|0:0,0:0:0:0:
309,275,103018,1,10,3:2:0:0:
448,177,103249,1,2,0:0:0:0:
297,110,103480,5,0,3:2:0:0:
297,110,103711,1,2,3:2:0:0:
379,231,103942,1,10,3:2:0:0:
389,269,104057,1,0,0:0:0:0:
384,308,104172,1,2,0:0:0:0:
214,364,104403,6,0,P|166:352|105:326,1,100,6|2,3:2|0:0,0:0:0:0:
87,259,104864,2,0,L|97:141,1,100,0|2,3:2|0:0,0:0:0:0:
384,308,105326,6,0,P|437:299|499:265,1,100,2|2,3:2|0:0,0:0:0:0:
509,204,105788,2,0,L|492:86,1,100,0|2,3:2|0:0,0:0:0:0:
345,8,106249,5,2,3:2:0:0:
305,173,106480,1,2,0:0:0:0:
202,37,106711,1,0,3:2:0:0:
360,97,106941,1,2,0:0:0:0:
189,277,107172,5,0,3:2:0:0:
104,89,107403,1,2,0:0:0:0:
288,12,107634,1,2,3:2:0:0:
383,198,107865,1,2,0:0:0:0:
375,222,107980,1,0,0:0:0:0:
400,308,108095,6,0,P|346:223|191:220,1,250,6|8,3:2|3:2,0:0:0:0:
109,254,108787,1,2,0:0:0:0:
37,41,109018,5,2,3:2:0:0:
197,53,109249,1,0,3:2:0:0:
223,56,109364,1,0,0:0:0:0:
201,138,109480,2,0,P|241:103|255:33,1,125,10|0,3:2|0:0,0:0:0:0:
0,46,109941,6,0,P|68:54|103:94,1,125,2|0,3:2|0:0,0:0:0:0:
119,167,110288,1,2,0:0:0:0:
106,171,110403,1,10,3:2:0:0:
0,271,110634,1,0,0:0:0:0:
205,353,110865,6,0,B|305:387|271:272|374:300,1,187.5,2|0,3:2|0:0,0:0:0:0:
354,375,111326,1,8,3:2:0:0:
512,174,111557,1,2,0:0:0:0:
475,182,111672,1,2,0:0:0:0:
452,212,111788,5,2,3:2:0:0:
373,55,112019,1,2,0:0:0:0:
258,186,112249,1,10,3:2:0:0:
362,158,112480,1,2,0:0:0:0:
190,109,112711,6,0,P|156:166|162:231,1,125,2|2,3:2|3:2,0:0:0:0:
352,314,113172,2,0,P|344:265|308:233,1,62.5,10|2,3:2|0:0,0:0:0:0:
258,186,113403,1,2,0:0:0:0:
278,147,113518,1,2,0:0:0:0:
268,102,113634,6,0,P|322:65|378:85,1,125,2|2,3:2|0:0,0:0:0:0:
417,142,113980,1,2,0:0:0:0:
417,161,114095,1,10,3:2:0:0:
337,255,114326,1,2,0:0:0:0:
461,196,114557,5,2,3:2:0:0:
428,181,114672,1,2,0:0:0:0:
384,186,114787,1,2,3:2:0:0:
350,214,114903,1,2,0:0:0:0:
337,255,115018,1,10,3:2:0:0:
490,344,115249,1,10,0:0:0:0:
461,348,115365,1,8,0:0:0:0:
512,324,115480,6,0,L|168:377,1,299.999990844727,6|8,3:2|3:2,0:0:0:0:
215,369,116172,1,2,3:2:0:0:
118,199,116403,5,10,3:2:0:0:
304,24,116634,1,0,3:2:0:0:
169,286,116864,1,10,3:2:0:0:
190,53,117095,1,0,3:2:0:0:
338,129,117326,5,10,3:2:0:0:
109,201,117557,1,0,3:2:0:0:
307,269,117787,1,10,3:2:0:0:
190,53,118018,1,0,3:2:0:0:
169,286,118249,5,10,3:2:0:0:
72,66,118480,1,2,3:2:0:0:
304,4,118711,1,10,3:2:0:0:
385,191,118942,1,2,3:2:0:0:
391,216,119057,1,2,0:0:0:0:
380,306,119172,6,0,P|464:275|434:136,1,250,6|8,3:2|3:2,0:0:0:0:
380,306,119864,1,2,0:0:0:0:
247,161,120095,5,0,3:2:0:0:
247,161,120326,1,0,3:2:0:0:
225,356,120557,2,0,P|298:316|311:246,1,125,10|2,3:2|0:0,0:0:0:0:
320,205,120903,1,8,3:2:0:0:
302,205,121019,5,6,3:2:0:0:
180,111,121249,1,10,3:2:0:0:
149,132,121365,1,8,3:2:0:0:
111,134,121480,1,10,3:2:0:0:
77,116,121595,1,8,3:2:0:0:
56,84,121711,2,0,L|48:16,1,62.5,8|8,3:2|3:2,0:0:0:0:
242,0,121942,6,0,L|233:65,1,50,0|0,3:2|0:0,0:0:0:0:
349,159,122172,1,2,3:2:0:0:
385,93,122288,1,0,3:2:0:0:
330,42,122403,1,2,3:2:0:0:
349,159,122634,1,2,3:2:0:0:
512,22,122865,6,0,P|418:37|352:188,1,243.749988842011,6|0,3:2|0:0,0:0:0:0:
189,231,123326,2,0,B|166:196|166:196|300:219,1,162.499992561341,10|0,0:0|0:0,0:0:0:0:
438,290,123672,1,2,0:0:0:0:
453,207,123788,6,0,P|393:220|361:258,1,81.2499962806703,2|0,3:2|0:0,0:0:0:0:
209,305,124019,2,0,P|248:309|295:345,1,81.2499962806703,2|0,3:2|0:0,0:0:0:0:
438,290,124249,1,10,0:0:0:0:
289,115,124480,1,2,0:0:0:0:
70,265,124711,6,0,B|155:296|148:183|249:234,1,162.499992561341,2|0,3:2|0:0,0:0:0:0:
289,115,125057,1,2,0:0:0:0:
217,67,125172,2,0,P|204:115|220:161,1,81.2499962806703,10|0,0:0|0:0,0:0:0:0:
363,161,125403,2,0,P|375:124|348:51,1,81.2499962806703,2|0,0:0|0:0,0:0:0:0:
137,212,125634,6,0,L|227:222,1,81.2499962806703,0|0,3:2|0:0,0:0:0:0:
449,91,125865,2,0,L|362:81,1,81.2499962806703,8|0,3:2|0:0,0:0:0:0:
272,291,126095,2,0,L|355:300,1,81.2499962806703,10|0,3:2|0:0,0:0:0:0:
497,275,126326,1,8,0:0:0:0:
421,242,126442,1,10,0:0:0:0:
352,299,126557,5,6,3:2:0:0:
310,358,126672,1,2,0:0:0:0:
236,358,126788,1,2,0:0:0:0:
195,297,126903,2,0,P|152:274|92:265,1,81.2499962806703,2|10,0:0|3:2,0:0:0:0:
0,357,127134,2,0,P|49:351|96:310,1,81.2499962806703,2|0,0:0|0:0,0:0:0:0:
63,154,127364,1,2,0:0:0:0:
4,204,127480,6,0,L|25:320,1,81.2499962806703,2|0,3:2|0:0,0:0:0:0:
194,172,127711,2,0,L|202:89,1,81.2499962806703,2|0,3:2|0:0,0:0:0:0:
92,48,127941,2,0,P|84:30|110:49,1,81.2499962806703,10|0,0:0|0:0,0:0:0:0:
132,241,128172,1,2,0:0:0:0:
194,172,128288,1,8,0:0:0:0:
236,293,128403,6,0,P|277:293|325:263,1,81.2499962806703,2|0,3:2|0:0,0:0:0:0:
469,150,128634,2,0,P|391:138|339:195,1,162.499992561341,2|8,0:0|0:0,0:0:0:0:
294,362,128980,1,2,0:0:0:0:
312,275,129095,2,0,P|274:250|193:251,1,81.2499962806703,2|8,0:0|0:0,0:0:0:0:
143,224,129326,5,0,3:2:0:0:
64,281,129441,1,8,0:0:0:0:
105,369,129557,2,0,P|154:364|205:330,1,81.2499962806703,10|0,3:2|0:0,0:0:0:0:
275,157,129788,1,10,3:2:0:0:
17,67,130018,1,10,0:0:0:0:
259,0,130249,6,0,L|237:285,1,243.749988842011,6|0,3:2|0:0,0:0:0:0:
105,369,130711,2,0,L|94:275,1,81.2499962806703,8|0,0:0|0:0,0:0:0:0:
77,163,130942,2,0,P|156:183|206:231,1,81.2499962806703,2|0,0:0|0:0,0:0:0:0:
240,243,131172,6,0,P|302:191|380:173,1,162.499992561341,2|0,3:2|0:0,0:0:0:0:
480,295,131519,1,2,0:0:0:0:
454,211,131634,2,0,P|457:151|494:79,1,81.2499962806703,10|0,0:0|0:0,0:0:0:0:
480,295,131864,2,0,P|463:320|463:289,1,81.2499962806703,2|0,0:0|0:0,0:0:0:0:
341,327,132095,6,0,P|313:298|264:294,1,81.2499962806703,2|0,3:2|0:0,0:0:0:0:
208,152,132326,1,2,0:0:0:0:
242,80,132442,1,2,0:0:0:0:
257,217,132557,2,0,P|201:290|133:227,1,162.499992561341,10|0,0:0|0:0,0:0:0:0:
67,100,132903,1,2,0:0:0:0:
0,159,133019,6,0,P|50:131|88:246,1,162.499992561341,2|10,3:2|3:2,0:0:0:0:
289,142,133365,1,2,0:0:0:0:
242,80,133480,2,0,L|254:-7,1,81.2499962806703,10|0,3:2|0:0,0:0:0:0:
427,127,133711,1,10,0:0:0:0:
420,207,133826,1,8,0:0:0:0:
410,288,133942,6,0,P|349:198|213:263,1,243.749988842011,6|0,3:2|0:0,0:0:0:0:
125,295,134403,2,0,B|102:271|102:271|143:281|173:277,1,81.2499962806703,10|0,0:0|0:0,0:0:0:0:
308,360,134634,2,0,P|307:318|254:266,1,81.2499962806703,2|0,0:0|0:0,0:0:0:0:
160,174,134865,6,0,P|164:129|222:79,1,81.2499962806703,2|0,3:2|0:0,0:0:0:0:
338,97,135095,1,2,0:0:0:0:
318,17,135211,1,2,0:0:0:0:
341,111,135326,2,0,P|304:131|260:97,1,81.2499962806703,10|0,0:0|0:0,0:0:0:0:
232,226,135557,2,0,P|263:208|333:223,1,81.2499962806703,2|10,0:0|0:0,0:0:0:0:
512,262,135788,6,0,B|396:198|399:352|278:280,1,243.749988842011,6|0,3:2|0:0,0:0:0:0:
175,181,136249,2,0,B|209:223|209:223|183:348,1,162.499992561341,8|2,0:0|3:2,0:0:0:0:
99,358,136595,1,8,0:0:0:0:
24,226,136711,5,10,0:2:0:0:
93,183,136826,1,8,0:0:0:0:
113,105,136941,1,0,3:0:0:0:
21,246,137172,5,10,3:2:0:0:
104,197,137287,1,8,0:0:0:0:
127,105,137403,1,10,3:2:0:0:
78,25,137518,1,8,0:0:0:0:
17,103,137634,6,0,B|80:126|80:126|213:63|213:63|302:103,1,281.250010728836,6|0,3:2|0:0,0:0:0:0:
483,175,138095,2,0,B|506:142|540:148|540:148|434:112|464:284|292:182,1,281.250010728836,10|2,0:0|0:0,0:0:0:0:
340,19,138557,6,0,P|363:79|348:157,1,93.7500035762788,2|0,3:2|0:0,0:0:0:0:
351,210,138788,2,0,P|311:250|256:274,1,93.7500035762788,2|0,0:0|0:0,0:0:0:0:
73,222,139019,2,0,P|129:187|191:189,1,93.7500035762788,10|0,0:0|0:0,0:0:0:0:
367,328,139249,2,0,P|437:354|517:333,1,93.7500035762788,2|8,0:0|0:0,0:0:0:0:
464,120,139480,6,0,B|378:86|332:211|423:326|497:253,1,281.250010728836,2|0,3:2|0:0,0:0:0:0:
367,328,139942,2,0,L|276:303,1,93.7500035762788,10|0,0:0|0:0,0:0:0:0:
132,375,140173,2,0,P|179:350|201:262,1,93.7500035762788,2|0,0:0|0:0,0:0:0:0:
142,102,140403,5,0,3:2:0:0:
86,310,140634,1,10,0:0:0:0:
302,381,140865,1,10,3:2:0:0:
355,163,141095,2,0,P|341:191|378:177,1,93.7500035762788,10|8,0:0|0:0,0:0:0:0:
320,91,141326,5,6,3:2:0:0:
273,149,141441,1,2,0:0:0:0:
200,168,141557,1,2,0:0:0:0:
129,142,141672,2,0,P|156:103|212:94,1,93.7500035762788,2|10,0:0|0:0,0:0:0:0:
270,227,141903,1,2,0:0:0:0:
346,197,142019,2,0,P|314:157|267:150,1,93.7500035762788,2|0,0:0|0:0,0:0:0:0:
100,276,142249,6,0,L|193:286,1,93.7500035762788,2|0,3:2|0:0,0:0:0:0:
198,91,142480,2,0,L|306:103,1,93.7500035762788,2|0,3:2|0:0,0:0:0:0:
256,343,142711,2,0,L|382:352,1,93.7500035762788,10|0,0:0|0:0,0:0:0:0:
460,125,142941,1,2,0:0:0:0:
420,200,143057,1,8,0:0:0:0:
466,270,143172,6,0,P|502:215|493:163,1,93.7500035762788,2|0,3:2|0:0,0:0:0:0:
365,31,143403,2,0,L|375:150,1,93.7500035762788,2|0,0:0|0:0,0:0:0:0:
349,349,143634,2,0,L|336:218,1,93.7500035762788,10|0,0:0|0:0,0:0:0:0:
195,173,143865,2,0,L|346:196,1,93.7500035762788,2|8,0:0|0:0,0:0:0:0:
134,334,144095,5,0,3:2:0:0:
138,250,144211,1,8,0:0:0:0:
131,345,144326,2,0,L|12:359,1,93.7500035762788,10|0,3:2|0:0,0:0:0:0:
114,152,144557,1,10,3:2:0:0:
262,381,144787,1,10,0:0:0:0:
483,186,145019,6,0,B|416:202|397:268|397:268|402:201|337:145,1,243.749988842011,6|0,3:2|0:0,0:0:0:0:
196,259,145480,2,0,P|235:253|296:183,1,81.2499962806703,8|0,0:0|0:0,0:0:0:0:
116,137,145711,2,0,P|195:157|240:209,1,81.2499962806703,2|0,0:0|0:0,0:0:0:0:
401,68,145942,6,0,P|320:60|257:123,1,162.499992561341,2|0,3:2|0:0,0:0:0:0:
354,161,146288,1,2,0:0:0:0:
269,230,146403,2,0,P|194:259|115:215,1,162.499992561341,10|2,0:0|0:0,0:0:0:0:
49,63,146749,1,2,0:0:0:0:
120,0,146865,6,0,P|169:49|138:145,1,162.499992561341,2|0,3:2|0:0,0:0:0:0:
0,224,147211,1,2,0:0:0:0:
60,165,147326,2,0,P|41:273|137:290,1,162.499992561341,10|0,0:0|0:0,0:0:0:0:
209,349,147672,1,2,0:0:0:0:
273,292,147788,6,0,B|349:271|346:347|452:304,1,162.499992561341,2|8,3:2|3:2,0:0:0:0:
512,217,148134,1,2,0:0:0:0:
438,181,148249,2,0,L|446:72,1,81.2499962806703,10|0,3:2|0:0,0:0:0:0:
202,40,148480,1,10,0:0:0:0:
212,120,148595,1,8,0:0:0:0:
222,199,148711,6,0,B|292:225|336:153|336:153|328:152|328:152|374:77|453:102,1,281.250010728836,6|0,3:2|0:0,0:0:0:0:
387,252,149172,2,0,P|341:251|299:232,1,93.7500035762788,10|0,0:0|0:0,0:0:0:0:
122,95,149403,2,0,P|191:109|263:173,1,93.7500035762788,2|0,0:0|0:0,0:0:0:0:
101,255,149634,6,0,B|78:231|78:231|117:227|142:252,1,93.7500035762788,2|0,3:2|0:0,0:0:0:0:
211,360,149865,1,2,3:2:0:0:
277,308,149980,1,2,0:0:0:0:
338,364,150095,2,0,P|385:367|433:330,1,93.7500035762788,10|0,0:0|0:0,0:0:0:0:
313,155,150326,2,0,P|263:159|216:224,1,93.7500035762788,2|8,0:0|0:0,0:0:0:0:
460,42,150557,6,0,P|421:12|341:16,1,93.7500035762788,14|0,3:2|0:0,0:0:0:0:
298,231,150787,2,0,P|346:231|391:156,1,93.7500035762788,10|0,3:2|0:0,0:0:0:0:
213,0,151019,2,0,L|231:191,1,187.500007152558,8|2,3:2|0:0,0:0:0:0:
248,301,151364,1,10,0:0:0:0:
298,231,151480,5,2,3:2:0:0:
225,214,151595,1,8,0:0:0:0:
150,202,151711,1,2,3:2:0:0:
76,186,151826,1,10,3:2:0:0:
138,273,151942,5,10,3:2:0:0:
155,200,152057,1,8,0:0:0:0:
165,126,152172,1,10,3:2:0:0:
180,51,152288,1,8,0:0:0:0:
103,69,152403,5,0,3:2:0:0:
400,137,163480,5,0,3:2:0:0:
400,137,163711,1,0,3:2:0:0:
351,216,164403,5,0,3:2:0:0:
351,216,164634,1,0,3:2:0:0:
425,279,165326,6,0,L|421:343,2,57.4999980697632,2|2|0,3:2|3:2|0:0,0:0:0:0:
445,256,166480,2,0,L|441:217,1,37.5,2|0,3:2|0:0,0:0:0:0:
414,190,166711,2,0,L|421:141,1,46.875,10|0,0:0|0:0,0:0:0:0:
446,112,166942,2,0,L|440:42,1,65.624997997284,2|0,0:0|0:0,0:0:0:0:
377,0,167172,5,6,0:0:0:0:
43,53,174557,5,4,3:2:0:0:
134,12,175019,1,0,3:2:0:0:
226,48,175480,1,0,3:2:0:0:
188,140,175942,1,0,3:2:0:0:
232,239,176403,6,0,B|249:279|285:287|285:287|316:255|306:208,2,149.999995422363,0|0|0,3:2|3:2|3:2,0:0:0:0:
178,311,177788,1,0,3:2:0:0:
134,300,178019,1,0,0:0:0:0:
86,217,178249,1,2,3:2:0:0:
137,97,178480,2,0,L|195:105,1,37.4999988555909,2|0,3:2|3:2,0:0:0:0:
290,191,178711,5,0,3:2:0:0:
358,160,178826,1,0,3:2:0:0:
376,86,178942,1,2,3:2:0:0:
349,15,179057,1,0,3:2:0:0:
341,22,179172,6,0,L|338:63,1,37.5,0|0,3:2|0:0,0:0:0:0:
341,22,180095,6,0,B|409:23|412:86|371:133|326:124|293:85|276:28|188:62,1,300,6|0,3:2|0:0,0:0:0:0:
96,193,180557,2,0,P|171:208|211:94,1,162.499992561341,10|0,0:0|0:0,0:0:0:0:
60,111,180902,1,2,0:0:0:0:
105,39,181019,6,0,P|115:12|98:35,1,81.2499962806703,2|0,3:2|0:0,0:0:0:0:
186,230,181249,2,0,P|196:256|178:234,1,81.2499962806703,2|0,3:2|0:0,0:0:0:0:
295,58,181479,1,10,0:0:0:0:
394,271,181710,1,2,0:0:0:0:
512,150,181941,6,0,B|456:142|456:142|406:164|406:164|335:156,1,162.499992561341,2|0,3:2|0:0,0:0:0:0:
204,254,182287,1,2,0:0:0:0:
288,288,182403,2,0,P|294:249|282:211,1,81.2499962806703,10|0,0:0|0:0,0:0:0:0:
135,113,182633,2,0,P|129:152|141:191,1,81.2499962806703,2|0,0:0|0:0,0:0:0:0:
285,62,182864,6,0,L|204:53,1,81.2499962806703,0|0,3:2|0:0,0:0:0:0:
0,242,183095,2,0,L|81:252,1,81.2499962806703,8|0,3:2|0:0,0:0:0:0:
233,350,183326,2,0,L|152:341,1,81.2499962806703,10|0,3:2|0:0,0:0:0:0:
288,288,183556,1,8,0:0:0:0:
348,342,183672,1,10,0:0:0:0:
379,233,183787,5,6,3:2:0:0:
330,178,183902,1,2,0:0:0:0:
330,104,184018,1,2,0:0:0:0:
379,50,184133,2,0,P|420:39|462:46,1,81.2499962806703,2|10,0:0|3:2,0:0:0:0:
512,163,184364,2,0,B|475:192|403:169,1,81.2499962806703,2|0,0:0|0:0,0:0:0:0:
228,31,184594,1,2,0:0:0:0:
165,91,184710,6,0,B|142:114|142:114|167:111|194:99,1,81.2499962806703,2|0,3:2|0:0,0:0:0:0:
248,230,184941,2,0,L|255:149,1,81.2499962806703,2|0,3:2|0:0,0:0:0:0:
68,71,185172,2,0,L|63:152,1,81.2499962806703,10|0,0:0|0:0,0:0:0:0:
128,329,185402,1,2,0:0:0:0:
208,340,185518,1,8,0:0:0:0:
275,294,185633,6,0,L|283:168,1,81.2499962806703,2|0,3:2|0:0,0:0:0:0:
53,295,185864,2,0,B|21:265|21:265|69:220|135:236,1,162.499992561341,2|8,0:0|0:0,0:0:0:0:
284,379,186210,1,2,0:0:0:0:
347,326,186326,2,0,P|309:301|228:302,1,81.2499962806703,2|8,0:0|0:0,0:0:0:0:
208,163,186556,5,0,3:2:0:0:
251,85,186671,1,8,0:0:0:0:
188,20,186787,2,0,P|151:42|154:113,1,81.2499962806703,10|0,3:2|0:0,0:0:0:0:
295,182,187018,1,10,3:2:0:0:
66,122,187248,1,10,0:0:0:0:
489,62,187479,6,0,B|410:89|410:89|383:150|383:150|258:194,1,243.749988842011,6|0,3:2|0:0,0:0:0:0:
208,163,187941,2,0,P|210:130|221:160,1,81.2499962806703,8|0,0:0|0:0,0:0:0:0:
135,211,188172,2,0,P|117:174|124:110,1,81.2499962806703,2|0,0:0|0:0,0:0:0:0:
218,10,188403,6,0,B|266:16|266:16|104:83,1,162.499992561341,2|0,3:2|0:0,0:0:0:0:
0,27,188749,1,2,0:0:0:0:
87,8,188864,2,0,P|78:60|58:93,1,81.2499962806703,10|0,0:0|0:0,0:0:0:0:
22,245,189095,2,0,P|4:208|0:168,1,81.2499962806703,2|0,0:0|0:0,0:0:0:0:
115,134,189326,6,0,L|195:146,1,81.2499962806703,2|0,3:2|0:0,0:0:0:0:
267,255,189556,1,2,0:0:0:0:
212,319,189672,1,0,0:0:0:0:
340,301,189788,2,0,L|347:121,1,162.499992561341,10|0,0:0|0:0,0:0:0:0:
321,1,190134,1,2,0:0:0:0:
269,64,190249,6,0,P|186:91|167:19,1,162.499992561341,2|10,3:2|3:2,0:0:0:0:
277,189,190595,1,2,0:0:0:0:
346,138,190710,2,0,L|452:155,1,81.2499962806703,10|0,3:2|0:0,0:0:0:0:
319,299,190941,1,10,0:0:0:0:
397,320,191056,1,8,0:0:0:0:
466,276,191172,6,0,B|349:223|378:381|241:321,1,243.749988842011,6|0,3:2|0:0,0:0:0:0:
91,246,191633,2,0,B|68:270|68:270|109:260|139:264,1,81.2499962806703,10|0,0:0|0:0,0:0:0:0:
147,114,191864,2,0,P|100:125|79:165,1,81.2499962806703,2|0,0:0|0:0,0:0:0:0:
227,240,192095,6,0,P|209:203|246:125,1,81.2499962806703,2|0,3:2|0:0,0:0:0:0:
281,46,192325,1,2,0:0:0:0:
338,103,192441,1,2,0:0:0:0:
412,72,192556,2,0,P|389:40|335:20,1,81.2499962806703,10|0,0:0|0:0,0:0:0:0:
227,240,192787,2,0,P|260:200|334:213,1,81.2499962806703,2|10,0:0|0:0,0:0:0:0:
498,146,193019,6,0,B|522:122|511:82|511:82|412:70|402:160|402:160|445:182|445:246,1,281.250010728836,6|0,3:2|0:0,0:0:0:0:
394,357,193480,2,0,P|327:288|359:244,1,162.499992561341,8|2,0:0|3:2,0:0:0:0:
463,320,193825,1,8,0:0:0:0:
438,203,193941,5,10,0:2:0:0:
411,126,194056,1,8,0:0:0:0:
340,89,194171,1,0,3:0:0:0:
456,210,194402,5,10,3:2:0:0:
427,118,194519,1,8,0:0:0:0:
343,75,194633,1,10,3:2:0:0:
254,105,194748,1,8,0:0:0:0:
218,185,194865,6,0,B|84:228|126:-2|-33:78,1,281.250010728836,6|0,3:2|0:0,0:0:0:0:
32,300,195325,2,0,B|85:361|183:316|172:237|172:237|179:175|274:178,1,281.250010728836,10|0,0:0|0:0,0:0:0:0:
343,290,195787,6,0,P|294:292|253:252,1,93.7500035762788,2|0,3:2|0:0,0:0:0:0:
217,184,196018,2,0,P|214:128|264:83,1,93.7500035762788,2|0,0:0|0:0,0:0:0:0:
404,170,196249,2,0,P|348:205|286:203,1,93.7500035762788,10|0,0:0|0:0,0:0:0:0:
136,25,196479,2,0,P|66:-1|-14:20,1,93.7500035762788,2|8,0:0|0:0,0:0:0:0:
126,226,196710,6,0,B|141:284|57:304|19:268|-12:164|148:174|57:67,1,281.250010728836,2|0,3:2|0:0,0:0:0:0:
233,230,197172,2,0,P|233:264|225:232,1,93.7500035762788,10|0,0:0|0:0,0:0:0:0:
297,127,197403,2,0,P|336:152|383:157,1,93.7500035762788,2|0,0:0|0:0,0:0:0:0:
214,64,197633,5,0,3:2:0:0:
457,32,197865,1,10,0:0:0:0:
488,272,198095,1,10,3:2:0:0:
247,312,198326,2,0,B|204:289|204:289|143:297,1,93.7500035762788,10|8,0:0|0:0,0:0:0:0:
76,353,198556,5,6,3:2:0:0:
67,278,198671,1,2,0:0:0:0:
111,217,198787,1,2,0:0:0:0:
100,142,198903,2,0,P|54:163|34:205,1,93.7500035762788,2|10,0:0|0:0,0:0:0:0:
191,287,199133,1,2,0:0:0:0:
245,234,199249,2,0,L|260:137,1,93.7500035762788,2|0,0:0|0:0,0:0:0:0:
88,48,199479,6,0,L|103:173,1,93.7500035762788,2|0,3:2|0:0,0:0:0:0:
345,87,199710,2,0,L|329:200,1,93.7500035762788,2|0,3:2|0:0,0:0:0:0:
172,372,199941,2,0,B|139:345|139:345|171:359|200:359,1,93.7500035762788,10|0,0:0|0:0,0:0:0:0:
358,378,200171,1,2,0:0:0:0:
309,308,200287,1,8,0:0:0:0:
226,293,200403,6,0,P|230:244|285:206,1,93.7500035762788,2|0,3:2|0:0,0:0:0:0:
417,53,200633,2,0,P|426:101|388:153,1,93.7500035762788,2|0,0:0|0:0,0:0:0:0:
140,68,200864,2,0,P|185:38|245:53,1,93.7500035762788,10|0,0:0|0:0,0:0:0:0:
99,232,201095,2,0,P|53:225|12:173,1,93.7500035762788,2|8,0:0|0:0,0:0:0:0:
93,147,201325,5,0,3:2:0:0:
168,183,201442,1,8,0:0:0:0:
173,267,201556,2,0,B|141:304|141:304|93:316,1,93.7500035762788,10|0,3:2|0:0,0:0:0:0:
93,147,201787,1,10,3:2:0:0:
256,381,202019,1,10,0:0:0:0:
483,186,202249,6,0,B|426:121|331:143|331:143|381:153|418:215,1,243.749988842011,6|0,3:2|0:0,0:0:0:0:
335,247,202710,2,0,P|360:280|405:247,1,81.2499962806703,8|0,0:0|0:0,0:0:0:0:
242,190,202941,2,0,P|163:210|113:259,1,81.2499962806703,2|0,0:0|0:0,0:0:0:0:
38,71,203172,6,0,P|116:62|176:113,1,162.499992561341,2|0,3:2|0:0,0:0:0:0:
115,330,203518,1,2,0:0:0:0:
48,271,203634,2,0,P|68:218|183:229,1,162.499992561341,10|2,0:0|0:0,0:0:0:0:
308,342,203979,1,2,0:0:0:0:
387,326,204095,6,0,B|338:310|338:310|317:182,1,162.499992561341,2|0,3:2|0:0,0:0:0:0:
386,46,204441,1,2,0:0:0:0:
307,15,204557,2,0,P|315:98|427:114,1,162.499992561341,10|0,0:0|0:0,0:0:0:0:
475,280,204902,1,2,0:0:0:0:
501,199,205018,6,0,B|425:178|428:254|322:211,1,162.499992561341,2|8,3:2|3:2,0:0:0:0:
260,153,205364,1,2,0:0:0:0:
383,381,205479,2,0,L|391:272,1,81.2499962806703,10|0,3:2|0:0,0:0:0:0:
189,200,205710,1,10,0:0:0:0:
199,280,205825,1,8,0:0:0:0:
209,363,205942,6,0,L|228:69,1,281.250010728836,6|0,3:2|0:0,0:0:0:0:
348,173,206403,2,0,P|302:172|260:153,1,93.7500035762788,10|0,0:0|0:0,0:0:0:0:
87,0,206633,2,0,P|156:14|228:78,1,93.7500035762788,2|0,0:0|0:0,0:0:0:0:
41,169,206864,6,0,P|41:205|56:172,1,93.7500035762788,2|0,3:2|0:0,0:0:0:0:
169,109,207095,1,2,3:2:0:0:
139,190,207210,1,2,0:0:0:0:
194,255,207326,2,0,P|245:267|290:310,1,93.7500035762788,10|0,0:0|0:0,0:0:0:0:
369,125,207556,2,0,P|319:129|272:194,1,93.7500035762788,2|8,0:0|0:0,0:0:0:0:
500,81,207788,6,0,P|461:51|381:55,1,93.7500035762788,14|0,3:2|0:0,0:0:0:0:
315,234,208018,2,0,P|363:234|408:159,1,93.7500035762788,10|0,3:2|0:0,0:0:0:0:
500,81,208249,2,0,L|483:318,1,187.500007152558,8|2,3:2|0:0,0:0:0:0:
431,348,208594,1,10,0:0:0:0:
277,295,208710,5,2,3:2:0:0:
264,220,208825,1,8,0:0:0:0:
248,146,208941,1,2,3:2:0:0:
235,71,209056,1,10,3:2:0:0:
268,3,209172,5,8,0:0:0:0:
267,79,209288,1,10,3:2:0:0:
262,153,209403,1,8,0:0:0:0:
251,228,209519,1,10,3:2:0:0:
270,298,209634,5,0,3:2:0:0:
18,78,211480,6,0,B|74:63|104:100|104:100|100:104|100:104|131:140|200:123,1,187.500007152558,4|2,3:2|0:0,0:0:0:0:
228,61,211826,1,2,0:0:0:0:
297,104,211942,2,0,P|311:159|305:249,1,81.2499962806703,10|0,0:0|0:0,0:0:0:0:
196,334,212172,1,2,0:0:0:0:
140,285,212288,1,2,0:0:0:0:
73,315,212403,6,0,P|67:273|138:212,1,81.2499962806703,2|0,3:2|0:0,0:0:0:0:
325,310,212634,1,2,0:0:0:0:
357,244,212749,1,2,0:0:0:0:
312,183,212865,2,0,P|272:191|235:215,1,81.2499962806703,10|2,0:0|0:0,0:0:0:0:
388,365,213095,2,0,P|429:356|481:312,1,81.2499962806703,2|2,0:0|0:0,0:0:0:0:
435,155,213326,5,2,3:2:0:0:
426,194,213442,1,2,0:0:0:0:
464,205,213557,1,2,0:0:0:0:
475,166,213672,1,2,0:0:0:0:
319,152,213788,5,10,0:0:0:0:
312,183,213903,1,2,0:0:0:0:
343,189,214019,1,2,0:0:0:0:
348,157,214134,1,2,0:0:0:0:
208,155,214249,5,2,3:2:0:0:
204,179,214365,1,2,0:0:0:0:
227,185,214480,1,10,3:2:0:0:
233,161,214595,1,2,0:0:0:0:
114,159,214711,5,10,3:2:0:0:
111,174,214826,1,2,0:0:0:0:
126,179,214942,1,10,0:0:0:0:
130,163,215057,1,10,0:0:0:0:
53,78,215172,5,6,3:2:0:0:
74,66,215288,1,2,0:0:0:0:
97,61,215403,1,2,0:0:0:0:
121,64,215519,1,2,0:0:0:0:
138,80,215634,5,10,0:0:0:0:
177,108,215749,1,2,0:0:0:0:
225,102,215865,1,2,0:0:0:0:
258,67,215980,1,2,0:0:0:0:
259,18,216095,5,2,3:2:0:0:
330,33,216211,1,2,0:0:0:0:
370,93,216326,1,2,0:0:0:0:
368,166,216442,1,2,0:0:0:0:
323,223,216557,5,10,0:0:0:0:
334,260,216672,1,2,0:0:0:0:
426,282,216788,1,0,0:0:0:0:
424,322,216903,1,2,0:0:0:0:
328,341,217019,6,0,L|337:215,1,81.2499962806703,2|0,3:2|0:0,0:0:0:0:
238,196,217249,1,2,0:0:0:0:
242,233,217365,1,2,0:0:0:0:
162,266,217480,6,0,P|115:259|58:229,1,81.2499962806703,10|0,0:0|0:0,0:0:0:0:
20,103,217711,1,2,0:0:0:0:
71,51,217826,1,10,0:0:0:0:
125,100,217942,2,0,P|179:86|225:42,1,81.2499962806703,2|10,3:2|0:0,0:0:0:0:
381,0,218172,6,0,L|373:157,1,100,10|0,3:2|0:0,0:0:0:0:
238,196,218403,2,0,P|271:161|336:169,1,100,10|0,3:2|0:0,0:0:0:0:
388,324,218634,1,10,0:0:0:0:
388,324,218749,1,8,0:0:0:0:
440,263,218865,6,0,B|366:295|366:295|307:234,1,162.499992561341,4|2,3:2|0:0,0:0:0:0:
320,160,219211,1,2,0:0:0:0:
304,141,219326,1,10,0:0:0:0:
281,130,219442,1,2,0:0:0:0:
256,127,219557,1,2,0:0:0:0:
232,134,219672,1,2,0:0:0:0:
211,169,219788,5,2,3:2:0:0:
181,197,219903,1,2,0:0:0:0:
141,205,220019,1,2,0:0:0:0:
102,193,220134,1,2,0:0:0:0:
75,152,220249,5,10,0:0:0:0:
98,146,220365,1,2,0:0:0:0:
144,70,220480,1,2,0:0:0:0:
167,65,220595,1,2,0:0:0:0:
249,0,220711,5,2,3:2:0:0:
279,26,220826,1,2,0:0:0:0:
287,66,220942,1,2,0:0:0:0:
272,103,221057,1,2,0:0:0:0:
256,140,221172,5,10,0:0:0:0:
251,164,221288,1,2,0:0:0:0:
254,188,221403,1,2,0:0:0:0:
266,209,221519,1,2,0:0:0:0:
282,226,221634,5,2,3:2:0:0:
323,200,221749,1,2,0:0:0:0:
370,212,221865,1,10,3:2:0:0:
388,256,221980,1,2,0:0:0:0:
365,299,222095,5,10,3:2:0:0:
437,323,222211,2,0,L|268:350,1,162.499992561341,2|8,0:0|0:0,0:0:0:0:
160,367,222557,5,2,3:2:0:0:
87,313,222672,1,2,0:0:0:0:
154,263,222788,2,0,B|194:258|194:258|229:286,1,81.2499962806703,2|0,0:0|0:0,0:0:0:0:
70,215,223019,1,10,0:0:0:0:
57,185,223134,1,2,0:0:0:0:
63,153,223249,1,2,0:0:0:0:
84,128,223365,1,2,0:0:0:0:
116,131,223480,5,2,3:2:0:0:
133,176,223595,1,2,0:0:0:0:
181,174,223711,1,2,0:0:0:0:
196,127,223826,1,2,0:0:0:0:
242,223,223942,2,0,B|293:236|293:236|354:208|354:208|413:221,1,162.499992561341,10|0,0:0|0:0,0:0:0:0:
511,256,224288,1,10,0:0:0:0:
495,267,224403,6,0,L|474:167,1,81.2499962806703,0|0,3:2|0:0,0:0:0:0:
360,57,224634,2,0,B|404:57|404:57|450:88,1,81.2499962806703,2|0,0:0|0:0,0:0:0:0:
284,139,224865,2,0,B|198:152|224:55|118:78,1,162.499992561341,10|2,0:0|0:0,0:0:0:0:
18,162,225211,6,0,P|61:169|107:111,1,81.2499962806703,2|0,0:0|3:2,0:0:0:0:
198,304,225442,1,8,0:0:0:0:
242,238,225557,2,0,P|287:236|324:295,1,81.2499962806703,8|0,3:2|3:2,0:0:0:0:
454,351,225788,5,8,3:2:0:0:
383,318,225903,1,8,0:0:0:0:
393,240,226019,1,8,0:0:0:0:
469,227,226134,1,8,0:0:0:0:
510,290,226249,6,0,B|471:285|457:259|463:231|463:231|481:147,1,162.499992561341,6|0,3:2|0:0,0:0:0:0:
369,27,226595,1,2,0:0:0:0:
321,103,226711,1,10,0:0:0:0:
241,63,226826,2,0,P|263:17|313:8,1,81.2499962806703,2|0,0:0|0:0,0:0:0:0:
317,214,227057,6,0,P|292:187|245:183,1,81.2499962806703,2|0,0:0|3:2,0:0:0:0:
170,319,227288,1,2,0:0:0:0:
98,272,227403,2,0,P|136:240|196:249,1,81.2499962806703,2|0,0:0|0:0,0:0:0:0:
375,352,227634,2,0,B|402:332|402:332|364:341|340:338,1,81.2499962806703,10|0,0:0|0:0,0:0:0:0:
253,358,227865,2,0,P|255:313|303:258,1,81.2499962806703,2|2,0:0|0:0,0:0:0:0:
470,174,228095,6,0,P|396:109|295:148,1,162.499992561341,2|2,3:2|0:0,0:0:0:0:
179,168,228442,1,2,0:0:0:0:
110,112,228557,1,10,0:0:0:0:
167,44,228672,2,0,P|217:24|266:26,1,81.2499962806703,2|0,0:0|0:0,0:0:0:0:
114,216,228903,6,0,P|69:198|15:192,1,81.2499962806703,2|0,0:0|3:2,0:0:0:0:
17,384,229134,1,2,0:0:0:0:
83,319,229249,2,0,P|119:301|195:299,1,81.2499962806703,10|0,3:2|0:0,0:0:0:0:
268,367,229480,2,0,L|385:391,1,81.2499962806703,10|0,3:2|0:0,0:0:0:0:
475,280,229711,2,0,P|508:287|485:312,1,81.2499962806703,10|8,0:0|0:0,0:0:0:0:
385,297,229942,6,0,B|373:233|373:233|395:200|395:200|384:157|384:157|393:77,1,187.500007152558,6|2,3:2|0:0,0:0:0:0:
397,25,230288,2,0,B|355:23|355:23|307:57,1,81.2499962806703,0|10,0:0|0:0,0:0:0:0:
242,146,230519,2,0,L|124:119,1,81.2499962806703,2|0,0:0|0:0,0:0:0:0:
222,60,230749,1,0,0:0:0:0:
296,211,230865,6,0,P|227:282|137:220,1,162.499992561341,2|0,3:2|0:0,0:0:0:0:
74,90,231211,2,0,L|85:189,1,81.2499962806703,2|8,0:0|0:0,0:0:0:0:
0,318,231442,2,0,L|20:225,1,81.2499962806703,2|0,0:0|0:0,0:0:0:0:
188,350,231672,6,0,P|233:338|276:291,1,81.2499962806703,10|0,0:0|3:0,0:0:0:0:
309,87,231903,2,0,P|296:131|316:192,1,81.2499962806703,2|0,0:0|0:0,0:0:0:0:
456,341,232134,2,0,P|423:308|360:294,1,81.2499962806703,2|8,0:0|0:0,0:0:0:0:
141,181,232365,2,0,P|173:205|212:214,1,81.2499962806703,2|0,0:0|0:0,0:0:0:0:
414,186,232595,1,2,0:0:0:0:
453,120,232711,6,0,P|403:110|342:149,1,81.2499962806703,10|0,3:2|0:0,0:0:0:0:
259,316,232942,2,0,P|296:300|321:226,1,81.2499962806703,10|0,0:0|0:0,0:0:0:0:
197,41,233172,2,0,L|209:137,1,81.2499962806703,8|0,3:2|0:0,0:0:0:0:
160,315,233403,1,10,0:0:0:0:
109,250,233519,1,8,0:0:0:0:
207,121,233634,5,6,3:2:0:0:
277,96,233749,1,2,0:0:0:0:
349,116,233865,1,2,0:0:0:0:
391,177,233980,1,2,0:0:0:0:
378,251,234095,5,10,0:0:0:0:
366,263,234211,1,2,0:0:0:0:
361,278,234326,1,2,0:0:0:0:
361,294,234442,1,2,0:0:0:0:
370,304,234557,5,2,3:2:0:0:
419,309,234672,1,2,0:0:0:0:
461,281,234788,1,2,0:0:0:0:
477,234,234903,1,2,0:0:0:0:
442,196,235019,5,10,0:0:0:0:
417,141,235134,1,0,0:0:0:0:
464,64,235249,1,2,0:0:0:0:
476,12,235365,1,10,0:0:0:0:
354,51,235480,5,2,3:2:0:0:
320,32,235595,1,2,0:0:0:0:
281,31,235711,1,2,0:0:0:0:
246,45,235826,1,2,0:0:0:0:
227,73,235942,1,10,0:0:0:0:
215,118,236057,1,2,0:0:0:0:
189,158,236172,1,2,0:0:0:0:
143,167,236287,1,2,0:0:0:0:
59,118,236403,5,2,3:2:0:0:
93,84,236519,1,2,0:0:0:0:
147,74,236634,1,10,3:2:0:0:
199,97,236749,1,2,0:0:0:0:
229,155,236865,1,10,3:2:0:0:
239,219,236980,1,2,0:0:0:0:
285,290,237095,1,10,0:0:0:0:
378,306,237211,1,10,0:0:0:0:
427,220,237326,6,0,P|382:187|320:190,1,93.7500035762788,6|0,3:2|0:0,0:0:0:0:
209,326,237557,2,0,P|174:355|79:341,1,93.7500035762788,2|0,0:0|0:0,0:0:0:0:
15,154,237788,2,0,P|70:169|102:214,1,93.7500035762788,10|0,0:0|0:0,0:0:0:0:
17,361,238019,2,0,P|38:300|110:265,1,93.7500035762788,2|0,0:0|0:0,0:0:0:0:
220,167,238249,6,0,B|188:89|311:80|266:-12,2,187.500007152558,0|0|8,3:2|3:2|0:0,0:0:0:0:
401,356,238942,1,10,0:0:0:0:
449,287,239057,1,10,0:0:0:0:
385,231,239172,6,0,L|401:124,1,93.7500035762788,6|0,3:2|0:0,0:0:0:0:
450,0,239403,2,0,L|469:115,1,93.7500035762788,8|0,3:2|0:0,0:0:0:0:
301,276,239634,2,0,P|249:197|155:212,1,187.500007152558,8|8,3:2|0:0,0:0:0:0:
66,309,239980,1,8,0:0:0:0:
5,251,240095,6,0,P|9:198|35:119,1,93.7500035762788,0|8,3:2|0:0,0:0:0:0:
172,0,240326,2,0,P|195:49|204:101,1,93.7500035762788,8|8,0:0|0:0,0:0:0:0:
259,338,240557,1,10,0:0:0:0:
301,276,240672,1,8,0:0:0:0:
376,280,240788,1,10,0:0:0:0:
421,221,240903,1,8,0:0:0:0:
381,156,241019,5,2,3:2:0:0:
