osu file format v14

[General]
AudioFilename: audio.mp3
AudioLeadIn: 0
PreviewTime: 166480
Countdown: 0
SampleSet: Soft
StackLeniency: 0.5
Mode: 0
LetterboxInBreaks: 0
WidescreenStoryboard: 1

[Editor]
DistanceSpacing: 0.4
BeatDivisor: 8
GridSize: 8
TimelineZoom: 5.699996

[Metadata]
Title:Yappari Ame wa Furun da ne
TitleUnicode:やっぱり雨は降るんだね
Artist:TUYU
ArtistUnicode:ツユ
Creator:Seros
Version:Deca's Tragic Bus Extra
Source:
Tags:Japanese pop tsuyu pusu rei omutatsu It's Raining After All ぷす 礼衣 おむたつ kuse KuBsNia_ZhoYL_ climbx3145 irin binfhone bf too deca decaedeus rolua [paw]ochikouri
BeatmapID:2872190
BeatmapSetID:1217474

[Difficulty]
HPDrainRate:5
CircleSize:4
OverallDifficulty:8.5
ApproachRate:9.4
SliderMultiplier:2.4
SliderTickRate:1

[Events]
//Background and Video events
0,0,"71820780_p0.jpg",0,0
Video,100,"video.mp4"
//Break Periods
2,76911,90940
2,152603,162940
//Storyboard Layer 0 (Background)
//Storyboard Layer 1 (Fail)
//Storyboard Layer 2 (Pass)
//Storyboard Layer 3 (Foreground)
//Storyboard Layer 4 (Overlay)
//Storyboard Sound Samples

[TimingPoints]
1019,461.538461538462,4,2,1,50,1,0
1019,-133.333333333333,4,2,1,50,0,0
15788,-100,4,2,1,60,0,0
22249,-83.3333333333333,4,2,1,60,0,0
23172,-100,4,2,1,60,0,0
32403,-90.9090909090909,4,2,1,60,0,0
47172,-76.9230769230769,4,2,1,69,0,1
61942,-76.9230769230769,4,2,1,60,0,0
65634,-76.9230769230769,4,2,1,69,0,1
69326,-76.9230769230769,4,2,1,60,0,0
73019,-76.9230769230769,4,2,1,69,0,1
76711,-100,4,2,1,60,0,0
97942,-83.3333333333333,4,2,1,60,0,0
98634,-100,4,2,1,60,0,0
99788,-83.3333333333333,4,2,1,60,0,0
100019,-100,4,2,1,60,0,0
108095,-90.9090909090909,4,2,1,60,0,0
122865,-76.9230769230769,4,2,1,69,0,1
137634,-76.9230769230769,4,2,1,60,0,0
141326,-76.9230769230769,4,2,1,69,0,1
145019,-76.9230769230769,4,2,1,60,0,0
148711,-76.9230769230769,4,2,1,69,0,1
152403,-76.9230769230769,4,2,1,50,0,0
165326,-200,4,2,1,50,0,0
167172,-256.410256410256,4,2,1,50,0,0
174557,-133.333333333333,4,2,1,60,0,0
179172,-125,4,2,1,50,0,0
180095,-76.9230769230769,4,2,1,80,0,1
185345,-76.9230769230769,4,2,1,5,0,1
185403,-76.9230769230769,4,2,1,80,0,1
194865,-76.9230769230769,4,2,1,60,0,0
198557,-76.9230769230769,4,2,1,80,0,1
202249,-76.9230769230769,4,2,1,60,0,0
205942,-76.9230769230769,4,2,1,80,0,1
209634,-133.333333333333,4,2,1,50,0,0
211480,-76.9230769230769,4,2,1,69,0,0

[Colours]
Combo1 : 61,169,153
Combo2 : 101,180,218

[HitObjects]
350,112,1019,6,0,B|399:106|399:106|407:160,2,90.0000034332277,0|2|2,3:2|0:0|3:2,0:0:0:0:
306,197,1711,2,0,P|281:206|250:218,1,45.0000017166138,2|2,0:0|0:0,0:0:0:0:
263,213,1942,2,0,B|365:202|321:256|460:223,2,180.000006866455,2|2|2,3:2|3:2|3:2,0:0:0:0:
196,182,3095,2,0,P|187:158|183:133,1,45.0000017166138,2|2,0:0|0:0,0:0:0:0:
106,114,3326,2,0,B|116:93|116:93|149:74|149:74|160:41,1,90.0000034332277,2|2,3:2|0:0,0:0:0:0:
166,285,3788,2,0,P|129:270|69:254,2,90.0000034332277,2|2|2,3:2|0:0|3:2,0:0:0:0:
381,297,4711,5,2,3:2:0:0:
332,220,4942,2,0,L|317:175,1,45.0000017166138,2|2,0:0|0:0,0:0:0:0:
317,101,5172,2,0,B|299:169|248:141|245:220,1,135.000005149841,2|2,3:2|0:0,0:0:0:0:
235,300,5634,2,0,P|195:307|143:320,1,90.0000034332277,2|2,3:2|0:0,0:0:0:0:
300,368,6095,1,2,3:2:0:0:
371,290,6326,2,0,P|383:264|397:237,1,45.0000017166138,2|2,0:0|0:0,0:0:0:0:
303,216,6557,6,0,P|276:206|276:135,2,90.0000034332277,2|2|2,3:2|0:0|3:2,0:0:0:0:
374,151,7249,1,2,0:0:0:0:
273,59,7480,2,0,P|235:68|206:77,1,45.0000017166138,2|2,3:2|0:0,0:0:0:0:
179,146,7711,2,0,B|137:138|137:138|127:139|127:139|70:126,2,90.0000034332277,2|2|2,0:0|3:2|0:0,0:0:0:0:
265,333,8403,6,0,L|255:285,1,45.0000017166138,2|0,3:2|0:0,0:0:0:0:
154,283,8634,2,0,P|174:255|183:234,1,45.0000017166138,2|2,0:0|0:0,0:0:0:0:
297,206,8865,1,2,3:2:0:0:
297,206,9095,2,0,P|286:161|278:137,1,45.0000017166138,2|2,0:0|0:0,0:0:0:0:
211,111,9326,2,0,B|254:62|254:62|334:93,1,135.000005149841,2|0,3:2|0:0,0:0:0:0:
319,87,9788,1,2,3:2:0:0:
438,55,10019,6,0,P|427:85|423:111,1,45.0000017166138,2|2,0:0|0:0,0:0:0:0:
356,169,10249,2,0,P|371:220|419:219,1,90.0000034332277,2|2,3:2|0:0,0:0:0:0:
393,313,10595,1,2,0:0:0:0:
393,313,10711,2,0,P|430:305|453:300,1,45.0000017166138,2|0,3:2|0:0,0:0:0:0:
478,215,10942,2,0,P|447:221|420:227,1,45.0000017166138,2|2,0:0|0:0,0:0:0:0:
306,347,11172,6,0,B|297:300|293:245,2,90.0000034332277,2|2|2,3:2|0:0|3:2,0:0:0:0:
293,370,11865,1,2,0:0:0:0:
234,204,12095,2,0,B|219:196|206:169|206:169|113:186|140:268,1,180.000006866455,6|10,3:2|3:2,0:0:0:0:
199,320,12788,1,2,0:0:0:0:
199,320,12903,1,2,0:0:0:0:
278,275,13019,2,0,B|314:266|314:266|334:273|334:273|386:258,2,90.0000034332277,2|2|10,3:2|3:2|3:2,0:0:0:0:
197,201,13711,2,0,L|182:144,1,45.0000017166138,2|0,0:0|0:0,0:0:0:0:
167,26,13942,6,0,B|180:59|180:59|78:108|78:108|94:148,1,180.000006866455,6|8,3:2|3:2,0:0:0:0:
249,203,14634,2,0,P|309:214|361:228,1,90.0000034332277
405,290,15095,1,0,3:2:0:0:
405,290,15211,1,0,0:0:0:0:
405,290,15326,2,0,L|419:241,3,45.0000017166138,8|8|8|0,3:2|0:0|0:0|0:0,0:0:0:0:
330,330,15788,6,0,B|256:311|281:340|184:312,2,120,2|2|2,3:2|0:0|3:2,0:0:0:0:
188,236,16480,1,2,0:0:0:0:
188,236,16595,1,2,0:0:0:0:
256,172,16711,2,0,B|263:137|263:137|350:98|350:98|288:73|288:-3,1,240,2|2,3:2|3:2,0:0:0:0:
268,191,17403,2,0,P|279:239|288:280,1,60,2|2,0:0|0:0,0:0:0:0:
191,156,17634,1,2,3:2:0:0:
191,156,17749,1,2,0:0:0:0:
132,215,17865,2,0,P|94:220|49:239,1,60,2|0,0:0|0:0,0:0:0:0:
0,97,18095,2,0,P|46:129|138:124,1,120,2|2,3:2|0:0,0:0:0:0:
325,178,18557,6,0,P|368:170|417:167,1,60,2|2,3:2|0:0,0:0:0:0:
374,214,18788,2,0,B|305:210|327:249|220:225,1,120,2|2,0:0|3:2,0:0:0:0:
106,340,19480,6,0,B|110:296|62:256|62:256|121:197|121:197|97:268,1,240,2|2,3:2|3:2,0:0:0:0:
183,297,20172,2,0,P|221:310|259:330,1,60,2|2,0:0|0:0,0:0:0:0:
386,218,20403,2,0,B|358:199|358:199|307:249|276:227,2,120,2|2|2,3:2|0:0|3:2,0:0:0:0:
362,309,21095,2,0,P|367:320|365:302,1,60,2|2,0:0|0:0,0:0:0:0:
266,159,21326,2,0,P|262:123|239:34,1,120,2|2,3:2|0:0,0:0:0:0:
345,104,21672,1,2,0:0:0:0:
281,180,21788,2,0,P|237:193|209:216,1,60,2|0,3:2|0:0,0:0:0:0:
408,179,22019,2,0,P|431:226|439:261,1,60,2|0,0:0|0:0,0:0:0:0:
178,258,22249,2,0,B|115:226|115:226|171:143,2,143.999995605469,2|2|2,3:2|0:0|3:2,0:0:0:0:
241,321,23172,6,0,B|315:311|283:342|377:323,2,120,2|2|2,3:2|0:0|3:2,0:0:0:0:
179,381,23865,1,2,0:0:0:0:
179,381,23981,1,2,0:0:0:0:
115,322,24095,2,0,P|109:284|145:252,1,60,2|2,3:2|0:0,0:0:0:0:
48,206,24326,2,0,P|64:187|119:197,1,60,2|0,0:0|0:0,0:0:0:0:
106,87,24557,2,0,P|140:96|145:139,1,60,2|0,3:2|0:0,0:0:0:0:
288,194,24788,2,0,P|252:179|204:168,1,60,2|2,0:0|0:0,0:0:0:0:
381,305,25019,6,0,B|406:298|406:298|400:285|400:285|370:294,2,60,2|2|2,3:2|0:0|0:0,0:0:0:0:
304,320,25480,2,0,B|325:267|354:291|370:212,1,120,2|2,3:2|0:0,0:0:0:0:
326,118,25942,5,2,3:2:0:0:
310,75,26057,1,2,0:0:0:0:
411,39,26172,5,2,0:0:0:0:
408,79,26288,1,2,0:0:0:0:
443,159,26403,6,0,B|508:183|508:183|509:188|509:188|470:259,1,120,2|2,3:2|0:0,0:0:0:0:
367,221,26865,2,0,B|297:206|329:236|240:216,2,120,6|0|10,3:2|0:0|3:2,0:0:0:0:
202,303,27557,2,0,P|175:304|130:321,1,60,2|0,0:0|0:0,0:0:0:0:
163,204,27788,2,0,L|125:54,2,120,0|2|10,3:2|3:2|3:2,0:0:0:0:
82,246,28365,1,0,0:0:0:0:
82,246,28480,2,0,P|53:239|6:226,1,60,2|0,0:0|0:0,0:0:0:0:
234,365,28711,6,0,B|312:329|312:329|263:243,1,180,6|0,3:2|0:0,0:0:0:0:
297,171,29172,2,0,B|237:207|237:207|275:261,1,120,0|2,3:2|0:0,0:0:0:0:
182,292,29519,1,2,0:0:0:0:
182,292,29634,2,0,B|156:285|156:285|101:320|101:320|49:302,2,120,2|2|0,3:2|0:0|3:2,0:0:0:0:
145,192,30326,1,2,0:0:0:0:
145,192,30442,1,2,0:0:0:0:
67,218,30557,2,0,P|41:180|43:148,1,60,2|0,3:2|0:0,0:0:0:0:
160,31,30788,2,0,P|115:83|45:80,1,120,2|0,0:0|3:2,0:0:0:0:
226,141,31249,6,0,B|299:152|279:177|354:178,1,120,2|0,0:0|3:2,0:0:0:0:
334,205,31711,2,0,P|319:241|309:273,1,60,2|0,0:0|0:0,0:0:0:0:
380,328,31942,2,0,L|436:306,1,60,2|0,3:2|0:0,0:0:0:0:
458,217,32172,2,0,L|406:155,1,60,2|0,0:0|0:0,0:0:0:0:
245,287,32403,6,0,B|184:282|159:329|158:324|158:324|105:312|119:227,1,198.000006042481,6|0,3:2|0:0,0:0:0:0:
173,102,32865,2,0,P|205:129|191:211,1,132.00000402832,8|2,3:2|0:0,0:0:0:0:
23,232,33326,2,0,B|-3:172|-3:172|72:134,1,132.00000402832,2|0,3:2|3:2,0:0:0:0:
233,287,33788,2,0,B|322:277|292:304|398:283,1,132.00000402832,10|0,3:2|0:0,0:0:0:0:
383,278,34134,1,2,0:0:0:0:
319,208,34249,2,0,P|304:170|394:151,1,132.00000402832,2|0,3:2|0:0,0:0:0:0:
492,256,34711,6,0,P|486:329|412:329,1,132.00000402832,10|0,3:2|0:0,0:0:0:0:
425,361,35057,1,0,0:0:0:0:
311,384,35172,2,0,P|300:347|285:301,1,66.0000020141602,2|0,3:2|0:0,0:0:0:0:
138,290,35403,2,0,P|156:237|165:196,1,66.0000020141602,0|0,3:2|0:0,0:0:0:0:
220,109,35634,1,8,3:2:0:0:
203,354,35865,5,2,0:0:0:0:
203,354,35980,1,2,0:0:0:0:
120,299,36095,2,0,P|53:313|57:376,2,132.00000402832,6|2|10,3:2|0:0|3:2,0:0:0:0:
117,211,36788,2,0,P|72:201|39:192,1,66.0000020141602,2|0,0:0|0:0,0:0:0:0:
242,121,37019,6,0,B|253:188|308:184|319:261,1,132.00000402832,2|2,3:2|3:2,0:0:0:0:
240,325,37480,2,0,B|224:296|224:296|236:252,1,66.0000020141602,10|0,3:2|0:0,0:0:0:0:
386,191,37711,1,2,0:0:0:0:
453,221,37826,1,2,0:0:0:0:
408,288,37942,2,0,B|449:299|449:299|462:318|462:318|536:343,2,132.00000402832,2|2|10,3:2|0:0|3:2,0:0:0:0:
318,244,38519,1,2,0:0:0:0:
448,128,38634,2,0,P|490:118|545:107,1,66.0000020141602,2|2,0:0|0:0,0:0:0:0:
334,101,38865,5,2,3:2:0:0:
334,78,38980,1,2,0:0:0:0:
254,159,39095,5,2,3:2:0:0:
214,116,39211,1,2,0:0:0:0:
199,248,39326,6,0,P|151:279|61:251,1,132.00000402832,10|2,3:2|0:0,0:0:0:0:
62,253,39672,1,0,0:0:0:0:
119,143,39788,2,0,P|130:76|149:8,2,132.00000402832,6|0|10,3:2|0:0|3:2,0:0:0:0:
185,242,40365,1,0,0:0:0:0:
202,157,40480,2,0,P|261:135|301:134,1,66.0000020141602,0|0,3:2|0:0,0:0:0:0:
451,227,40711,6,0,B|369:211|394:241|300:222,1,132.00000402832,10|0,3:2|3:2,0:0:0:0:
97,325,41172,2,0,B|179:309|154:339|248:320,1,132.00000402832,10|0,3:2|3:2,0:0:0:0:
297,359,41519,1,2,0:0:0:0:
235,232,41634,2,0,B|211:178|211:178|186:167|186:167|170:120,1,132.00000402832,10|0,3:2|3:2,0:0:0:0:
369,0,42095,2,0,B|345:54|345:54|320:65|320:65|304:112,1,132.00000402832,10|0,3:2|3:2,0:0:0:0:
335,175,42442,1,2,0:0:0:0:
401,224,42557,2,0,P|453:235|487:244,1,66.0000020141602,10|0,3:2|0:0,0:0:0:0:
454,138,42788,2,0,P|498:123|527:112,1,66.0000020141602,2|0,3:2|0:0,0:0:0:0:
325,282,43019,2,0,P|257:305|190:335,1,132.00000402832,10|2,3:2|3:2,0:0:0:0:
115,81,43480,6,0,B|169:91|169:91|172:98|172:98|116:205,1,132.00000402832,6|0,3:2|0:0,0:0:0:0:
60,210,43826,1,0,0:0:0:0:
156,231,43942,2,0,B|234:209|220:237|300:209,2,132.00000402832,8|2|0,3:2|0:0|3:2,0:0:0:0:
97,303,44519,1,0,0:0:0:0:
97,303,44634,2,0,P|91:341|88:368,1,66.0000020141602,0|0,3:2|0:0,0:0:0:0:
242,376,44865,2,0,P|229:342|199:314,1,66.0000020141602,10|0,3:2|0:0,0:0:0:0:
138,217,45095,1,2,0:0:0:0:
34,135,45326,6,0,P|70:122|112:111,1,66.0000020141602,6|0,3:2|0:0,0:0:0:0:
330,82,45557,5,10,3:2:0:0:
330,82,45672,1,8,3:2:0:0:
367,177,45788,5,10,3:2:0:0:
246,129,45903,1,8,3:2:0:0:
440,94,46019,5,10,3:2:0:0:
277,207,46134,1,8,3:2:0:0:
171,56,46249,5,0,3:2:0:0:
64,214,47172,6,0,P|33:158|57:112,1,77.9999964294435,6|0,3:2|0:0,0:0:0:0:
193,47,47403,2,0,P|226:96|211:148,1,77.9999964294435,0|0,0:0|0:0,0:0:0:0:
144,167,47634,2,0,B|230:141|214:209|333:160,1,155.999992858887,10|0,0:0|0:0,0:0:0:0:
411,239,47980,1,2,0:0:0:0:
299,215,48095,2,0,P|256:200|211:185,1,77.9999964294435,2|0,3:2|0:0,0:0:0:0:
319,310,48326,2,0,P|301:347|287:386,1,77.9999964294435,2|0,3:2|0:0,0:0:0:0:
196,295,48557,2,0,P|143:310|102:331,1,77.9999964294435,10|0,0:0|0:0,0:0:0:0:
415,324,48788,1,2,0:0:0:0:
505,259,48903,1,8,0:0:0:0:
408,155,49019,6,0,B|396:72|337:111|333:1,1,155.999992858887,2|0,3:2|0:0,0:0:0:0:
471,78,49365,1,0,0:0:0:0:
321,162,49480,2,0,B|279:172|279:172|256:195|256:195|195:214,1,116.999994644165,10|0,0:0|0:0,0:0:0:0:
216,207,49711,2,0,P|190:163|177:100,1,77.9999964294435,2|0,0:0|0:0,0:0:0:0:
66,274,49942,2,0,P|116:272|177:293,1,77.9999964294435,0|0,3:2|0:0,0:0:0:0:
82,110,50172,2,0,P|56:153|9:196,1,77.9999964294435,8|0,3:2|0:0,0:0:0:0:
228,193,50403,2,0,P|203:151|191:93,1,77.9999964294435,10|0,3:2|0:0,0:0:0:0:
123,198,50634,1,10,0:0:0:0:
123,198,50749,1,10,0:0:0:0:
146,372,50865,5,6,3:2:0:0:
226,305,50980,2,0,B|306:304|282:345|384:343,1,155.999992858887,2|2,0:0|0:0,0:0:0:0:
342,249,51326,1,10,0:0:0:0:
454,184,51442,2,0,P|468:142|486:82,1,77.9999964294435,2|0,0:0|0:0,0:0:0:0:
402,343,51672,1,2,0:0:0:0:
266,217,51788,6,0,P|257:174|259:114,1,77.9999964294435,2|0,3:2|0:0,0:0:0:0:
388,0,52019,2,0,P|397:43|395:103,1,77.9999964294435,2|0,3:2|0:0,0:0:0:0:
155,144,52249,2,0,B|178:85|197:119|228:40,1,116.999994644165,10|0,0:0|0:0,0:0:0:0:
224,52,52480,2,0,P|181:36|148:27,1,77.9999964294435,2|8,0:0|0:0,0:0:0:0:
6,238,52711,6,0,B|100:214|72:266|199:216,1,155.999992858887,2|2,3:2|0:0,0:0:0:0:
144,317,53057,1,0,0:0:0:0:
321,140,53172,2,0,P|283:151|247:164,1,77.9999964294435,8|0,0:0|0:0,0:0:0:0:
373,318,53403,5,2,0:0:0:0:
490,384,53519,1,8,0:0:0:0:
299,381,53634,5,0,3:2:0:0:
452,294,53749,1,8,0:0:0:0:
267,291,53865,5,10,3:2:0:0:
267,291,53980,1,2,0:0:0:0:
359,308,54095,2,0,P|342:251|329:198,1,77.9999964294435,10|0,3:2|0:0,0:0:0:0:
310,0,54326,5,10,0:0:0:0:
231,137,54442,1,8,0:0:0:0:
358,152,54557,2,0,B|448:129|419:185|521:152,2,155.999992858887,6|0|8,3:2|0:0|0:0,0:0:0:0:
260,262,55134,1,0,0:0:0:0:
436,249,55249,2,0,P|493:268|539:289,1,77.9999964294435,2|0,0:0|0:0,0:0:0:0:
205,334,55480,6,0,P|167:267|191:158,1,155.999992858887,2|0,3:2|0:0,0:0:0:0:
75,169,55826,1,2,0:0:0:0:
252,140,55942,2,0,P|232:107|225:50,1,77.9999964294435,10|0,0:0|0:0,0:0:0:0:
67,253,56172,2,0,P|76:204|114:156,1,77.9999964294435,2|8,0:0|0:0,0:0:0:0:
354,156,56403,2,0,P|409:174|461:194,1,77.9999964294435,2|0,3:2|0:0,0:0:0:0:
281,277,56634,1,2,0:0:0:0:
172,190,56749,1,0,0:0:0:0:
366,74,56865,6,0,B|451:54|427:92|546:52,1,155.999992858887,10|0,0:0|0:0,0:0:0:0:
369,251,57211,1,0,0:0:0:0:
270,153,57326,2,0,B|259:93|259:93|261:85|261:85|242:-16,2,155.999992858887,2|10|10,3:2|3:2|3:2,0:0:0:0:
369,251,58019,1,10,0:0:0:0:
371,91,58134,1,8,0:0:0:0:
219,223,58249,6,0,B|187:214|187:214|148:222|148:222|105:211,1,116.999994644165,6|0,3:2|0:0,0:0:0:0:
105,211,58480,2,0,P|93:164|80:104,1,77.9999964294435,0|0,0:0|0:0,0:0:0:0:
206,300,58711,2,0,P|192:335|168:389,1,77.9999964294435,10|0,0:0|0:0,0:0:0:0:
292,316,58942,2,0,P|350:337|391:356,1,77.9999964294435,2|0,0:0|0:0,0:0:0:0:
497,195,59172,6,0,P|446:248|347:243,1,155.999992858887,2|2,3:2|0:0,0:0:0:0:
349,147,59519,1,2,0:0:0:0:
247,159,59634,2,0,P|279:207|291:246,1,77.9999964294435,10|2,0:0|0:0,0:0:0:0:
407,67,59865,2,0,P|349:58|306:39,1,77.9999964294435,2|10,0:0|0:0,0:0:0:0:
124,239,60095,6,0,B|101:305|39:280|19:383,1,155.999992858887,6|0,3:2|0:0,0:0:0:0:
189,303,60442,1,0,0:0:0:0:
167,168,60557,2,0,P|158:124|143:75,1,77.9999964294435,8|0,0:0|0:0,0:0:0:0:
286,225,60788,1,2,3:2:0:0:
286,225,60903,1,10,0:0:0:0:
106,231,61019,2,0,P|59:218|13:208,1,77.9999964294435,2|8,3:2|0:0,0:0:0:0:
290,362,61249,2,0,P|252:372|215:384,1,77.9999964294435,0|10,0:0|0:0,0:0:0:0:
386,258,61480,5,10,3:2:0:0:
234,147,61595,1,8,0:0:0:0:
378,129,61711,5,10,3:2:0:0:
217,262,61826,1,8,0:0:0:0:
487,221,61942,6,0,P|499:139|514:51,1,155.999992858887,6|0,3:2|0:0,0:0:0:0:
512,67,62403,2,0,B|424:47|446:127|309:63,1,155.999992858887,10|0,0:0|0:0,0:0:0:0:
340,64,62749,1,2,0:0:0:0:
267,154,62865,2,0,P|288:214|293:284,1,77.9999964294435,2|0,3:2|0:0,0:0:0:0:
471,200,63095,2,0,P|466:254|442:294,1,77.9999964294435,2|0,0:0|0:0,0:0:0:0:
274,339,63326,2,0,P|285:284|380:295,1,155.999992858887,10|2,0:0|0:0,0:0:0:0:
372,184,63672,1,8,0:0:0:0:
187,60,63788,6,0,P|205:121|220:216,1,155.999992858887,2|0,3:2|0:0,0:0:0:0:
219,212,64249,2,0,B|128:193|162:274|35:227,1,155.999992858887,10|2,0:0|0:0,0:0:0:0:
311,263,64711,2,0,P|366:283|422:306,1,77.9999964294435,0|0,3:2|0:0,0:0:0:0:
316,134,64942,2,0,P|336:73|350:27,1,77.9999964294435,10|0,0:0|0:0,0:0:0:0:
226,302,65172,2,0,P|168:323|126:348,1,77.9999964294435,10|0,3:2|0:0,0:0:0:0:
385,190,65403,1,10,3:2:0:0:
385,190,65519,1,10,3:2:0:0:
311,263,65634,5,6,3:2:0:0:
483,199,65749,1,2,0:0:0:0:
316,134,65865,2,0,P|264:127|217:122,1,77.9999964294435,2|2,0:0|0:0,0:0:0:0:
388,77,66095,2,0,P|382:30|372:-15,1,77.9999964294435,10|0,0:0|0:0,0:0:0:0:
390,303,66326,1,2,0:0:0:0:
390,303,66442,1,2,0:0:0:0:
233,239,66557,6,0,B|165:249|190:279|109:282,1,116.999994644165,2|0,3:2|0:0,0:0:0:0:
126,281,66788,2,0,P|106:231|89:191,1,77.9999964294435,2|0,0:0|0:0,0:0:0:0:
277,47,67019,2,0,B|335:80|335:80|304:183,1,155.999992858887,10|2,0:0|0:0,0:0:0:0:
239,330,67365,1,8,0:0:0:0:
380,278,67480,2,0,P|317:257|264:244,1,77.9999964294435,2|0,3:2|0:0,0:0:0:0:
225,121,67711,2,0,P|171:140|116:163,1,77.9999964294435,2|0,0:0|0:0,0:0:0:0:
150,285,67942,2,0,P|130:341|120:393,1,77.9999964294435,10|0,0:0|0:0,0:0:0:0:
47,98,68172,2,0,P|57:160|76:197,1,77.9999964294435,2|8,0:0|0:0,0:0:0:0:
219,216,68403,5,2,3:2:0:0:
317,97,68519,1,8,0:0:0:0:
174,44,68634,1,10,3:2:0:0:
174,44,68865,1,10,3:2:0:0:
174,44,69095,1,10,0:0:0:0:
238,126,69211,1,8,0:0:0:0:
358,27,69326,6,0,B|452:14|412:67|552:24,1,155.999992858887,6|0,3:2|0:0,0:0:0:0:
511,35,69788,2,0,P|490:121|473:210,1,155.999992858887,8|2,0:0|0:0,0:0:0:0:
297,255,70249,2,0,P|293:214|391:216,1,155.999992858887,2|0,3:2|0:0,0:0:0:0:
404,228,70595,1,2,0:0:0:0:
344,338,70711,2,0,P|305:347|263:369,1,77.9999964294435,10|0,0:0|0:0,0:0:0:0:
129,236,70942,2,0,P|182:221|222:198,1,77.9999964294435,2|8,0:0|0:0,0:0:0:0:
368,131,71172,6,0,B|380:96|380:96|411:78|411:78|446:-17,1,155.999992858887,2|0,3:2|0:0,0:0:0:0:
440,0,71634,2,0,P|454:95|471:178,1,155.999992858887,10|0,0:0|0:0,0:0:0:0:
480,171,71980,1,0,0:0:0:0:
394,286,72095,2,0,P|376:230|389:186,1,77.9999964294435,2|0,3:2|0:0,0:0:0:0:
223,220,72326,2,0,P|239:161|270:125,1,77.9999964294435,8|0,0:0|0:0,0:0:0:0:
476,257,72557,2,0,P|494:334|503:367,1,77.9999964294435,10|0,3:2|0:0,0:0:0:0:
303,270,72788,1,10,0:0:0:0:
238,355,72903,1,8,0:0:0:0:
155,302,73019,6,0,B|64:282|103:321|-15:295,1,155.999992858887,6|0,3:2|0:0,0:0:0:0:
94,218,73365,1,0,0:0:0:0:
139,125,73480,2,0,P|178:180|173:232,1,77.9999964294435,10|0,0:0|0:0,0:0:0:0:
17,227,73711,2,0,P|0:190|17:133,1,77.9999964294435,2|0,0:0|0:0,0:0:0:0:
129,18,73942,6,0,P|186:54|289:42,1,155.999992858887,2|2,3:2|0:0,0:0:0:0:
287,143,74288,1,2,0:0:0:0:
442,36,74403,2,0,P|396:57|381:118,1,77.9999964294435,10|2,0:0|0:0,0:0:0:0:
196,164,74634,2,0,P|198:216|247:250,1,77.9999964294435,2|8,0:0|0:0,0:0:0:0:
143,358,74865,6,0,P|202:336|242:331,1,77.9999964294435,2|0,3:2|0:0,0:0:0:0:
413,197,75095,2,0,P|357:215|313:222,1,77.9999964294435,8|0,3:2|0:0,0:0:0:0:
111,226,75326,2,0,P|171:244|211:255,1,77.9999964294435,8|2,3:2|0:0,0:0:0:0:
307,312,75557,1,2,0:0:0:0:
443,375,75672,1,10,0:0:0:0:
512,237,75788,2,0,P|494:177|486:138,1,77.9999964294435,2|10,3:2|0:0,0:0:0:0:
338,16,76019,2,0,P|315:75|300:117,1,77.9999964294435,10|10,3:2|0:0,0:0:0:0:
148,245,76249,5,10,3:2:0:0:
312,186,76365,1,8,0:0:0:0:
182,157,76480,5,10,0:0:0:0:
306,269,76595,1,8,0:0:0:0:
61,183,76711,5,4,3:2:0:0:
238,154,91480,6,0,B|212:122|212:122|292:98|292:98|383:139|302:222,2,240,6|2|2,3:2|3:2|3:2,0:0:0:0:
254,252,92634,2,0,P|214:240|172:239,1,60,2|0,0:0|0:0,0:0:0:0:
164,261,92865,1,2,3:2:0:0:
129,183,93095,2,0,P|143:138|150:105,1,60,2|2,0:0|0:0,0:0:0:0:
165,25,93326,2,0,B|182:54|182:54|159:107|159:107|186:155,2,120,2|2|2,3:2|0:0|3:2,0:0:0:0:
83,61,94019,1,2,0:0:0:0:
83,61,94134,1,2,0:0:0:0:
271,102,94249,6,0,B|340:108|319:141|420:125,1,120,2|2,3:2|0:0,0:0:0:0:
253,189,94595,1,0,0:0:0:0:
253,189,94711,2,0,P|236:271|222:349,1,120,2|2,3:2|0:0,0:0:0:0:
130,49,95172,6,0,B|68:70|68:70|66:74|66:74|96:137,2,120,2|2|2,3:2|0:0|3:2,0:0:0:0:
169,239,95865,1,2,0:0:0:0:
169,239,95980,2,0,P|139:228|93:220,1,60,2|0,0:0|3:2,0:0:0:0:
208,157,96211,1,2,0:0:0:0:
258,263,96326,1,2,0:0:0:0:
258,263,96557,2,0,B|270:237|270:237|333:223|333:223|359:262|424:244,1,180,2|2,3:2|0:0,0:0:0:0:
466,142,97019,5,2,3:2:0:0:
446,102,97134,1,2,0:0:0:0:
362,123,97249,5,2,0:0:0:0:
377,55,97365,1,2,0:0:0:0:
248,43,97480,6,0,P|264:89|270:127,1,60,2|0,3:2|0:0,0:0:0:0:
163,350,97711,1,2,0:0:0:0:
128,278,97826,1,2,0:0:0:0:
203,257,97942,2,0,B|198:176|142:208|149:82,2,143.999995605469,2|2|2,3:2|0:0|3:2,0:0:0:0:
211,275,98634,1,2,0:0:0:0:
331,229,98865,6,0,P|366:218|418:208,1,60,2|0,3:2|0:0,0:0:0:0:
458,267,99095,1,2,0:0:0:0:
458,267,99211,1,2,0:0:0:0:
395,322,99326,2,0,B|367:302|367:302|318:326|318:326|276:297,1,120,2|2,3:2|0:0,0:0:0:0:
292,308,99672,1,2,0:0:0:0:
318,210,99788,2,0,B|326:157|353:172|365:98,1,107.999996704102,2|0,3:2|0:0,0:0:0:0:
362,112,100019,2,0,P|407:106|440:97,1,60,2|2,0:0|0:0,0:0:0:0:
232,155,100249,1,2,3:2:0:0:
166,223,100365,2,0,P|115:241|64:177,1,120,2|2,0:0|0:0,0:0:0:0:
18,128,100711,6,0,B|4:117|4:117|20:107|20:107|51:136,2,60,2|2|2,3:2|0:0|0:0,0:0:0:0:
99,281,101172,2,0,P|87:326|82:352,1,60,2|0,3:2|0:0,0:0:0:0:
177,256,101403,2,0,P|221:270|249:276,1,60,2|0,0:0|0:0,0:0:0:0:
25,223,101634,1,2,3:2:0:0:
25,223,101749,1,2,0:0:0:0:
107,92,101865,2,0,P|116:50|132:11,1,60,2|2,0:0|0:0,0:0:0:0:
133,180,102095,2,0,B|208:165|188:192|296:158,2,120,2|2|2,3:2|0:0|3:2,0:0:0:0:
386,257,103019,6,0,P|450:273|518:303,1,120,10|2,3:2|0:0,0:0:0:0:
299,122,103480,2,0,P|296:74|288:24,1,60,0|0,3:2|0:0,0:0:0:0:
378,162,103711,2,0,P|399:112|420:77,1,60,2|0,3:2|0:0,0:0:0:0:
291,255,103942,1,10,3:2:0:0:
291,255,104057,1,0,0:0:0:0:
220,205,104172,2,0,P|184:195|133:185,1,60,2|0,0:0|0:0,0:0:0:0:
66,313,104403,6,0,B|52:275|52:275|63:252|63:252|37:190,2,120,6|2|0,3:2|0:0|3:2,0:0:0:0:
151,335,105095,1,2,0:0:0:0:
151,335,105211,1,2,0:0:0:0:
223,254,105326,2,0,L|272:108,2,120,2|2|0,3:2|0:0|3:2,0:0:0:0:
217,384,106019,5,2,0:0:0:0:
217,384,106134,1,2,0:0:0:0:
363,300,106249,2,0,B|436:285|419:315|520:284,2,120,2|2|0,3:2|0:0|3:2,0:0:0:0:
289,217,106942,2,0,P|277:166|254:99,1,120,2|0,0:0|3:2,0:0:0:0:
269,250,107403,2,0,P|234:241|185:231,1,60,2|0,0:0|0:0,0:0:0:0:
130,273,107634,1,2,3:2:0:0:
322,326,107865,2,0,P|282:339|243:359,1,60,2|0,0:0|0:0,0:0:0:0:
366,125,108095,6,0,B|382:175|382:175|380:182|380:182|411:277,2,132.00000402832,6|0|8,3:2|0:0|3:2,0:0:0:0:
446,89,108788,2,0,P|496:100|538:112,1,66.0000020141602,2|0,0:0|0:0,0:0:0:0:
288,174,109019,2,0,B|241:154|241:154|239:149|239:149|287:75,1,132.00000402832,2|0,3:2|3:2,0:0:0:0:
180,213,109480,2,0,B|91:206|125:262|11:244,1,132.00000402832,10|0,3:2|0:0,0:0:0:0:
37,226,109826,1,0,0:0:0:0:
71,157,109942,2,0,L|17:9,1,132.00000402832,2|0,3:2|0:0,0:0:0:0:
262,151,110403,6,0,B|300:202|300:202|246:297,1,132.00000402832,10|0,3:2|0:0,0:0:0:0:
265,294,110749,1,0,0:0:0:0:
192,253,110865,2,0,P|148:268|111:284,1,66.0000020141602,2|0,3:2|0:0,0:0:0:0:
170,158,111095,2,0,L|147:78,1,66.0000020141602,0|0,3:2|0:0,0:0:0:0:
351,268,111326,1,8,3:2:0:0:
351,268,111557,2,0,L|430:286,1,66.0000020141602,2|2,0:0|0:0,0:0:0:0:
401,187,111788,6,0,P|459:165|451:105,2,132.00000402832,2|2|10,3:2|0:0|3:2,0:0:0:0:
232,337,112480,1,2,0:0:0:0:
168,192,112711,2,0,L|148:108,1,66.0000020141602,2|0,3:2|0:0,0:0:0:0:
292,112,112942,2,0,L|322:26,1,66.0000020141602,2|0,3:2|0:0,0:0:0:0:
302,241,113172,5,10,3:2:0:0:
277,212,113288,1,2,0:0:0:0:
401,231,113403,5,2,0:0:0:0:
396,271,113519,1,2,0:0:0:0:
304,338,113634,6,0,B|222:315|249:367|142:332,1,132.00000402832,2|2,3:2|0:0,0:0:0:0:
82,375,113980,1,2,0:0:0:0:
139,263,114095,2,0,P|132:229|118:183,1,66.0000020141602,10|2,3:2|0:0,0:0:0:0:
12,313,114326,2,0,P|22:264|23:224,1,66.0000020141602,2|2,0:0|0:0,0:0:0:0:
121,110,114557,5,2,3:2:0:0:
33,66,114672,1,2,0:0:0:0:
178,50,114788,5,2,3:2:0:0:
35,149,114903,1,2,0:0:0:0:
157,192,115019,6,0,B|209:200|209:200|218:207|218:207|297:222,1,132.00000402832,10|2,3:2|0:0,0:0:0:0:
486,40,115480,6,0,P|445:98|366:103,1,132.00000402832,6|0,3:2|0:0,0:0:0:0:
470,183,115942,2,0,P|482:223|490:271,1,66.0000020141602,8|0,3:2|0:0,0:0:0:0:
389,124,116172,2,0,L|297:153,1,66.0000020141602,2|0,3:2|0:0,0:0:0:0:
379,228,116403,2,0,B|291:213|331:254|234:221,1,132.00000402832,10|0,3:2|3:2,0:0:0:0:
0,317,116865,2,0,B|88:302|42:338|145:310,1,132.00000402832,10|0,3:2|3:2,0:0:0:0:
197,359,117211,1,2,0:0:0:0:
166,236,117326,6,0,B|156:215|156:215|177:163|177:163|154:101,1,132.00000402832,10|0,3:2|3:2,0:0:0:0:
327,0,117788,2,0,B|317:21|317:21|338:73|338:73|315:135,1,132.00000402832,10|0,3:2|3:2,0:0:0:0:
353,198,118134,1,2,0:0:0:0:
403,135,118249,2,0,P|438:123|489:118,1,66.0000020141602,10|0,3:2|0:0,0:0:0:0:
446,222,118480,2,0,P|491:240|525:273,1,66.0000020141602,2|0,3:2|0:0,0:0:0:0:
293,279,118711,2,0,P|245:309|133:279,1,132.00000402832,10|2,3:2|3:2,0:0:0:0:
116,206,119172,6,0,B|99:146|41:163|35:72,1,132.00000402832,6|0,3:2|0:0,0:0:0:0:
192,187,119519,1,0,0:0:0:0:
92,289,119634,2,0,P|43:301|5:325,1,66.0000020141602,8|0,3:2|0:0,0:0:0:0:
171,305,119865,2,0,P|217:342|297:323,2,132.00000402832,2|0|0,0:0|3:2|3:2,0:0:0:0:
477,257,120557,2,0,P|442:240|396:233,1,66.0000020141602,10|0,3:2|0:0,0:0:0:0:
348,118,120788,2,0,P|293:141|261:174,1,66.0000020141602,2|8,0:0|3:2,0:0:0:0:
14,105,121019,6,0,L|78:89,1,66.0000020141602,6|0,3:2|0:0,0:0:0:0:
116,182,121249,5,10,3:2:0:0:
116,182,121365,1,8,3:2:0:0:
163,277,121480,5,10,3:2:0:0:
209,180,121595,1,8,3:2:0:0:
292,257,121711,5,10,3:2:0:0:
326,372,121826,1,8,3:2:0:0:
392,140,121942,5,0,3:2:0:0:
415,219,122172,1,2,3:2:0:0:
306,128,122288,1,0,3:2:0:0:
446,62,122403,1,2,3:2:0:0:
392,140,122634,5,2,3:2:0:0:
392,140,122865,2,0,P|381:191|385:246,1,77.9999964294435,6|0,3:2|0:0,0:0:0:0:
177,188,123095,2,0,P|189:249|224:288,1,77.9999964294435,0|0,0:0|0:0,0:0:0:0:
320,307,123326,2,0,B|407:289|373:343|505:309,1,155.999992858887,10|0,0:0|0:0,0:0:0:0:
255,373,123672,1,2,0:0:0:0:
306,150,123788,6,0,P|289:201|277:253,1,77.9999964294435,2|0,3:2|0:0,0:0:0:0:
167,88,124019,2,0,P|220:76|270:61,1,77.9999964294435,2|0,3:2|0:0,0:0:0:0:
183,240,124249,2,0,P|146:199|107:163,1,77.9999964294435,10|0,0:0|0:0,0:0:0:0:
221,163,124480,1,2,0:0:0:0:
221,163,124595,1,8,0:0:0:0:
121,290,124711,6,0,P|78:303|-13:230,1,155.999992858887,2|0,3:2|0:0,0:0:0:0:
131,376,125057,1,0,0:0:0:0:
262,322,125172,2,0,L|367:354,1,77.9999964294435,10|0,0:0|0:0,0:0:0:0:
207,244,125403,2,0,P|215:194|231:137,1,103.999995239258,2|0,0:0|0:0,0:0:0:0:
229,142,125634,2,0,B|272:140|272:140|309:174,1,77.9999964294435,0|0,3:2|0:0,0:0:0:0:
356,32,125865,2,0,B|385:62|385:62|383:112,1,77.9999964294435,8|0,3:2|0:0,0:0:0:0:
486,137,126095,2,0,B|480:178|480:178|440:209,1,77.9999964294435,10|0,3:2|0:0,0:0:0:0:
388,280,126326,1,8,0:0:0:0:
388,280,126442,1,10,0:0:0:0:
328,341,126557,5,6,3:2:0:0:
481,294,126672,1,2,0:0:0:0:
309,238,126788,1,2,0:0:0:0:
430,361,126903,2,0,L|527:379,1,77.9999964294435,2|8,0:0|0:0,0:0:0:0:
260,167,127134,2,0,B|194:211|194:211|192:217|192:217|240:296,1,155.999992858887,2|2,0:0|0:0,0:0:0:0:
148,131,127480,6,0,B|77:119|87:151|16:121,1,116.999994644165,2|0,3:2|0:0,0:0:0:0:
32,127,127711,2,0,P|18:74|6:45,1,77.9999964294435,2|0,3:2|0:0,0:0:0:0:
104,234,127942,2,0,P|75:294|66:330,1,77.9999964294435,10|0,0:0|0:0,0:0:0:0:
242,160,128172,1,2,0:0:0:0:
146,47,128288,1,8,0:0:0:0:
311,121,128403,2,0,L|471:152,2,155.999992858887,2|2|8,3:2|0:0|0:0,0:0:0:0:
283,244,128980,1,0,0:0:0:0:
330,309,129095,2,0,P|351:351|364:397,2,77.9999964294435,2|8|0,0:0|0:0|3:2,0:0:0:0:
207,292,129442,5,8,0:0:0:0:
131,200,129557,1,10,3:2:0:0:
232,141,129673,1,2,0:0:0:0:
98,285,129788,5,10,3:2:0:0:
98,285,129904,1,2,0:0:0:0:
317,214,130019,2,0,P|361:200|413:197,1,77.9999964294435,10|8,0:0|0:0,0:0:0:0:
193,22,130249,6,0,P|154:88|73:80,1,155.999992858887,6|0,3:2|0:0,0:0:0:0:
253,136,130595,1,0,0:0:0:0:
81,168,130711,2,0,P|44:181|5:192,1,77.9999964294435,8|0,0:0|0:0,0:0:0:0:
162,185,130942,2,0,L|179:271,1,77.9999964294435,2|0,0:0|0:0,0:0:0:0:
386,205,131172,6,0,B|428:214|428:214|446:233|446:233|535:257,1,155.999992858887,2|0,3:2|0:0,0:0:0:0:
505,170,131519,1,2,0:0:0:0:
374,237,131634,2,0,P|356:284|348:323,1,77.9999964294435,10|0,0:0|0:0,0:0:0:0:
316,137,131864,2,0,P|298:88|298:56,1,77.9999964294435,2|8,0:0|0:0,0:0:0:0:
269,244,132095,6,0,P|225:266|154:221,1,116.999994644165,2|0,3:2|0:0,0:0:0:0:
152,258,132326,1,2,0:0:0:0:
41,309,132442,1,0,0:0:0:0:
119,159,132557,2,0,L|166:-4,1,155.999992858887,10|0,0:0|0:0,0:0:0:0:
49,216,133019,6,0,P|22:183|41:141,1,77.9999964294435,2|0,3:2|0:0,0:0:0:0:
212,192,133249,2,0,P|196:231|151:236,1,77.9999964294435,10|0,3:2|0:0,0:0:0:0:
22,340,133480,2,0,L|108:326,1,77.9999964294435,10|0,3:2|0:0,0:0:0:0:
306,250,133711,1,10,0:0:0:0:
185,104,133826,1,8,0:0:0:0:
364,25,133942,2,0,B|360:109|304:81|300:169,1,155.999992858887,6|0,3:2|0:0,0:0:0:0:
401,138,134288,1,0,0:0:0:0:
389,237,134403,2,0,P|402:286|425:337,1,77.9999964294435,10|0,0:0|0:0,0:0:0:0:
216,286,134634,2,0,P|220:242|240:179,1,77.9999964294435,2|0,0:0|0:0,0:0:0:0:
154,177,134865,6,0,B|77:162|92:207|-8:173,1,155.999992858887,2|2,3:2|0:0,0:0:0:0:
126,264,135211,1,2,0:0:0:0:
191,100,135326,1,10,0:0:0:0:
69,143,135442,1,0,0:0:0:0:
246,228,135557,1,2,0:0:0:0:
246,228,135672,1,10,0:0:0:0:
338,137,135788,2,0,B|350:92|350:92|355:90|355:90|381:-12,2,155.999992858887,6|0|8,3:2|0:0|0:0,0:0:0:0:
382,242,136480,5,2,3:2:0:0:
382,242,136595,1,8,0:0:0:0:
425,167,136711,2,0,P|482:157|531:145,1,77.9999964294435,2|8,3:2|0:0,0:0:0:0:
314,328,136942,2,0,P|368:347|412:363,1,77.9999964294435,0|10,0:0|0:0,0:0:0:0:
132,258,137172,5,10,3:2:0:0:
286,188,137288,1,8,0:0:0:0:
150,149,137403,5,10,3:2:0:0:
240,271,137519,1,8,0:0:0:0:
13,384,137634,6,0,P|-12:331|11:228,1,155.999992858887,6|0,3:2|0:0,0:0:0:0:
4,237,138095,2,0,B|29:207|75:204|75:204|100:234|143:237,1,155.999992858887,10|0,0:0|0:0,0:0:0:0:
150,249,138442,1,2,0:0:0:0:
136,136,138557,2,0,P|130:97|125:58,1,77.9999964294435,2|0,3:2|0:0,0:0:0:0:
79,309,138788,2,0,P|92:365|101:397,1,77.9999964294435,2|0,0:0|0:0,0:0:0:0:
240,284,139019,2,0,P|230:247|324:222,1,155.999992858887,10|2,0:0|0:0,0:0:0:0:
339,232,139365,1,8,0:0:0:0:
276,99,139480,6,0,B|182:74|218:129|119:89,1,155.999992858887,2|0,3:2|0:0,0:0:0:0:
124,91,139942,2,0,L|146:258,1,155.999992858887,10|2,0:0|0:0,0:0:0:0:
46,225,140403,2,0,P|76:195|98:161,1,77.9999964294435,0|0,3:2|0:0,0:0:0:0:
173,335,140634,2,0,P|132:323|92:321,1,77.9999964294435,8|0,3:2|0:0,0:0:0:0:
205,170,140865,2,0,P|215:211|233:247,1,77.9999964294435,10|0,3:2|0:0,0:0:0:0:
144,245,141095,1,10,0:0:0:0:
144,245,141211,1,10,0:0:0:0:
334,197,141326,5,6,3:2:0:0:
266,124,141442,2,0,B|177:105|200:153|99:114,1,155.999992858887,2|2,0:0|0:0,0:0:0:0:
42,55,141788,2,0,P|80:35|119:49,1,77.9999964294435,8|2,0:0|0:0,0:0:0:0:
169,209,142019,2,0,P|148:272|133:339,1,116.999994644165,2|0,0:0|0:0,0:0:0:0:
136,321,142249,6,0,P|194:309|239:299,1,77.9999964294435,2|0,3:2|0:0,0:0:0:0:
380,203,142480,2,0,P|325:215|281:224,1,77.9999964294435,2|0,3:2|0:0,0:0:0:0:
160,101,142711,2,0,P|214:120|249:128,1,77.9999964294435,10|0,0:0|0:0,0:0:0:0:
321,314,142942,1,2,0:0:0:0:
192,206,143057,1,0,0:0:0:0:
330,72,143172,2,0,B|345:110|345:110|312:138,1,77.9999964294435,2|0,3:2|0:0,0:0:0:0:
437,161,143403,2,0,B|428:204|428:204|373:209,1,77.9999964294435,2|0,0:0|0:0,0:0:0:0:
141,303,143634,6,0,B|229:278|193:324|310:294,1,155.999992858887,10|2,0:0|0:0,0:0:0:0:
427,351,143980,1,8,0:0:0:0:
303,217,144095,1,0,3:2:0:0:
303,217,144211,1,8,0:0:0:0:
464,250,144326,1,10,3:2:0:0:
335,366,144442,1,0,0:0:0:0:
213,263,144557,2,0,P|204:226|201:163,1,77.9999964294435,10|0,3:2|0:0,0:0:0:0:
371,7,144788,2,0,P|384:58|384:105,1,77.9999964294435,10|8,0:0|0:0,0:0:0:0:
277,99,145019,6,0,B|230:86|230:86|201:99|201:99|126:78,1,155.999992858887,6|0,3:2|0:0,0:0:0:0:
128,78,145480,2,0,P|100:163|78:234,1,155.999992858887,8|2,0:0|0:0,0:0:0:0:
281,244,145942,2,0,B|369:218|346:262|447:225,1,155.999992858887,2|0,3:2|0:0,0:0:0:0:
256,314,146288,1,2,0:0:0:0:
395,333,146403,2,0,B|458:360|458:360|470:359|470:359|499:284,1,155.999992858887,10|2,0:0|0:0,0:0:0:0:
192,241,146865,6,0,P|150:261|55:209,1,155.999992858887,2|0,3:2|0:0,0:0:0:0:
58,216,147326,2,0,B|46:151|46:151|51:143|51:143|30:44,1,155.999992858887,10|0,0:0|0:0,0:0:0:0:
32,41,147672,1,0,0:0:0:0:
151,146,147788,6,0,P|217:124|259:115,1,77.9999964294435,2|0,3:2|0:0,0:0:0:0:
80,235,148019,2,0,P|97:283|104:329,1,77.9999964294435,8|0,3:2|0:0,0:0:0:0:
252,217,148249,2,0,P|317:237|358:255,1,77.9999964294435,10|0,3:2|0:0,0:0:0:0:
367,332,148480,1,10,0:0:0:0:
199,284,148595,1,8,0:0:0:0:
334,146,148711,2,0,B|424:127|396:166|514:132,1,155.999992858887,6|0,3:2|0:0,0:0:0:0:
352,51,149057,1,0,0:0:0:0:
209,176,149172,6,0,B|130:145|130:145|129:142|129:142|175:45,2,155.999992858887,10|2|2,0:0|0:0|3:2,0:0:0:0:
298,232,149749,1,0,0:0:0:0:
345,153,149865,1,2,3:2:0:0:
260,97,149980,1,2,0:0:0:0:
436,203,150095,6,0,P|498:211|532:221,1,77.9999964294435,10|0,0:0|0:0,0:0:0:0:
362,290,150326,2,0,P|395:338|404:378,1,77.9999964294435,2|8,0:0|0:0,0:0:0:0:
128,331,150557,6,0,P|121:280|115:226,1,77.9999964294435,2|0,3:2|0:0,0:0:0:0:
33,82,150788,2,0,P|79:101|129:123,1,77.9999964294435,8|0,3:2|0:0,0:0:0:0:
296,124,151019,2,0,P|255:154|211:186,1,77.9999964294435,8|2,3:2|0:0,0:0:0:0:
153,184,151249,1,2,0:0:0:0:
153,184,151365,1,10,0:0:0:0:
167,22,151480,6,0,P|196:85|209:112,1,77.9999964294435,2|8,3:2|0:0,0:0:0:0:
282,262,151711,1,2,3:2:0:0:
282,262,151826,1,10,3:2:0:0:
208,335,151942,5,10,3:2:0:0:
386,273,152057,1,8,0:0:0:0:
228,192,152172,5,10,3:2:0:0:
353,363,152288,1,8,0:0:0:0:
477,244,152403,5,4,3:2:0:0:
200,103,163480,5,0,3:2:0:0:
252,251,163711,1,0,3:2:0:0:
406,44,164403,5,0,3:2:0:0:
368,195,164634,1,0,3:2:0:0:
265,336,165326,6,0,B|251:313|251:313|272:254|272:254|251:209,1,120,2|2,3:2|3:2,0:0:0:0:
337,303,166480,5,2,3:2:0:0:
243,38,166711,1,10,0:0:0:0:
167,311,167172,6,0,B|151:354|174:395|232:404|263:361|256:316|256:316|247:239|219:164|219:164|181:145|152:150|126:179|126:179|90:159|60:164|33:193|33:193|34:112|94:29|190:10|190:10|191:-14|191:-14|199:8|199:8|299:-1|379:57|404:135|404:135|370:114|338:120|312:150|312:150|278:129|245:135|229:157,1,1310.40004398926,2|2,1:2|0:0,0:0:0:0:
339,177,174557,6,0,P|325:126|309:78,1,90.0000034332277,4|0,3:2|0:0,0:0:0:0:
278,240,175019,2,0,P|227:254|179:270,1,90.0000034332277,0|2,3:2|0:0,0:0:0:0:
356,291,175480,2,0,P|370:342|386:390,1,90.0000034332277,2|0,3:2|0:0,0:0:0:0:
417,228,175942,2,0,P|468:214|516:198,1,90.0000034332277,2|2,3:2|0:0,0:0:0:0:
287,114,176403,6,0,B|259:82|259:82|147:99|192:197,2,180.000006866455,2|2|2,3:2|3:2|3:2,0:0:0:0:
326,191,177788,2,0,P|363:197|420:216,1,90.0000034332277,2|2,3:2|0:0,0:0:0:0:
249,247,178249,1,2,3:2:0:0:
249,247,178480,1,2,3:2:0:0:
143,207,178595,1,0,3:2:0:0:
40,321,178711,5,0,3:2:0:0:
160,292,178826,1,0,3:2:0:0:
0,230,178942,5,2,3:2:0:0:
138,376,179057,1,0,3:2:0:0:
226,157,179172,6,0,B|211:119|258:88|258:88|276:86|276:86|325:63|310:10,1,192,2|0,3:2|0:0,0:0:0:0:
426,227,180095,6,0,P|449:280|418:337,1,77.9999964294435,6|0,3:2|0:0,0:0:0:0:
242,379,180326,2,0,P|242:340|261:306,1,77.9999964294435,0|0,0:0|0:0,0:0:0:0:
333,274,180557,2,0,B|234:250|281:313|153:264,1,155.999992858887,10|2,0:0|0:0,0:0:0:0:
99,218,180903,1,0,0:0:0:0:
296,154,181019,6,0,P|282:115|266:52,1,77.9999964294435,2|0,3:2|0:0,0:0:0:0:
122,121,181249,2,0,P|123:72|138:10,1,77.9999964294435,2|0,3:2|0:0,0:0:0:0:
423,155,181480,2,0,P|399:207|391:257,1,77.9999964294435,10|0,0:0|0:0,0:0:0:0:
215,206,181711,1,2,0:0:0:0:
215,206,181826,1,0,0:0:0:0:
327,300,181942,2,0,B|386:319|386:319|395:341|395:341|474:362,2,155.999992858887,2|0|10,3:2|0:0|0:0,0:0:0:0:
281,308,182634,2,0,P|263:351|253:384,1,77.9999964294435,2|0,0:0|0:0,0:0:0:0:
120,202,182865,2,0,P|69:214|8:233,1,77.9999964294435,0|0,3:2|0:0,0:0:0:0:
168,335,183095,2,0,P|117:347|56:366,1,77.9999964294435,8|0,3:2|0:0,0:0:0:0:
267,186,183326,5,10,3:2:0:0:
267,186,183557,1,10,0:0:0:0:
203,105,183672,1,10,0:0:0:0:
360,165,183788,5,6,3:2:0:0:
196,235,183903,1,2,0:0:0:0:
359,270,184019,5,2,0:0:0:0:
281,198,184134,1,2,0:0:0:0:
439,217,184249,5,10,0:0:0:0:
310,89,184365,2,0,P|302:49|286:-18,1,77.9999964294435,2|0,0:0|0:0,0:0:0:0:
114,177,184595,1,2,0:0:0:0:
70,248,184711,2,0,B|47:318|35:279|-2:362,1,116.999994644165,2|0,3:2|0:0,0:0:0:0:
6,345,184942,2,0,P|65:359|101:369,1,77.9999964294435,2|0,3:2|0:0,0:0:0:0:
331,282,185172,2,0,B|301:218|301:218|229:246,1,116.999994644165,10|0,0:0|0:0,0:0:0:0:
294,195,185403,2,0,P|247:214|204:231,1,77.9999964294435,2|8,0:0|0:0,0:0:0:0:
162,280,185634,2,0,B|182:198|182:198|189:194|189:194|211:101,2,155.999992858887,2|2|8,3:2|0:0|0:0,0:0:0:0:
222,344,186326,6,0,P|286:359|317:372,1,77.9999964294435,2|8,0:0|0:0,0:0:0:0:
408,340,186557,1,0,3:2:0:0:
304,275,186672,1,8,0:0:0:0:
431,234,186788,1,10,3:2:0:0:
431,234,186903,1,2,0:0:0:0:
336,190,187019,5,10,3:2:0:0:
500,290,187134,1,0,0:0:0:0:
224,254,187249,5,10,0:0:0:0:
224,254,187365,1,8,0:0:0:0:
412,147,187480,6,0,P|424:78|413:-42,2,155.999992858887,6|0|8,3:2|0:0|0:0,0:0:0:0:
241,164,188057,1,0,0:0:0:0:
154,152,188172,2,0,P|140:100|148:34,1,77.9999964294435,2|0,0:0|0:0,0:0:0:0:
147,277,188403,2,0,B|54:258|77:309|-22:268,1,155.999992858887,2|0,3:2|0:0,0:0:0:0:
67,368,188749,1,2,0:0:0:0:
230,337,188865,2,0,P|294:360|326:378,1,77.9999964294435,10|0,0:0|0:0,0:0:0:0:
331,239,189095,2,0,P|399:217|445:190,1,77.9999964294435,2|8,0:0|0:0,0:0:0:0:
219,163,189326,6,0,P|253:110|241:6,1,155.999992858887,2|2,3:2|0:0,0:0:0:0:
175,254,189672,1,2,0:0:0:0:
361,127,189788,2,0,B|440:155|440:155|443:159|443:159|395:226,1,155.999992858887,10|0,0:0|0:0,0:0:0:0:
337,276,190134,1,0,0:0:0:0:
423,300,190249,6,0,P|485:329|523:348,1,77.9999964294435,2|0,3:2|0:0,0:0:0:0:
253,290,190480,2,0,P|225:344|208:381,1,77.9999964294435,10|0,3:2|0:0,0:0:0:0:
219,200,190711,2,0,P|179:211|129:226,1,77.9999964294435,10|0,3:2|0:0,0:0:0:0:
403,213,190942,1,10,0:0:0:0:
481,92,191057,1,8,0:0:0:0:
335,102,191172,6,0,B|314:27|253:64|235:-20,2,155.999992858887,6|0|10,3:2|0:0|0:0,0:0:0:0:
267,231,191749,1,0,0:0:0:0:
145,165,191865,2,0,P|200:151|245:146,1,77.9999964294435,2|0,0:0|0:0,0:0:0:0:
222,314,192095,2,0,B|154:351|154:351|60:282,1,155.999992858887,2|2,3:2|0:0,0:0:0:0:
297,366,192442,1,2,0:0:0:0:
393,223,192557,2,0,P|429:281|417:352,1,116.999994644165,10|0,0:0|0:0,0:0:0:0:
411,343,192788,2,0,P|460:359|508:371,1,77.9999964294435,2|10,0:0|0:0,0:0:0:0:
269,206,193019,2,0,B|254:180|254:180|298:93|298:93|277:52,2,155.999992858887,6|0|8,3:2|0:0|0:0,0:0:0:0:
213,278,193711,5,10,0:0:0:0:
367,189,193826,1,8,0:0:0:0:
140,190,193942,2,0,P|92:178|49:164,1,77.9999964294435,2|8,3:2|0:0,0:0:0:0:
303,346,194172,2,0,P|248:365|209:387,1,77.9999964294435,0|10,0:0|0:0,0:0:0:0:
422,285,194403,5,10,0:0:0:0:
332,113,194519,1,8,0:0:0:0:
295,255,194634,5,10,0:0:0:0:
497,148,194749,1,8,0:0:0:0:
195,170,194865,6,0,B|110:148|132:201|31:160,1,155.999992858887,6|0,3:2|0:0,0:0:0:0:
42,164,195326,2,0,P|59:83|79:10,1,155.999992858887,10|0,0:0|0:0,0:0:0:0:
75,278,195672,1,2,0:0:0:0:
35,361,195788,2,0,P|4:342|0:277,1,77.9999964294435,2|0,3:2|0:0,0:0:0:0:
163,222,196019,2,0,P|184:262|148:312,1,77.9999964294435,2|0,0:0|0:0,0:0:0:0:
121,355,196249,2,0,B|172:332|172:332|203:343|203:343|272:310,1,155.999992858887,10|2,0:0|0:0,0:0:0:0:
380,190,196711,6,0,B|323:164|323:164|319:157|319:157|430:92,1,155.999992858887,2|0,3:2|0:0,0:0:0:0:
392,113,197172,2,0,B|406:203|451:188|456:287,1,155.999992858887,10|2,0:0|0:0,0:0:0:0:
440,301,197519,1,0,0:0:0:0:
187,337,197634,2,0,P|189:293|246:283,1,77.9999964294435,0|0,3:2|0:0,0:0:0:0:
125,148,197865,2,0,P|162:112|204:145,1,77.9999964294435,8|0,3:2|0:0,0:0:0:0:
262,16,198095,2,0,P|292:39|297:84,1,77.9999964294435,10|0,3:2|0:0,0:0:0:0:
330,204,198326,5,10,0:0:0:0:
330,204,198442,1,10,0:0:0:0:
358,294,198557,1,6,3:2:0:0:
246,202,198672,1,2,0:0:0:0:
414,162,198788,2,0,P|472:155|523:155,1,77.9999964294435,2|2,0:0|0:0,0:0:0:0:
512,0,199019,2,0,P|455:49|371:34,1,155.999992858887,10|2,0:0|0:0,0:0:0:0:
282,112,199365,1,2,0:0:0:0:
146,175,199480,6,0,B|130:128|130:128|105:114|105:114|89:71,1,116.999994644165,2|0,3:2|0:0,0:0:0:0:
92,78,199711,2,0,P|30:61|1:55,1,77.9999964294435,2|0,3:2|0:0,0:0:0:0:
119,285,199942,2,0,P|94:334|76:367,1,77.9999964294435,10|0,0:0|0:0,0:0:0:0:
73,216,200172,2,0,P|38:226|-5:244,1,77.9999964294435,2|8,0:0|0:0,0:0:0:0:
259,177,200403,6,0,P|306:194|359:214,1,77.9999964294435,2|0,3:2|0:0,0:0:0:0:
242,305,200634,2,0,P|293:326|329:342,1,77.9999964294435,2|0,0:0|0:0,0:0:0:0:
390,67,200865,2,0,P|424:112|403:146,1,77.9999964294435,10|0,0:0|0:0,0:0:0:0:
196,239,201095,2,0,P|167:209|177:154,1,77.9999964294435,2|8,0:0|0:0,0:0:0:0:
270,0,201326,5,0,3:2:0:0:
259,177,201442,1,8,0:0:0:0:
95,117,201557,1,10,3:2:0:0:
95,117,201788,1,10,3:2:0:0:
95,117,202019,1,10,0:0:0:0:
281,84,202134,1,8,0:0:0:0:
56,199,202249,6,0,P|42:120|23:31,1,155.999992858887,6|0,3:2|0:0,0:0:0:0:
26,45,202711,2,0,B|61:38|94:12|94:12|144:28|191:31,1,155.999992858887,8|2,0:0|0:0,0:0:0:0:
218,300,203057,1,0,0:0:0:0:
314,215,203172,2,0,B|241:185|242:252|155:208,1,155.999992858887,2|0,3:2|0:0,0:0:0:0:
140,194,203519,1,2,0:0:0:0:
344,306,203634,2,0,P|390:328|432:346,1,77.9999964294435,10|0,0:0|0:0,0:0:0:0:
342,180,203865,2,0,P|358:131|381:83,1,77.9999964294435,2|8,0:0|0:0,0:0:0:0:
87,106,204095,6,0,P|42:175|61:268,1,155.999992858887,2|0,3:2|0:0,0:0:0:0:
48,245,204557,2,0,B|131:227|115:273|203:248,1,155.999992858887,10|0,0:0|0:0,0:0:0:0:
84,334,204903,1,0,0:0:0:0:
195,343,205019,2,0,P|247:361|277:375,1,77.9999964294435,2|0,3:2|0:0,0:0:0:0:
243,155,205249,2,0,P|257:112|257:65,1,77.9999964294435,8|0,3:2|0:0,0:0:0:0:
31,77,205480,2,0,P|15:132|24:182,1,77.9999964294435,10|0,3:2|0:0,0:0:0:0:
134,82,205711,1,10,0:0:0:0:
134,82,205826,1,8,0:0:0:0:
201,249,205942,6,0,B|252:233|252:233|293:240|293:240|378:211,2,155.999992858887,6|0|10,3:2|0:0|0:0,0:0:0:0:
396,317,206519,1,0,0:0:0:0:
366,217,206634,2,0,P|349:172|334:119,1,77.9999964294435,2|0,0:0|0:0,0:0:0:0:
159,169,206865,2,0,P|169:83|220:7,1,155.999992858887,2|2,3:2|0:0,0:0:0:0:
201,249,207211,1,2,0:0:0:0:
96,229,207326,2,0,P|54:220|0:211,1,77.9999964294435,10|0,0:0|0:0,0:0:0:0:
144,319,207557,2,0,P|85:352|37:373,1,77.9999964294435,2|8,0:0|0:0,0:0:0:0:
387,298,207788,6,0,P|415:239|447:215,1,77.9999964294435,2|0,3:2|0:0,0:0:0:0:
242,225,208019,2,0,P|279:278|283:318,1,77.9999964294435,8|0,3:2|0:0,0:0:0:0:
377,135,208249,2,0,P|311:140|275:124,1,77.9999964294435,8|2,3:2|3:2,0:0:0:0:
401,312,208480,2,0,P|429:253|461:229,1,77.9999964294435,2|2,3:2|3:2,0:0:0:0:
257,52,208711,5,10,0:0:0:0:
122,119,208826,1,2,3:2:0:0:
66,32,208942,5,10,0:0:0:0:
209,119,209057,1,2,3:2:0:0:
38,178,209172,5,10,0:0:0:0:
38,178,209288,1,0,3:2:0:0:
296,133,209403,5,10,0:0:0:0:
164,39,209519,1,0,3:2:0:0:
119,205,209634,6,0,P|106:266|89:396,1,180.000006866455,2|0,3:2|0:0,0:0:0:0:
400,332,211480,6,0,B|397:292|431:280|431:280|441:283|441:283|497:264|484:194,1,155.999992858887,4|2,3:2|0:0,0:0:0:0:
458,197,211826,1,2,0:0:0:0:
329,203,211942,2,0,B|276:220|247:274|247:274|279:283|289:324,1,155.999992858887,10|2,0:0|0:0,0:0:0:0:
395,125,212288,2,0,B|306:101|317:152|227:100,1,155.999992858887,2|2,0:0|0:0,0:0:0:0:
151,125,212634,2,0,L|134:46,1,77.9999964294435,2|2,0:0|0:0,0:0:0:0:
99,215,212865,2,0,P|40:234|36:275,1,77.9999964294435,10|2,0:0|0:0,0:0:0:0:
93,309,213095,2,0,P|83:348|108:380,1,77.9999964294435,2|10,0:0|0:0,0:0:0:0:
267,350,213326,5,2,3:2:0:0:
319,253,213442,1,2,0:0:0:0:
244,277,213557,1,2,0:0:0:0:
338,329,213672,1,2,0:0:0:0:
460,249,213788,5,10,0:0:0:0:
416,177,213904,1,2,0:0:0:0:
403,236,214019,1,2,0:0:0:0:
473,193,214134,1,2,0:0:0:0:
426,84,214249,5,2,3:2:0:0:
376,67,214365,1,2,0:0:0:0:
393,100,214480,1,10,3:2:0:0:
409,52,214595,1,2,0:0:0:0:
303,12,214711,5,10,3:2:0:0:
263,26,214827,1,2,0:0:0:0:
291,37,214942,1,10,0:0:0:0:
276,1,215057,1,10,0:0:0:0:
166,28,215172,6,0,P|176:94|177:138,1,77.9999964294435,6|2,3:2|0:0,0:0:0:0:
37,258,215403,2,0,P|30:197|31:143,1,77.9999964294435,2|2,0:0|0:0,0:0:0:0:
266,133,215634,6,0,P|246:188|238:226,1,77.9999964294435,10|2,0:0|0:0,0:0:0:0:
34,164,215865,2,0,P|58:113|67:77,1,77.9999964294435,2|2,0:0|0:0,0:0:0:0:
331,273,216095,6,0,P|277:311|247:339,1,77.9999964294435,2|2,3:2|0:0,0:0:0:0:
0,312,216326,2,0,P|54:274|84:246,1,77.9999964294435,2|2,0:0|0:0,0:0:0:0:
409,61,216557,6,0,P|439:113|423:164,1,77.9999964294435,10|2,0:0|0:0,0:0:0:0:
197,384,216788,2,0,P|167:332|183:281,1,77.9999964294435,0|10,0:0|0:0,0:0:0:0:
244,102,217019,5,2,3:2:0:0:
324,200,217134,1,0,0:0:0:0:
219,186,217249,5,2,0:0:0:0:
348,110,217365,1,2,0:0:0:0:
155,126,217480,6,0,B|65:105|77:148|-10:111,1,155.999992858887,10|2,0:0|0:0,0:0:0:0:
110,206,217826,1,10,0:0:0:0:
247,89,217942,1,2,3:2:0:0:
99,24,218057,1,10,0:0:0:0:
207,204,218172,2,0,P|227:255|241:311,1,77.9999964294435,10|0,3:2|0:0,0:0:0:0:
345,135,218403,2,0,P|409:111|451:101,1,77.9999964294435,10|0,3:2|0:0,0:0:0:0:
332,220,218634,1,10,0:0:0:0:
454,265,218749,1,8,0:0:0:0:
300,351,218865,6,0,B|226:370|245:341|178:361,1,116.999994644165,4|0,3:2|0:0,0:0:0:0:
184,359,219095,2,0,P|137:348|100:340,1,77.9999964294435,2|2,0:0|0:0,0:0:0:0:
0,255,219326,5,10,0:0:0:0:
17,204,219442,1,2,0:0:0:0:
103,243,219557,5,2,0:0:0:0:
75,145,219673,1,2,0:0:0:0:
179,210,219788,5,2,3:2:0:0:
188,182,219903,1,2,0:0:0:0:
262,235,220019,5,2,0:0:0:0:
270,265,220134,1,2,0:0:0:0:
365,210,220249,5,10,0:0:0:0:
340,306,220365,1,2,0:0:0:0:
428,283,220480,5,2,0:0:0:0:
458,384,220595,1,10,0:0:0:0:
502,250,220711,5,2,3:2:0:0:
489,225,220826,1,2,0:0:0:0:
485,204,220942,1,2,0:0:0:0:
487,182,221057,1,2,0:0:0:0:
373,192,221172,5,10,0:0:0:0:
388,151,221287,1,2,0:0:0:0:
409,126,221403,1,2,0:0:0:0:
436,107,221518,1,2,0:0:0:0:
333,38,221634,6,0,P|379:28|419:19,1,77.9999964294435,2|2,3:2|0:0,0:0:0:0:
251,237,221865,2,0,P|195:255|151:269,1,77.9999964294435,10|2,3:2|0:0,0:0:0:0:
160,16,222095,2,0,P|174:80|178:114,1,77.9999964294435,10|2,3:2|0:0,0:0:0:0:
367,218,222326,2,0,P|346:280|342:306,1,77.9999964294435,8|8,0:0|0:0,0:0:0:0:
238,363,222557,5,2,3:2:0:0:
231,328,222672,1,2,0:0:0:0:
151,296,222788,5,2,0:0:0:0:
176,260,222903,1,2,0:0:0:0:
84,210,223019,5,10,0:0:0:0:
144,182,223134,1,2,0:0:0:0:
71,67,223249,5,2,0:0:0:0:
146,88,223365,1,2,0:0:0:0:
251,180,223480,6,0,P|293:170|350:159,1,77.9999964294435,2|2,3:2|0:0,0:0:0:0:
389,27,223711,2,0,P|402:76|413:120,1,77.9999964294435,2|2,0:0|0:0,0:0:0:0:
504,205,223942,2,0,B|511:244|471:269|471:269|456:270|456:270|405:291|434:334,1,155.999992858887,10|0,0:0|0:0,0:0:0:0:
428,348,224288,1,10,0:0:0:0:
293,240,224403,2,0,P|331:223|376:205,1,77.9999964294435,4|0,3:2|0:0,0:0:0:0:
232,99,224634,2,0,P|227:140|220:188,1,77.9999964294435,2|0,0:0|0:0,0:0:0:0:
384,116,224865,2,0,P|350:91|312:61,1,77.9999964294435,10|0,0:0|0:0,0:0:0:0:
302,154,225095,1,2,0:0:0:0:
183,254,225211,2,0,P|143:264|99:281,1,77.9999964294435,2|0,0:0|3:2,0:0:0:0:
324,324,225442,5,8,0:0:0:0:
324,324,225557,1,8,3:2:0:0:
324,324,225672,1,0,3:2:0:0:
237,365,225787,5,8,0:0:0:0:
402,284,225903,1,8,0:0:0:0:
265,246,226018,5,8,0:0:0:0:
424,368,226134,1,8,0:0:0:0:
498,240,226249,6,0,P|503:189|465:71,1,155.999992858887,6|2,3:2|0:0,0:0:0:0:
476,88,226711,2,0,B|380:74|417:141|307:108,1,155.999992858887,10|0,0:0|0:0,0:0:0:0:
260,177,227057,2,0,L|228:76,1,77.9999964294435,2|0,0:0|3:2,0:0:0:0:
267,267,227288,1,2,0:0:0:0:
171,215,227403,2,0,P|95:209|82:298,2,155.999992858887,2|10|2,0:0|0:0|0:0,0:0:0:0:
267,267,227980,1,10,0:0:0:0:
334,317,228095,6,0,B|415:300|386:335|496:308,1,155.999992858887,2|2,3:2|0:0,0:0:0:0:
488,309,228557,2,0,P|469:226|441:137,1,155.999992858887,10|0,0:0|0:0,0:0:0:0:
409,69,228903,2,0,B|385:64|385:64|358:82|358:82|317:77,1,77.9999964294435,2|0,0:0|3:2,0:0:0:0:
213,230,229134,1,2,0:0:0:0:
138,164,229249,1,10,3:2:0:0:
204,102,229365,1,2,0:0:0:0:
285,153,229480,2,0,P|297:204|306:254,1,77.9999964294435,10|0,3:2|0:0,0:0:0:0:
114,277,229711,2,0,P|98:334|88:375,1,77.9999964294435,10|8,0:0|0:0,0:0:0:0:
310,351,229942,6,0,B|364:365|364:365|404:294,1,116.999994644165,6|0,3:2|0:0,0:0:0:0:
394,311,230172,2,0,P|382:264|378:219,1,77.9999964294435,2|0,0:0|0:0,0:0:0:0:
149,115,230403,2,0,B|157:94|157:94|195:74|195:74|201:49,2,77.9999964294435,10|2|0,0:0|0:0|0:0,0:0:0:0:
94,185,230749,1,0,0:0:0:0:
218,306,230865,5,2,3:2:0:0:
218,306,230980,2,0,P|289:289|292:228,1,116.999994644165,2|0,0:0|0:0,0:0:0:0:
281,232,231211,2,0,P|273:184|276:137,1,77.9999964294435,2|8,0:0|0:0,0:0:0:0:
427,120,231442,2,0,P|407:90|383:45,1,77.9999964294435,2|0,0:0|0:0,0:0:0:0:
165,97,231672,2,0,P|145:143|134:197,1,77.9999964294435,10|0,0:0|3:2,0:0:0:0:
285,0,231903,2,0,P|299:48|327:92,1,77.9999964294435,2|0,0:0|0:0,0:0:0:0:
382,224,232134,2,0,P|437:235|475:244,1,77.9999964294435,2|8,0:0|0:0,0:0:0:0:
216,301,232365,2,0,P|285:318|383:350,1,155.999992858887,2|8,0:0|0:0,0:0:0:0:
116,299,232711,6,0,P|93:271|91:231,1,77.9999964294435,2|0,3:2|0:0,0:0:0:0:
298,34,232942,2,0,P|320:83|310:132,1,77.9999964294435,10|0,3:2|0:0,0:0:0:0:
225,88,233172,5,10,3:2:0:0:
40,147,233288,1,2,0:0:0:0:
170,199,233403,5,10,0:0:0:0:
86,52,233519,1,8,0:0:0:0:
274,185,233634,6,0,B|362:170|334:206|435:182,1,155.999992858887,6|2,3:2|0:0,0:0:0:0:
428,183,234095,2,0,B|478:128|478:128|419:51,1,155.999992858887,10|2,0:0|0:0,0:0:0:0:
274,185,234442,1,2,0:0:0:0:
303,278,234557,2,0,P|356:301|465:286,1,155.999992858887,2|2,3:2|0:0,0:0:0:0:
169,242,235019,2,0,B|86:233|107:264|0:240,1,155.999992858887,10|2,0:0|0:0,0:0:0:0:
99,165,235365,1,10,0:0:0:0:
142,77,235480,6,0,P|177:119|189:150,1,77.9999964294435,2|2,3:2|0:0,0:0:0:0:
12,221,235711,2,0,P|-8:180|-16:127,1,77.9999964294435,2|0,0:0|0:0,0:0:0:0:
281,126,235942,6,0,P|266:186|261:234,1,77.9999964294435,10|2,0:0|0:0,0:0:0:0:
68,344,236172,2,0,P|83:284|88:236,1,77.9999964294435,2|2,0:0|0:0,0:0:0:0:
393,251,236403,6,0,P|339:277|305:292,1,77.9999964294435,2|2,3:2|0:0,0:0:0:0:
78,184,236634,2,0,P|132:158|166:143,1,77.9999964294435,10|2,3:2|0:0,0:0:0:0:
331,55,236865,5,10,3:2:0:0:
263,201,236980,1,2,0:0:0:0:
388,150,237095,5,10,0:0:0:0:
218,84,237211,1,10,0:0:0:0:
472,79,237326,6,0,P|470:154|430:252,2,155.999992858887,6|2|10,3:2|0:0|0:0,0:0:0:0:
472,308,237903,1,0,0:0:0:0:
380,278,238019,2,0,P|323:266|280:260,1,77.9999964294435,2|0,0:0|0:0,0:0:0:0:
66,229,238249,6,0,B|154:208|132:246|228:215,2,155.999992858887,0|0|8,3:2|3:2|0:0,0:0:0:0:
89,306,238826,1,0,0:0:0:0:
172,136,238942,2,0,P|188:89|204:52,1,77.9999964294435,2|10,0:0|0:0,0:0:0:0:
231,227,239172,6,0,P|287:241|316:255,1,77.9999964294435,2|0,3:2|0:0,0:0:0:0:
407,142,239403,2,0,P|452:128|483:112,1,77.9999964294435,8|0,3:2|0:0,0:0:0:0:
441,294,239634,5,8,3:2:0:0:
441,294,239865,1,8,0:0:0:0:
365,346,239980,1,8,0:0:0:0:
504,357,240095,5,0,3:2:0:0:
346,258,240211,1,8,0:0:0:0:
493,218,240326,5,8,0:0:0:0:
279,320,240442,1,8,0:0:0:0:
405,175,240557,5,10,0:0:0:0:
271,124,240672,1,8,0:0:0:0:
402,46,240788,5,10,0:0:0:0:
253,201,240903,1,8,0:0:0:0:
