osu file format v14

[General]
AudioFilename: audio.mp3
AudioLeadIn: 0
PreviewTime: 166480
Countdown: 0
SampleSet: Soft
StackLeniency: 0.7
Mode: 0
LetterboxInBreaks: 0
WidescreenStoryboard: 1

[Editor]
DistanceSpacing: 1
BeatDivisor: 4
GridSize: 8
TimelineZoom: 0.3999997

[Metadata]
Title:Yappari Ame wa Furun da ne
TitleUnicode:やっぱり雨は降るんだね
Artist:TUYU
ArtistUnicode:ツユ
Creator:Seros
Version:BF's Easy
Source:
Tags:Japanese pop tsuyu pusu rei omutatsu It's Raining After All ぷす 礼衣 おむたつ kuse KuBsNia_ZhoYL_ climbx3145 irin binfhone bf too deca decaedeus rolua [paw]ochikouri
BeatmapID:2840427
BeatmapSetID:1217474

[Difficulty]
HPDrainRate:3
CircleSize:2
OverallDifficulty:3
ApproachRate:4
SliderMultiplier:1.2
SliderTickRate:1

[Events]
//Background and Video events
Video,100,"video.mp4"
0,0,"4k.jpg",0,0
//Break Periods
2,76911,90160
2,152603,165852
//Storyboard Layer 0 (Background)
//Storyboard Layer 1 (Fail)
//Storyboard Layer 2 (Pass)
//Storyboard Layer 3 (Foreground)
//Storyboard Layer 4 (Overlay)
//Storyboard Sound Samples

[TimingPoints]
1019,461.538461538462,4,2,1,50,1,0
1019,-111.111111111111,4,2,1,50,0,0
15788,-100,4,2,1,60,0,0
26865,-100,4,2,1,50,0,0
32403,-100,4,2,1,60,0,0
47172,-100,4,2,1,70,0,1
61942,-100,4,2,1,60,0,1
65634,-100,4,2,1,70,0,1
69326,-100,4,2,1,60,0,1
73019,-100,4,2,1,70,0,1
76711,-100,4,2,1,50,0,0
90557,-100,4,2,1,40,0,0
90788,-100,4,2,1,45,0,0
91019,-100,4,2,1,50,0,0
91249,-100,4,2,1,55,0,0
91480,-100,4,2,1,60,0,0
102557,-100,4,2,1,50,0,0
108095,-100,4,2,1,60,0,0
122865,-100,4,2,1,70,0,1
137634,-100,4,2,1,60,0,1
141326,-100,4,2,1,70,0,1
145019,-100,4,2,1,60,0,1
148711,-100,4,2,1,70,0,1
152403,-100,4,2,1,50,0,0
163595,-100,4,2,1,5,0,0
163711,-100,4,2,1,50,0,0
163826,-100,4,2,1,5,0,0
164403,-100,4,2,1,50,0,0
164519,-100,4,2,1,5,0,0
164634,-100,4,2,1,50,0,0
164749,-100,4,2,1,5,0,0
165326,-100,4,2,1,50,0,0
166480,-100,4,2,1,50,0,0
167172,-100,4,2,1,40,0,0
174557,-100,4,2,1,60,0,0
178711,-100,4,2,1,70,0,0
180095,-100,4,2,1,80,0,1
194865,-100,4,2,1,70,0,1
198557,-100,4,2,1,80,0,1
202249,-100,4,2,1,70,0,1
205942,-100,4,2,1,80,0,1
209634,-100,4,2,1,50,0,1
211480,-100,4,2,1,70,0,0
226249,-100,4,2,1,60,0,0
229942,-100,4,2,1,70,0,0
233634,-100,4,2,1,60,0,0
237326,-100,4,2,1,70,0,0
241019,-100,4,2,1,50,0,0

[Colours]
Combo1 : 226,223,109
Combo2 : 210,91,136
Combo3 : 198,117,186
Combo4 : 111,206,149

[HitObjects]
363,90,1019,6,0,B|362:159|387:191|387:191|363:226|365:298,1,215.999993408203,0|2,3:2|3:2,0:0:0:0:
257,308,2403,1,2,3:2:0:0:
149,294,2865,2,0,B|150:225|125:193|125:193|149:158|147:86,1,215.999993408203,2|2,3:2|3:2,0:0:0:0:
358,42,4711,6,0,B|411:75|429:121|429:121|375:154|324:143,1,215.999993408203,2|2,3:2|3:2,0:0:0:0:
219,127,6095,1,2,3:2:0:0:
112,110,6557,2,0,B|53:97|11:135|11:135|45:182|51:249,1,215.999993408203,2|2,3:2|3:2,0:0:0:0:
225,359,8403,6,0,B|240:304|210:257|210:257|231:143,1,215.999993408203,2|2,3:2|3:2,0:0:0:0:
295,57,9788,1,2,3:2:0:0:
398,13,10249,2,0,B|383:68|413:115|413:115|392:229,1,215.999993408203,2|2,3:2|3:2,0:0:0:0:
224,357,12095,6,0,P|164:363|104:351,1,107.999996704102,6|10,3:2|3:2,0:0:0:0:
45,274,13019,2,0,P|41:216|57:153,1,107.999996704102,2|10,3:2|3:2,0:0:0:0:
116,81,13942,1,6,3:2:0:0:
498,371,15788,6,0,B|509:312|509:312|498:249,1,120,2|2,3:2|3:2,0:0:0:0:
394,193,16711,2,0,B|383:134|383:134|394:71,1,120,2|2,3:2|3:2,0:0:0:0:
497,15,17634,2,0,B|442:35|390:38|390:38|312:28|236:37,1,240,2|2,3:2|3:2,0:0:0:0:
151,86,19019,1,2,3:2:0:0:
44,30,19480,6,0,B|25:86|25:86|45:144,1,120,2|2,3:2|3:2,0:0:0:0:
152,197,20403,2,0,B|171:253|171:253|151:311,1,120,2|2,3:2|3:2,0:0:0:0:
43,364,21326,2,0,L|35:234,2,120,2|2|2,3:2|3:2|3:2,0:0:0:0:
151,310,22711,1,2,3:2:0:0:
258,362,23172,6,0,B|316:379|316:379|356:368|380:330,1,120,2|2,3:2|3:2,0:0:0:0:
477,303,24095,2,0,B|494:245|494:245|483:205|445:181,1,120,2|2,3:2|3:2,0:0:0:0:
358,136,25019,1,2,3:2:0:0:
275,222,25480,1,2,3:2:0:0:
174,156,25942,2,0,B|136:148|136:148|98:166|98:166|60:158,1,120,2|2,3:2|3:2,0:0:0:0:
13,47,26865,6,0,B|48:24|98:30|98:30|129:45|129:45|195:35,1,180,6|2,3:2|0:0,0:0:0:0:
294,87,28019,2,0,L|353:94,1,60,2|10,3:2|3:2,0:0:0:0:
459,36,28711,6,0,P|476:74|461:154,1,120,6|0,3:2|3:2,0:0:0:0:
358,207,29634,2,0,P|342:256|363:325,1,120,2|0,3:2|3:2,0:0:0:0:
470,365,30557,2,0,L|471:301,1,60,2|2,3:2|0:0,0:0:0:0:
484,185,31249,2,0,B|423:194|370:163|370:163|304:174,1,180,2|2,0:0|3:2,0:0:0:0:
205,233,32403,6,0,P|151:222|84:269,1,120,6|8,3:2|3:2,0:0:0:0:
41,358,33326,1,2,3:2:0:0:
159,377,33788,1,10,3:2:0:0:
270,333,34249,2,0,B|365:342|365:342|406:333,2,120,2|10|2,3:2|3:2|3:2,0:0:0:0:
205,233,35634,1,8,3:2:0:0:
282,141,36095,6,0,P|295:101|271:20,1,120,6|10,3:2|3:2,0:0:0:0:
157,12,37019,2,0,P|141:56|150:133,1,120,2|10,3:2|3:2,0:0:0:0:
205,233,37942,2,0,B|213:274|213:274|186:358,1,120,2|10,3:2|3:2,0:0:0:0:
70,366,38865,1,2,3:2:0:0:
39,249,39326,1,10,3:2:0:0:
7,133,39788,6,0,L|144:112,1,120,6|10,3:2|3:2,0:0:0:0:
242,143,40711,1,10,3:2:0:0:
334,67,41172,1,10,3:2:0:0:
445,110,41634,2,0,P|464:168|454:252,1,120,10|10,3:2|3:2,0:0:0:0:
380,314,42557,2,0,L|370:374,2,60,10|2|10,3:2|3:2|3:2,0:0:0:0:
276,253,43480,6,0,B|214:225|163:265|163:265|154:331,1,180,6|2,3:2|0:0,0:0:0:0:
41,362,44634,2,0,L|33:281,1,60,0|10,3:2|3:2,0:0:0:0:
0,187,45326,2,0,B|29:197|29:197|62:183|62:183|114:194|166:172|191:125|183:82,1,240,6|0,3:2|3:2,0:0:0:0:
407,6,47172,5,6,3:2:0:0:
475,104,47634,2,0,P|435:122|344:109,1,120,10|2,0:0|3:2,0:0:0:0:
263,45,48557,1,10,0:0:0:0:
178,130,49019,2,0,B|165:193|188:248|188:248|223:254|253:245,1,180,2|2,3:2|0:0,0:0:0:0:
363,215,50172,2,0,P|401:217|429:228,1,60,8|10,3:2|3:2,0:0:0:0:
494,320,50865,6,0,L|373:333,1,120,6|10,3:2|0:0,0:0:0:0:
262,376,51788,1,2,3:2:0:0:
168,300,52249,1,10,0:0:0:0:
62,357,52711,2,0,P|48:318|48:284,1,60,2|2,3:2|0:0,0:0:0:0:
107,196,53403,2,0,P|113:135|17:161,1,180,2|10,0:0|3:2,0:0:0:0:
26,262,54557,6,0,P|71:295|155:288,1,120,6|8,3:2|0:0,0:0:0:0:
239,241,55480,1,2,3:2:0:0:
343,299,55942,1,10,0:0:0:0:
441,230,56403,2,0,B|449:138|449:138|431:105,2,120,2|10|2,3:2|0:0|3:2,0:0:0:0:
455,349,57788,1,10,3:2:0:0:
335,347,58249,5,6,3:2:0:0:
245,266,58711,2,0,P|179:253|118:288,1,120,10|2,0:0|3:2,0:0:0:0:
62,370,59634,1,10,0:0:0:0:
3,265,60095,2,0,L|12:120,1,120,6|8,3:2|0:0,0:0:0:0:
23,25,61019,1,2,3:2:0:0:
196,190,61942,5,6,3:2:0:0:
252,84,62403,2,0,P|194:71|133:88,1,120,10|2,0:0|3:2,0:0:0:0:
77,190,63326,1,10,0:0:0:0:
136,294,63788,2,0,B|184:317|228:304|228:304|268:318|268:318|312:307,1,180,2|2,3:2|0:0,0:0:0:0:
428,322,64942,2,0,L|424:260,1,60,10|10,0:0|3:2,0:0:0:0:
347,169,65634,6,0,P|332:108|355:34,1,120,6|10,3:2|0:0,0:0:0:0:
450,109,66557,1,2,3:2:0:0:
466,228,67019,1,10,0:0:0:0:
360,284,67480,2,0,P|409:332|468:347,2,120,2|10|2,3:2|0:0|3:2,0:0:0:0:
322,169,68865,1,10,3:2:0:0:
241,79,69326,6,0,P|197:60|120:64,1,120,6|8,3:2|0:0,0:0:0:0:
32,137,70249,2,0,B|16:204|16:204|34:274,1,120,2|10,3:2|0:0,0:0:0:0:
123,327,71172,2,0,B|166:334|166:334|207:319|207:319|249:327,2,120,2|10|2,3:2|0:0|3:2,0:0:0:0:
28,253,72557,1,10,3:2:0:0:
121,177,73019,5,6,3:2:0:0:
232,220,73480,2,0,P|305:224|366:196,1,120,10|2,0:0|3:2,0:0:0:0:
425,115,74403,1,10,0:0:0:0:
361,12,74865,1,2,3:2:0:0:
256,192,75095,12,4,76711,3:2:0:0:
0,364,91480,6,0,B|54:379|54:379|122:364,1,120,6|2,3:2|3:2,0:0:0:0:
151,250,92403,2,0,B|205:235|205:235|273:250,1,120,2|2,3:2|3:2,0:0:0:0:
352,333,93326,2,0,B|392:302|401:227|368:181|368:181|345:145|357:102,1,240,2|2,3:2|3:2,0:0:0:0:
434,20,94711,1,2,3:2:0:0:
504,116,95172,6,0,B|518:177|518:177|505:240,1,120,2|2,3:2|3:2,0:0:0:0:
425,322,96095,2,0,B|371:340|371:340|311:324,1,120,0|2,3:2|3:2,0:0:0:0:
223,240,97018,2,0,P|172:223|92:231,2,120,2|2|2,3:2|3:2|3:2,0:0:0:0:
198,357,98403,1,2,3:2:0:0:
78,360,98864,6,0,B|69:330|69:330|83:281|75:236,1,120,2|2,3:2|3:2,0:0:0:0:
46,125,99788,2,0,B|76:116|76:116|125:130|170:122,1,120,2|2,3:2|3:2,0:0:0:0:
275,78,100711,1,2,3:2:0:0:
390,110,101172,1,2,3:2:0:0:
489,42,101634,2,0,B|508:83|508:83|509:125|509:125|494:165,1,120,2|2,3:2|3:2,0:0:0:0:
402,228,102557,6,0,B|342:243|285:210|285:210|222:233,1,180,2|2,3:2|0:0,0:0:0:0:
147,142,103711,2,0,L|208:117,1,60,2|10,3:2|3:2,0:0:0:0:
305,56,104403,6,0,P|322:94|307:174,1,120,6|0,3:2|3:2,0:0:0:0:
210,237,105326,2,0,P|194:286|215:355,1,120,2|0,3:2|3:2,0:0:0:0:
330,369,106249,2,0,L|396:356,1,60,2|2,3:2|0:0,0:0:0:0:
508,347,106941,2,0,P|505:286|504:145,1,180,2|2,0:0|3:2,0:0:0:0:
465,53,108095,6,0,P|423:84|343:83,1,120,6|8,3:2|3:2,0:0:0:0:
239,61,109018,1,2,3:2:0:0:
122,31,109480,1,10,3:2:0:0:
43,121,109941,2,0,B|43:212|43:212|22:250,2,120,2|10|2,3:2|3:2|3:2,0:0:0:0:
159,149,111326,1,8,3:2:0:0:
239,61,111787,6,0,P|308:45|372:64,1,120,2|10,3:2|3:2,0:0:0:0:
442,138,112711,2,0,P|457:194|440:258,1,120,2|10,3:2|3:2,0:0:0:0:
338,312,113634,2,0,B|311:307|311:307|199:320,1,120,2|10,3:2|3:2,0:0:0:0:
112,372,114557,1,2,3:2:0:0:
24,289,115018,1,10,3:2:0:0:
98,194,115480,6,0,P|168:199|236:184,1,120,6|8,3:2|3:2,0:0:0:0:
291,96,116403,1,10,3:2:0:0:
196,21,116864,1,10,3:2:0:0:
76,34,117326,2,0,P|31:81|18:144,1,120,10|10,3:2|3:2,0:0:0:0:
106,213,118249,2,0,L|184:205,2,60,10|2|10,3:2|3:2|3:2,0:0:0:0:
38,312,119172,6,0,B|35:359|35:359|68:348|100:360|100:360|128:368|169:354,1,180,6|2,3:2|0:0,0:0:0:0:
255,275,120326,2,0,P|280:270|327:274,1,60,0|10,3:2|3:2,0:0:0:0:
419,330,121019,2,0,B|450:338|481:318|485:278|455:254|455:254|458:232|458:232|450:209|450:209|455:182|455:182|442:160|442:160|449:130,1,240,6|0,3:2|3:2,0:0:0:0:
247,6,122864,5,6,3:2:0:0:
165,93,123326,2,0,P|150:141|165:214,1,120,10|2,0:0|3:2,0:0:0:0:
260,277,124249,1,10,0:0:0:0:
341,189,124711,2,0,B|411:172|453:212|453:212|446:301,1,180,2|2,3:2|0:0,0:0:0:0:
386,374,125864,2,0,P|346:375|299:369,1,60,8|10,3:2|3:2,0:0:0:0:
229,301,126557,6,0,B|210:296|184:308|184:308|163:302|163:302|139:314|110:306,1,120,6|8,3:2|0:0,0:0:0:0:
18,232,127480,1,2,3:2:0:0:
106,151,127941,1,10,0:0:0:0:
10,77,128403,2,0,P|32:52|61:37,1,60,2|2,3:2|0:0,0:0:0:0:
175,34,129095,2,0,B|231:43|286:37|286:37|360:78,1,180,2|10,0:0|3:2,0:0:0:0:
460,33,130249,6,0,L|461:154,1,120,6|8,3:2|0:0,0:0:0:0:
401,257,131172,1,2,3:2:0:0:
301,189,131634,1,10,0:0:0:0:
228,284,132095,2,0,B|133:305|133:305|107:330,2,120,2|10|2,3:2|0:0|3:2,0:0:0:0:
327,352,133480,1,10,3:2:0:0:
401,257,133941,5,6,3:2:0:0:
301,189,134403,2,0,P|289:141|325:56,1,120,10|2,0:0|3:2,0:0:0:0:
406,5,135326,1,10,0:0:0:0:
496,83,135787,2,0,L|486:211,1,120,6|8,3:2|0:0,0:0:0:0:
471,322,136711,1,2,3:2:0:0:
234,362,137634,5,6,3:2:0:0:
149,276,138095,2,0,P|139:239|164:152,1,120,10|2,0:0|3:2,0:0:0:0:
233,68,139018,1,10,0:0:0:0:
324,145,139480,2,0,B|371:182|439:171|439:171|481:223,1,180,2|2,3:2|0:0,0:0:0:0:
511,331,140634,2,0,P|468:335|437:330,1,60,8|10,3:2|3:2,0:0:0:0:
341,284,141326,6,0,P|283:276|206:304,1,120,6|8,3:2|0:0,0:0:0:0:
135,372,142249,1,2,3:2:0:0:
17,347,142711,1,10,0:0:0:0:
6,227,143172,2,0,P|5:160|12:92,2,120,2|10|0,3:2|0:0|3:2,0:0:0:0:
123,252,144557,1,10,3:2:0:0:
207,167,145018,6,0,P|216:118|199:49,1,120,6|8,3:2|0:0,0:0:0:0:
83,18,145942,2,0,P|73:84|92:149,1,120,2|10,3:2|0:0,0:0:0:0:
123,252,146864,2,0,B|133:310|133:310|119:373,2,120,2|10|2,3:2|0:0|3:2,0:0:0:0:
4,230,148249,1,10,3:2:0:0:
20,111,148711,5,6,3:2:0:0:
138,129,149172,2,0,P|209:124|272:105,1,120,10|2,0:0|3:2,0:0:0:0:
362,56,150095,1,10,0:0:0:0:
474,99,150557,1,2,3:2:0:0:
256,192,150787,12,4,152403,3:2:0:0:
0,66,167172,6,0,P|118:73|239:68,1,240,2|2,1:2|1:2,0:0:0:0:
352,27,168557,1,2,1:2:0:0:
438,110,169019,2,0,P|480:174|510:286,2,180,2|2|2,1:2|1:2|1:2,0:0:0:0:
322,143,170865,6,0,B|253:170|188:161|188:161|126:154|85:184,1,240,2|2,1:2|1:2,0:0:0:0:
14,275,172249,1,2,1:2:0:0:
94,364,172711,2,0,P|157:371|223:372,2,120,2|0|2,1:2|1:2|0:0,0:0:0:0:
162,265,174095,1,2,0:0:0:0:
259,194,174557,6,0,P|329:190|402:196,1,120,4|0,3:2|3:2,0:0:0:0:
490,237,175480,1,2,3:2:0:0:
487,357,175942,1,2,3:2:0:0:
368,372,176403,2,0,L|233:354,2,120,2|2|2,3:2|3:2|3:2,0:0:0:0:
414,261,177788,1,2,3:2:0:0:
459,150,178249,5,2,3:2:0:0:
365,74,178711,2,0,P|314:61|232:86,1,120,0|2,3:2|3:2,0:0:0:0:
60,223,180095,5,6,3:2:0:0:
165,280,180557,2,0,P|239:289|286:271,1,120,10|2,0:0|3:2,0:0:0:0:
366,189,181480,1,10,0:0:0:0:
299,88,181942,2,0,P|234:66|115:95,1,180,2|2,3:2|0:0,0:0:0:0:
65,190,183095,2,0,P|64:226|66:262,1,60,8|10,3:2|3:2,0:0:0:0:
143,341,183788,6,0,P|204:353|273:323,1,120,6|10,3:2|0:0,0:0:0:0:
344,252,184711,1,2,3:2:0:0:
365,134,185172,1,10,0:0:0:0:
441,41,185634,2,0,P|466:77|479:110,1,60,2|2,3:2|0:0,0:0:0:0:
463,212,186326,2,0,B|457:244|466:272|466:272|477:316|439:358|396:360,1,180,2|10,0:0|3:2,0:0:0:0:
296,305,187480,6,0,P|261:306|168:312,1,120,6|8,3:2|0:0,0:0:0:0:
68,364,188403,1,2,3:2:0:0:
5,261,188865,1,10,0:0:0:0:
41,146,189326,2,0,B|43:50|43:50|31:21,2,120,2|10|2,3:2|0:0|3:2,0:0:0:0:
127,229,190711,1,10,3:2:0:0:
244,205,191172,5,6,3:2:0:0:
361,179,191634,2,0,P|421:177|480:185,1,120,10|2,0:0|3:2,0:0:0:0:
511,301,192557,1,10,0:0:0:0:
411,367,193018,2,0,P|346:379|282:370,1,120,6|8,3:2|0:0,0:0:0:0:
194,303,193942,1,2,3:2:0:0:
341,113,194865,5,6,3:2:0:0:
247,38,195326,2,0,P|189:25|128:42,1,120,10|2,0:0|3:2,0:0:0:0:
45,123,196249,1,10,0:0:0:0:
103,228,196711,2,0,P|181:246|300:227,1,180,2|2,3:2|0:0,0:0:0:0:
373,159,197865,2,0,L|373:98,1,60,8|10,3:2|3:2,0:0:0:0:
481,46,198557,6,0,L|483:176,1,120,6|10,3:2|0:0,0:0:0:0:
467,285,199480,1,2,3:2:0:0:
355,329,199942,1,10,0:0:0:0:
238,301,200403,2,0,P|183:304|97:329,2,120,2|10|0,3:2|0:0|3:2,0:0:0:0:
317,210,201788,1,10,3:2:0:0:
262,103,202249,6,0,P|203:92|134:112,1,120,6|8,3:2|0:0,0:0:0:0:
56,186,203172,2,0,P|39:245|58:323,1,120,2|10,3:2|0:0,0:0:0:0:
147,369,204095,2,0,B|182:377|207:369|207:369|241:358|266:368,2,120,2|10|2,3:2|0:0|3:2,0:0:0:0:
170,251,205480,1,10,3:2:0:0:
288,231,205942,5,6,3:2:0:0:
381,305,206403,2,0,P|443:292|492:249,1,120,10|2,0:0|3:2,0:0:0:0:
509,139,207326,1,10,0:0:0:0:
466,26,207788,1,2,3:2:0:0:
256,192,208018,12,2,209634,3:2:0:0:
466,26,211480,6,0,L|321:49,1,120,4|10,3:2|0:0,0:0:0:0:
302,156,212403,2,0,L|166:143,1,120,0|10,3:2|0:0,0:0:0:0:
99,57,213326,1,2,3:2:0:0:
6,133,213788,1,10,0:0:0:0:
18,252,214249,1,2,3:2:0:0:
32,371,214711,1,10,3:2:0:0:
151,356,215172,6,0,L|278:343,1,120,6|10,3:2|0:0,0:0:0:0:
346,250,216095,2,0,L|336:131,1,120,2|10,3:2|0:0,0:0:0:0:
265,32,217019,1,2,3:2:0:0:
145,40,217480,1,10,0:0:0:0:
69,133,217942,2,0,L|77:265,1,120,2|10,3:2|3:2,0:0:0:0:
168,330,218865,5,4,3:2:0:0:
268,265,219326,2,0,L|397:271,2,120,10|2|10,0:0|3:2|0:0,0:0:0:0:
195,169,220711,1,2,3:2:0:0:
123,72,221172,2,0,L|1:78,2,120,10|2|10,0:0|3:2|3:2,0:0:0:0:
235,30,222557,6,0,P|296:26|353:51,1,120,2|10,3:2|0:0,0:0:0:0:
399,157,223480,2,0,P|389:200|410:274,1,120,2|10,3:2|0:0,0:0:0:0:
497,352,224403,1,4,3:2:0:0:
17,358,226249,6,0,P|6:308|23:230,1,120,6|10,3:2|0:0,0:0:0:0:
173,57,227634,1,10,0:0:0:0:
234,159,228095,2,0,P|192:176|102:152,1,120,2|10,3:2|0:0,0:0:0:0:
316,25,229480,1,10,3:2:0:0:
407,103,229942,6,0,P|432:159|436:242,1,120,6|10,3:2|0:0,0:0:0:0:
408,333,230865,1,2,3:2:0:0:
292,302,231326,2,0,P|230:307|168:318,2,120,8|0|8,0:0|3:2|0:0,0:0:0:0:
296,181,232711,1,2,3:2:0:0:
176,187,233172,1,8,3:2:0:0:
58,161,233634,6,0,P|39:98|59:38,1,120,6|10,3:2|0:0,0:0:0:0:
170,22,234557,2,0,L|295:27,1,120,2|10,3:2|0:0,0:0:0:0:
402,68,235480,2,0,B|464:59|464:59|501:118|468:191,1,180,2|2,3:2|0:0,0:0:0:0:
404,268,236634,2,0,L|406:343,1,60,10|10,3:2|3:2,0:0:0:0:
294,373,237326,5,6,3:2:0:0:
229,271,237788,1,10,0:0:0:0:
291,168,238249,2,0,P|294:94|279:49,1,120,0|8,3:2|0:0,0:0:0:0:
161,32,239172,2,0,P|70:62|158:122,1,240,2|0,3:2|3:2,0:0:0:0:
365,26,241019,5,2,3:2:0:0:
451,109,241480,2,0,P|399:139|316:136,1,120,2|2,0:0|0:0,0:0:0:0:
225,107,242403,1,2,0:0:0:0:
187,221,242865,1,2,0:0:0:0:
