osu file format v14

[General]
AudioFilename: audio.mp3
AudioLeadIn: 0
PreviewTime: 166480
Countdown: 0
SampleSet: Soft
StackLeniency: 0.7
Mode: 0
LetterboxInBreaks: 0
WidescreenStoryboard: 0

[Editor]
Bookmarks: 13942,15788,32403,38634,47172,76711,91480,108095,122865,152403,167172,180095,209634,211480,226249,241019
DistanceSpacing: 0.1
BeatDivisor: 8
GridSize: 8
TimelineZoom: 3.999998

[Metadata]
Title:Yappari Ame wa Furun da ne
TitleUnicode:やっぱり雨は降るんだね
Artist:TUYU
ArtistUnicode:ツユ
Creator:Seros
Version:Ame
Source:
Tags:Japanese pop tsuyu pusu rei omutatsu It's Raining After All ぷす 礼衣 おむたつ kuse KuBsNia_ZhoYL_ climbx3145 irin binfhone bf too deca decaedeus rolua [paw]ochikouri
BeatmapID:2533116
BeatmapSetID:1217474

[Difficulty]
HPDrainRate:5
CircleSize:4
OverallDifficulty:9
ApproachRate:9.5
SliderMultiplier:2.5
SliderTickRate:1

[Events]
//Background and Video events
Video,100,"video.mp4"
0,0,"4k.jpg",0,0
//Break Periods
2,152865,162430
//Storyboard Layer 0 (Background)
//Storyboard Layer 1 (Fail)
//Storyboard Layer 2 (Pass)
//Storyboard Layer 3 (Foreground)
//Storyboard Layer 4 (Overlay)
//Storyboard Sound Samples

[TimingPoints]
1019,461.538461538462,4,2,1,50,1,0
9442,-100,4,2,1,5,0,0
9557,-100,4,2,1,50,0,0
9672,-100,4,2,1,5,0,0
9788,-100,4,2,1,50,0,0
9903,-100,4,2,1,5,0,0
10019,-100,4,2,1,50,0,0
12095,-111.111111111111,4,2,1,50,0,0
12557,-100,4,2,1,50,0,0
13019,-111.111111111111,4,2,1,50,0,0
14634,-200,4,2,1,50,0,0
15326,-111.111111111111,4,2,1,50,0,0
15788,-90.9090909090909,4,2,1,60,0,0
26865,-200,4,2,1,50,0,0
27326,-83.3333333333333,4,2,1,50,0,0
27788,-200,4,2,1,50,0,0
28249,-83.3333333333333,4,2,1,50,0,0
28711,-125,4,2,1,50,0,0
32403,-83.3333333333333,4,2,1,60,0,0
39788,-100,4,2,1,60,0,0
41634,-83.3333333333333,4,2,1,60,0,0
47172,-76.9230769230769,4,2,1,70,0,1
61942,-76.9230769230769,4,2,1,60,0,0
65634,-76.9230769230769,4,2,1,70,0,1
69326,-76.9230769230769,4,2,1,60,0,0
73019,-76.9230769230769,4,2,1,70,0,1
76711,-133.333333333333,4,2,1,50,0,0
90557,-100,4,2,1,40,0,0
90788,-100,4,2,1,45,0,0
91019,-100,4,2,1,50,0,0
91249,-100,4,2,1,55,0,0
91480,-90.9090909090909,4,2,1,60,0,0
102557,-200,4,2,1,50,0,0
103019,-83.3333333333333,4,2,1,50,0,0
103480,-200,4,2,1,50,0,0
103942,-83.3333333333333,4,2,1,50,0,0
104403,-125,4,2,1,50,0,0
108095,-83.3333333333333,4,2,1,60,0,0
115480,-100,4,2,1,60,0,0
117326,-83.3333333333333,4,2,1,60,0,0
122865,-76.9230769230769,4,2,1,70,0,1
137634,-76.9230769230769,4,2,1,60,0,0
141326,-76.9230769230769,4,2,1,70,0,1
145019,-76.9230769230769,4,2,1,60,0,0
148711,-76.9230769230769,4,2,1,70,0,1
152403,-100,4,2,1,50,0,0
163480,-100,4,2,1,50,0,0
163595,-100,4,2,1,5,0,0
163711,-100,4,2,1,50,0,0
163826,-100,4,2,1,5,0,0
164403,-100,4,2,1,50,0,0
164519,-100,4,2,1,5,0,0
164634,-100,4,2,1,50,0,0
164749,-100,4,2,1,5,0,0
165326,-100,4,2,1,50,0,0
166711,-66.6666666666667,4,2,1,50,0,0
167172,-100,4,2,1,40,0,0
173634,-200,4,2,1,40,0,0
174095,-100,4,2,1,40,0,0
174557,-100,4,2,1,60,0,0
176865,-80,4,2,1,60,0,0
177326,-66.6666666666667,4,2,1,60,0,0
177788,-133.333333333333,4,2,1,60,0,0
178249,-66.6666666666667,4,2,1,60,0,0
178711,-66.6666666666667,4,2,1,70,0,0
180095,-66.6666666666667,4,2,1,80,0,1
194865,-71.4285714285714,4,2,1,70,0,0
198557,-66.6666666666667,4,2,1,80,0,1
202249,-71.4285714285714,4,2,1,70,0,0
205942,-66.6666666666667,4,2,1,80,0,1
209634,-100,4,2,1,50,0,0
211480,-76.9230769230769,4,2,1,70,0,0
226249,-76.9230769230769,4,2,1,60,0,0
229942,-76.9230769230769,4,2,1,70,0,0
233634,-76.9230769230769,4,2,1,60,0,0
237326,-76.9230769230769,4,2,1,70,0,0

[Colours]
Combo1 : 226,223,109
Combo2 : 210,91,136
Combo3 : 198,117,186
Combo4 : 111,206,149

[HitObjects]
368,237,1019,6,0,B|384:157|410:207|427:129,1,125,0|2,3:2|0:0,0:0:0:0:
435,135,1480,6,0,P|397:131|359:121,1,62.5,2|0,3:2|0:0,0:0:0:0:
292,23,1711,5,2,0:0:0:0:
292,23,1826,1,2,0:0:0:0:
216,18,1942,6,0,P|200:79|265:106,1,125,2|2,3:2|0:0,0:0:0:0:
256,110,2403,6,0,P|224:109|176:116,1,62.5,2|0,3:2|0:0,0:0:0:0:
47,219,2634,1,2,0:0:0:0:
29,291,2749,1,2,0:0:0:0:
69,355,2865,6,0,P|132:369|176:328,1,125,2|2,3:2|0:0,0:0:0:0:
173,321,3211,1,2,0:0:0:0:
156,216,3326,6,0,P|219:202|263:243,1,125,2|2,3:2|0:0,0:0:0:0:
488,374,3788,6,0,P|509:349|511:315,1,62.5,2|0,3:2|0:0,0:0:0:0:
358,336,4019,2,0,P|368:366|395:385,1,62.5,2|0,0:0|0:0,0:0:0:0:
460,245,4249,2,0,P|427:238|397:252,1,62.5,2|0,3:2|0:0,0:0:0:0:
434,317,4480,1,2,0:0:0:0:
297,267,4711,6,0,B|281:187|255:237|238:159,1,125,0|2,3:2|0:0,0:0:0:0:
237,149,5057,1,2,0:0:0:0:
127,226,5172,6,0,P|136:270|209:282,1,125,2|2,3:2|0:0,0:0:0:0:
214,275,5519,1,2,0:0:0:0:
323,137,5634,5,2,3:2:0:0:
396,124,5749,1,2,0:0:0:0:
447,179,5865,1,2,0:0:0:0:
451,187,6095,6,0,P|431:251|366:253,1,125,2|2,3:2|0:0,0:0:0:0:
369,254,6442,1,2,0:0:0:0:
323,137,6557,6,0,B|243:116|305:98|209:70,2,125,2|2|2,3:2|0:0|3:2,0:0:0:0:
443,54,7249,6,0,P|437:16|413:-6,1,62.5,2|0,0:0|0:0,0:0:0:0:
362,57,7480,5,2,3:2:0:0:
362,57,7595,1,2,0:0:0:0:
487,182,7711,2,0,P|490:150|480:107,1,62.5,2|0,0:0|0:0,0:0:0:0:
407,184,7942,2,0,P|410:152|400:109,1,62.5,2|0,3:2|0:0,0:0:0:0:
362,57,8172,1,2,0:0:0:0:
161,145,8403,6,0,P|149:207|200:246,1,125,2|2,3:2|0:0,0:0:0:0:
204,246,8749,1,2,0:0:0:0:
317,206,8865,6,0,P|328:143|277:104,1,125,2|2,3:2|0:0,0:0:0:0:
274,105,9211,1,2,0:0:0:0:
286,307,9326,6,0,L|289:370,1,62.5,2|0,3:2|0:0,0:0:0:0:
364,277,9557,2,0,L|367:340,1,62.5,2|0,0:0|0:0,0:0:0:0:
442,251,9788,2,0,L|445:314,1,62.5,2|0,3:2|0:0,0:0:0:0:
213,334,10019,5,2,0:0:0:0:
144,362,10134,1,2,0:0:0:0:
77,326,10249,6,0,P|54:294|73:216,1,125,2|2,3:2|0:0,0:0:0:0:
84,210,10595,1,2,0:0:0:0:
242,163,10711,6,0,P|230:108|171:76,1,125,2|2,3:2|0:0,0:0:0:0:
161,79,11057,1,2,0:0:0:0:
148,258,11172,6,0,P|178:260|213:237,1,62.5,2|0,3:2|0:0,0:0:0:0:
261,107,11403,2,0,P|244:131|246:173,1,62.5,2|0,0:0|0:0,0:0:0:0:
333,278,11634,2,0,P|319:251|282:232,1,62.5,2|0,3:2|0:0,0:0:0:0:
165,173,11865,2,0,P|145:162|163:176,1,62.5,2|0,0:0|0:0,0:0:0:0:
171,357,12095,6,0,P|234:349|251:289,1,112.499996566773,6|2,3:2|0:0,0:0:0:0:
325,162,12557,6,0,P|381:143|438:180,1,125,10|2,3:2|0:0,0:0:0:0:
441,185,12903,1,2,0:0:0:0:
378,341,13019,6,0,B|372:220|380:341|375:220,2,112.499996566773,2|2|10,3:2|3:2|3:2,0:0:0:0:
292,234,13711,1,2,0:0:0:0:
456,381,13942,6,0,P|468:342|455:311,1,56.2499982833863,2|0,3:2|0:0,0:0:0:0:
299,241,14172,1,2,0:0:0:0:
299,241,14288,1,2,0:0:0:0:
299,241,14403,6,0,P|255:248|228:238,1,56.2499982833863,10|0,0:0|0:0,0:0:0:0:
165,168,14634,2,0,B|168:248|161:168|165:249,1,62.5,2|0,0:0|0:0,0:0:0:0:
165,242,15095,1,2,3:2:0:0:
226,112,15326,6,0,B|248:130|248:130|246:158,2,56.2499982833863,8|8|8,3:2|0:0|0:0,0:0:0:0:
63,9,15788,38,0,P|76:70|152:89,1,137.500004196167,2|2,3:2|0:0,0:0:0:0:
151,91,16249,6,0,P|99:98|63:116,1,68.7500020980836,2|0,3:2|0:0,0:0:0:0:
58,249,16480,1,2,0:0:0:0:
58,249,16595,1,2,0:0:0:0:
95,316,16711,6,0,B|150:336|181:286|181:286|176:247,2,137.500004196167,2|2|2,3:2|0:0|3:2,0:0:0:0:
118,191,17403,6,0,L|105:119,1,68.7500020980836,2|2,0:0|0:0,0:0:0:0:
118,191,17634,5,2,3:2:0:0:
191,167,17749,2,0,P|222:153|262:161,2,68.7500020980836,2|2|0,0:0|0:0|0:0,0:0:0:0:
305,224,18095,6,0,P|336:238|376:230,1,68.7500020980836,2|2,3:2|0:0,0:0:0:0:
461,191,18326,2,0,B|448:181|448:181|454:257,1,68.7500020980836,2|0,0:0|0:0,0:0:0:0:
500,300,18557,5,2,3:2:0:0:
370,362,18672,1,2,0:0:0:0:
450,365,18788,1,2,0:0:0:0:
308,310,18903,1,2,0:0:0:0:
241,351,19019,6,0,B|90:379|246:349|110:373,1,137.500004196167,2|2,3:2|0:0,0:0:0:0:
121,251,19480,6,0,P|143:314|118:377,2,137.500004196167,2|2|2,3:2|0:0|3:2,0:0:0:0:
111,240,20172,5,2,0:0:0:0:
66,177,20288,1,2,0:0:0:0:
98,104,20403,6,0,P|161:67|219:88,2,137.500004196167,2|2|2,3:2|0:0|3:2,0:0:0:0:
237,166,21095,6,0,P|284:139|293:114,1,68.7500020980836,2|2,0:0|0:0,0:0:0:0:
313,0,21326,6,0,B|327:83|360:36|375:129,1,137.500004196167,2|2,3:2|0:0,0:0:0:0:
373,133,21672,1,2,0:0:0:0:
499,2,21788,6,0,P|463:-1|428:15,1,68.7500020980836,2|0,3:2|0:0,0:0:0:0:
447,88,22019,2,0,P|481:91|516:76,1,68.7500020980836,2|0,0:0|0:0,0:0:0:0:
289,127,22249,6,0,P|287:179|312:215,1,68.7500020980836,2|0,3:2|0:0,0:0:0:0:
464,243,22480,2,0,P|466:191|441:155,1,68.7500020980836,2|0,0:0|0:0,0:0:0:0:
373,133,22711,6,0,B|382:296|370:132|378:297,1,137.500004196167,2|0,3:2|0:0,0:0:0:0:
325,384,23172,6,0,P|261:358|278:297,1,137.500004196167,2|2,3:2|0:0,0:0:0:0:
281,298,23634,6,0,P|242:303|211:297,1,68.7500020980836,2|0,3:2|0:0,0:0:0:0:
126,272,23865,1,2,0:0:0:0:
126,272,23980,1,2,0:0:0:0:
150,345,24095,6,0,B|138:388|94:398|63:378|63:378|55:342,2,137.500004196167,2|2|0,3:2|0:0|3:2,0:0:0:0:
136,193,24788,6,0,P|101:191|68:215,1,68.7500020980836,2|2,0:0|0:0,0:0:0:0:
221,219,25019,5,2,3:2:0:0:
221,219,25134,1,2,0:0:0:0:
221,219,25249,2,0,B|234:186|234:186|225:152,1,68.7500020980836,2|0,0:0|0:0,0:0:0:0:
82,113,25480,5,2,3:2:0:0:
82,113,25595,1,2,0:0:0:0:
136,54,25711,2,0,B|162:89|162:89|151:149,1,68.7500020980836,2|0,0:0|0:0,0:0:0:0:
203,297,25942,5,2,3:2:0:0:
281,276,26057,1,2,0:0:0:0:
345,204,26172,1,2,0:0:0:0:
435,226,26288,1,2,0:0:0:0:
477,308,26403,6,0,P|419:337|369:297,1,137.500004196167,2|2,3:2|0:0,0:0:0:0:
477,155,26865,6,0,L|465:73,1,62.5,2|0,3:2|0:0,0:0:0:0:
480,164,27326,6,0,B|441:151|409:176|409:176|402:185|402:185|372:212|345:204,1,149.999995422363,10|2,3:2|0:0,0:0:0:0:
248,138,27788,6,0,L|260:220,1,62.5,0|2,3:2|3:2,0:0:0:0:
243,129,28249,6,0,B|282:142|314:117|314:117|321:108|321:108|351:81|378:89,1,149.999995422363,10|2,3:2|0:0,0:0:0:0:
344,203,28711,6,0,P|344:252|345:313,1,100,6|2,3:2|0:0,0:0:0:0:
406,351,29172,5,0,3:2:0:0:
266,310,29403,1,2,0:0:0:0:
206,361,29519,1,2,0:0:0:0:
129,345,29634,6,0,P|128:295|128:245,1,100,2|2,3:2|0:0,0:0:0:0:
132,239,30095,6,0,P|71:217|37:242,1,100,0|2,3:2|0:0,0:0:0:0:
40,241,30442,1,2,0:0:0:0:
85,141,30557,5,2,3:2:0:0:
17,100,30788,2,0,P|16:49|17:1,1,100,2|0,0:0|3:2,0:0:0:0:
12,5,31249,6,0,P|53:34|101:31,1,100,2|0,0:0|3:2,0:0:0:0:
174,0,31711,5,2,0:0:0:0:
163,79,31942,6,0,P|165:126|166:178,1,100,2|2,3:2|0:0,0:0:0:0:
44,232,32403,6,0,B|133:226|95:268|189:263,1,149.999995422363,6|0,3:2|0:0,0:0:0:0:
202,262,32749,1,0,0:0:0:0:
368,151,32865,2,0,P|304:91|249:114,1,149.999995422363,8|2,3:2|0:0,0:0:0:0:
247,123,33211,1,2,0:0:0:0:
400,302,33326,6,0,P|409:254|390:201,1,74.9999977111817,2|0,3:2|0:0,0:0:0:0:
325,224,33557,2,0,P|316:272|335:325,1,74.9999977111817,0|2,3:2|0:0,0:0:0:0:
484,94,33788,2,0,P|410:84|365:148,1,149.999995422363,10|0,3:2|0:0,0:0:0:0:
368,151,34134,1,2,0:0:0:0:
178,169,34249,6,0,B|145:80|196:118|159:20,1,149.999995422363,2|0,3:2|0:0,0:0:0:0:
154,9,34595,1,2,0:0:0:0:
5,200,34711,2,0,P|6:211|118:228,1,149.999995422363,10|0,3:2|0:0,0:0:0:0:
119,226,35057,1,0,0:0:0:0:
0,47,35172,6,0,P|-1:85|17:127,1,74.9999977111817,2|0,3:2|0:0,0:0:0:0:
90,106,35403,2,0,P|91:68|73:26,1,74.9999977111817,2|0,3:2|0:0,0:0:0:0:
201,250,35634,2,0,P|268:209|261:143,1,149.999995422363,8|2,0:0|0:0,0:0:0:0:
253,134,35980,1,2,0:0:0:0:
490,9,36095,6,0,P|495:44|483:80,1,74.9999977111817,6|0,3:2|0:0,0:0:0:0:
404,72,36326,2,0,P|397:35|409:-1,1,74.9999977111817,2|0,0:0|0:0,0:0:0:0:
509,174,36557,2,0,B|428:189|438:133|345:152,1,149.999995422363,10|2,3:2|0:0,0:0:0:0:
348,154,36903,1,0,0:0:0:0:
461,325,37019,6,0,P|471:289|465:252,1,74.9999977111817,2|0,3:2|0:0,0:0:0:0:
385,244,37249,2,0,P|373:278|379:315,1,74.9999977111817,2|0,3:2|0:0,0:0:0:0:
509,174,37480,1,10,3:2:0:0:
308,365,37711,5,2,0:0:0:0:
215,280,37826,1,2,0:0:0:0:
150,383,37942,2,0,B|195:391|227:371,1,74.9999977111817,2|0,3:2|0:0,0:0:0:0:
287,289,38172,2,0,B|248:297|210:277,1,74.9999977111817,2|0,0:0|0:0,0:0:0:0:
128,212,38403,6,0,P|119:261|114:299,1,74.9999977111817,10|2,3:2|0:0,0:0:0:0:
225,186,38634,2,0,P|219:148|212:112,1,74.9999977111817,2|2,0:0|0:0,0:0:0:0:
170,44,38865,5,2,3:2:0:0:
92,34,38980,1,2,0:0:0:0:
125,134,39095,5,2,3:2:0:0:
212,112,39211,1,2,0:0:0:0:
299,87,39326,2,0,B|344:76|344:76|400:111|374:170,1,149.999995422363,10|2,3:2|0:0,0:0:0:0:
267,383,39788,6,0,P|217:350|212:290,1,125,6|0,3:2|0:0,0:0:0:0:
314,240,40249,2,0,P|360:267|369:334,1,125,8|0,3:2|3:2,0:0:0:0:
103,211,40711,5,10,3:2:0:0:
211,214,40942,1,0,3:2:0:0:
53,274,41172,5,10,3:2:0:0:
159,155,41403,1,0,3:2:0:0:
159,155,41519,1,2,0:0:0:0:
283,246,41634,6,0,B|338:263|338:263|378:209|347:171,1,149.999995422363,10|0,3:2|3:2,0:0:0:0:
307,0,42095,2,0,P|236:9|214:77,1,149.999995422363,10|0,3:2|3:2,0:0:0:0:
217,92,42442,1,2,0:0:0:0:
352,178,42557,6,0,B|264:169|296:223|193:212,2,149.999995422363,10|2|10,3:2|3:2|3:2,0:0:0:0:
405,120,43249,1,2,3:2:0:0:
448,320,43480,6,0,B|435:226|479:275|466:165,1,149.999995422363,6|0,3:2|0:0,0:0:0:0:
461,66,43942,2,0,P|427:7|342:15,1,149.999995422363,8|2,3:2|0:0,0:0:0:0:
214,98,44403,2,0,P|206:146|229:181,1,74.9999977111817,0|0,3:2|0:0,0:0:0:0:
296,163,44634,2,0,P|303:114|279:78,1,74.9999977111817,0|0,3:2|0:0,0:0:0:0:
251,25,44865,1,10,3:2:0:0:
98,241,45095,5,2,0:0:0:0:
50,178,45211,1,8,3:2:0:0:
65,105,45326,2,0,P|96:84|142:87,1,74.9999977111817,6|0,3:2|0:0,0:0:0:0:
232,306,45557,5,10,3:2:0:0:
184,243,45672,1,8,3:2:0:0:
294,93,45788,5,10,3:2:0:0:
301,258,45903,1,8,3:2:0:0:
216,168,46019,1,10,3:2:0:0:
382,145,46134,1,8,3:2:0:0:
447,282,46249,1,0,3:2:0:0:
255,245,47172,6,2,B|229:87|258:244|233:85,1,162.499992561341,6|2,3:2|0:2,0:2:0:0:
230,68,47519,1,0,0:0:0:0:
425,125,47634,2,0,P|396:188|329:146,1,162.499992561341,10|0,0:0|0:0,0:0:0:0:
329,136,47980,1,2,0:0:0:0:
112,183,48095,6,0,P|82:210|75:250,1,81.2499962806703,2|0,3:2|0:0,0:0:0:0:
201,320,48326,2,0,P|171:294|163:255,1,81.2499962806703,2|0,3:2|0:0,0:0:0:0:
149,102,48557,2,0,P|111:90|73:104,1,81.2499962806703,10|0,0:0|0:0,0:0:0:0:
228,175,48788,2,0,P|241:159|230:166,1,81.2499962806703,2|8,0:0|0:0,0:0:0:0:
388,306,49019,6,0,P|357:243|451:255,1,162.499992561341,2|0,3:2|0:0,0:0:0:0:
437,230,49365,1,0,0:0:0:0:
443,53,49480,6,0,P|397:44|340:93,1,81.2499962806703,10|0,0:0|0:0,0:0:0:0:
293,130,49711,2,0,L|282:34,1,81.2499962806703,2|0,0:0|0:0,0:0:0:0:
41,139,49942,5,0,3:2:0:0:
128,128,50057,1,0,0:0:0:0:
3,208,50172,6,0,P|0:255|14:300,1,81.2499962806703,8|0,3:2|0:0,0:0:0:0:
188,268,50403,2,0,P|193:227|183:188,1,81.2499962806703,10|0,3:2|0:0,0:0:0:0:
79,70,50634,5,10,0:0:0:0:
79,70,50749,1,10,0:0:0:0:
356,98,50865,5,6,3:2:0:0:
268,184,50980,1,2,0:0:0:0:
398,166,51095,5,2,0:0:0:0:
229,113,51211,1,2,0:0:0:0:
467,48,51326,5,10,0:0:0:0:
441,236,51442,2,0,P|483:237|518:203,1,81.2499962806703,2|0,0:0|0:0,0:0:0:0:
356,98,51672,5,2,0:0:0:0:
367,325,51788,2,0,P|347:290|345:222,1,81.2499962806703,2|0,3:2|0:0,0:0:0:0:
268,184,52019,2,0,P|254:229|264:289,1,81.2499962806703,2|0,3:2|0:0,0:0:0:0:
232,370,52249,2,0,P|195:340|176:280,1,81.2499962806703,10|0,0:0|0:0,0:0:0:0:
80,228,52480,5,2,0:0:0:0:
105,322,52595,1,8,0:0:0:0:
164,210,52711,6,0,P|124:196|86:216,1,81.2499962806703,2|0,3:2|0:0,0:0:0:0:
14,276,52942,2,0,P|-2:243|1:195,1,81.2499962806703,2|0,0:0|0:0,0:0:0:0:
36,34,53172,2,0,P|34:76|61:110,1,81.2499962806703,8|0,0:0|0:0,0:0:0:0:
137,85,53403,2,0,P|140:46|115:10,2,81.2499962806703,2|8|0,0:0|0:0|3:2,0:0:0:0:
310,196,53749,5,8,0:0:0:0:
311,117,53865,2,0,P|319:150|287:224,1,81.2499962806703,10|2,3:2|0:0,0:0:0:0:
189,345,54095,2,0,P|160:299|155:257,1,81.2499962806703,10|0,3:2|0:0,0:0:0:0:
253,267,54326,5,10,0:0:0:0:
73,313,54442,1,8,0:0:0:0:
137,85,54557,6,0,B|231:94|192:142|281:152,1,162.499992561341,6|0,3:2|0:0,0:0:0:0:
485,157,55019,6,0,P|482:117|451:84,1,81.2499962806703,8|0,0:0|0:0,0:0:0:0:
358,22,55249,2,0,P|401:20|432:0,1,81.2499962806703,2|0,0:0|0:0,0:0:0:0:
502,299,55480,2,0,P|439:318|443:240,1,162.499992561341,2|0,3:2|0:0,0:0:0:0:
451,236,55826,1,2,0:0:0:0:
276,384,55942,2,0,P|236:359|223:315,1,81.2499962806703,10|0,0:0|0:0,0:0:0:0:
247,199,56172,5,2,0:0:0:0:
311,299,56288,1,8,0:0:0:0:
31,342,56403,6,0,P|13:308|11:248,1,81.2499962806703,2|0,3:2|0:0,0:0:0:0:
153,175,56634,2,0,P|153:218|133:269,1,81.2499962806703,2|0,0:0|0:0,0:0:0:0:
3,73,56865,2,0,B|94:24|89:103|182:52,1,162.499992561341,10|0,0:0|0:0,0:0:0:0:
170,51,57211,1,0,0:0:0:0:
68,162,57326,2,0,B|26:180|26:180|46:130,1,81.2499962806703,2|0,3:2|0:0,0:0:0:0:
254,117,57557,6,0,B|264:129|264:129|271:186|271:186|265:200,1,81.2499962806703,10|0,3:2|0:0,0:0:0:0:
181,337,57788,2,0,B|196:327|196:327|249:323|249:323|265:331,1,81.2499962806703,10|0,3:2|0:0,0:0:0:0:
430,274,58019,5,10,0:0:0:0:
391,371,58134,1,8,0:0:0:0:
348,233,58249,6,0,P|432:182|512:235,1,162.499992561341,6|0,3:2|0:0,0:0:0:0:
259,328,58711,6,0,P|216:302|200:268,1,81.2499962806703,10|0,0:0|0:0,0:0:0:0:
128,299,58942,2,0,P|172:274|209:277,1,81.2499962806703,2|0,0:0|0:0,0:0:0:0:
219,199,59172,2,0,P|217:249|196:280,1,81.2499962806703,2|0,3:2|0:0,0:0:0:0:
40,299,59403,5,2,0:0:0:0:
0,194,59519,1,2,0:0:0:0:
102,120,59634,6,0,B|125:215|98:122|121:216,1,81.2499962806703,10|2,0:0|0:0,0:0:0:0:
224,82,59865,5,2,0:0:0:0:
131,28,59980,1,10,0:0:0:0:
287,0,60095,6,0,B|336:-2|361:37|349:38|375:78|423:77,1,162.499992561341,6|0,3:2|0:0,0:0:0:0:
424,69,60557,6,0,B|418:165|419:69|413:165,1,81.2499962806703,8|0,0:0|0:0,0:0:0:0:
421,288,60788,5,2,3:2:0:0:
349,204,60903,1,10,0:0:0:0:
340,358,61019,1,2,3:2:0:0:
481,225,61134,2,0,B|477:197|477:197|490:170|490:170|491:142,1,81.2499962806703,8|0,0:0|0:0,0:0:0:0:
494,337,61365,1,10,0:0:0:0:
144,191,61480,6,0,P|126:252|139:291,1,81.2499962806703,10|8,3:2|0:0,0:0:0:0:
333,280,61711,6,0,P|351:219|338:180,1,81.2499962806703,10|8,3:2|0:0,0:0:0:0:
233,110,61942,6,0,B|253:292|229:111|248:293,1,162.499992561341,6|0,3:2|0:0,0:0:0:0:
402,72,62403,2,0,P|374:9|304:55,1,162.499992561341,10|0,0:0|0:0,0:0:0:0:
305,59,62749,1,2,0:0:0:0:
412,298,62865,6,0,P|452:283|472:248,1,81.2499962806703,2|0,3:2|0:0,0:0:0:0:
376,145,63095,2,0,P|398:178|397:223,1,81.2499962806703,2|0,0:0|0:0,0:0:0:0:
353,358,63326,2,0,P|384:378|429:378,1,81.2499962806703,10|0,0:0|0:0,0:0:0:0:
229,232,63557,2,0,P|202:238|230:237,1,81.2499962806703,2|8,0:0|0:0,0:0:0:0:
277,379,63788,6,0,B|257:334|287:299|292:307|329:274|307:210,1,162.499992561341,2|0,3:2|0:0,0:0:0:0:
242,87,64249,2,0,B|256:113|268:120|268:120|262:130|263:162,1,81.2499962806703,10|0,0:0|0:0,0:0:0:0:
134,196,64480,2,0,B|120:170|108:163|108:163|114:153|113:121,1,81.2499962806703,2|0,0:0|0:0,0:0:0:0:
350,154,64711,2,0,B|446:139|396:91|495:78,1,162.499992561341,0|10,3:2|0:0,0:0:0:0:
347,70,65172,1,10,3:2:0:0:
326,331,65403,5,10,3:2:0:0:
326,331,65519,1,10,3:2:0:0:
239,250,65634,5,6,3:2:0:0:
171,326,65749,1,2,0:0:0:0:
170,207,65865,5,2,0:0:0:0:
246,329,65980,1,2,0:0:0:0:
303,154,66095,6,0,P|266:139|195:154,1,81.2499962806703,10|0,0:0|0:0,0:0:0:0:
108,109,66326,5,2,0:0:0:0:
170,207,66442,1,2,0:0:0:0:
11,345,66557,6,0,P|9:297|6:252,1,81.2499962806703,2|0,3:2|0:0,0:0:0:0:
41,193,66788,2,0,P|43:233|45:274,1,81.2499962806703,2|0,0:0|0:0,0:0:0:0:
157,384,67019,2,0,P|154:343|152:302,1,81.2499962806703,10|0,0:0|0:0,0:0:0:0:
198,245,67249,2,0,P|200:293|203:338,1,81.2499962806703,2|8,0:0|0:0,0:0:0:0:
371,382,67480,6,0,P|400:346|400:310,1,81.2499962806703,2|0,3:2|0:0,0:0:0:0:
382,205,67711,2,0,P|369:157|378:121,1,81.2499962806703,2|0,0:0|0:0,0:0:0:0:
484,57,67942,2,0,P|498:96|492:135,1,81.2499962806703,10|0,0:0|0:0,0:0:0:0:
233,120,68172,5,2,0:0:0:0:
336,55,68288,1,8,0:0:0:0:
183,28,68403,1,2,3:2:0:0:
129,188,68519,1,8,0:0:0:0:
14,110,68634,6,0,B|10:92|10:92|25:45|25:45|38:31,1,81.2499962806703,10|0,3:2|0:0,0:0:0:0:
126,295,68865,2,0,B|109:305|109:305|60:306|60:306|43:297,1,81.2499962806703,10|0,3:2|0:0,0:0:0:0:
329,263,69095,5,10,0:0:0:0:
283,367,69211,1,8,0:0:0:0:
221,224,69326,6,0,B|307:190|302:257|392:218,2,162.499992561341,6|0|8,3:2|0:0|0:0,0:0:0:0:
512,42,70019,6,0,B|502:-1|502:-1|471:37,1,81.2499962806703,2|0,0:0|0:0,0:0:0:0:
474,136,70249,2,0,B|439:102|388:117|398:125|350:143|317:106,1,162.499992561341,2|0,3:2|0:0,0:0:0:0:
314,96,70595,1,2,0:0:0:0:
87,264,70711,6,0,P|52:230|44:187,1,81.2499962806703,10|0,0:0|0:0,0:0:0:0:
146,94,70942,2,0,P|181:128|189:171,1,81.2499962806703,2|8,0:0|0:0,0:0:0:0:
229,359,71172,6,0,B|215:295|215:295|282:260|314:322,1,162.499992561341,2|0,3:2|0:0,0:0:0:0:
511,366,71634,2,0,P|515:285|446:245,1,162.499992561341,10|0,0:0|0:0,0:0:0:0:
263,207,72095,2,0,P|288:132|364:109,1,162.499992561341,2|8,3:2|0:0,0:0:0:0:
356,203,72557,1,10,3:2:0:0:
512,0,72788,5,10,0:0:0:0:
498,118,72903,1,8,0:0:0:0:
404,0,73019,6,0,B|359:48|295:29|295:29|283:24|283:24|229:5|170:45,1,243.749988842011,6|0,3:2|0:0,0:0:0:0:
119,96,73480,1,10,0:0:0:0:
0,187,73711,6,0,P|9:242|6:278,1,81.2499962806703,2|0,0:0|0:0,0:0:0:0:
115,329,73942,2,0,P|111:288|113:247,1,81.2499962806703,2|0,3:2|0:0,0:0:0:0:
276,105,74172,5,2,0:0:0:0:
175,156,74288,1,2,0:0:0:0:
302,178,74403,6,0,P|311:136|292:86,1,81.2499962806703,10|2,0:0|0:0,0:0:0:0:
229,314,74634,2,0,P|280:316|304:299,1,81.2499962806703,2|8,0:0|0:0,0:0:0:0:
485,332,74865,2,0,B|449:376|386:358|385:309|385:309|394:273,2,162.499992561341,2|8|8,3:2|3:2|3:2,0:0:0:0:
461,178,75442,5,2,0:0:0:0:
408,197,75557,1,2,0:0:0:0:
357,170,75672,1,10,0:0:0:0:
271,81,75788,5,0,3:2:0:0:
130,138,75904,1,10,0:0:0:0:
244,168,76019,1,2,3:2:0:0:
157,51,76134,1,10,3:2:0:0:
92,318,76249,5,10,3:2:0:0:
170,217,76365,1,8,0:0:0:0:
75,243,76480,1,10,0:0:0:0:
187,291,76595,1,8,0:0:0:0:
338,207,76711,6,0,B|320:148,1,46.8750017881394,4|0,3:2|0:0,0:0:0:0:
271,81,76942,2,0,B|268:96|268:96|328:79|328:79|351:53,2,93.7500035762788,2|2|2,0:0|0:0|3:2,0:0:0:0:
419,29,77634,2,0,B|430:77|421:97|421:97|412:116|412:116|398:148|414:189,1,140.625005364418,10|2,3:2|0:0,0:0:0:0:
463,339,78326,2,0,P|444:361|408:359,1,46.8750017881394,8|8,3:2|3:2,0:0:0:0:
350,363,78557,5,2,3:2:0:0:
330,343,78903,1,0,3:2:0:0:
327,315,79249,1,0,3:2:0:0:
338,236,79480,6,0,P|344:222|353:196,2,31.2500011920929,10|2|2,3:2|0:0|0:0,0:0:0:0:
260,253,79711,2,0,P|227:242|196:235,1,46.8750017881394,10|0,3:2|0:0,0:0:0:0:
191,315,79942,2,0,P|221:322|250:332,1,46.8750017881394,10|0,3:2|0:0,0:0:0:0:
103,156,80172,5,8,3:2:0:0:
138,251,80288,1,8,3:2:0:0:
200,134,80403,6,0,B|193:164|193:164|173:134,1,46.8750017881394,4|0,3:2|0:0,0:0:0:0:
256,65,80634,2,0,B|284:107|284:107|278:167,2,93.7500035762788,2|2|2,0:0|0:0|3:2,0:0:0:0:
118,89,81326,2,0,B|64:92|59:143|59:143|79:162|79:162|114:158|114:139,1,140.625005364418,10|2,3:2|0:0,0:0:0:0:
312,228,82019,2,0,P|323:258|318:292,1,46.8750017881394,8|8,3:2|3:2,0:0:0:0:
280,341,82249,5,2,3:2:0:0:
256,356,82595,1,0,3:2:0:0:
228,354,82942,1,0,3:2:0:0:
166,298,83172,6,0,P|145:261|153:212,1,93.7500035762788,10|10,3:2|3:2,0:0:0:0:
287,143,83634,2,0,P|254:167|208:150,1,93.7500035762788,10|10,3:2|3:2,0:0:0:0:
205,141,83980,1,8,3:2:0:0:
367,77,84095,6,0,P|370:108|372:131,1,46.8750017881394,4|0,3:2|0:0,0:0:0:0:
349,195,84326,2,0,P|384:164|433:172,2,93.7500035762788,2|2|2,0:0|0:0|3:2,0:0:0:0:
318,360,85019,2,0,B|343:321|318:280|318:280|271:262|279:216,1,140.625005364418,10|2,3:2|0:0,0:0:0:0:
142,95,85711,2,0,P|135:70|139:40,1,46.8750017881394,8|8,3:2|3:2,0:0:0:0:
205,0,85942,5,2,3:2:0:0:
232,0,86288,1,0,3:2:0:0:
254,18,86634,1,0,3:2:0:0:
255,113,86865,6,0,P|238:122|215:122,2,31.2500011920929,10|2|2,3:2|0:0|0:0,0:0:0:0:
326,64,87095,2,0,P|334:105|332:134,1,46.8750017881394,10|0,3:2|0:0,0:0:0:0:
404,56,87326,2,0,P|412:97|410:126,1,46.8750017881394,10|0,3:2|0:0,0:0:0:0:
341,250,87557,5,8,3:2:0:0:
379,173,87672,1,8,3:2:0:0:
411,309,87788,6,0,P|386:328|347:336,1,46.8750017881394,4|0,3:2|0:0,0:0:0:0:
258,260,88019,2,0,B|297:276|297:276|327:244|376:245,2,93.7500035762788,2|2|2,0:0|0:0|3:2,0:0:0:0:
114,225,88711,2,0,B|144:244|151:271|151:271|171:266|171:266|164:240|183:208,1,140.625005364418,10|2,3:2|0:0,0:0:0:0:
231,26,89403,2,0,P|260:27|281:44,1,46.8750017881394,8|8,3:2|3:2,0:0:0:0:
310,107,89634,5,2,3:2:0:0:
320,133,89980,1,0,3:2:0:0:
311,160,90326,1,0,3:2:0:0:
273,288,90557,6,0,P|265:258|272:226,1,62.5,14|8,3:2|3:2,0:0:0:0:
351,228,90788,2,0,P|359:258|352:290,1,62.5,8|8,3:2|3:2,0:0:0:0:
283,368,91019,6,0,B|312:356|312:356|342:370,3,62.5,10|8|8|8,3:2|3:2|3:2|3:2,0:0:0:0:
419,342,91480,38,0,P|480:320|492:248,1,137.500004196167,6|2,3:2|0:0,0:0:0:0:
500,261,91942,6,0,P|457:262|418:252,1,68.7500020980836,2|0,3:2|0:0,0:0:0:0:
389,184,92172,1,2,0:0:0:0:
389,184,92288,1,2,0:0:0:0:
305,270,92403,6,0,L|313:202,2,68.7500020980836,2|2|2,3:2|0:0|0:0,0:0:0:0:
306,280,92865,6,0,P|259:241|202:279,1,137.500004196167,2|2,3:2|0:0,0:0:0:0:
203,292,93211,1,2,0:0:0:0:
129,348,93326,6,0,B|103:210|133:345|109:211,2,137.500004196167,2|2|2,3:2|0:0|3:2,0:0:0:0:
38,267,94019,5,2,0:0:0:0:
26,189,94134,1,2,0:0:0:0:
82,132,94249,6,0,P|120:126|161:147,1,68.7500020980836,2|0,3:2|0:0,0:0:0:0:
190,205,94480,2,0,P|231:202|254:181,1,68.7500020980836,2|0,0:0|0:0,0:0:0:0:
211,30,94711,6,0,L|225:108,1,68.7500020980836,2|0,3:2|0:0,0:0:0:0:
226,111,94942,1,2,0:0:0:0:
385,31,95172,6,0,P|418:23|452:17,1,68.7500020980836,2|0,3:2|0:0,0:0:0:0:
400,108,95403,2,0,P|433:100|467:94,1,68.7500020980836,2|0,0:0|0:0,0:0:0:0:
415,187,95634,2,0,P|448:179|482:173,1,68.7500020980836,2|0,3:2|0:0,0:0:0:0:
495,172,95865,5,2,0:0:0:0:
483,339,95980,2,0,P|475:305|469:271,1,68.7500020980836,2|0,0:0|3:2,0:0:0:0:
466,258,96211,5,2,0:0:0:0:
309,350,96326,2,0,P|290:322|290:289,1,68.7500020980836,2|0,0:0|0:0,0:0:0:0:
368,266,96557,2,0,P|387:294|387:327,1,68.7500020980836,2|0,3:2|0:0,0:0:0:0:
225,244,96788,5,2,0:0:0:0:
225,244,96903,1,2,0:0:0:0:
192,348,97019,5,2,3:2:0:0:
188,327,97135,1,2,0:0:0:0:
208,324,97250,1,2,0:0:0:0:
210,344,97365,1,2,0:0:0:0:
54,275,97480,6,0,P|17:283|-3:316,1,68.7500020980836,2|0,3:2|0:0,0:0:0:0:
105,345,97711,1,2,0:0:0:0:
105,345,97826,1,2,0:0:0:0:
54,275,97942,6,0,P|39:243|41:210,1,68.7500020980836,2|0,3:2|0:0,0:0:0:0:
213,179,98172,2,0,P|227:210|225:243,1,68.7500020980836,2|0,0:0|0:0,0:0:0:0:
134,233,98403,6,0,B|118:97|130:233|114:97,1,137.500004196167,2|2,3:2|0:0,0:0:0:0:
303,0,98865,6,0,P|365:11|358:74,1,137.500004196167,2|2,3:2|0:0,0:0:0:0:
346,77,99211,1,2,0:0:0:0:
406,189,99326,6,0,P|468:178|461:115,1,137.500004196167,2|2,3:2|0:0,0:0:0:0:
449,112,99672,1,2,0:0:0:0:
320,163,99788,6,0,P|313:195|324:228,1,68.7500020980836,2|2,3:2|0:0,0:0:0:0:
332,234,100019,2,0,L|254:246,1,68.7500020980836,2|0,0:0|0:0,0:0:0:0:
187,260,100249,5,2,3:2:0:0:
192,340,100365,2,0,B|277:316|241:359|328:332,1,137.500004196167,2|2,0:0|0:0,0:0:0:0:
403,384,100711,5,2,3:2:0:0:
403,384,100826,1,2,0:0:0:0:
403,384,100942,2,0,P|426:362|430:323,1,68.7500020980836,2|0,0:0|0:0,0:0:0:0:
478,259,101172,6,0,P|504:281|513:314,1,68.7500020980836,2|0,3:2|0:0,0:0:0:0:
502,180,101403,2,0,P|469:173|437:186,1,68.7500020980836,2|0,0:0|0:0,0:0:0:0:
372,237,101634,5,2,3:2:0:0:
279,219,101749,1,2,0:0:0:0:
197,260,101865,1,2,0:0:0:0:
105,241,101980,1,2,0:0:0:0:
33,305,102095,6,0,P|86:347|141:305,1,137.500004196167,2|2,3:2|0:0,0:0:0:0:
69,116,102557,6,0,L|81:34,1,62.5,2|0,3:2|0:0,0:0:0:0:
54,139,103019,6,0,B|93:126|125:151|125:151|132:160|132:160|162:187|189:179,1,149.999995422363,10|2,3:2|0:0,0:0:0:0:
319,153,103480,6,0,L|307:235,1,62.5,0|2,3:2|3:2,0:0:0:0:
334,130,103942,6,0,B|295:143|263:118|263:118|256:109|256:109|226:82|199:90,1,149.999995422363,10|2,3:2|0:0,0:0:0:0:
204,98,104403,6,0,P|201:148|197:198,1,100,6|2,3:2|0:0,0:0:0:0:
139,253,104864,5,0,3:2:0:0:
274,207,105095,1,2,0:0:0:0:
327,268,105211,1,2,0:0:0:0:
406,254,105326,6,0,P|409:204|412:154,1,100,2|2,3:2|0:0,0:0:0:0:
418,150,105788,6,0,P|396:111|339:117,1,100,0|2,3:2|0:0,0:0:0:0:
340,120,106134,1,2,0:0:0:0:
211,101,106249,6,0,P|200:78|203:52,1,50,2|0,3:2|0:0,0:0:0:0:
209,47,106480,2,0,P|257:40|306:29,1,100,2|0,0:0|3:2,0:0:0:0:
489,57,106941,6,0,P|463:14|404:21,1,100,2|0,0:0|3:2,0:0:0:0:
373,77,107403,5,2,0:0:0:0:
424,138,107634,6,0,P|420:187|417:237,1,100,2|2,3:2|0:0,0:0:0:0:
424,340,108095,6,0,B|326:328|382:292|281:279,1,149.999995422363,6|0,3:2|0:0,0:0:0:0:
275,282,108442,1,0,0:0:0:0:
142,384,108557,2,0,P|89:350|119:273,1,149.999995422363,8|2,3:2|0:0,0:0:0:0:
124,269,108903,1,0,0:0:0:0:
73,193,109019,6,0,P|55:162|70:123,1,74.9999977111817,2|0,3:2|0:0,0:0:0:0:
151,116,109249,2,0,P|169:147|154:186,1,74.9999977111817,0|0,3:2|0:0,0:0:0:0:
3,77,109480,2,0,P|30:15|107:10,1,149.999995422363,10|0,3:2|0:0,0:0:0:0:
115,19,109826,1,0,0:0:0:0:
200,49,109942,6,0,B|356:19,1,149.999995422363,2|0,3:2|0:0,0:0:0:0:
362,18,110288,1,2,0:0:0:0:
259,237,110403,2,0,P|180:239|158:176,1,149.999995422363,10|0,3:2|0:0,0:0:0:0:
161,168,110749,1,0,0:0:0:0:
391,96,110865,6,0,P|408:129|401:166,1,74.9999977111817,2|0,3:2|0:0,0:0:0:0:
322,180,111095,2,0,P|305:147|312:110,1,74.9999977111817,0|0,3:2|0:0,0:0:0:0:
475,201,111326,2,0,P|455:265|367:267,1,149.999995422363,8|2,3:2|0:0,0:0:0:0:
368,269,111672,1,2,0:0:0:0:
309,341,111788,6,0,P|264:330|216:342,1,74.9999977111817,2|0,3:2|0:0,0:0:0:0:
163,364,112019,2,0,P|123:381|72:376,1,74.9999977111817,2|0,0:0|0:0,0:0:0:0:
26,340,112249,2,0,B|3:268|51:264|26:190,1,149.999995422363,10|2,3:2|0:0,0:0:0:0:
19,180,112595,1,0,0:0:0:0:
202,192,112711,6,0,P|215:226|206:262,1,74.9999977111817,2|0,3:2|0:0,0:0:0:0:
128,272,112942,2,0,P|114:237|123:201,1,74.9999977111817,2|0,3:2|0:0,0:0:0:0:
265,134,113172,5,10,3:2:0:0:
396,180,113288,1,2,0:0:0:0:
322,188,113403,5,2,0:0:0:0:
442,114,113519,1,2,0:0:0:0:
328,0,113634,6,0,B|321:103|325:0|320:102,1,74.9999977111817,2|0,3:2|0:0,0:0:0:0:
455,235,113865,1,2,0:0:0:0:
435,309,113980,1,2,0:0:0:0:
357,334,114095,6,0,P|327:310|320:274,1,74.9999977111817,10|2,3:2|0:0,0:0:0:0:
321,268,114326,2,0,L|239:279,1,74.9999977111817,2|2,0:0|0:0,0:0:0:0:
96,370,114557,5,2,3:2:0:0:
183,331,114672,1,2,0:0:0:0:
135,261,114788,5,2,3:2:0:0:
43,226,114903,1,2,0:0:0:0:
202,205,115019,2,0,B|241:197|241:197|253:125|178:120,1,149.999995422363,10|2,3:2|0:0,0:0:0:0:
40,43,115480,6,0,P|22:98|65:147,1,125,6|0,3:2|0:0,0:0:0:0:
185,120,115942,2,0,P|203:65|160:16,1,125,8|0,3:2|3:2,0:0:0:0:
61,145,116403,5,10,3:2:0:0:
255,169,116634,1,0,3:2:0:0:
134,191,116865,5,10,3:2:0:0:
323,109,117095,1,0,3:2:0:0:
323,109,117211,1,2,0:0:0:0:
383,205,117326,2,0,B|388:248|388:248|340:290|295:242,1,149.999995422363,10|0,3:2|3:2,0:0:0:0:
271,25,117788,2,0,P|354:16|402:62,1,149.999995422363,10|0,3:2|3:2,0:0:0:0:
402,73,118134,1,2,0:0:0:0:
206,244,118249,2,0,B|187:160|242:181|221:99,2,149.999995422363,10|2|10,3:2|3:2|3:2,0:0:0:0:
143,125,118942,1,2,3:2:0:0:
9,238,119172,6,0,B|102:249|44:288|142:301,1,149.999995422363,6|0,3:2|0:0,0:0:0:0:
269,384,119634,2,0,P|319:336|282:267,1,149.999995422363,8|2,3:2|0:0,0:0:0:0:
143,125,120095,2,0,P|127:159|139:198,1,74.9999977111817,0|0,3:2|0:0,0:0:0:0:
216,204,120326,2,0,P|232:170|220:131,1,74.9999977111817,0|0,3:2|0:0,0:0:0:0:
166,266,120557,1,10,3:2:0:0:
445,282,120788,5,2,0:0:0:0:
493,219,120904,1,8,3:2:0:0:
478,146,121019,2,0,P|447:125|401:128,1,74.9999977111817,6|0,3:2|0:0,0:0:0:0:
219,29,121249,5,10,3:2:0:0:
290,78,121365,1,8,3:2:0:0:
167,93,121480,5,10,0:0:0:0:
346,17,121595,1,8,0:0:0:0:
334,220,121711,1,10,0:0:0:0:
236,145,121826,1,8,0:0:0:0:
411,125,121942,1,0,3:2:0:0:
349,288,122172,6,0,B|355:255|355:255|334:220,2,74.9999977111817,2|0|2,3:2|3:2|3:2,0:0:0:0:
255,304,122634,5,2,3:2:0:0:
255,304,122865,6,2,B|226:146|258:303|229:144,1,162.499992561341,6|2,3:2|0:2,0:2:0:0:
227,128,123211,1,0,0:0:0:0:
75,265,123326,2,0,P|79:193|151:207,1,162.499992561341,10|0,0:0|0:0,0:0:0:0:
158,219,123672,1,2,0:0:0:0:
371,300,123788,6,0,P|410:281|431:245,1,81.2499962806703,2|0,3:2|0:0,0:0:0:0:
338,140,124019,2,0,P|355:176|351:215,1,81.2499962806703,2|0,3:2|0:0,0:0:0:0:
310,358,124249,2,0,P|342:381|382:384,1,81.2499962806703,10|0,0:0|0:0,0:0:0:0:
495,354,124480,2,0,P|467:355|494:358,1,81.2499962806703,2|8,0:0|0:0,0:0:0:0:
217,215,124711,6,0,P|182:257|278:265,1,162.499992561341,2|0,3:2|0:0,0:0:0:0:
264,291,125057,1,0,0:0:0:0:
55,201,125172,6,0,P|31:169|28:126,1,81.2499962806703,10|0,0:0|0:0,0:0:0:0:
136,50,125403,2,0,L|125:130,1,81.2499962806703,2|0,0:0|0:0,0:0:0:0:
337,152,125634,5,0,3:2:0:0:
271,100,125749,1,0,0:0:0:0:
429,147,125865,6,0,P|434:193|412:229,1,81.2499962806703,8|0,3:2|0:0,0:0:0:0:
365,71,126095,2,0,P|416:38|452:42,1,81.2499962806703,10|0,3:2|0:0,0:0:0:0:
512,104,126326,5,8,0:0:0:0:
512,104,126442,1,10,0:0:0:0:
398,242,126557,5,6,3:2:0:0:
495,273,126672,1,2,0:0:0:0:
288,258,126788,5,2,0:0:0:0:
429,147,126903,1,2,0:0:0:0:
216,182,127019,5,8,0:0:0:0:
258,365,127134,2,0,P|303:372|345:352,1,81.2499962806703,2|0,0:0|0:0,0:0:0:0:
147,259,127365,5,2,0:0:0:0:
22,353,127480,2,0,P|4:304|-1:260,1,81.2499962806703,2|0,3:2|0:0,0:0:0:0:
71,149,127711,2,0,P|74:190|69:244,1,81.2499962806703,2|0,3:2|0:0,0:0:0:0:
0,103,127942,2,0,P|8:51|26:10,1,81.2499962806703,10|0,0:0|0:0,0:0:0:0:
215,92,128172,5,2,0:0:0:0:
124,52,128288,1,8,0:0:0:0:
235,13,128403,6,0,P|251:59|248:118,1,81.2499962806703,2|0,3:2|0:0,0:0:0:0:
234,193,128634,2,0,P|285:163|330:167,1,81.2499962806703,2|0,0:0|0:0,0:0:0:0:
447,117,128865,2,0,P|404:121|362:95,1,81.2499962806703,8|0,0:0|0:0,0:0:0:0:
385,20,129095,2,0,P|423:14|461:33,2,81.2499962806703,2|8|0,0:0|0:0|3:2,0:0:0:0:
327,237,129442,5,8,0:0:0:0:
305,161,129557,2,0,P|326:211|324:261,1,81.2499962806703,10|2,3:2|0:0,0:0:0:0:
144,377,129788,2,0,P|124:343|116:293,1,81.2499962806703,10|2,3:2|0:0,0:0:0:0:
178,0,130019,5,10,0:0:0:0:
120,172,130134,1,8,0:0:0:0:
22,54,130249,6,0,B|110:44|88:99|190:82,1,162.499992561341,6|0,3:2|0:0,0:0:0:0:
490,77,130711,6,0,P|498:35|483:-4,1,81.2499962806703,8|0,0:0|0:0,0:0:0:0:
375,57,130942,2,0,P|381:120|409:154,1,81.2499962806703,2|0,0:0|0:0,0:0:0:0:
487,258,131172,2,0,P|413:241|425:308,1,162.499992561341,2|0,3:2|0:0,0:0:0:0:
432,312,131519,1,2,0:0:0:0:
287,384,131634,2,0,P|239:369|219:339,1,81.2499962806703,10|0,0:0|0:0,0:0:0:0:
310,197,131865,5,2,0:0:0:0:
301,289,131980,1,8,0:0:0:0:
209,169,132095,6,0,P|208:129|226:66,1,81.2499962806703,2|0,3:2|0:0,0:0:0:0:
96,11,132326,2,0,P|113:57|113:114,1,81.2499962806703,2|0,0:0|0:0,0:0:0:0:
130,309,132557,2,0,P|81:273|35:345,1,162.499992561341,10|0,0:0|0:0,0:0:0:0:
41,356,132903,1,8,0:0:0:0:
35,194,133019,2,0,B|6:165|6:165|0:208,1,81.2499962806703,2|0,3:2|0:0,0:0:0:0:
214,360,133249,6,0,B|223:354|223:354|248:299|248:299|245:288,1,81.2499962806703,10|0,3:2|0:0,0:0:0:0:
135,161,133480,2,0,B|143:169|143:169|204:170|204:170|212:163,1,81.2499962806703,10|0,3:2|0:0,0:0:0:0:
441,96,133711,5,10,0:0:0:0:
416,192,133826,1,8,0:0:0:0:
359,47,133942,6,0,P|418:2|517:41,1,162.499992561341,6|0,3:2|0:0,0:0:0:0:
429,343,134403,6,0,P|384:347|355:328,1,81.2499962806703,10|0,0:0|0:0,0:0:0:0:
305,384,134634,2,0,P|324:343|354:327,1,81.2499962806703,2|0,0:0|0:0,0:0:0:0:
327,254,134865,2,0,P|354:295|353:330,1,81.2499962806703,2|0,3:2|0:0,0:0:0:0:
126,319,135095,5,2,0:0:0:0:
216,242,135211,1,2,0:0:0:0:
28,244,135326,6,0,B|37:336|24:245|32:337,1,81.2499962806703,10|0,0:0|0:0,0:0:0:0:
153,151,135557,5,2,0:0:0:0:
0,96,135672,1,10,0:0:0:0:
183,0,135788,6,0,B|179:55|216:77|219:66|252:93|251:153,1,162.499992561341,6|0,3:2|0:0,0:0:0:0:
260,154,136249,6,0,B|270:62|264:151|274:61,1,81.2499962806703,8|0,0:0|0:0,0:0:0:0:
424,103,136480,5,2,3:2:0:0:
361,158,136595,1,8,0:0:0:0:
508,108,136711,1,2,3:2:0:0:
349,58,136826,2,0,P|285:65|253:93,1,81.2499962806703,8|0,0:0|0:0,0:0:0:0:
266,323,137057,1,10,0:0:0:0:
361,158,137172,6,0,P|374:211|365:250,1,81.2499962806703,10|8,3:2|0:0,0:0:0:0:
165,240,137403,6,0,P|152:187|161:148,1,81.2499962806703,10|8,3:2|0:0,0:0:0:0:
272,73,137634,6,0,B|262:253|268:73|258:254,1,162.499992561341,6|0,3:2|0:0,0:0:0:0:
77,109,138095,2,0,P|81:39|156:49,1,162.499992561341,10|0,0:0|0:0,0:0:0:0:
161,64,138442,1,2,0:0:0:0:
76,269,138557,6,0,P|39:274|-2:245,1,81.2499962806703,2|0,3:2|0:0,0:0:0:0:
170,143,138788,2,0,P|138:171|132:213,1,81.2499962806703,2|0,0:0|0:0,0:0:0:0:
187,358,139019,2,0,P|180:314|134:284,1,81.2499962806703,10|0,0:0|0:0,0:0:0:0:
241,227,139249,2,0,P|214:216|234:234,1,81.2499962806703,2|8,0:0|0:0,0:0:0:0:
315,348,139480,6,0,B|281:300|313:260|318:272|346:232|308:169,1,162.499992561341,2|0,3:2|0:0,0:0:0:0:
264,59,139942,2,0,B|253:86|242:94|242:94|249:104|252:136,1,81.2499962806703,10|0,0:0|0:0,0:0:0:0:
397,153,140173,2,0,B|407:125|418:117|418:117|411:107|408:75,1,81.2499962806703,2|0,0:0|0:0,0:0:0:0:
170,143,140403,2,0,B|84:178|103:112|12:147,1,162.499992561341,0|10,3:2|0:0,0:0:0:0:
131,71,140865,1,10,3:2:0:0:
110,350,141095,5,10,0:0:0:0:
110,350,141211,1,10,0:0:0:0:
62,231,141326,5,6,3:2:0:0:
11,355,141442,1,2,0:0:0:0:
117,145,141557,5,2,0:0:0:0:
154,268,141672,2,0,P|189:304|222:308,1,81.2499962806703,2|8,0:0|0:0,0:0:0:0:
356,286,141903,1,2,0:0:0:0:
275,221,142019,5,2,0:0:0:0:
302,367,142134,1,2,0:0:0:0:
470,219,142249,6,0,P|475:183|448:150,1,81.2499962806703,2|0,3:2|0:0,0:0:0:0:
402,165,142480,2,0,P|397:204|423:233,1,81.2499962806703,2|0,3:2|0:0,0:0:0:0:
308,18,142711,6,0,P|281:-5|238:0,1,81.2499962806703,10|0,0:0|0:0,0:0:0:0:
226,41,142942,2,0,P|256:65|298:59,1,81.2499962806703,2|0,0:0|0:0,0:0:0:0:
63,0,143172,6,0,P|36:44|42:89,1,81.2499962806703,2|0,3:2|0:0,0:0:0:0:
58,178,143403,2,0,P|75:229|59:265,1,81.2499962806703,2|0,0:0|0:0,0:0:0:0:
13,372,143634,2,0,P|60:355|105:366,1,81.2499962806703,10|0,0:0|0:0,0:0:0:0:
220,384,143865,5,2,0:0:0:0:
313,347,143980,1,8,0:0:0:0:
325,201,144095,1,0,3:2:0:0:
232,238,144211,1,8,0:0:0:0:
429,334,144326,6,0,B|434:330|434:330|451:265|451:265|449:258,1,81.2499962806703,10|0,3:2|0:0,0:0:0:0:
368,87,144557,2,0,B|374:90|374:90|439:75|439:75|442:68,1,81.2499962806703,10|0,3:2|0:0,0:0:0:0:
121,12,144788,5,10,0:0:0:0:
193,148,144903,1,8,0:0:0:0:
249,14,145019,6,0,B|158:5|199:74|85:61,2,162.499992561341,6|0|8,3:2|0:0|0:0,0:0:0:0:
29,341,145711,6,0,B|10:377|10:377|-1:336,1,81.2499962806703,2|0,0:0|0:0,0:0:0:0:
0,228,145942,2,0,B|50:215|79:258|69:256|97:299|146:292,1,162.499992561341,2|0,3:2|0:0,0:0:0:0:
156,291,146288,1,2,0:0:0:0:
391,137,146403,6,0,P|414:170|416:215,1,81.2499962806703,10|0,0:0|0:0,0:0:0:0:
295,328,146634,2,0,P|272:295|270:250,1,81.2499962806703,2|0,0:0|0:0,0:0:0:0:
381,0,146865,6,0,B|280:-2|335:45|220:40,1,162.499992561341,2|0,3:2|0:0,0:0:0:0:
12,50,147326,2,0,P|56:116|-22:122,1,162.499992561341,10|0,0:0|0:0,0:0:0:0:
38,384,147788,2,0,P|50:275|112:258,1,162.499992561341,2|8,3:2|3:2,0:0:0:0:
108,340,148249,1,10,3:2:0:0:
227,160,148480,5,10,0:0:0:0:
169,281,148595,1,8,0:0:0:0:
113,128,148711,6,0,B|164:104|222:122|222:122|245:130|245:130|298:147|362:112,1,243.749988842011,6|0,3:2|0:0,0:0:0:0:
408,64,149172,1,10,0:0:0:0:
427,334,149403,6,0,P|383:362|353:358,1,81.2499962806703,2|0,0:0|0:0,0:0:0:0:
453,244,149634,2,0,P|508:283|517:329,1,81.2499962806703,2|0,3:2|0:0,0:0:0:0:
292,263,149865,5,2,3:2:0:0:
366,181,149980,1,2,0:0:0:0:
202,189,150095,6,0,P|197:250|210:286,1,81.2499962806703,10|0,0:0|0:0,0:0:0:0:
229,384,150326,2,0,P|166:354|136:370,1,81.2499962806703,2|8,0:0|0:0,0:0:0:0:
7,384,150557,2,0,B|-15:348|-15:348|18:268|99:317,2,162.499992561341,2|8|8,3:2|3:2|3:2,0:0:0:0:
0,214,151134,5,2,0:0:0:0:
39,173,151250,1,2,0:0:0:0:
94,184,151365,1,10,0:0:0:0:
215,268,151480,5,2,3:2:0:0:
293,232,151595,1,8,0:0:0:0:
235,80,151711,1,2,3:2:0:0:
155,117,151826,1,10,3:2:0:0:
392,235,151942,5,10,3:2:0:0:
442,121,152057,1,8,0:0:0:0:
360,160,152172,1,10,3:2:0:0:
470,199,152288,1,8,0:0:0:0:
512,8,152403,5,4,3:2:0:0:
97,150,163480,6,0,P|95:192|130:227,1,62.5,0|0,3:2|0:0,0:0:0:0:
104,208,163711,2,0,P|106:165|78:133,1,62.5,0|0,3:2|0:0,0:0:0:0:
419,182,164403,6,0,P|420:224|385:259,1,62.5,0|0,3:2|0:0,0:0:0:0:
410,240,164634,2,0,P|407:197|435:165,1,62.5,0|0,3:2|0:0,0:0:0:0:
256,192,165326,5,2,3:2:0:0:
256,192,165788,1,2,3:2:0:0:
419,182,166480,6,0,P|393:210|349:205,1,62.5,2|0,3:2|0:0,0:0:0:0:
319,145,166711,2,0,B|429:152|371:237|478:242,1,187.500007152558,10|2,0:0|0:0,0:0:0:0:
481,32,167172,5,2,1:2:0:0:
468,34,167403,1,0,1:2:0:0:
455,36,167634,1,2,1:2:0:0:
442,38,167865,1,2,1:2:0:0:
293,149,168095,5,2,1:2:0:0:
306,147,168326,1,2,1:2:0:0:
319,145,168557,1,2,1:2:0:0:
332,143,168788,1,2,1:2:0:0:
196,12,169019,5,2,1:2:0:0:
194,25,169250,1,0,1:2:0:0:
206,26,169481,1,2,1:2:0:0:
208,13,169712,1,2,1:2:0:0:
138,186,169942,5,0,1:2:0:0:
136,173,170173,1,0,1:2:0:0:
148,172,170403,1,2,1:2:0:0:
150,185,170634,1,2,1:2:0:0:
57,348,170865,5,2,1:2:0:0:
45,341,171095,1,2,1:2:0:0:
34,335,171326,1,2,1:2:0:0:
22,329,171557,1,2,1:2:0:0:
16,141,171788,5,2,1:2:0:0:
28,148,172019,1,2,1:2:0:0:
39,154,172249,1,2,1:2:0:0:
52,160,172480,1,2,1:2:0:0:
187,289,172711,5,2,1:2:0:0:
190,277,172942,1,2,1:2:0:0:
193,265,173172,1,0,1:2:0:0:
196,253,173403,1,0,1:2:0:0:
266,204,173634,6,0,P|290:249|313:259,1,62.5,2|0,0:0|0:0,0:0:0:0:
453,138,174095,2,0,P|404:187|340:180,1,125,2|0,0:0|0:0,0:0:0:0:
189,8,174557,6,0,B|181:90|134:49|128:141,1,125,4|0,3:2|0:0,0:0:0:0:
183,117,175019,2,0,B|191:51|138:84|144:1,1,125,0|2,3:2|0:0,0:0:0:0:
21,302,175480,6,0,B|101:297|59:353|144:348,1,125,2|0,3:2|0:0,0:0:0:0:
129,299,175942,2,0,B|48:298|93:351|9:351,1,125,2|2,3:2|0:0,0:0:0:0:
316,253,176403,6,0,P|345:315|330:399,1,125,2|0,3:2|0:0,0:0:0:0:
415,378,176865,2,0,P|419:299|383:220,1,156.25,2|0,3:2|0:0,0:0:0:0:
462,203,177326,2,0,P|497:304|483:403,1,187.500007152558,2|0,3:2|0:0,0:0:0:0:
42,327,177788,6,0,B|19:321|19:321|42:312,1,46.8750017881394,2|0,3:2|0:0,0:0:0:0:
214,289,178019,2,0,B|236:294|236:294|213:303,1,46.8750017881394,2|0,0:0|0:0,0:0:0:0:
137,384,178249,2,0,L|124:285,1,93.7500035762788,2|0,3:2|0:0,0:0:0:0:
114,39,178480,5,2,3:2:0:0:
59,129,178595,1,0,3:2:0:0:
264,153,178711,5,0,3:2:0:0:
140,115,178826,1,0,3:2:0:0:
178,215,178942,1,2,3:2:0:0:
258,40,179057,1,0,3:2:0:0:
381,192,179172,1,2,3:2:0:0:
275,339,180095,6,2,B|267:149|272:339|263:148,1,187.500007152558,6|2,3:2|0:2,0:2:0:0:
261,124,180442,1,0,0:0:0:0:
120,293,180557,2,0,P|128:191|177:224,1,187.500007152558,10|0,0:0|0:0,0:0:0:0:
180,224,180903,1,0,0:0:0:0:
451,89,181019,6,0,P|460:137|474:198,1,93.7500035762788,2|0,3:2|0:0,0:0:0:0:
380,208,181249,2,0,P|369:161|360:116,1,93.7500035762788,2|0,3:2|0:0,0:0:0:0:
272,148,181480,2,0,P|282:194|295:257,1,93.7500035762788,10|0,0:0|0:0,0:0:0:0:
30,191,181711,5,2,0:0:0:0:
153,109,181826,1,8,0:0:0:0:
193,344,181942,2,0,P|158:247|120:292,1,187.500007152558,2|0,3:2|0:0,0:0:0:0:
120,293,182288,1,0,0:0:0:0:
36,106,182403,6,0,B|6:70|6:70|-1:122,1,93.7500035762788,10|0,0:0|0:0,0:0:0:0:
12,363,182634,2,0,P|36:297|23:226,1,93.7500035762788,2|0,0:0|0:0,0:0:0:0:
153,10,182865,5,0,3:2:0:0:
261,124,182980,1,0,0:0:0:0:
398,0,183095,6,0,P|337:5|302:25,1,93.7500035762788,8|0,3:2|0:0,0:0:0:0:
166,166,183326,2,0,P|201:155|257:167,1,93.7500035762788,10|0,3:2|0:0,0:0:0:0:
384,369,183557,5,10,0:0:0:0:
384,369,183672,1,10,0:0:0:0:
477,183,183788,5,6,3:2:0:0:
490,316,183903,1,2,0:0:0:0:
355,101,184019,5,2,0:0:0:0:
338,274,184134,1,2,0:0:0:0:
196,66,184249,5,10,0:0:0:0:
219,341,184365,2,0,P|213:276|210:235,1,93.7500035762788,2|0,0:0|0:0,0:0:0:0:
57,148,184595,5,2,0:0:0:0:
16,332,184711,2,0,P|85:333|116:305,1,93.7500035762788,2|0,3:2|0:0,0:0:0:0:
210,247,184942,2,0,P|141:248|110:220,1,93.7500035762788,2|0,3:2|0:0,0:0:0:0:
57,148,185172,2,0,P|126:149|157:121,1,93.7500035762788,10|0,0:0|0:0,0:0:0:0:
166,0,185403,5,2,0:0:0:0:
41,69,185519,1,8,0:0:0:0:
232,170,185634,6,0,P|256:115|290:93,1,93.7500035762788,2|0,3:2|0:0,0:0:0:0:
499,110,185865,2,0,P|484:74|442:41,1,93.7500035762788,2|0,0:0|0:0,0:0:0:0:
359,0,186095,2,0,B|341:95|396:48|372:210,1,187.500007152558,8|2,0:0|0:0,0:0:0:0:
337,364,186442,1,8,0:0:0:0:
460,227,186557,5,0,3:2:0:0:
492,369,186672,1,8,0:0:0:0:
310,265,186788,6,0,P|250:300|237:338,1,93.7500035762788,10|2,3:2|0:0,0:0:0:0:
17,223,187019,2,0,P|77:258|90:296,1,93.7500035762788,10|0,3:2|0:0,0:0:0:0:
113,50,187249,5,10,0:0:0:0:
176,217,187365,1,8,0:0:0:0:
249,115,187480,6,0,B|184:74|138:183|56:123,2,187.500007152558,6|0|8,3:2|0:0|0:0,0:0:0:0:
479,183,188172,6,0,P|503:126|482:91,1,93.7500035762788,2|0,0:0|0:0,0:0:0:0:
348,0,188403,2,0,P|387:87|416:9,1,187.500007152558,2|0,3:2|0:0,0:0:0:0:
430,22,188749,1,2,0:0:0:0:
360,272,188865,2,0,P|309:291|266:280,1,93.7500035762788,10|0,0:0|0:0,0:0:0:0:
394,170,189095,5,2,0:0:0:0:
441,294,189211,1,8,0:0:0:0:
233,208,189326,6,0,P|187:200|138:218,1,93.7500035762788,2|0,3:2|0:0,0:0:0:0:
48,300,189557,1,2,0:0:0:0:
142,341,189672,1,2,0:0:0:0:
28,101,189788,6,0,P|55:154|52:208,1,93.7500035762788,10|0,0:0|0:0,0:0:0:0:
101,10,190019,1,0,0:0:0:0:
188,101,190134,1,0,0:0:0:0:
313,0,190249,6,0,P|241:-1|217:17,1,93.7500035762788,2|0,3:2|0:0,0:0:0:0:
460,237,190480,6,0,B|475:229|475:229|484:172|484:172|474:156,1,93.7500035762788,10|0,3:2|0:0,0:0:0:0:
213,317,190711,2,0,B|221:332|221:332|278:341|278:341|294:331,1,93.7500035762788,10|0,3:2|0:0,0:0:0:0:
336,33,190942,5,10,0:0:0:0:
377,162,191057,1,8,0:0:0:0:
458,35,191172,6,0,B|343:26|407:82|280:74,1,187.500007152558,6|0,3:2|0:0,0:0:0:0:
5,243,191635,6,0,B|-5:267|-22:285|-22:285|-6:300|0:324,1,93.7500035762788,10|0,0:0|0:0,0:0:0:0:
90,379,191865,2,0,B|115:375|141:381|141:381|145:359|162:341,1,93.7500035762788,2|0,0:0|0:0,0:0:0:0:
171,241,192096,2,0,B|155:220|147:195|147:195|127:202|103:196,1,93.7500035762788,2|0,3:2|0:0,0:0:0:0:
90,290,192326,5,2,0:0:0:0:
90,290,192442,1,2,0:0:0:0:
242,183,192557,6,0,B|254:209|272:221|272:221|266:246|274:283,1,93.7500035762788,10|0,0:0|0:0,0:0:0:0:
273,375,192788,5,2,0:0:0:0:
330,152,192903,1,10,0:0:0:0:
506,347,193019,6,0,B|450:357|425:305|437:300|406:243|341:256,1,187.500007152558,6|0,3:2|0:0,0:0:0:0:
512,127,193480,6,0,B|484:238|514:128|486:239,1,93.7500035762788,8|0,0:0|0:0,0:0:0:0:
330,152,193711,5,10,0:0:0:0:
396,73,193826,1,8,0:0:0:0:
218,9,193942,1,2,3:2:0:0:
223,193,194057,2,0,B|216:152|216:152|197:121|197:121|198:86,1,93.7500035762788,8|0,0:0|0:0,0:0:0:0:
206,93,194288,1,10,0:0:0:0:
68,342,194403,5,10,0:0:0:0:
204,298,194519,1,8,0:0:0:0:
330,152,194634,5,10,0:0:0:0:
491,218,194749,1,8,0:0:0:0:
112,240,194865,6,0,B|63:66|115:239|66:64,1,174.999994659424,6|0,3:2|0:0,0:0:0:0:
479,53,195326,2,0,P|433:99|390:20,1,174.999994659424,10|0,0:0|0:0,0:0:0:0:
403,7,195672,1,2,0:0:0:0:
433,265,195788,6,0,P|442:316|447:351,1,87.499997329712,2|0,3:2|0:0,0:0:0:0:
361,370,196019,2,0,P|354:326|346:283,1,87.499997329712,2|0,0:0|0:0,0:0:0:0:
260,296,196249,2,0,P|267:339|274:382,1,87.499997329712,10|0,0:0|0:0,0:0:0:0:
114,178,196480,2,0,B|80:166|64:185|64:185|94:195|114:176,1,87.499997329712,2|8,0:0|0:0,0:0:0:0:
171,313,196711,6,0,B|148:275|181:232|194:244|228:197|206:148,1,174.999994659424,2|0,3:2|0:0,0:0:0:0:
278,22,197172,2,0,B|283:51|292:61|292:61|283:69|277:105,1,87.499997329712,10|0,0:0|0:0,0:0:0:0:
143,98,197403,2,0,B|137:68|128:58|128:58|137:50|143:14,1,87.499997329712,2|0,0:0|0:0,0:0:0:0:
362,11,197634,2,0,B|447:18|412:90|503:101,1,174.999994659424,0|8,3:2|3:2,0:0:0:0:
512,15,198095,1,10,3:2:0:0:
359,97,198326,5,10,0:0:0:0:
359,97,198442,1,10,0:0:0:0:
461,320,198557,5,6,3:2:0:0:
476,195,198672,1,2,0:0:0:0:
305,361,198788,5,2,0:0:0:0:
299,169,198903,1,2,0:0:0:0:
93,350,199019,6,0,L|104:244,1,93.7500035762788,10|0,0:0|0:0,0:0:0:0:
136,41,199249,5,2,0:0:0:0:
218,105,199365,1,2,0:0:0:0:
0,124,199480,6,0,P|45:121|94:140,1,93.7500035762788,2|0,3:2|0:0,0:0:0:0:
204,184,199711,2,0,P|159:187|110:168,1,93.7500035762788,2|0,3:2|0:0,0:0:0:0:
13,244,199942,6,0,P|58:241|107:260,1,93.7500035762788,10|0,0:0|0:0,0:0:0:0:
200,301,200173,2,0,P|155:304|106:285,1,93.7500035762788,2|8,0:0|0:0,0:0:0:0:
299,169,200403,6,0,P|298:222|272:256,1,93.7500035762788,2|0,3:2|0:0,0:0:0:0:
322,366,200634,2,0,P|365:387|424:372,1,93.7500035762788,2|0,0:0|0:0,0:0:0:0:
512,291,200865,2,0,P|518:241|494:193,1,93.7500035762788,10|0,0:0|0:0,0:0:0:0:
371,123,201095,5,2,0:0:0:0:
406,237,201211,1,8,0:0:0:0:
505,83,201326,1,0,3:2:0:0:
411,0,201442,1,8,0:0:0:0:
190,135,201557,6,0,B|197:143|197:143|270:141|270:141|275:133,1,93.7500035762788,10|0,3:2|0:0,0:0:0:0:
46,0,201788,2,0,B|35:1|35:1|-4:62|-4:62|-1:71,1,93.7500035762788,10|0,3:2|0:0,0:0:0:0:
140,374,202019,5,10,0:0:0:0:
136,204,202134,1,8,0:0:0:0:
0,338,202249,6,0,B|41:354|87:320|75:303|118:274|162:293,2,174.999994659424,6|0|8,3:2|0:0|0:0,0:0:0:0:
325,248,202942,6,0,B|368:264|368:264|311:295,1,87.499997329712,2|0,0:0|0:0,0:0:0:0:
249,384,203172,2,0,B|231:197|253:383|235:197,1,174.999994659424,2|0,3:2|0:0,0:0:0:0:
236,184,203519,1,2,0:0:0:0:
415,338,203634,6,0,P|373:365|318:365,1,87.499997329712,10|0,0:0|0:0,0:0:0:0:
317,163,203865,2,0,P|383:171|418:210,1,87.499997329712,2|8,0:0|0:0,0:0:0:0:
512,292,204095,6,0,B|528:255|509:207|499:213|480:164|497:119,1,174.999994659424,2|0,3:2|0:0,0:0:0:0:
241,0,204557,2,0,B|271:36|229:77|229:77|174:66|179:18,1,174.999994659424,10|0,0:0|0:0,0:0:0:0:
0,260,205019,2,0,B|43:249|75:274|75:274|90:286|90:286|123:308|173:289,1,174.999994659424,2|8,3:2|3:2,0:0:0:0:
183,215,205480,1,10,3:2:0:0:
314,368,205711,5,10,0:0:0:0:
354,187,205826,1,8,0:0:0:0:
426,289,205942,6,0,B|366:246|303:283|303:283|286:294|286:294|222:333|145:281,1,281.250010728836,6|0,3:2|0:0,0:0:0:0:
100,243,206403,1,10,0:0:0:0:
218,41,206634,6,0,P|246:107|230:135,1,93.7500035762788,2|0,0:0|0:0,0:0:0:0:
39,89,206865,2,0,P|37:17|65:-8,1,93.7500035762788,2|0,3:2|0:0,0:0:0:0:
100,243,207095,5,2,0:0:0:0:
8,186,207211,1,2,0:0:0:0:
175,175,207326,6,0,P|211:223|210:279,1,93.7500035762788,10|0,0:0|0:0,0:0:0:0:
219,384,207557,2,0,P|270:355|319:361,1,93.7500035762788,2|8,0:0|0:0,0:0:0:0:
484,374,207788,2,0,P|422:340|497:298,2,187.500007152558,2|8|8,3:2|3:2|3:2,0:0:0:0:
512,207,208365,5,2,3:2:0:0:
474,169,208480,1,2,3:2:0:0:
420,172,208595,1,2,3:2:0:0:
321,254,208711,5,10,0:0:0:0:
226,276,208826,1,2,3:2:0:0:
180,95,208942,1,10,0:0:0:0:
275,72,209057,1,2,3:2:0:0:
22,289,209172,5,10,0:0:0:0:
0,192,209288,1,0,3:2:0:0:
95,169,209403,1,10,0:0:0:0:
117,266,209519,1,0,3:2:0:0:
58,230,209634,5,2,3:2:0:0:
58,230,210326,6,0,B|93:221|118:251|112:258|138:284|169:276,1,125,2|2,0:0|0:0,0:0:0:0:
251,249,210788,2,0,P|214:264|229:337,2,125,2|2|2,0:0|0:0|0:0,0:0:0:0:
453,384,211480,6,0,P|484:351|480:296,1,81.2499962806703,4|0,3:2|0:0,0:0:0:0:
379,134,211711,1,2,0:0:0:0:
414,206,211826,1,2,0:0:0:0:
467,143,211942,2,0,P|426:111|368:132,1,81.2499962806703,10|0,0:0|0:0,0:0:0:0:
216,89,212172,1,2,0:0:0:0:
233,14,212288,2,0,P|211:64|226:106,1,81.2499962806703,2|0,0:0|3:2,0:0:0:0:
247,214,212519,1,2,0:0:0:0:
0,168,212634,2,0,P|44:146|90:164,1,81.2499962806703,2|2,0:0|0:0,0:0:0:0:
112,384,212865,5,10,0:0:0:0:
98,375,212980,1,2,0:0:0:0:
108,362,213095,1,2,0:0:0:0:
121,371,213211,1,10,0:0:0:0:
13,260,213326,5,2,3:2:0:0:
108,238,213442,1,2,0:0:0:0:
193,284,213557,1,2,0:0:0:0:
218,377,213672,1,2,0:0:0:0:
255,193,213788,5,10,0:0:0:0:
293,233,213903,1,2,0:0:0:0:
305,288,214019,1,2,0:0:0:0:
297,344,214134,1,2,0:0:0:0:
401,267,214249,5,2,3:2:0:0:
407,301,214365,1,2,0:0:0:0:
400,336,214480,1,10,3:2:0:0:
379,364,214595,1,2,0:0:0:0:
433,173,214711,6,0,P|480:152|524:167,1,81.2499962806703,10|2,3:2|0:0,0:0:0:0:
491,246,214942,5,10,0:0:0:0:
491,246,215057,1,10,0:0:0:0:
512,39,215172,5,6,3:2:0:0:
472,67,215288,1,2,0:0:0:0:
423,67,215403,1,2,0:0:0:0:
381,40,215519,1,2,0:0:0:0:
224,81,215634,5,10,0:0:0:0:
218,104,215749,1,2,0:0:0:0:
293,159,215865,2,0,P|304:115|311:77,1,81.2499962806703,2|2,0:0|0:0,0:0:0:0:
8,50,216095,5,2,3:2:0:0:
107,147,216211,1,2,0:0:0:0:
81,21,216326,1,2,0:0:0:0:
0,191,216442,1,2,0:0:0:0:
119,118,216557,1,10,0:0:0:0:
77,339,216672,2,0,P|70:268|80:232,1,81.2499962806703,2|0,0:0|0:0,0:0:0:0:
85,238,216903,1,10,0:0:0:0:
330,353,217019,6,0,P|248:321|176:361,1,162.499992561341,2|2,3:2|0:0,0:0:0:0:
176,374,217365,1,2,0:0:0:0:
379,238,217480,2,0,P|460:238|515:313,1,162.499992561341,10|2,0:0|0:0,0:0:0:0:
508,320,217826,1,10,0:0:0:0:
229,200,217942,5,2,3:2:0:0:
306,129,218057,1,10,0:0:0:0:
286,286,218172,6,0,B|280:292|280:292|212:290|212:290|206:282,1,81.2499962806703,10|0,3:2|0:0,0:0:0:0:
353,37,218403,2,0,B|361:35|361:35|413:79|413:79|413:89,1,81.2499962806703,10|0,3:2|0:0,0:0:0:0:
65,162,218634,5,10,0:0:0:0:
143,0,218749,1,8,0:0:0:0:
181,106,218865,6,0,B|138:116|104:93|109:73|71:38|22:51,1,162.499992561341,4|2,3:2|0:0,0:0:0:0:
14,59,219211,1,2,0:0:0:0:
0,233,219326,5,10,0:0:0:0:
26,262,219442,1,2,0:0:0:0:
66,272,219557,1,2,0:0:0:0:
104,261,219672,1,2,0:0:0:0:
176,335,219788,5,2,3:2:0:0:
211,303,219903,1,2,0:0:0:0:
259,296,220019,1,2,0:0:0:0:
304,314,220134,1,2,0:0:0:0:
424,349,220249,5,10,0:0:0:0:
414,269,220365,1,2,0:0:0:0:
478,221,220480,1,2,0:0:0:0:
487,300,220596,1,10,0:0:0:0:
317,218,220711,5,2,3:2:0:0:
308,170,220826,1,2,0:0:0:0:
342,97,220942,1,2,0:0:0:0:
353,50,221057,1,2,0:0:0:0:
211,4,221172,5,10,0:0:0:0:
217,27,221288,1,2,0:0:0:0:
194,35,221403,1,2,0:0:0:0:
186,11,221519,1,2,0:0:0:0:
0,160,221634,5,2,3:2:0:0:
77,138,221749,1,2,0:0:0:0:
140,188,221865,1,10,3:2:0:0:
217,163,221980,1,2,0:0:0:0:
2,305,222095,6,0,P|-1:360|21:405,1,81.2499962806703,10|2,3:2|0:0,0:0:0:0:
109,337,222326,5,8,0:0:0:0:
109,337,222442,1,8,0:0:0:0:
109,337,222557,5,2,3:2:0:0:
150,379,222672,1,2,0:0:0:0:
213,372,222788,1,2,0:0:0:0:
213,372,223019,5,10,0:0:0:0:
276,322,223134,1,2,0:0:0:0:
357,319,223249,1,2,0:0:0:0:
423,365,223365,1,2,0:0:0:0:
501,312,223480,5,2,3:2:0:0:
488,228,223595,1,2,0:0:0:0:
394,231,223711,5,2,0:0:0:0:
407,147,223826,1,2,0:0:0:0:
483,35,223942,5,10,0:0:0:0:
507,113,224057,2,0,P|494:71|480:22,1,81.2499962806703,2|2,0:0|0:0,0:0:0:0:
280,0,224288,1,10,0:0:0:0:
375,8,224403,6,0,B|333:3|305:40|314:48|281:84|236:74,1,162.499992561341,4|2,3:2|0:0,0:0:0:0:
224,71,224865,2,0,P|269:88|289:132,1,81.2499962806703,10|0,0:0|0:0,0:0:0:0:
29,95,225095,5,2,0:0:0:0:
24,79,225211,2,0,P|15:32|8:-9,1,81.2499962806703,2|0,0:0|3:2,0:0:0:0:
167,256,225442,1,8,0:0:0:0:
186,157,225557,2,0,P|179:197|172:237,1,81.2499962806703,8|0,3:2|3:2,0:0:0:0:
9,281,225788,5,10,0:0:0:0:
85,337,225903,1,8,0:0:0:0:
260,213,226019,1,10,0:0:0:0:
357,280,226134,1,10,0:0:0:0:
378,384,226249,6,0,P|396:271|396:208,1,162.499992561341,6|2,3:2|0:0,0:0:0:0:
382,82,226595,1,2,0:0:0:0:
482,139,226711,1,10,0:0:0:0:
488,156,226826,2,0,P|491:193|488:239,1,81.2499962806703,2|0,0:0|0:0,0:0:0:0:
294,117,227057,2,0,P|291:80|294:34,1,81.2499962806703,2|0,0:0|3:2,0:0:0:0:
306,15,227288,1,2,0:0:0:0:
396,223,227403,6,0,P|340:216|301:232,1,81.2499962806703,2|0,0:0|0:0,0:0:0:0:
162,293,227634,2,0,P|114:295|69:274,1,81.2499962806703,10|0,0:0|0:0,0:0:0:0:
26,86,227865,1,2,0:0:0:0:
98,49,227980,1,10,0:0:0:0:
34,4,228095,6,0,P|53:78|134:150,1,162.499992561341,2|2,3:2|0:0,0:0:0:0:
189,135,228442,1,2,0:0:0:0:
294,316,228557,1,10,0:0:0:0:
281,348,228672,1,2,0:0:0:0:
281,348,228903,6,0,P|277:305|264:264,1,81.2499962806703,2|0,0:0|3:2,0:0:0:0:
83,283,229134,1,2,0:0:0:0:
83,283,229249,2,0,P|89:324|101:362,1,81.2499962806703,10|0,3:2|0:0,0:0:0:0:
171,213,229480,2,0,P|177:172|189:134,1,81.2499962806703,10|0,3:2|0:0,0:0:0:0:
357,79,229711,5,10,0:0:0:0:
247,45,229826,1,8,0:0:0:0:
378,0,229942,6,0,P|403:68|395:110,1,81.2499962806703,6|0,3:2|0:0,0:0:0:0:
391,256,230172,2,0,P|386:248|394:258,1,81.2499962806703,2|0,0:0|0:0,0:0:0:0:
400,246,230403,1,10,0:0:0:0:
308,155,230519,2,0,B|276:154|276:154|214:227|214:227|174:220,1,162.499992561341,2|0,0:0|0:0,0:0:0:0:
4,126,230865,5,2,3:2:0:0:
7,141,230980,2,0,P|17:197|20:234,1,81.2499962806703,2|0,0:0|0:0,0:0:0:0:
146,145,231211,2,0,P|150:104|158:64,1,81.2499962806703,2|8,0:0|0:0,0:0:0:0:
295,74,231442,2,0,P|299:114|307:154,1,81.2499962806703,2|0,0:0|0:0,0:0:0:0:
421,363,231672,6,0,P|386:348|371:381,1,81.2499962806703,10|0,0:0|3:2,0:0:0:0:
250,290,231903,2,0,P|266:322|300:307,1,81.2499962806703,2|0,0:0|0:0,0:0:0:0:
163,373,232134,2,0,P|146:340|112:355,1,81.2499962806703,2|8,0:0|0:0,0:0:0:0:
0,312,232365,2,0,P|66:276|126:269,1,81.2499962806703,2|0,0:0|0:0,0:0:0:0:
149,261,232595,1,8,0:0:0:0:
62,82,232711,6,0,B|9:103|9:103|-7:139,2,81.2499962806703,2|2|10,3:2|0:0|3:2,0:0:0:0:
349,173,233172,2,0,B|339:151|339:151|287:128,1,81.2499962806703,10|2,3:2|0:0,0:0:0:0:
96,170,233403,5,10,0:0:0:0:
96,170,233519,1,8,0:0:0:0:
158,68,233634,5,6,3:2:0:0:
195,81,233749,1,2,0:0:0:0:
235,74,233865,1,2,0:0:0:0:
266,49,233980,1,2,0:0:0:0:
287,128,234095,5,10,0:0:0:0:
330,105,234211,1,2,0:0:0:0:
354,62,234326,1,2,0:0:0:0:
360,13,234442,1,2,0:0:0:0:
458,0,234557,5,2,3:2:0:0:
502,57,234672,1,2,0:0:0:0:
505,129,234787,1,2,0:0:0:0:
482,198,234903,1,2,0:0:0:0:
469,212,235019,1,10,0:0:0:0:
365,232,235249,5,2,0:0:0:0:
365,232,235365,1,10,0:0:0:0:
431,349,235480,5,2,3:2:0:0:
434,325,235595,1,2,0:0:0:0:
332,307,235711,2,0,P|351:354|348:395,1,81.2499962806703,2|2,0:0|0:0,0:0:0:0:
255,370,235942,5,10,0:0:0:0:
170,355,236057,1,2,0:0:0:0:
135,272,236172,1,2,0:0:0:0:
220,287,236287,1,2,0:0:0:0:
10,373,236403,6,0,P|20:325|16:275,1,81.2499962806703,2|2,3:2|0:0,0:0:0:0:
167,29,236634,2,0,P|185:76|181:132,1,81.2499962806703,10|2,3:2|0:0,0:0:0:0:
19,191,236865,2,0,P|1:144|5:88,1,81.2499962806703,10|2,3:2|0:0,0:0:0:0:
48,7,237095,5,10,0:0:0:0:
48,7,237211,1,10,0:0:0:0:
305,257,237326,6,0,P|282:213|233:206,1,81.2499962806703,6|0,3:2|0:0,0:0:0:0:
19,191,237557,2,0,P|80:202|118:179,1,81.2499962806703,2|0,0:0|0:0,0:0:0:0:
254,0,237788,2,0,P|248:56|263:90,1,81.2499962806703,10|0,0:0|0:0,0:0:0:0:
440,160,238019,2,0,P|377:157|344:184,1,81.2499962806703,2|0,0:0|0:0,0:0:0:0:
152,384,238249,2,0,P|151:316|169:221,2,162.499992561341,0|0|8,3:2|3:2|0:0,0:0:0:0:
388,374,238942,5,2,0:0:0:0:
388,374,239057,1,10,0:0:0:0:
429,324,239172,6,0,P|372:331|332:341,1,81.2499962806703,2|0,3:2|0:0,0:0:0:0:
163,276,239403,2,0,P|215:253|255:242,1,81.2499962806703,8|0,3:2|0:0,0:0:0:0:
438,194,239634,2,0,P|385:171|345:160,1,81.2499962806703,8|0,3:2|0:0,0:0:0:0:
96,73,239865,5,8,0:0:0:0:
64,291,239980,1,8,0:0:0:0:
221,124,240095,5,0,3:2:0:0:
238,245,240211,1,8,0:0:0:0:
381,90,240326,5,8,0:0:0:0:
355,336,240442,1,8,0:0:0:0:
492,123,240557,5,10,0:0:0:0:
512,280,240672,1,8,0:0:0:0:
289,373,240788,5,10,0:0:0:0:
306,210,240903,1,8,0:0:0:0:
398,269,241019,1,2,3:2:0:0:
