osu file format v14

[General]
AudioFilename: underkids.mp3
AudioLeadIn: 0
PreviewTime: 113033
Countdown: 0
SampleSet: Normal
StackLeniency: 0.7
Mode: 1
LetterboxInBreaks: 0
WidescreenStoryboard: 0

[Editor]
Bookmarks: 22270,50136,67203,86403,96003,113070,132270,137603,154670,173870,190936
DistanceSpacing: 1.5
BeatDivisor: 4
GridSize: 32
TimelineZoom: 2.499999

[Metadata]
Title:Under Kids
TitleUnicode:アンダーキッズ
Artist:TUYU
ArtistUnicode:ツユ
Creator:arcpotato
Version:arc & ler's Counterattack
Source:
Tags:underkids rinze ler1211 female vocals japanese pop jpop j-pop rock jrock j-rock rei pusu miro 礼衣 ぷす ミロ futaba haru 双葉陽 sukoyaka tsukasa すこやかツカサ azyun tsuyu
BeatmapID:3726149
BeatmapSetID:1816322

[Difficulty]
HPDrainRate:5.5
CircleSize:2
OverallDifficulty:7
ApproachRate:10
SliderMultiplier:1.4
SliderTickRate:1

[Events]
//Background and Video events
0,0,"bg.jpg",0,60
Video,-20,"underkids.mp4"
//Break Periods
//Storyboard Layer 0 (Background)
//Storyboard Layer 1 (Fail)
//Storyboard Layer 2 (Pass)
//Storyboard Layer 3 (Foreground)
//Storyboard Layer 4 (Overlay)
//Storyboard Sound Samples

[TimingPoints]
1133,266.666666666667,4,1,0,90,1,0
1133,-90.9090909090909,4,1,0,90,0,1
1266,-100,4,1,0,90,0,1
5399,-90.9090909090909,4,1,0,90,0,1
5533,-100,4,1,0,90,0,1
7730,-100.336126022174,4,1,0,90,0,1
7796,-100.669451854835,4,1,0,90,0,1
7930,-101.353063396341,4,1,0,90,0,1
8063,-102.040816326531,4,1,0,90,0,1
8130,-102.39082578201,4,1,0,90,0,1
8196,-102.737966815637,4,1,0,90,0,1
8330,-103.450059483784,4,1,0,90,0,1
8463,-104.166666666667,4,1,0,90,0,1
8596,-104.893271096659,4,1,0,90,0,1
8663,-105.263157894737,4,1,0,90,0,1
8730,-105.635662599694,4,1,0,90,0,1
8796,-106.005194254518,4,1,0,90,0,1
8863,-106.382978723404,4,1,0,90,0,1
8996,-107.140943911716,4,1,0,90,0,1
9130,-107.915609992985,4,1,0,90,0,1
9196,-108.301294200466,4,1,0,90,0,1
9263,-108.695652173913,4,1,0,90,0,1
9396,-109.487053155964,4,1,0,90,0,1
9530,-110.296145149727,4,1,0,90,0,1
9666,-111.111111111111,4,1,0,90,0,0
9933,-125,4,1,0,70,0,0
13933,-125,4,1,0,90,0,1
14063,-123.081361800346,4,1,0,90,0,1
14196,-121.220731984542,4,1,0,90,0,1
14263,-120.304568527919,4,1,0,90,0,1
14330,-119.402149574563,4,1,0,90,0,1
14396,-118.526339186486,4,1,0,90,0,1
14463,-117.650303364589,4,1,0,90,0,1
14596,-115.949119373777,4,1,0,90,0,1
14730,-114.284183454779,4,1,0,90,0,1
14796,-113.481591828049,4,1,0,90,0,1
14863,-112.678288431062,4,1,0,90,0,1
14930,-111.886277801091,4,1,0,90,0,1
14996,-111.116899354032,4,1,0,90,0,1
15063,-110.346611484739,4,1,0,90,0,1
15130,-109.586929716399,4,1,0,90,0,1
15263,-108.109477952357,4,1,0,90,0,1
15330,-107.380185259766,4,1,0,90,0,1
15396,-106.671334266853,4,1,0,90,0,1
15463,-105.961251862891,4,1,0,90,0,1
15530,-105.260560600079,4,1,0,90,0,1
15596,-104.579329280251,4,1,0,90,0,1
15663,-103.896736483195,4,1,0,90,0,1
15730,-103.222996515679,4,1,0,90,0,1
15796,-102.567801500289,4,1,0,90,0,1
15863,-101.911132345915,4,1,0,90,0,1
15930,-101.262818078238,4,1,0,90,0,1
16063,-100,4,1,0,90,0,1
16330,-103.89989775549,4,1,0,90,0,1
16463,-105.958291956306,4,1,0,90,0,1
16596,-108.09989362241,4,1,0,90,0,1
16730,-110.346967268214,4,1,0,90,0,1
16863,-112.671594508976,4,1,0,90,0,1
16996,-115.096273124427,4,1,0,90,0,1
17133,-117.647058823529,4,1,0,90,0,0
17399,-133.333333333333,4,1,0,70,0,0
22266,-100,4,1,0,90,0,0
24999,-125,4,1,0,70,0,0
37266,-100,4,1,0,90,0,0
37663,-125,4,1,0,90,0,0
37796,-123.896741655053,4,1,0,90,0,0
37930,-122.80470959679,4,1,0,90,0,0
37996,-122.273888270352,4,1,0,90,0,0
38063,-121.739697443923,4,1,0,90,0,0
38196,-120.692998901028,4,1,0,90,0,0
38330,-119.656476318657,4,1,0,90,0,0
38463,-118.645144890696,4,1,0,90,0,0
38530,-118.142124912991,4,1,0,90,0,0
38596,-117.650765643708,4,1,0,90,0,0
38663,-117.156124497992,4,1,0,90,0,0
38730,-116.665625195276,4,1,0,90,0,0
38863,-115.704015865146,4,1,0,90,0,0
38996,-114.758128956912,4,1,0,90,0,0
39063,-114.287463271303,4,1,0,90,0,0
39130,-113.820642565384,4,1,0,90,0,0
39263,-112.905176584422,4,1,0,90,0,0
39396,-112.004319395285,4,1,0,90,0,0
39530,-111.111111111111,4,1,0,90,0,0
41666,-100,4,1,0,90,0,0
45933,-90.9090909090909,4,1,0,90,0,0
46199,-100,4,1,0,90,0,0
48063,-100,4,1,0,90,0,0
48196,-100.838217684502,4,1,0,90,0,0
48330,-101.697069853175,4,1,0,90,0,0
48396,-102.125486691773,4,1,0,90,0,0
48463,-102.564102564103,4,1,0,90,0,0
48596,-103.446046421413,4,1,0,90,0,0
48730,-104.350094567273,4,1,0,90,0,0
48796,-104.80120521386,4,1,0,90,0,0
48863,-105.263157894737,4,1,0,90,0,0
48930,-105.729201083724,4,1,0,90,0,0
48996,-106.192340877414,4,1,0,90,0,0
49063,-106.666666666667,4,1,0,90,0,0
49130,-107.145248777875,4,1,0,90,0,0
49263,-108.108108108108,4,1,0,90,0,0
49396,-109.088429808413,4,1,0,90,0,0
49663,-111.111111111111,4,1,0,90,0,0
50199,-90.9090909090909,4,1,0,90,0,1
50333,-100,4,1,0,90,0,1
54466,-90.9090909090909,4,1,0,90,0,1
54533,-100,4,1,0,90,0,1
56796,-100.331092605598,4,1,0,90,0,1
56863,-100.669451854835,4,1,0,90,0,1
56930,-101.010101010101,4,1,0,90,0,1
56996,-101.347927434884,4,1,0,90,0,1
57130,-102.040816326531,4,1,0,90,0,1
57263,-102.737966815637,4,1,0,90,0,1
57330,-103.092783505155,4,1,0,90,0,1
57396,-103.444708803145,4,1,0,90,0,1
57463,-103.804432449266,4,1,0,90,0,1
57530,-104.166666666667,4,1,0,90,0,1
57596,-104.525974704714,4,1,0,90,0,1
57663,-104.893271096659,4,1,0,90,0,1
57796,-105.630083447766,4,1,0,90,0,1
57930,-106.382978723404,4,1,0,90,0,1
58063,-107.140943911716,4,1,0,90,0,1
58130,-107.52688172043,4,1,0,90,0,1
58196,-107.909787417719,4,1,0,90,0,1
58263,-108.301294200466,4,1,0,90,0,1
58330,-108.695652173913,4,1,0,90,0,1
58396,-109.086942293008,4,1,0,90,0,1
58463,-109.487053155964,4,1,0,90,0,1
58596,-110.290062865336,4,1,0,90,0,1
58733,-111.111111111111,4,1,0,90,0,0
58999,-125,4,1,0,70,0,0
62999,-125,4,1,0,90,0,1
63130,-123.068050749712,4,1,0,90,0,1
63263,-121.20867885948,4,1,0,90,0,1
63330,-120.293122886133,4,1,0,90,0,1
63396,-119.404655326768,4,1,0,90,0,1
63463,-118.516050205487,4,1,0,90,0,1
63530,-117.640573318633,4,1,0,90,0,1
63663,-115.940454199717,4,1,0,90,0,1
63796,-114.288774635818,4,1,0,90,0,1
63863,-113.474423056471,4,1,0,90,0,1
63930,-112.671594508976,4,1,0,90,0,1
63996,-111.89177852349,4,1,0,90,0,1
64063,-111.111111111111,4,1,0,90,0,1
64130,-110.341261633919,4,1,0,90,0,1
64196,-109.593262119967,4,1,0,90,0,1
64330,-108.105369807497,4,1,0,90,0,1
64396,-107.387278582931,4,1,0,90,0,1
64463,-106.66799960012,4,1,0,90,0,1
64530,-105.958291956306,4,1,0,90,0,1
64596,-105.268350434096,4,1,0,90,0,1
64663,-104.577085171028,4,1,0,90,0,1
64730,-103.894839337877,4,1,0,90,0,1
64796,-103.231424148607,4,1,0,90,0,1
64863,-102.566567336345,4,1,0,90,0,1
64930,-101.910219675263,4,1,0,90,0,1
64996,-101.271829916477,4,1,0,90,0,1
65130,-100,4,1,0,90,0,1
65396,-103.888509891823,4,1,0,90,0,1
65530,-105.96421471173,4,1,0,90,0,1
65663,-108.108108108108,4,1,0,90,0,1
65796,-110.340544457096,4,1,0,90,0,1
65930,-112.684989429175,4,1,0,90,0,1
66063,-115.112574914961,4,1,0,90,0,1
66199,-117.647058823529,4,1,0,90,0,0
66733,-133.333333333333,4,1,0,90,0,0
67266,-90.9090909090909,4,1,0,90,0,1
67399,-100,4,1,0,90,0,1
71533,-90.9090909090909,4,1,0,90,0,1
71666,-100,4,1,0,90,0,1
75799,-83.3333333333333,4,1,0,90,0,1
75999,-90.9090909090909,4,1,0,90,0,1
80066,-83.3333333333333,4,1,0,90,0,1
80333,-100,4,1,0,90,0,1
84333,-90.9090909090909,4,1,0,90,0,1
84596,-103.888509891823,4,1,0,90,0,1
84730,-105.96421471173,4,1,0,90,0,1
84863,-108.108108108108,4,1,0,90,0,1
84930,-109.22131147541,4,1,0,90,0,1
84996,-110.340544457096,4,1,0,90,0,1
85063,-111.50044453742,4,1,0,90,0,1
85130,-112.684989429175,4,1,0,90,0,1
85263,-115.112574914961,4,1,0,90,0,1
85399,-117.647058823529,4,1,0,90,0,0
86466,-90.9090909090909,4,1,0,90,0,0
87533,-71.4285714285714,4,1,0,90,0,0
88533,-90.9090909090909,4,1,0,90,0,0
88733,-125,4,1,0,70,0,0
91799,-100,4,1,0,90,0,0
91933,-111.111111111111,4,1,0,90,0,0
92333,-100,4,1,0,90,0,0
96066,-90.9090909090909,4,1,0,90,0,1
96199,-100,4,1,0,90,0,1
104599,-90.9090909090909,4,1,0,90,0,0
104866,-125,4,1,0,70,0,0
108866,-125,4,1,0,90,0,1
108996,-123.081361800346,4,1,0,90,0,1
109130,-121.206955335834,4,1,0,90,0,1
109218,-120.00675143468,4,1,0,90,0,1
109263,-119.402149574563,4,1,0,90,0,1
109307,-118.816844919786,4,1,0,90,0,1
109330,-118.513168129792,4,1,0,90,0,1
109396,-117.650303364589,4,1,0,90,0,1
109530,-115.936514838569,4,1,0,90,0,1
109663,-114.284183454779,4,1,0,90,0,1
109730,-113.469518033833,4,1,0,90,0,1
109796,-112.678288431062,4,1,0,90,0,1
109863,-111.886277801091,4,1,0,90,0,1
109930,-111.105323471195,4,1,0,90,0,1
110063,-109.586929716399,4,1,0,90,0,1
110196,-108.109477952357,4,1,0,90,0,1
110285,-107.142857142857,4,1,0,90,0,1
110330,-106.660666066607,4,1,0,90,0,1
110374,-106.193368515384,4,1,0,90,0,1
110396,-105.961251862891,4,1,0,90,0,1
110463,-105.260560600079,4,1,0,90,0,1
110596,-103.896736483195,4,1,0,90,0,1
110730,-102.557938263295,4,1,0,90,0,1
110863,-101.262818078238,4,1,0,90,0,1
110996,-100,4,1,0,90,0,1
111263,-103.89989775549,4,1,0,90,0,1
111396,-105.958291956306,4,1,0,90,0,1
111530,-108.116323842335,4,1,0,90,0,1
111663,-110.346967268214,4,1,0,90,0,1
111796,-112.671594508976,4,1,0,90,0,1
111930,-115.114899126119,4,1,0,90,0,1
112066,-117.647058823529,4,1,0,90,0,0
112533,-133.333333333333,4,1,0,90,0,0
113133,-90.9090909090909,4,1,0,90,0,1
113266,-100,4,1,0,90,0,1
117399,-90.9090909090909,4,1,0,90,0,1
117533,-99.9999999999999,4,1,0,90,0,1
121666,-83.3333333333333,4,1,0,90,0,1
121799,-90.9090909090909,4,1,0,90,0,1
125933,-83.3333333333333,4,1,0,90,0,1
126066,-100,4,1,0,90,0,1
130199,-90.9090909090909,4,1,0,90,0,1
130333,-100,4,1,0,90,0,1
130463,-103.89989775549,4,1,0,90,0,1
130596,-105.958291956306,4,1,0,90,0,1
130730,-108.116323842335,4,1,0,90,0,1
130796,-109.21187308086,4,1,0,90,0,1
130863,-110.346967268214,4,1,0,90,0,1
130930,-111.505904483227,4,1,0,90,0,1
130996,-112.671594508976,4,1,0,90,0,1
131130,-115.114899126119,4,1,0,90,0,1
131266,-117.647058823529,4,1,0,90,0,0
132333,-117.647058823529,4,1,0,90,0,1
132418,-116.91489512171,4,1,0,90,0,1
132507,-116.183622410255,4,1,0,90,0,1
132596,-115.461440683885,4,1,0,90,0,1
132685,-114.748181464823,4,1,0,90,0,1
132774,-114.043680412798,4,1,0,90,0,1
132863,-113.347777198804,4,1,0,90,0,1
132952,-112.660315383462,4,1,0,90,0,1
133041,-111.981142299772,4,1,0,90,0,1
133130,-111.31010894009,4,1,0,90,0,1
133218,-110.654475843697,4,1,0,90,0,1
133307,-109.999201554308,4,1,0,90,0,1
133396,-109.35164239129,4,1,0,90,0,1
133485,-108.711662896523,4,1,0,90,0,1
133574,-108.079130764504,4,1,0,90,0,1
133663,-107.453916751163,4,1,0,90,0,1
133752,-106.835894585827,4,1,0,90,0,1
133841,-106.224940886193,4,1,0,90,0,1
133930,-105.620935076219,4,1,0,90,0,1
134018,-105.030431633651,4,1,0,90,0,1
134107,-104.439895888611,4,1,0,90,0,1
134196,-103.855963613976,4,1,0,90,0,1
134285,-103.278524663901,4,1,0,90,0,1
134374,-102.707471328637,4,1,0,90,0,1
134463,-102.142698267553,4,1,0,90,0,1
134552,-101.58410244436,4,1,0,90,0,1
134641,-101.031583064437,4,1,0,90,0,1
134730,-100.485041514205,4,1,0,90,0,1
134818,-99.9504238159152,4,1,0,90,0,1
134907,-99.4154860125562,4,1,0,90,0,1
134996,-98.8862437343733,4,1,0,90,0,1
135085,-98.3626065019753,4,1,0,90,0,1
135174,-97.8444857423563,4,1,0,90,0,1
135263,-97.3317947389492,4,1,0,90,0,1
135352,-96.8244485832425,4,1,0,90,0,1
135441,-96.3223641279016,4,1,0,90,0,1
135530,-95.8254599413408,4,1,0,90,0,1
135663,-95.092377424476,4,1,0,90,0,1
135796,-94.3704261853387,4,1,0,90,0,1
135885,-93.8934072424917,4,1,0,90,0,1
135974,-93.4211864694115,4,1,0,90,0,1
136063,-92.9536918336594,4,1,0,90,0,1
136130,-92.6048330177793,4,1,0,90,0,1
136196,-92.2637318480651,4,1,0,90,0,1
136263,-91.9200231301292,4,1,0,90,0,1
136330,-91.5788657338164,4,1,0,90,0,1
136466,-90.9090909090909,4,1,0,90,0,0
137666,-90.9090909090909,4,1,0,90,0,1
137799,-100,4,1,0,90,0,1
141933,-90.9090909090909,4,1,0,90,0,1
141999,-100,4,1,0,90,0,1
144263,-100.336126022174,4,1,0,90,0,1
144330,-100.67451927917,4,1,0,90,0,1
144463,-101.353063396341,4,1,0,90,0,1
144596,-102.040816326531,4,1,0,90,0,1
144663,-102.39082578201,4,1,0,90,0,1
144730,-102.743244631665,4,1,0,90,0,1
144863,-103.450059483784,4,1,0,90,0,1
144996,-104.166666666667,4,1,0,90,0,1
145063,-104.531437829927,4,1,0,90,0,1
145130,-104.89877268436,4,1,0,90,0,1
145196,-105.263157894737,4,1,0,90,0,1
145263,-105.635662599694,4,1,0,90,0,1
145330,-106.010813102936,4,1,0,90,0,1
145396,-106.382978723404,4,1,0,90,0,1
145530,-107.146683810136,4,1,0,90,0,1
145663,-107.915609992985,4,1,0,90,0,1
145730,-108.307159103217,4,1,0,90,0,1
145796,-108.695652173913,4,1,0,90,0,1
145863,-109.092892598047,4,1,0,90,0,1
145930,-109.493047191503,4,1,0,90,0,1
146063,-110.296145149727,4,1,0,90,0,1
146199,-111.111111111111,4,1,0,90,0,0
146466,-125,4,1,0,70,0,0
150466,-125,4,1,0,90,0,1
150596,-123.081361800346,4,1,0,90,0,1
150730,-121.206955335834,4,1,0,90,0,1
150796,-120.304568527919,4,1,0,90,0,1
150863,-119.402149574563,4,1,0,90,0,1
150930,-118.513168129792,4,1,0,90,0,1
150996,-117.650303364589,4,1,0,90,0,1
151130,-115.936514838569,4,1,0,90,0,1
151263,-114.284183454779,4,1,0,90,0,1
151330,-113.469518033833,4,1,0,90,0,1
151396,-112.678288431062,4,1,0,90,0,1
151463,-111.886277801091,4,1,0,90,0,1
151530,-111.105323471195,4,1,0,90,0,1
151596,-110.346611484739,4,1,0,90,0,1
151663,-109.586929716399,4,1,0,90,0,1
151796,-108.109477952357,4,1,0,90,0,1
151863,-107.380185259766,4,1,0,90,0,1
151930,-106.660666066607,4,1,0,90,0,1
151996,-105.961251862891,4,1,0,90,0,1
152063,-105.260560600079,4,1,0,90,0,1
152130,-104.569075399549,4,1,0,90,0,1
152196,-103.896736483195,4,1,0,90,0,1
152263,-103.222996515679,4,1,0,90,0,1
152330,-102.557938263295,4,1,0,90,0,1
152396,-101.911132345915,4,1,0,90,0,1
152463,-101.262818078238,4,1,0,90,0,1
152596,-100,4,1,0,90,0,1
152863,-103.89989775549,4,1,0,90,0,1
152996,-105.958291956306,4,1,0,90,0,1
153130,-108.116323842335,4,1,0,90,0,1
153263,-110.346967268214,4,1,0,90,0,1
153396,-112.671594508976,4,1,0,90,0,1
153530,-115.114899126119,4,1,0,90,0,1
153666,-117.647058823529,4,1,0,90,0,0
154199,-133.333333333333,4,1,0,90,0,0
154733,-86.9565217391304,4,1,0,90,0,1
154799,-95.2380952380952,4,1,0,90,0,1
158999,-86.9565217391304,4,1,0,90,0,1
159066,-95.2380952380954,4,1,0,90,0,1
163266,-80,4,1,0,90,0,1
163399,-86.9565217391304,4,1,0,90,0,1
167533,-80,4,1,0,90,0,1
167599,-95.2380952380952,4,1,0,90,0,1
171799,-86.9565217391304,4,1,0,90,0,1
171996,-96.7182117232626,4,1,0,90,0,1
172063,-97.2243920220799,4,1,0,90,0,1
172196,-98.2450601205041,4,1,0,90,0,1
172330,-99.2953064752028,4,1,0,90,0,1
172396,-99.8208891383966,4,1,0,90,0,1
172463,-100.360156963931,4,1,0,90,0,1
172530,-100.905283069855,4,1,0,90,0,1
172596,-101.448094112533,4,1,0,90,0,1
172730,-102.568328526301,4,1,0,90,0,1
172866,-103.704938065878,4,1,0,90,0,0
172930,-104.287110738724,4,1,0,90,0,0
172996,-104.867020529671,4,1,0,90,0,0
173130,-106.064479477347,4,1,0,90,0,0
173263,-107.280353961961,4,1,0,90,0,0
173330,-107.903482155758,4,1,0,90,0,0
173396,-108.524428168687,4,1,0,90,0,0
173530,-109.807381267461,4,1,0,90,0,0
173666,-111.111111111111,4,1,0,90,0,0
173933,-93.7499997070313,4,1,0,90,0,1
174066,-93.7499997070313,4,1,0,90,0,1
178266,-115.979381473191,4,1,0,90,0,1
182466,-100,4,1,0,90,0,1
186771,-110.29411760651,4,1,0,90,0,1
190999,-90.9090909090909,4,1,0,90,0,1
191133,-100,4,1,0,90,0,1
193066,-90.9090909090909,4,1,0,90,0,1
193266,-100,4,1,0,90,0,1
195266,-90.9090909090909,4,1,0,90,0,1
195399,-100,4,1,0,90,0,1
197399,-90.9090909090909,4,1,0,90,0,1
197466,-100,4,1,0,90,0,1
197663,-100.480872748152,4,1,0,90,0,1
197796,-101.449275362319,4,1,0,90,0,1
197930,-102.444021659593,4,1,0,90,0,1
197996,-102.941176470588,4,1,0,90,0,1
198063,-103.450823911919,4,1,0,90,0,1
198130,-103.965542848656,4,1,0,90,0,1
198196,-104.477611940299,4,1,0,90,0,1
198263,-105.002625065627,4,1,0,90,0,1
198330,-105.532941353837,4,1,0,90,0,1
198463,-106.601690398233,4,1,0,90,0,1
198530,-107.148323894076,4,1,0,90,0,1
198596,-107.692307692308,4,1,0,90,0,1
198663,-108.250212634346,4,1,0,90,0,1
198730,-108.813928182807,4,1,0,90,0,1
198863,-109.950522264981,4,1,0,90,0,1
198999,-111.111111111111,4,1,0,90,0,0
199133,-111.111111111111,4,1,0,90,0,0
199266,-111.111111111111,4,1,0,86,0,0
199533,-125,4,1,0,82,0,0
199799,-125,4,1,0,79,0,0
200066,-125,4,1,0,75,0,0
200333,-125,4,1,0,71,0,0
200599,-142.857142857143,4,1,0,68,0,0
200866,-142.857142857143,4,1,0,64,0,0
201133,-142.857142857143,4,1,0,60,0,0
201399,-142.857142857143,4,1,0,56,0,0
201666,-166.666666666666,4,1,0,52,0,0
201933,-166.666666666666,4,1,0,49,0,0
202199,-166.666666666666,4,1,0,45,0,0
202466,-166.666666666666,4,1,0,41,0,0
202733,-200,4,1,0,38,0,0
202999,-200,4,1,0,34,0,0
203266,-200,4,1,0,30,0,0

[HitObjects]
256,192,1133,5,4,0:0:0:0:
256,192,1399,1,0,0:0:0:0:
256,192,1466,1,0,0:0:0:0:
256,192,1533,1,8,0:0:0:0:
256,192,1666,1,0,0:0:0:0:
256,192,1799,1,0,0:0:0:0:
256,192,1933,1,8,0:0:0:0:
256,192,2199,1,0,0:0:0:0:
256,192,2266,1,0,0:0:0:0:
256,192,2333,1,8,0:0:0:0:
256,192,2466,1,0,0:0:0:0:
256,192,2599,1,8,0:0:0:0:
256,192,2733,1,0,0:0:0:0:
256,192,2799,1,8,0:0:0:0:
256,192,2866,1,8,0:0:0:0:
256,192,2999,1,0,0:0:0:0:
256,192,3133,1,8,0:0:0:0:
256,192,3266,1,8,0:0:0:0:
256,192,3333,1,8,0:0:0:0:
256,192,3399,1,0,0:0:0:0:
256,192,3533,1,8,0:0:0:0:
256,192,3666,1,0,0:0:0:0:
256,192,3799,1,8,0:0:0:0:
256,192,3866,1,8,0:0:0:0:
256,192,3933,1,0,0:0:0:0:
256,192,3999,1,0,0:0:0:0:
256,192,4066,1,8,0:0:0:0:
256,192,4133,1,8,0:0:0:0:
256,192,4199,1,0,0:0:0:0:
256,192,4333,1,8,0:0:0:0:
256,192,4599,1,8,0:0:0:0:
256,192,4666,1,8,0:0:0:0:
256,192,4733,1,0,0:0:0:0:
256,192,4866,1,8,0:0:0:0:
256,192,4999,1,0,0:0:0:0:
256,192,5066,1,0,0:0:0:0:
256,192,5133,1,8,0:0:0:0:
256,192,5266,1,8,0:0:0:0:
256,192,5399,1,4,0:0:0:0:
288,192,5533,1,8,0:0:0:0:
288,192,5599,1,8,0:0:0:0:
256,192,5666,1,0,0:0:0:0:
256,192,5733,1,0,0:0:0:0:
256,192,5799,1,0,0:0:0:0:
256,192,5933,1,8,0:0:0:0:
256,192,6066,1,0,0:0:0:0:
256,192,6133,1,0,0:0:0:0:
256,192,6199,1,8,0:0:0:0:
256,192,6266,1,8,0:0:0:0:
256,192,6333,1,0,0:0:0:0:
256,192,6466,1,8,0:0:0:0:
256,192,6533,1,8,0:0:0:0:
256,192,6599,1,0,0:0:0:0:
256,192,6733,1,8,0:0:0:0:
256,192,6866,1,0,0:0:0:0:
224,192,6933,1,0,0:0:0:0:
256,192,6999,1,8,0:0:0:0:
256,192,7066,1,8,0:0:0:0:
256,192,7133,1,0,0:0:0:0:
256,192,7199,1,8,0:0:0:0:
256,192,7266,1,0,0:0:0:0:
256,192,7399,1,8,0:0:0:0:
256,192,7666,1,8,0:0:0:0:
256,192,7733,1,8,0:0:0:0:
256,192,7799,1,0,0:0:0:0:
256,192,7933,1,8,0:0:0:0:
256,192,8066,1,0,0:0:0:0:
256,192,8133,1,0,0:0:0:0:
256,192,8199,1,0,0:0:0:0:
256,192,8333,1,8,0:0:0:0:
256,192,8466,1,0,0:0:0:0:
256,192,8599,1,8,0:0:0:0:
256,192,8666,1,0,0:0:0:0:
256,192,8733,1,0,0:0:0:0:
256,192,8799,1,0,0:0:0:0:
256,192,8866,1,8,0:0:0:0:
256,192,8999,1,0,0:0:0:0:
256,192,9133,1,8,0:0:0:0:
256,192,9199,1,8,0:0:0:0:
256,192,9266,1,0,0:0:0:0:
256,192,9399,1,8,0:0:0:0:
256,192,9533,1,8,0:0:0:0:
256,192,9666,1,4,0:0:0:0:
256,192,10199,1,8,0:0:0:0:
256,192,10466,1,8,0:0:0:0:
256,192,10733,1,0,0:0:0:0:
256,192,10999,1,0,0:0:0:0:
256,192,11266,1,8,0:0:0:0:
256,192,11799,1,0,0:0:0:0:
256,192,12066,1,0,0:0:0:0:
256,192,12333,1,8,0:0:0:0:
256,192,12866,1,0,0:0:0:0:
256,192,13133,1,8,0:0:0:0:
256,192,13399,1,0,0:0:0:0:
256,192,13533,1,0,0:0:0:0:
256,192,13666,1,8,0:0:0:0:
256,192,13933,1,4,0:0:0:0:
256,192,14066,1,8,0:0:0:0:
256,192,14199,1,0,0:0:0:0:
256,192,14266,1,0,0:0:0:0:
256,192,14333,1,8,0:0:0:0:
256,192,14399,1,0,0:0:0:0:
256,192,14466,1,8,0:0:0:0:
256,192,14599,1,0,0:0:0:0:
256,192,14733,1,8,0:0:0:0:
256,192,14799,1,8,0:0:0:0:
256,192,14866,1,0,0:0:0:0:
256,192,14933,1,0,0:0:0:0:
256,192,14999,1,8,0:0:0:0:
256,192,15133,1,8,0:0:0:0:
256,192,15266,1,0,0:0:0:0:
256,192,15333,1,0,0:0:0:0:
256,192,15399,1,8,0:0:0:0:
256,192,15466,1,8,0:0:0:0:
256,192,15533,1,0,0:0:0:0:
256,192,15599,1,8,0:0:0:0:
256,192,15666,1,0,0:0:0:0:
256,192,15733,1,0,0:0:0:0:
256,192,15799,1,8,0:0:0:0:
256,192,15866,1,0,0:0:0:0:
256,192,15933,1,8,0:0:0:0:
256,192,16066,1,0,0:0:0:0:
256,192,16333,1,0,0:0:0:0:
256,192,16466,1,0,0:0:0:0:
256,192,16599,1,8,0:0:0:0:
256,192,16733,1,0,0:0:0:0:
256,192,16866,1,8,0:0:0:0:
256,192,16999,1,0,0:0:0:0:
256,192,17133,1,12,0:0:0:0:
256,192,17666,1,8,0:0:0:0:
256,192,17799,1,8,0:0:0:0:
256,192,18199,1,0,0:0:0:0:
256,192,18733,1,8,0:0:0:0:
256,192,18999,1,0,0:0:0:0:
256,192,19266,1,8,0:0:0:0:
256,192,19533,1,8,0:0:0:0:
256,192,19799,1,0,0:0:0:0:
256,192,20066,1,0,0:0:0:0:
256,192,20333,1,8,0:0:0:0:
256,192,20599,1,8,0:0:0:0:
256,192,20733,1,0,0:0:0:0:
256,192,20866,1,8,0:0:0:0:
256,192,21133,1,0,0:0:0:0:
256,192,21266,1,0,0:0:0:0:
256,192,21399,1,8,0:0:0:0:
256,192,21933,1,0,0:0:0:0:
256,192,22066,1,8,0:0:0:0:
256,192,22333,5,4,0:0:0:0:
256,192,22599,1,8,0:0:0:0:
256,192,22733,1,8,0:0:0:0:
256,192,22799,1,8,0:0:0:0:
256,192,22866,1,0,0:0:0:0:
256,192,22999,1,8,0:0:0:0:
256,192,23133,1,0,0:0:0:0:
256,192,23199,1,0,0:0:0:0:
256,192,23266,1,8,0:0:0:0:
256,192,23399,1,0,0:0:0:0:
256,192,23533,1,8,0:0:0:0:
256,192,23599,1,8,0:0:0:0:
256,192,23666,1,0,0:0:0:0:
256,192,23733,1,8,0:0:0:0:
256,192,23799,1,0,0:0:0:0:
256,192,23866,1,0,0:0:0:0:
256,192,23933,1,8,0:0:0:0:
256,192,24066,1,0,0:0:0:0:
256,192,24199,1,8,0:0:0:0:
256,192,24599,1,4,0:0:0:0:
256,192,25133,1,0,0:0:0:0:
256,192,25666,1,8,0:0:0:0:
256,192,26199,1,8,0:0:0:0:
256,192,26733,1,0,0:0:0:0:
256,192,27266,1,8,0:0:0:0:
256,192,27799,1,0,0:0:0:0:
256,192,28333,1,8,0:0:0:0:
256,192,28466,1,8,0:0:0:0:
256,192,28866,1,0,0:0:0:0:
256,192,29399,1,0,0:0:0:0:
256,192,29933,1,8,0:0:0:0:
256,192,30466,1,0,0:0:0:0:
256,192,30999,1,8,0:0:0:0:
256,192,31533,1,8,0:0:0:0:
256,192,32066,1,0,0:0:0:0:
256,192,32599,1,8,0:0:0:0:
256,192,32733,1,8,0:0:0:0:
256,192,33133,1,0,0:0:0:0:
256,192,33399,1,8,0:0:0:0:
256,192,33533,1,8,0:0:0:0:
256,192,33666,1,0,0:0:0:0:
256,192,33933,1,8,0:0:0:0:
256,192,34066,1,8,0:0:0:0:
256,192,34199,1,0,0:0:0:0:
256,192,34333,1,8,0:0:0:0:
264,194,34466,1,0,0:0:0:0:
256,192,34599,1,0,0:0:0:0:
256,192,34866,1,8,0:0:0:0:
256,192,34999,1,0,0:0:0:0:
256,192,35133,1,8,0:0:0:0:
256,192,35266,1,0,0:0:0:0:
256,192,35399,1,8,0:0:0:0:
256,192,35533,1,8,0:0:0:0:
256,192,35799,1,0,0:0:0:0:
256,192,36066,1,8,0:0:0:0:
256,192,36199,1,8,0:0:0:0:
256,192,36333,1,0,0:0:0:0:
256,192,36599,1,0,0:0:0:0:
256,192,36733,1,0,0:0:0:0:
256,192,36866,1,8,0:0:0:0:
256,192,36999,1,8,0:0:0:0:
256,192,37399,1,4,0:0:0:0:
256,192,37666,1,8,0:0:0:0:
256,192,37799,1,8,0:0:0:0:
256,192,37933,1,0,0:0:0:0:
256,192,37999,1,0,0:0:0:0:
256,192,38066,1,0,0:0:0:0:
256,192,38199,1,8,0:0:0:0:
256,192,38333,1,0,0:0:0:0:
256,192,38466,1,8,0:0:0:0:
256,192,38533,1,8,0:0:0:0:
256,192,38599,1,0,0:0:0:0:
256,192,38666,1,0,0:0:0:0:
256,192,38733,1,8,0:0:0:0:
256,192,38866,1,0,0:0:0:0:
256,192,38999,1,8,0:0:0:0:
256,192,39066,1,8,0:0:0:0:
256,192,39133,1,8,0:0:0:0:
256,192,39266,1,0,0:0:0:0:
256,192,39399,1,0,0:0:0:0:
256,192,39533,1,8,0:0:0:0:
256,192,39799,1,8,0:0:0:0:
256,192,39933,1,8,0:0:0:0:
256,192,40066,1,0,0:0:0:0:
256,192,40133,1,8,0:0:0:0:
256,192,40199,1,0,0:0:0:0:
256,192,40266,1,0,0:0:0:0:
256,192,40333,1,8,0:0:0:0:
256,192,40466,1,8,0:0:0:0:
256,192,40599,1,0,0:0:0:0:
256,192,40666,1,0,0:0:0:0:
256,192,40733,1,0,0:0:0:0:
256,192,40866,1,8,0:0:0:0:
256,192,40999,1,8,0:0:0:0:
256,192,41066,1,8,0:0:0:0:
256,192,41133,1,0,0:0:0:0:
256,192,41266,1,0,0:0:0:0:
256,192,41399,1,8,0:0:0:0:
256,192,41466,1,0,0:0:0:0:
256,192,41533,1,8,0:0:0:0:
256,192,41666,1,4,0:0:0:0:
256,192,41933,1,8,0:0:0:0:
256,192,42066,1,0,0:0:0:0:
256,192,42133,1,0,0:0:0:0:
256,192,42199,1,8,0:0:0:0:
256,192,42333,1,0,0:0:0:0:
256,192,42466,1,8,0:0:0:0:
256,192,42533,1,0,0:0:0:0:
256,192,42599,1,8,0:0:0:0:
256,192,42666,1,8,0:0:0:0:
256,192,42733,1,0,0:0:0:0:
256,192,42866,1,8,0:0:0:0:
256,192,42999,1,0,0:0:0:0:
256,192,43066,1,0,0:0:0:0:
256,192,43133,1,8,0:0:0:0:
256,192,43199,1,0,0:0:0:0:
256,192,43266,1,8,0:0:0:0:
256,192,43399,1,0,0:0:0:0:
256,192,43533,1,8,0:0:0:0:
256,192,43799,1,0,0:0:0:0:
256,192,43933,1,0,0:0:0:0:
256,192,44066,1,8,0:0:0:0:
256,192,44133,1,8,0:0:0:0:
256,192,44199,1,8,0:0:0:0:
256,192,44333,1,0,0:0:0:0:
256,192,44399,1,0,0:0:0:0:
256,192,44466,1,8,0:0:0:0:
256,192,44533,1,8,0:0:0:0:
256,192,44599,1,0,0:0:0:0:
256,192,44733,1,8,0:0:0:0:
256,192,44866,1,0,0:0:0:0:
256,192,44999,1,0,0:0:0:0:
256,192,45066,1,0,0:0:0:0:
256,192,45133,1,8,0:0:0:0:
256,192,45266,1,0,0:0:0:0:
256,192,45399,1,8,0:0:0:0:
256,192,45466,1,8,0:0:0:0:
256,192,45533,1,0,0:0:0:0:
256,192,45599,1,0,0:0:0:0:
256,192,45666,1,8,0:0:0:0:
256,192,45799,1,8,0:0:0:0:
256,192,45933,1,4,0:0:0:0:
256,192,46199,1,8,0:0:0:0:
256,192,46333,1,0,0:0:0:0:
256,192,46399,1,0,0:0:0:0:
256,192,46466,1,8,0:0:0:0:
256,192,46599,1,0,0:0:0:0:
256,192,46733,1,8,0:0:0:0:
256,192,46799,1,0,0:0:0:0:
256,192,46866,1,8,0:0:0:0:
256,192,46933,1,8,0:0:0:0:
256,192,46999,1,0,0:0:0:0:
256,192,47133,1,0,0:0:0:0:
256,192,47266,1,8,0:0:0:0:
256,192,47333,1,8,0:0:0:0:
256,192,47399,1,8,0:0:0:0:
256,192,47533,1,0,0:0:0:0:
256,192,47666,1,0,0:0:0:0:
256,192,47799,1,8,0:0:0:0:
256,192,48066,1,0,0:0:0:0:
256,192,48199,1,0,0:0:0:0:
256,192,48333,1,8,0:0:0:0:
256,192,48399,1,8,0:0:0:0:
256,192,48466,1,0,0:0:0:0:
256,192,48599,1,8,0:0:0:0:
256,192,48733,1,0,0:0:0:0:
256,192,48799,1,0,0:0:0:0:
256,192,48866,1,8,0:0:0:0:
256,192,48933,1,0,0:0:0:0:
256,192,48999,1,0,0:0:0:0:
256,192,49066,5,0,0:0:0:0:
256,192,49133,1,8,0:0:0:0:
256,192,49266,1,0,0:0:0:0:
256,192,49399,1,8,0:0:0:0:
256,192,49666,1,8,0:0:0:0:
256,192,50199,5,4,0:0:0:0:
256,192,50466,1,8,0:0:0:0:
256,192,50533,1,8,0:0:0:0:
256,192,50599,1,8,0:0:0:0:
256,192,50733,1,0,0:0:0:0:
256,192,50866,1,8,0:0:0:0:
256,192,50933,1,8,0:0:0:0:
256,192,50999,1,0,0:0:0:0:
256,192,51066,1,0,0:0:0:0:
256,192,51133,1,8,0:0:0:0:
256,192,51266,1,0,0:0:0:0:
256,192,51333,1,0,0:0:0:0:
256,192,51399,1,8,0:0:0:0:
256,192,51533,1,0,0:0:0:0:
256,192,51666,1,8,0:0:0:0:
256,192,51733,1,0,0:0:0:0:
256,192,51799,1,8,0:0:0:0:
256,192,51866,1,8,0:0:0:0:
256,192,51933,1,0,0:0:0:0:
256,192,52066,1,8,0:0:0:0:
256,192,52199,1,0,0:0:0:0:
256,192,52333,1,8,0:0:0:0:
256,192,52399,1,8,0:0:0:0:
256,192,52466,1,0,0:0:0:0:
256,192,52599,1,8,0:0:0:0:
256,192,52733,1,0,0:0:0:0:
256,192,52866,1,8,0:0:0:0:
256,192,52933,1,0,0:0:0:0:
256,192,52999,1,0,0:0:0:0:
256,192,53066,1,0,0:0:0:0:
256,192,53133,1,8,0:0:0:0:
256,192,53266,1,8,0:0:0:0:
256,192,53399,1,0,0:0:0:0:
256,192,53666,1,8,0:0:0:0:
256,192,53733,1,8,0:0:0:0:
256,192,53799,1,0,0:0:0:0:
256,192,53933,1,8,0:0:0:0:
256,192,54066,1,0,0:0:0:0:
256,192,54133,1,0,0:0:0:0:
256,192,54199,1,8,0:0:0:0:
256,192,54333,1,8,0:0:0:0:
256,192,54466,1,4,0:0:0:0:
256,192,54599,1,8,0:0:0:0:
256,192,54733,1,0,0:0:0:0:
256,192,54799,1,0,0:0:0:0:
256,192,54866,1,0,0:0:0:0:
256,192,54933,1,0,0:0:0:0:
256,192,54999,1,8,0:0:0:0:
256,192,55133,1,0,0:0:0:0:
256,192,55266,1,8,0:0:0:0:
256,192,55333,1,8,0:0:0:0:
256,192,55399,1,0,0:0:0:0:
256,192,55533,1,0,0:0:0:0:
256,192,55599,1,8,0:0:0:0:
256,192,55666,1,0,0:0:0:0:
256,192,55799,1,8,0:0:0:0:
256,192,55933,1,0,0:0:0:0:
256,192,55999,1,8,0:0:0:0:
256,192,56066,1,0,0:0:0:0:
256,192,56133,1,0,0:0:0:0:
256,192,56199,1,8,0:0:0:0:
256,192,56266,1,8,0:0:0:0:
256,192,56333,1,0,0:0:0:0:
256,192,56399,1,0,0:0:0:0:
256,192,56466,1,8,0:0:0:0:
256,192,56599,1,0,0:0:0:0:
256,192,56733,1,8,0:0:0:0:
256,192,56799,1,0,0:0:0:0:
256,192,56866,1,0,0:0:0:0:
256,192,56933,1,0,0:0:0:0:
256,192,56999,1,8,0:0:0:0:
256,192,57133,1,0,0:0:0:0:
256,192,57266,1,8,0:0:0:0:
256,192,57333,1,8,0:0:0:0:
256,192,57399,1,0,0:0:0:0:
256,192,57466,1,8,0:0:0:0:
256,192,57533,1,0,0:0:0:0:
256,192,57599,1,0,0:0:0:0:
256,192,57666,1,8,0:0:0:0:
256,192,57799,1,0,0:0:0:0:
256,192,57933,1,8,0:0:0:0:
256,192,58066,1,0,0:0:0:0:
256,192,58133,1,0,0:0:0:0:
256,192,58199,1,8,0:0:0:0:
256,192,58266,1,8,0:0:0:0:
256,192,58333,1,0,0:0:0:0:
256,192,58466,1,8,0:0:0:0:
256,192,58599,1,8,0:0:0:0:
256,192,58733,1,4,0:0:0:0:
256,192,59266,1,8,0:0:0:0:
240,192,59533,1,8,0:0:0:0:
256,192,59799,1,0,0:0:0:0:
256,192,60066,1,0,0:0:0:0:
256,192,60333,1,8,0:0:0:0:
256,192,60866,1,0,0:0:0:0:
256,192,61133,1,8,0:0:0:0:
256,192,61399,1,8,0:0:0:0:
256,192,61933,1,0,0:0:0:0:
256,192,62199,1,8,0:0:0:0:
256,192,62466,1,0,0:0:0:0:
256,192,62599,1,0,0:0:0:0:
256,192,62733,1,8,0:0:0:0:
256,192,62999,1,12,0:0:0:0:
256,192,63133,1,0,0:0:0:0:
256,192,63266,1,8,0:0:0:0:
256,192,63333,1,8,0:0:0:0:
256,192,63399,1,0,0:0:0:0:
256,192,63466,1,0,0:0:0:0:
256,192,63533,1,8,0:0:0:0:
256,192,63666,1,0,0:0:0:0:
256,192,63799,1,8,0:0:0:0:
256,192,63866,1,0,0:0:0:0:
256,192,63933,1,8,0:0:0:0:
256,192,63999,1,8,0:0:0:0:
256,192,64066,1,0,0:0:0:0:
256,192,64199,1,8,0:0:0:0:
256,192,64333,1,0,0:0:0:0:
256,192,64399,1,0,0:0:0:0:
256,192,64466,1,8,0:0:0:0:
256,192,64533,1,0,0:0:0:0:
256,192,64599,1,8,0:0:0:0:
256,192,64666,1,8,0:0:0:0:
256,192,64733,1,0,0:0:0:0:
256,192,64799,1,0,0:0:0:0:
256,192,64866,1,8,0:0:0:0:
256,192,64933,1,8,0:0:0:0:
256,192,64999,1,0,0:0:0:0:
256,192,65133,1,8,0:0:0:0:
256,192,65399,1,0,0:0:0:0:
256,192,65533,1,8,0:0:0:0:
256,192,65666,1,0,0:0:0:0:
256,192,65799,1,8,0:0:0:0:
256,192,65933,1,0,0:0:0:0:
256,192,66066,1,0,0:0:0:0:
256,192,66199,1,12,0:0:0:0:
256,192,66733,1,0,0:0:0:0:
256,192,67266,5,4,0:0:0:0:
256,192,67533,1,8,0:0:0:0:
256,192,67666,1,0,0:0:0:0:
256,192,67733,1,0,0:0:0:0:
256,192,67799,1,8,0:0:0:0:
256,192,67933,1,0,0:0:0:0:
256,192,68066,1,8,0:0:0:0:
256,192,68199,1,0,0:0:0:0:
256,192,68266,1,0,0:0:0:0:
256,192,68333,1,0,0:0:0:0:
256,192,68466,1,8,0:0:0:0:
256,192,68533,1,8,0:0:0:0:
256,192,68599,1,0,0:0:0:0:
256,192,68666,1,8,0:0:0:0:
256,192,68733,1,0,0:0:0:0:
256,192,68799,1,0,0:0:0:0:
256,192,68866,1,8,0:0:0:0:
256,192,68999,1,0,0:0:0:0:
256,192,69133,1,8,0:0:0:0:
256,192,69199,1,0,0:0:0:0:
256,192,69266,1,8,0:0:0:0:
256,192,69333,1,8,0:0:0:0:
256,192,69399,1,0,0:0:0:0:
256,192,69533,1,0,0:0:0:0:
256,192,69599,1,0,0:0:0:0:
256,192,69666,1,8,0:0:0:0:
256,192,69799,1,0,0:0:0:0:
256,192,69933,1,8,0:0:0:0:
256,192,69999,1,8,0:0:0:0:
256,192,70066,1,0,0:0:0:0:
256,192,70133,1,0,0:0:0:0:
256,192,70199,1,8,0:0:0:0:
256,192,70333,1,0,0:0:0:0:
256,192,70466,1,8,0:0:0:0:
256,192,70599,1,0,0:0:0:0:
256,192,70666,1,0,0:0:0:0:
256,192,70733,1,8,0:0:0:0:
256,192,70799,1,0,0:0:0:0:
256,192,70866,1,8,0:0:0:0:
256,192,70933,1,8,0:0:0:0:
256,192,70999,1,0,0:0:0:0:
256,192,71133,1,0,0:0:0:0:
256,192,71266,1,8,0:0:0:0:
256,192,71333,1,8,0:0:0:0:
256,192,71399,1,8,0:0:0:0:
256,192,71533,1,4,0:0:0:0:
256,192,71799,1,8,0:0:0:0:
256,192,71933,1,8,0:0:0:0:
256,192,72066,1,0,0:0:0:0:
256,192,72133,1,0,0:0:0:0:
256,192,72199,1,0,0:0:0:0:
256,192,72333,1,8,0:0:0:0:
256,192,72466,1,0,0:0:0:0:
256,192,72533,1,0,0:0:0:0:
256,192,72599,1,8,0:0:0:0:
256,192,72733,1,0,0:0:0:0:
256,192,72866,1,8,0:0:0:0:
256,192,72933,1,8,0:0:0:0:
256,192,72999,1,0,0:0:0:0:
256,192,73066,1,0,0:0:0:0:
256,192,73133,1,8,0:0:0:0:
256,192,73266,1,0,0:0:0:0:
256,192,73399,1,8,0:0:0:0:
256,192,73533,1,0,0:0:0:0:
256,192,73599,1,8,0:0:0:0:
256,192,73666,1,0,0:0:0:0:
256,192,73799,1,8,0:0:0:0:
256,192,73933,1,8,0:0:0:0:
256,192,74066,1,0,0:0:0:0:
256,192,74133,1,0,0:0:0:0:
256,192,74199,1,8,0:0:0:0:
256,192,74333,1,8,0:0:0:0:
256,192,74399,1,8,0:0:0:0:
256,192,74466,1,0,0:0:0:0:
256,192,74533,1,0,0:0:0:0:
256,192,74599,1,8,0:0:0:0:
256,192,74666,1,0,0:0:0:0:
256,192,74733,1,8,0:0:0:0:
256,192,74866,1,0,0:0:0:0:
256,192,74999,1,8,0:0:0:0:
256,192,75066,1,8,0:0:0:0:
256,192,75133,1,8,0:0:0:0:
256,192,75266,1,0,0:0:0:0:
256,192,75333,1,8,0:0:0:0:
256,192,75399,1,0,0:0:0:0:
256,192,75466,1,0,0:0:0:0:
256,192,75533,1,8,0:0:0:0:
256,192,75666,1,8,0:0:0:0:
256,192,75799,1,4,0:0:0:0:
256,192,76066,1,8,0:0:0:0:
256,192,76199,1,0,0:0:0:0:
256,192,76266,1,0,0:0:0:0:
256,192,76333,1,0,0:0:0:0:
256,192,76466,1,8,0:0:0:0:
256,192,76533,1,8,0:0:0:0:
256,192,76599,1,0,0:0:0:0:
256,192,76733,1,8,0:0:0:0:
256,192,76866,1,0,0:0:0:0:
256,192,76933,1,0,0:0:0:0:
256,192,76999,1,8,0:0:0:0:
256,192,77066,1,0,0:0:0:0:
256,192,77133,1,8,0:0:0:0:
256,192,77266,1,0,0:0:0:0:
256,192,77399,1,8,0:0:0:0:
256,192,77466,1,0,0:0:0:0:
256,192,77533,1,0,0:0:0:0:
256,192,77599,1,0,0:0:0:0:
256,192,77666,1,8,0:0:0:0:
256,192,77733,1,8,0:0:0:0:
256,192,77799,1,0,0:0:0:0:
256,192,77933,1,8,0:0:0:0:
256,192,78066,1,0,0:0:0:0:
256,192,78133,1,0,0:0:0:0:
256,192,78199,1,8,0:0:0:0:
256,192,78266,1,8,0:0:0:0:
256,192,78333,1,0,0:0:0:0:
256,192,78399,1,8,0:0:0:0:
256,192,78466,1,0,0:0:0:0:
256,192,78599,1,8,0:0:0:0:
256,192,78733,1,0,0:0:0:0:
256,192,78866,1,8,0:0:0:0:
256,192,78933,1,8,0:0:0:0:
256,192,78999,1,0,0:0:0:0:
256,192,79066,1,0,0:0:0:0:
256,192,79199,1,0,0:0:0:0:
256,192,79266,1,8,0:0:0:0:
256,192,79399,1,8,0:0:0:0:
256,192,79533,1,0,0:0:0:0:
256,192,79599,1,0,0:0:0:0:
256,192,79666,1,8,0:0:0:0:
256,192,79733,1,8,0:0:0:0:
256,192,79799,1,0,0:0:0:0:
256,192,79933,1,8,0:0:0:0:
256,192,80066,1,4,0:0:0:0:
256,192,80333,1,8,0:0:0:0:
256,192,80466,1,8,0:0:0:0:
256,192,80599,1,0,0:0:0:0:
256,192,80733,1,8,0:0:0:0:
256,192,80799,1,8,0:0:0:0:
256,192,80866,1,0,0:0:0:0:
256,192,80999,1,8,0:0:0:0:
256,192,81133,1,0,0:0:0:0:
256,192,81199,1,8,0:0:0:0:
256,192,81266,1,0,0:0:0:0:
256,192,81333,1,0,0:0:0:0:
256,192,81399,1,8,0:0:0:0:
256,192,81533,1,0,0:0:0:0:
256,192,81666,1,8,0:0:0:0:
256,192,81733,1,8,0:0:0:0:
256,192,81799,1,0,0:0:0:0:
256,192,81866,1,0,0:0:0:0:
256,192,81933,1,8,0:0:0:0:
256,192,81999,1,0,0:0:0:0:
256,192,82066,1,8,0:0:0:0:
256,192,82133,1,8,0:0:0:0:
256,192,82199,1,0,0:0:0:0:
256,192,82333,1,0,0:0:0:0:
256,192,82466,1,8,0:0:0:0:
256,192,82533,1,8,0:0:0:0:
256,192,82599,1,8,0:0:0:0:
256,192,82733,1,0,0:0:0:0:
256,192,82799,1,8,0:0:0:0:
256,192,82866,1,0,0:0:0:0:
256,192,82933,1,0,0:0:0:0:
256,192,82999,1,8,0:0:0:0:
256,192,83133,1,8,0:0:0:0:
256,192,83266,1,0,0:0:0:0:
256,192,83399,1,8,0:0:0:0:
256,192,83466,1,8,0:0:0:0:
256,192,83533,1,0,0:0:0:0:
256,192,83599,1,8,0:0:0:0:
256,192,83666,1,0,0:0:0:0:
256,192,83733,1,0,0:0:0:0:
256,192,83799,1,8,0:0:0:0:
256,192,83933,1,0,0:0:0:0:
256,192,84066,1,8,0:0:0:0:
256,192,84133,1,0,0:0:0:0:
256,192,84199,1,8,0:0:0:0:
256,192,84333,1,4,0:0:0:0:
256,192,84599,1,8,0:0:0:0:
256,192,84733,1,0,0:0:0:0:
256,192,84866,1,8,0:0:0:0:
256,192,84933,1,0,0:0:0:0:
256,192,84999,1,0,0:0:0:0:
256,192,85066,1,0,0:0:0:0:
256,192,85133,1,8,0:0:0:0:
256,192,85266,1,0,0:0:0:0:
256,192,85399,1,8,0:0:0:0:
256,192,85533,1,8,0:0:0:0:
256,192,86466,1,4,0:0:0:0:
256,192,87533,1,12,0:0:0:0:
256,192,88599,1,4,0:0:0:0:
256,192,89133,1,8,0:0:0:0:
256,192,89399,1,8,0:0:0:0:
256,192,89666,1,0,0:0:0:0:
256,192,89933,1,8,0:0:0:0:
256,192,90066,1,0,0:0:0:0:
256,192,90199,1,8,0:0:0:0:
256,192,90466,1,0,0:0:0:0:
256,192,90733,1,8,0:0:0:0:
256,192,90999,1,0,0:0:0:0:
256,192,91133,1,0,0:0:0:0:
256,192,91266,1,8,0:0:0:0:
256,192,91533,1,0,0:0:0:0:
256,192,91666,1,8,0:0:0:0:
256,192,91799,1,4,0:0:0:0:
256,192,92333,1,0,0:0:0:0:
256,192,92466,1,8,0:0:0:0:
256,192,92733,1,4,0:0:0:0:
256,192,92999,1,8,0:0:0:0:
256,192,93133,1,0,0:0:0:0:
256,192,93266,1,8,0:0:0:0:
256,192,93333,1,0,0:0:0:0:
256,192,93399,1,8,0:0:0:0:
256,192,93533,1,0,0:0:0:0:
256,192,93666,1,8,0:0:0:0:
256,192,93799,1,0,0:0:0:0:
256,192,93866,1,0,0:0:0:0:
256,192,93933,1,8,0:0:0:0:
256,192,94066,1,8,0:0:0:0:
256,192,94199,1,0,0:0:0:0:
256,192,94466,1,0,0:0:0:0:
256,192,94599,1,8,0:0:0:0:
256,192,96066,5,4,0:0:0:0:
256,192,96333,1,0,0:0:0:0:
256,192,96466,1,8,0:0:0:0:
256,192,96533,1,8,0:0:0:0:
256,192,96599,1,0,0:0:0:0:
256,192,96733,1,0,0:0:0:0:
256,192,96866,1,8,0:0:0:0:
256,192,96999,1,8,0:0:0:0:
256,192,97133,1,0,0:0:0:0:
256,192,97266,1,0,0:0:0:0:
256,192,97333,1,0,0:0:0:0:
256,192,97399,1,8,0:0:0:0:
256,192,97533,1,0,0:0:0:0:
256,192,97666,1,8,0:0:0:0:
256,192,97733,1,8,0:0:0:0:
256,192,97799,1,8,0:0:0:0:
256,192,97866,1,0,0:0:0:0:
256,192,97933,1,8,0:0:0:0:
256,192,98066,1,0,0:0:0:0:
256,192,98199,1,8,0:0:0:0:
256,192,98466,1,8,0:0:0:0:
256,192,98599,1,0,0:0:0:0:
256,192,98666,1,8,0:0:0:0:
256,192,98733,1,0,0:0:0:0:
256,192,98866,1,0,0:0:0:0:
256,192,98999,1,8,0:0:0:0:
256,192,99066,1,8,0:0:0:0:
256,192,99133,1,8,0:0:0:0:
256,192,99266,1,0,0:0:0:0:
256,192,99333,1,0,0:0:0:0:
256,192,99399,1,8,0:0:0:0:
256,192,99466,1,0,0:0:0:0:
256,192,99533,1,8,0:0:0:0:
256,192,99666,1,0,0:0:0:0:
256,192,99933,1,0,0:0:0:0:
256,192,100066,1,8,0:0:0:0:
256,192,100133,1,8,0:0:0:0:
256,192,100199,1,8,0:0:0:0:
256,192,100333,1,4,0:0:0:0:
256,192,100599,1,8,0:0:0:0:
256,192,100733,1,0,0:0:0:0:
256,192,100799,1,0,0:0:0:0:
256,192,100866,1,8,0:0:0:0:
256,192,100999,1,0,0:0:0:0:
256,192,101066,1,8,0:0:0:0:
256,192,101133,1,0,0:0:0:0:
256,192,101266,1,8,0:0:0:0:
256,192,101399,1,0,0:0:0:0:
256,192,101533,1,8,0:0:0:0:
256,192,101599,1,0,0:0:0:0:
256,192,101666,1,8,0:0:0:0:
256,192,101733,1,8,0:0:0:0:
256,192,101799,1,0,0:0:0:0:
256,192,101866,1,0,0:0:0:0:
256,192,101933,1,8,0:0:0:0:
256,192,102066,1,0,0:0:0:0:
256,192,102199,1,8,0:0:0:0:
256,192,102266,1,8,0:0:0:0:
256,192,102333,1,0,0:0:0:0:
256,192,102399,1,8,0:0:0:0:
256,192,102466,1,0,0:0:0:0:
256,192,102733,1,8,0:0:0:0:
256,192,102999,1,0,0:0:0:0:
256,192,103133,1,8,0:0:0:0:
256,192,103199,1,0,0:0:0:0:
256,192,103266,1,8,0:0:0:0:
256,192,103399,1,0,0:0:0:0:
256,192,103533,1,8,0:0:0:0:
256,192,103599,1,8,0:0:0:0:
256,192,103666,1,0,0:0:0:0:
256,192,103733,1,0,0:0:0:0:
256,192,103799,1,8,0:0:0:0:
256,192,103866,1,0,0:0:0:0:
256,192,103933,1,0,0:0:0:0:
256,192,104066,1,8,0:0:0:0:
256,192,104199,1,0,0:0:0:0:
256,192,104266,1,0,0:0:0:0:
256,192,104333,1,8,0:0:0:0:
256,192,104466,1,8,0:0:0:0:
256,192,104599,1,4,0:0:0:0:
256,192,105133,1,8,0:0:0:0:
256,192,105666,1,0,0:0:0:0:
256,192,106199,1,8,0:0:0:0:
256,192,106733,1,0,0:0:0:0:
256,192,107266,1,8,0:0:0:0:
256,192,107799,1,0,0:0:0:0:
256,192,108066,1,8,0:0:0:0:
256,192,108333,1,0,0:0:0:0:
256,192,108466,1,0,0:0:0:0:
256,192,108599,1,8,0:0:0:0:
256,192,108866,1,4,0:0:0:0:
256,192,109133,1,8,0:0:0:0:
256,192,109266,1,0,0:0:0:0:
256,192,109333,1,0,0:0:0:0:
256,192,109399,1,8,0:0:0:0:
256,192,109533,1,0,0:0:0:0:
256,192,109666,1,8,0:0:0:0:
256,192,109733,1,0,0:0:0:0:
256,192,109799,1,8,0:0:0:0:
256,192,109866,1,8,0:0:0:0:
256,192,109933,1,0,0:0:0:0:
256,192,110066,1,8,0:0:0:0:
256,192,110199,1,0,0:0:0:0:
256,192,110333,1,0,0:0:0:0:
256,192,110399,1,0,0:0:0:0:
256,192,110466,1,8,0:0:0:0:
256,192,110599,1,0,0:0:0:0:
256,192,110733,1,8,0:0:0:0:
256,192,110866,1,8,0:0:0:0:
256,192,110999,1,0,0:0:0:0:
256,192,111266,1,8,0:0:0:0:
256,192,111399,1,8,0:0:0:0:
256,192,111533,1,0,0:0:0:0:
256,192,111666,1,0,0:0:0:0:
256,192,111799,1,8,0:0:0:0:
256,192,111933,1,0,0:0:0:0:
256,192,112066,1,12,0:0:0:0:
256,192,112599,1,0,0:0:0:0:
256,192,113133,1,12,0:0:0:0:
256,192,113399,1,0,0:0:0:0:
256,192,113466,1,0,0:0:0:0:
256,192,113533,1,8,0:0:0:0:
256,192,113666,1,0,0:0:0:0:
256,192,113799,1,8,0:0:0:0:
256,192,113866,1,8,0:0:0:0:
256,192,113933,1,0,0:0:0:0:
256,192,113999,1,0,0:0:0:0:
256,192,114066,1,8,0:0:0:0:
256,192,114199,1,0,0:0:0:0:
256,192,114333,1,8,0:0:0:0:
256,192,114399,1,8,0:0:0:0:
256,192,114466,1,0,0:0:0:0:
256,192,114599,1,8,0:0:0:0:
256,192,114666,1,0,0:0:0:0:
256,192,114733,1,8,0:0:0:0:
256,192,114799,1,8,0:0:0:0:
256,192,114866,1,0,0:0:0:0:
256,192,114933,1,0,0:0:0:0:
256,192,114999,1,8,0:0:0:0:
256,192,115066,1,0,0:0:0:0:
256,192,115133,1,8,0:0:0:0:
256,192,115266,1,0,0:0:0:0:
256,192,115333,1,0,0:0:0:0:
256,192,115399,1,0,0:0:0:0:
256,192,115466,1,0,0:0:0:0:
256,192,115533,1,8,0:0:0:0:
256,192,115666,1,0,0:0:0:0:
256,192,115799,1,8,0:0:0:0:
224,192,115866,1,0,0:0:0:0:
256,192,115933,1,8,0:0:0:0:
256,192,115999,1,8,0:0:0:0:
256,192,116066,1,0,0:0:0:0:
256,192,116199,1,8,0:0:0:0:
256,192,116333,1,0,0:0:0:0:
256,192,116399,1,0,0:0:0:0:
256,192,116466,1,8,0:0:0:0:
256,192,116533,1,0,0:0:0:0:
256,192,116599,1,8,0:0:0:0:
256,192,116666,1,8,0:0:0:0:
256,192,116733,1,0,0:0:0:0:
256,192,116799,1,0,0:0:0:0:
256,192,116866,1,8,0:0:0:0:
256,192,116999,1,0,0:0:0:0:
256,192,117133,1,8,0:0:0:0:
256,192,117199,1,8,0:0:0:0:
256,192,117266,1,8,0:0:0:0:
256,192,117399,1,4,0:0:0:0:
256,192,117666,1,8,0:0:0:0:
256,192,117733,1,8,0:0:0:0:
256,192,117799,1,0,0:0:0:0:
256,192,117933,1,8,0:0:0:0:
256,192,118066,1,0,0:0:0:0:
256,192,118199,1,8,0:0:0:0:
256,192,118266,1,0,0:0:0:0:
256,192,118333,1,8,0:0:0:0:
256,192,118399,1,8,0:0:0:0:
256,160,118466,1,0,0:0:0:0:
256,192,118599,1,8,0:0:0:0:
256,192,118733,1,0,0:0:0:0:
256,192,118799,1,0,0:0:0:0:
256,192,118866,1,8,0:0:0:0:
256,192,118933,1,8,0:0:0:0:
256,192,118999,1,8,0:0:0:0:
256,192,119133,1,0,0:0:0:0:
256,192,119199,1,0,0:0:0:0:
256,192,119266,1,8,0:0:0:0:
256,192,119333,1,0,0:0:0:0:
256,192,119399,1,8,0:0:0:0:
256,192,119466,1,8,0:0:0:0:
256,192,119533,1,0,0:0:0:0:
256,192,119666,1,8,0:0:0:0:
256,192,119799,1,0,0:0:0:0:
256,192,119866,1,0,0:0:0:0:
256,192,119933,1,8,0:0:0:0:
256,192,119999,1,8,0:0:0:0:
256,192,120066,1,0,0:0:0:0:
256,160,120199,1,8,0:0:0:0:
256,192,120333,1,0,0:0:0:0:
256,160,120466,1,8,0:0:0:0:
256,192,120533,1,0,0:0:0:0:
256,192,120599,1,8,0:0:0:0:
256,192,120666,1,8,0:0:0:0:
288,192,120733,1,0,0:0:0:0:
256,192,120799,1,0,0:0:0:0:
288,192,120866,1,8,0:0:0:0:
256,192,120933,1,8,0:0:0:0:
288,192,120999,1,0,0:0:0:0:
288,192,121133,1,8,0:0:0:0:
256,192,121266,1,0,0:0:0:0:
256,192,121333,1,0,0:0:0:0:
288,192,121399,1,8,0:0:0:0:
288,192,121533,1,0,0:0:0:0:
288,192,121666,1,12,0:0:0:0:
256,192,121933,1,0,0:0:0:0:
288,192,121999,1,0,0:0:0:0:
256,192,122066,1,0,0:0:0:0:
256,192,122199,1,8,0:0:0:0:
288,192,122333,1,0,0:0:0:0:
288,192,122399,1,0,0:0:0:0:
256,192,122466,1,8,0:0:0:0:
256,192,122599,1,0,0:0:0:0:
256,192,122666,1,0,0:0:0:0:
256,192,122733,1,8,0:0:0:0:
256,192,122799,1,8,0:0:0:0:
256,192,122866,1,8,0:0:0:0:
256,160,122999,1,0,0:0:0:0:
224,192,123066,1,8,0:0:0:0:
256,192,123133,1,0,0:0:0:0:
256,192,123266,1,8,0:0:0:0:
256,192,123399,1,0,0:0:0:0:
256,192,123533,1,8,0:0:0:0:
256,192,123599,1,0,0:0:0:0:
256,192,123666,1,8,0:0:0:0:
256,192,123733,1,8,0:0:0:0:
256,192,123799,1,0,0:0:0:0:
256,192,123933,1,8,0:0:0:0:
256,192,124066,1,0,0:0:0:0:
256,192,124133,1,8,0:0:0:0:
256,192,124199,1,0,0:0:0:0:
256,192,124266,1,0,0:0:0:0:
256,192,124333,1,8,0:0:0:0:
256,192,124399,1,0,0:0:0:0:
256,192,124466,1,8,0:0:0:0:
256,192,124599,1,0,0:0:0:0:
256,192,124733,1,8,0:0:0:0:
256,192,124799,1,8,0:0:0:0:
256,192,124866,1,8,0:0:0:0:
256,192,124933,1,8,0:0:0:0:
256,192,124999,1,0,0:0:0:0:
256,192,125133,1,8,0:0:0:0:
256,192,125266,1,0,0:0:0:0:
256,192,125399,1,8,0:0:0:0:
256,192,125466,1,0,0:0:0:0:
256,192,125533,1,8,0:0:0:0:
256,192,125599,1,8,0:0:0:0:
256,192,125666,1,0,0:0:0:0:
256,192,125799,1,8,0:0:0:0:
256,192,125933,1,4,0:0:0:0:
256,192,126199,1,0,0:0:0:0:
256,192,126266,1,0,0:0:0:0:
256,192,126333,1,8,0:0:0:0:
256,192,126466,1,0,0:0:0:0:
256,192,126599,1,0,0:0:0:0:
256,192,126733,1,8,0:0:0:0:
256,192,126799,1,0,0:0:0:0:
256,192,126866,1,0,0:0:0:0:
256,192,126933,1,0,0:0:0:0:
256,192,126999,1,8,0:0:0:0:
256,192,127133,1,8,0:0:0:0:
256,192,127266,1,0,0:0:0:0:
256,192,127333,1,8,0:0:0:0:
256,192,127399,1,0,0:0:0:0:
256,192,127466,1,0,0:0:0:0:
256,192,127533,1,8,0:0:0:0:
256,192,127599,1,8,0:0:0:0:
256,192,127666,1,0,0:0:0:0:
256,192,127733,1,0,0:0:0:0:
256,192,127799,1,8,0:0:0:0:
256,192,127933,1,8,0:0:0:0:
256,192,127999,1,8,0:0:0:0:
256,192,128066,1,0,0:0:0:0:
256,192,128199,1,8,0:0:0:0:
256,192,128333,1,0,0:0:0:0:
256,192,128399,1,0,0:0:0:0:
256,192,128466,1,8,0:0:0:0:
256,192,128533,1,8,0:0:0:0:
256,192,128599,1,0,0:0:0:0:
256,192,128733,1,0,0:0:0:0:
256,192,128866,1,8,0:0:0:0:
256,192,128933,1,0,0:0:0:0:
256,192,128999,1,8,0:0:0:0:
256,192,129066,1,8,0:0:0:0:
256,192,129133,1,0,0:0:0:0:
256,192,129199,1,0,0:0:0:0:
256,192,129266,1,8,0:0:0:0:
256,192,129399,1,8,0:0:0:0:
256,192,129533,1,0,0:0:0:0:
256,192,129599,1,0,0:0:0:0:
256,192,129666,1,8,0:0:0:0:
256,192,129733,1,0,0:0:0:0:
256,192,129799,1,0,0:0:0:0:
256,192,129866,1,0,0:0:0:0:
256,192,129933,1,8,0:0:0:0:
256,160,129999,1,8,0:0:0:0:
256,192,130066,1,0,0:0:0:0:
256,192,130199,1,12,0:0:0:0:
256,192,130466,1,8,0:0:0:0:
256,192,130599,1,0,0:0:0:0:
256,192,130733,1,8,0:0:0:0:
256,192,130799,1,0,0:0:0:0:
256,192,130866,1,0,0:0:0:0:
256,192,130933,1,0,0:0:0:0:
256,192,130999,1,8,0:0:0:0:
256,192,131133,1,0,0:0:0:0:
256,192,131266,1,8,0:0:0:0:
256,192,131399,1,8,0:0:0:0:
256,192,132333,5,8,0:0:0:0:
256,192,132421,1,8,0:0:0:0:
256,192,132510,1,0,0:0:0:0:
256,192,132599,1,8,0:0:0:0:
256,192,132688,1,0,0:0:0:0:
256,192,132777,1,0,0:0:0:0:
256,192,132866,1,8,0:0:0:0:
256,192,132955,1,0,0:0:0:0:
256,192,133044,1,8,0:0:0:0:
256,192,133133,1,8,0:0:0:0:
256,192,133221,1,0,0:0:0:0:
256,192,133310,1,0,0:0:0:0:
256,192,133399,1,8,0:0:0:0:
256,192,133488,1,8,0:0:0:0:
256,192,133577,1,8,0:0:0:0:
256,192,133666,1,0,0:0:0:0:
256,192,133755,1,8,0:0:0:0:
256,192,133844,1,8,0:0:0:0:
256,192,133933,1,0,0:0:0:0:
256,192,134021,1,0,0:0:0:0:
256,192,134110,1,8,0:0:0:0:
256,192,134199,1,0,0:0:0:0:
256,192,134288,1,8,0:0:0:0:
256,192,134377,1,8,0:0:0:0:
256,192,134466,1,0,0:0:0:0:
256,192,134555,1,0,0:0:0:0:
256,192,134644,1,8,0:0:0:0:
256,192,134733,1,0,0:0:0:0:
256,192,134821,1,0,0:0:0:0:
256,192,134910,1,0,0:0:0:0:
256,192,134999,1,8,0:0:0:0:
256,192,135088,1,8,0:0:0:0:
256,192,135177,1,0,0:0:0:0:
256,192,135266,1,0,0:0:0:0:
256,192,135355,1,8,0:0:0:0:
256,192,135444,1,0,0:0:0:0:
256,192,135533,1,8,0:0:0:0:
256,192,135621,1,0,0:0:0:0:
256,192,135710,1,0,0:0:0:0:
256,192,135799,1,8,0:0:0:0:
256,192,135933,1,0,0:0:0:0:
256,192,135999,1,0,0:0:0:0:
256,192,136066,1,8,0:0:0:0:
256,192,136133,1,8,0:0:0:0:
256,192,136199,1,8,0:0:0:0:
256,192,136266,1,8,0:0:0:0:
256,192,136333,1,0,0:0:0:0:
256,192,136466,1,8,0:0:0:0:
256,192,137666,5,4,0:0:0:0:
256,192,137933,1,0,0:0:0:0:
256,192,137999,1,0,0:0:0:0:
256,192,138066,1,8,0:0:0:0:
256,192,138199,1,0,0:0:0:0:
256,192,138333,1,8,0:0:0:0:
256,192,138399,1,0,0:0:0:0:
256,192,138466,1,8,0:0:0:0:
256,192,138533,1,8,0:0:0:0:
256,192,138599,1,0,0:0:0:0:
256,192,138733,1,8,0:0:0:0:
256,192,138799,1,0,0:0:0:0:
256,192,138866,1,8,0:0:0:0:
256,192,138999,1,0,0:0:0:0:
256,192,139133,1,8,0:0:0:0:
256,192,139199,1,8,0:0:0:0:
256,192,139266,1,0,0:0:0:0:
256,192,139333,1,0,0:0:0:0:
256,192,139399,1,8,0:0:0:0:
256,192,139466,1,8,0:0:0:0:
256,192,139533,1,0,0:0:0:0:
256,192,139666,1,8,0:0:0:0:
256,192,139799,1,0,0:0:0:0:
256,192,139866,1,0,0:0:0:0:
256,192,139933,1,8,0:0:0:0:
256,192,140066,1,0,0:0:0:0:
256,192,140199,1,8,0:0:0:0:
256,192,140266,1,8,0:0:0:0:
256,192,140333,1,0,0:0:0:0:
256,192,140399,1,0,0:0:0:0:
256,192,140466,1,8,0:0:0:0:
256,192,140533,1,0,0:0:0:0:
256,192,140599,1,8,0:0:0:0:
256,192,140666,1,8,0:0:0:0:
256,192,140733,1,0,0:0:0:0:
256,192,140866,1,8,0:0:0:0:
256,192,141133,1,8,0:0:0:0:
256,192,141199,1,8,0:0:0:0:
256,192,141266,1,0,0:0:0:0:
256,192,141399,1,8,0:0:0:0:
256,192,141533,1,0,0:0:0:0:
256,192,141666,1,8,0:0:0:0:
256,192,141733,1,0,0:0:0:0:
256,192,141799,1,8,0:0:0:0:
256,192,141933,1,4,0:0:0:0:
288,192,142066,1,8,0:0:0:0:
288,192,142133,1,8,0:0:0:0:
256,192,142199,1,0,0:0:0:0:
256,192,142266,1,0,0:0:0:0:
256,192,142333,1,0,0:0:0:0:
256,192,142466,1,8,0:0:0:0:
256,192,142599,1,0,0:0:0:0:
256,192,142666,1,0,0:0:0:0:
256,192,142733,1,8,0:0:0:0:
256,192,142799,1,8,0:0:0:0:
256,192,142866,1,0,0:0:0:0:
256,192,142999,1,8,0:0:0:0:
256,192,143066,1,8,0:0:0:0:
256,192,143133,1,0,0:0:0:0:
256,192,143266,1,8,0:0:0:0:
256,192,143399,1,0,0:0:0:0:
224,192,143466,1,0,0:0:0:0:
256,192,143533,1,8,0:0:0:0:
256,192,143599,1,8,0:0:0:0:
256,192,143666,1,0,0:0:0:0:
256,192,143733,1,8,0:0:0:0:
256,192,143799,1,0,0:0:0:0:
256,192,143866,1,0,0:0:0:0:
256,192,143933,1,8,0:0:0:0:
256,192,144199,1,8,0:0:0:0:
256,192,144266,1,8,0:0:0:0:
256,192,144333,1,0,0:0:0:0:
256,192,144466,1,8,0:0:0:0:
256,192,144599,1,0,0:0:0:0:
256,192,144666,1,0,0:0:0:0:
256,192,144733,1,0,0:0:0:0:
256,192,144866,1,8,0:0:0:0:
256,192,144999,1,0,0:0:0:0:
256,192,145066,1,0,0:0:0:0:
256,192,145133,1,8,0:0:0:0:
256,192,145199,1,8,0:0:0:0:
256,192,145266,1,0,0:0:0:0:
256,192,145333,1,0,0:0:0:0:
256,192,145399,1,8,0:0:0:0:
256,192,145533,1,0,0:0:0:0:
256,192,145666,1,8,0:0:0:0:
256,192,145733,1,8,0:0:0:0:
256,192,145799,1,0,0:0:0:0:
256,192,145866,1,0,0:0:0:0:
256,192,145933,1,8,0:0:0:0:
256,192,146066,1,8,0:0:0:0:
256,192,146199,1,4,0:0:0:0:
256,192,146733,1,8,0:0:0:0:
256,192,146999,1,8,0:0:0:0:
256,192,147266,1,0,0:0:0:0:
256,192,147533,1,0,0:0:0:0:
256,192,147799,1,8,0:0:0:0:
256,192,148333,1,0,0:0:0:0:
256,192,148599,1,8,0:0:0:0:
256,192,148866,1,8,0:0:0:0:
256,192,149399,1,0,0:0:0:0:
256,192,149666,1,8,0:0:0:0:
256,192,149933,1,0,0:0:0:0:
256,192,150066,1,0,0:0:0:0:
256,192,150199,1,8,0:0:0:0:
256,192,150466,1,4,0:0:0:0:
256,192,150733,1,0,0:0:0:0:
256,192,150799,1,8,0:0:0:0:
256,192,150866,1,0,0:0:0:0:
256,192,150933,1,0,0:0:0:0:
256,192,150999,1,8,0:0:0:0:
256,192,151133,1,0,0:0:0:0:
256,192,151266,1,8,0:0:0:0:
256,192,151333,1,0,0:0:0:0:
256,192,151399,1,8,0:0:0:0:
256,192,151466,1,8,0:0:0:0:
256,192,151533,1,0,0:0:0:0:
256,192,151666,1,8,0:0:0:0:
256,192,151799,1,0,0:0:0:0:
288,192,151866,1,0,0:0:0:0:
256,192,151933,1,8,0:0:0:0:
256,192,151999,1,0,0:0:0:0:
256,192,152066,1,8,0:0:0:0:
256,192,152133,1,0,0:0:0:0:
256,192,152199,1,8,0:0:0:0:
256,192,152266,1,8,0:0:0:0:
256,192,152333,1,0,0:0:0:0:
256,192,152399,1,8,0:0:0:0:
256,192,152466,1,0,0:0:0:0:
256,192,152599,1,8,0:0:0:0:
256,192,152866,1,0,0:0:0:0:
256,192,152999,1,0,0:0:0:0:
256,192,153133,1,8,0:0:0:0:
256,192,153266,1,0,0:0:0:0:
256,192,153399,1,8,0:0:0:0:
256,192,153533,1,0,0:0:0:0:
256,192,153666,1,12,0:0:0:0:
256,192,154199,1,8,0:0:0:0:
256,192,154733,5,4,0:0:0:0:
256,192,154866,1,8,0:0:0:0:
256,192,154999,1,0,0:0:0:0:
256,192,155066,1,0,0:0:0:0:
256,192,155133,1,8,0:0:0:0:
256,192,155266,1,8,0:0:0:0:
256,192,155333,1,8,0:0:0:0:
256,192,155399,1,0,0:0:0:0:
256,192,155466,1,0,0:0:0:0:
256,192,155533,1,8,0:0:0:0:
256,192,155666,1,0,0:0:0:0:
256,192,155733,1,0,0:0:0:0:
256,192,155799,1,0,0:0:0:0:
256,192,155933,1,8,0:0:0:0:
256,192,155999,1,8,0:0:0:0:
256,192,156066,1,0,0:0:0:0:
256,192,156133,1,8,0:0:0:0:
256,192,156199,1,0,0:0:0:0:
256,192,156266,1,0,0:0:0:0:
256,192,156333,1,8,0:0:0:0:
256,192,156466,1,0,0:0:0:0:
256,192,156599,1,8,0:0:0:0:
256,192,156666,1,0,0:0:0:0:
256,192,156733,1,8,0:0:0:0:
256,192,156799,1,8,0:0:0:0:
256,192,156866,1,0,0:0:0:0:
256,192,156999,1,0,0:0:0:0:
256,192,157066,1,0,0:0:0:0:
256,192,157133,1,8,0:0:0:0:
256,192,157199,1,8,0:0:0:0:
256,192,157266,1,0,0:0:0:0:
256,192,157333,1,8,0:0:0:0:
256,192,157399,1,0,0:0:0:0:
256,192,157533,1,8,0:0:0:0:
256,192,157599,1,8,0:0:0:0:
256,192,157666,1,0,0:0:0:0:
256,192,157733,1,0,0:0:0:0:
256,192,157799,1,8,0:0:0:0:
256,192,157933,1,0,0:0:0:0:
256,192,157999,1,8,0:0:0:0:
256,192,158066,1,0,0:0:0:0:
256,192,158133,1,0,0:0:0:0:
256,192,158199,1,8,0:0:0:0:
256,192,158266,1,0,0:0:0:0:
256,192,158333,1,8,0:0:0:0:
256,192,158399,1,8,0:0:0:0:
256,192,158466,1,0,0:0:0:0:
256,192,158599,1,0,0:0:0:0:
256,192,158733,1,8,0:0:0:0:
256,192,158799,1,8,0:0:0:0:
256,192,158866,1,8,0:0:0:0:
256,192,158999,1,4,0:0:0:0:
256,192,159199,1,0,0:0:0:0:
256,192,159266,1,8,0:0:0:0:
256,192,159399,1,8,0:0:0:0:
256,192,159533,1,0,0:0:0:0:
256,192,159599,1,0,0:0:0:0:
256,192,159666,1,0,0:0:0:0:
256,192,159799,1,8,0:0:0:0:
256,192,159866,1,8,0:0:0:0:
256,192,159933,1,0,0:0:0:0:
256,192,159999,1,0,0:0:0:0:
256,192,160066,1,8,0:0:0:0:
256,192,160199,1,0,0:0:0:0:
256,192,160266,1,0,0:0:0:0:
256,192,160333,1,8,0:0:0:0:
256,192,160399,1,0,0:0:0:0:
256,192,160466,1,8,0:0:0:0:
256,192,160533,1,8,0:0:0:0:
256,192,160599,1,0,0:0:0:0:
256,192,160733,1,8,0:0:0:0:
256,192,160799,1,0,0:0:0:0:
256,192,160866,1,0,0:0:0:0:
256,192,160933,1,0,0:0:0:0:
256,192,160999,1,8,0:0:0:0:
256,192,161066,1,8,0:0:0:0:
256,192,161133,1,0,0:0:0:0:
256,192,161266,1,8,0:0:0:0:
256,192,161399,1,0,0:0:0:0:
256,192,161466,1,0,0:0:0:0:
256,192,161533,1,8,0:0:0:0:
256,192,161599,1,0,0:0:0:0:
256,192,161666,1,0,0:0:0:0:
256,192,161799,1,8,0:0:0:0:
256,192,161866,1,8,0:0:0:0:
256,192,161933,1,0,0:0:0:0:
256,192,161999,1,0,0:0:0:0:
256,192,162066,1,8,0:0:0:0:
256,192,162133,1,0,0:0:0:0:
256,192,162199,1,8,0:0:0:0:
256,192,162333,1,0,0:0:0:0:
256,192,162466,1,8,0:0:0:0:
256,192,162533,1,8,0:0:0:0:
256,192,162599,1,8,0:0:0:0:
256,192,162733,1,0,0:0:0:0:
256,192,162799,1,8,0:0:0:0:
256,192,162866,1,0,0:0:0:0:
256,192,162933,1,0,0:0:0:0:
256,192,162999,1,8,0:0:0:0:
256,192,163133,1,8,0:0:0:0:
256,192,163266,1,4,0:0:0:0:
256,192,163466,1,0,0:0:0:0:
256,192,163533,1,8,0:0:0:0:
256,192,163666,1,0,0:0:0:0:
256,192,163733,1,0,0:0:0:0:
256,192,163799,1,0,0:0:0:0:
256,192,163933,1,8,0:0:0:0:
256,192,163999,1,8,0:0:0:0:
256,192,164066,1,0,0:0:0:0:
256,192,164133,1,0,0:0:0:0:
256,192,164199,1,8,0:0:0:0:
256,192,164266,1,8,0:0:0:0:
256,192,164333,1,0,0:0:0:0:
256,192,164466,1,0,0:0:0:0:
256,192,164533,1,0,0:0:0:0:
256,192,164599,1,8,0:0:0:0:
256,192,164733,1,0,0:0:0:0:
256,192,164866,1,8,0:0:0:0:
256,192,164933,1,8,0:0:0:0:
256,192,164999,1,8,0:0:0:0:
256,192,165133,1,0,0:0:0:0:
256,192,165199,1,8,0:0:0:0:
256,192,165266,1,0,0:0:0:0:
256,192,165333,1,0,0:0:0:0:
256,192,165399,1,8,0:0:0:0:
256,192,165533,1,8,0:0:0:0:
256,192,165666,1,0,0:0:0:0:
256,192,165733,1,0,0:0:0:0:
256,192,165799,1,8,0:0:0:0:
256,192,165866,1,8,0:0:0:0:
256,192,165933,1,0,0:0:0:0:
256,192,166066,1,8,0:0:0:0:
256,192,166133,1,0,0:0:0:0:
256,192,166199,1,0,0:0:0:0:
256,192,166266,1,0,0:0:0:0:
256,192,166333,1,8,0:0:0:0:
256,192,166399,1,8,0:0:0:0:
256,192,166466,1,0,0:0:0:0:
256,192,166599,1,0,0:0:0:0:
256,192,166733,1,8,0:0:0:0:
256,192,166799,1,0,0:0:0:0:
256,192,166866,1,8,0:0:0:0:
256,192,166933,1,8,0:0:0:0:
256,192,166999,1,0,0:0:0:0:
256,192,167066,1,8,0:0:0:0:
256,192,167133,1,0,0:0:0:0:
256,192,167199,1,0,0:0:0:0:
256,192,167266,1,8,0:0:0:0:
256,192,167399,1,8,0:0:0:0:
256,192,167533,1,4,0:0:0:0:
256,192,167733,1,0,0:0:0:0:
256,192,167799,1,8,0:0:0:0:
256,192,167933,1,0,0:0:0:0:
256,192,168066,1,8,0:0:0:0:
256,192,168133,1,0,0:0:0:0:
256,192,168199,1,8,0:0:0:0:
256,192,168266,1,8,0:0:0:0:
256,192,168333,1,0,0:0:0:0:
256,192,168466,1,0,0:0:0:0:
256,192,168533,1,0,0:0:0:0:
256,192,168599,1,8,0:0:0:0:
256,192,168666,1,8,0:0:0:0:
256,192,168733,1,0,0:0:0:0:
256,192,168799,1,8,0:0:0:0:
256,192,168866,1,0,0:0:0:0:
256,192,168999,1,8,0:0:0:0:
256,192,169133,1,0,0:0:0:0:
256,192,169199,1,0,0:0:0:0:
256,192,169266,1,8,0:0:0:0:
256,192,169333,1,0,0:0:0:0:
256,192,169399,1,8,0:0:0:0:
256,192,169466,1,8,0:0:0:0:
256,192,169533,1,0,0:0:0:0:
256,192,169599,1,0,0:0:0:0:
256,192,169666,1,8,0:0:0:0:
256,192,169799,1,0,0:0:0:0:
256,192,169933,1,8,0:0:0:0:
256,192,169999,1,8,0:0:0:0:
256,192,170066,1,8,0:0:0:0:
256,192,170199,1,0,0:0:0:0:
256,192,170266,1,8,0:0:0:0:
256,192,170333,1,0,0:0:0:0:
256,192,170399,1,0,0:0:0:0:
256,192,170466,1,8,0:0:0:0:
256,192,170599,1,8,0:0:0:0:
256,192,170666,1,8,0:0:0:0:
256,192,170733,1,0,0:0:0:0:
256,192,170866,1,8,0:0:0:0:
256,192,170999,1,0,0:0:0:0:
256,192,171066,1,0,0:0:0:0:
256,192,171133,1,8,0:0:0:0:
256,192,171199,1,0,0:0:0:0:
256,192,171266,1,8,0:0:0:0:
256,192,171333,1,8,0:0:0:0:
256,192,171399,1,0,0:0:0:0:
256,192,171466,1,8,0:0:0:0:
256,192,171533,1,0,0:0:0:0:
256,192,171666,1,8,0:0:0:0:
256,192,171799,1,4,0:0:0:0:
256,192,171999,1,0,0:0:0:0:
256,192,172066,1,8,0:0:0:0:
256,192,172199,1,0,0:0:0:0:
256,192,172333,1,8,0:0:0:0:
256,192,172399,1,8,0:0:0:0:
256,192,172466,1,0,0:0:0:0:
256,192,172533,1,0,0:0:0:0:
256,192,172599,1,8,0:0:0:0:
256,192,172733,1,8,0:0:0:0:
256,192,172866,1,0,0:0:0:0:
256,192,172933,1,0,0:0:0:0:
256,192,172999,1,0,0:0:0:0:
256,192,173133,1,8,0:0:0:0:
256,192,173266,1,8,0:0:0:0:
256,192,173333,1,8,0:0:0:0:
256,192,173399,1,0,0:0:0:0:
256,192,173533,1,0,0:0:0:0:
256,192,173666,1,8,0:0:0:0:
256,192,173933,1,4,0:0:0:0:
256,192,174199,1,8,0:0:0:0:
256,192,174266,1,0,0:0:0:0:
256,192,174333,1,8,0:0:0:0:
256,192,174466,1,0,0:0:0:0:
256,192,174533,1,0,0:0:0:0:
256,192,174599,1,8,0:0:0:0:
256,192,174666,1,8,0:0:0:0:
256,192,174733,1,0,0:0:0:0:
256,192,174866,1,8,0:0:0:0:
256,192,174999,1,0,0:0:0:0:
256,192,175066,1,0,0:0:0:0:
256,192,175133,1,8,0:0:0:0:
256,192,175199,1,8,0:0:0:0:
256,192,175266,1,0,0:0:0:0:
256,192,175333,1,8,0:0:0:0:
256,192,175399,1,0,0:0:0:0:
256,192,175466,1,0,0:0:0:0:
256,192,175533,1,8,0:0:0:0:
256,192,175666,1,0,0:0:0:0:
224,192,175799,1,8,0:0:0:0:
256,192,175866,1,8,0:0:0:0:
256,192,175933,1,8,0:0:0:0:
256,192,176066,1,0,0:0:0:0:
256,192,176133,1,0,0:0:0:0:
256,192,176199,1,8,0:0:0:0:
224,192,176266,1,8,0:0:0:0:
256,192,176333,1,0,0:0:0:0:
224,192,176399,1,0,0:0:0:0:
256,192,176466,1,8,0:0:0:0:
224,192,176533,1,0,0:0:0:0:
256,192,176599,1,8,0:0:0:0:
256,192,176733,1,0,0:0:0:0:
256,192,176799,1,0,0:0:0:0:
256,192,176866,1,8,0:0:0:0:
256,192,176933,1,0,0:0:0:0:
256,192,176999,1,8,0:0:0:0:
224,192,177066,1,8,0:0:0:0:
256,192,177133,1,0,0:0:0:0:
256,192,177266,1,0,0:0:0:0:
256,192,177399,1,8,0:0:0:0:
256,192,177666,1,0,0:0:0:0:
256,192,177799,1,8,0:0:0:0:
256,192,177933,1,0,0:0:0:0:
256,192,178199,1,12,0:0:0:0:
256,192,178377,1,0,0:0:0:0:
256,160,178466,1,8,0:0:0:0:
256,192,178644,1,8,0:0:0:0:
256,192,178733,1,8,0:0:0:0:
256,192,178910,1,8,0:0:0:0:
256,192,178999,1,0,0:0:0:0:
256,192,179266,1,0,0:0:0:0:
256,192,179444,1,8,0:0:0:0:
256,192,179533,1,0,0:0:0:0:
256,192,179710,1,0,0:0:0:0:
256,192,179799,1,8,0:0:0:0:
256,192,179977,1,8,0:0:0:0:
256,192,180066,1,0,0:0:0:0:
256,192,180333,1,0,0:0:0:0:
256,192,180599,1,8,0:0:0:0:
256,192,180777,1,8,0:0:0:0:
256,192,180866,1,0,0:0:0:0:
256,192,181133,1,8,0:0:0:0:
256,192,181266,1,8,0:0:0:0:
256,192,181399,1,0,0:0:0:0:
256,192,181666,1,8,0:0:0:0:
256,192,181799,1,0,0:0:0:0:
256,192,181866,1,0,0:0:0:0:
256,192,181933,1,8,0:0:0:0:
256,192,182066,1,0,0:0:0:0:
256,192,182199,1,8,0:0:0:0:
256,192,182466,1,4,0:0:0:0:
256,192,182733,1,8,0:0:0:0:
256,192,182866,1,0,0:0:0:0:
256,192,182999,1,8,0:0:0:0:
256,192,183066,1,0,0:0:0:0:
256,192,183133,1,8,0:0:0:0:
256,192,183266,1,0,0:0:0:0:
256,192,183399,1,8,0:0:0:0:
256,192,183466,1,0,0:0:0:0:
256,192,183533,1,8,0:0:0:0:
256,192,183599,1,8,0:0:0:0:
256,192,183666,1,0,0:0:0:0:
288,192,183799,1,8,0:0:0:0:
256,192,183933,1,0,0:0:0:0:
256,192,183999,1,0,0:0:0:0:
256,192,184066,1,8,0:0:0:0:
256,192,184199,1,0,0:0:0:0:
256,192,184333,1,8,0:0:0:0:
256,192,184399,1,8,0:0:0:0:
256,160,184466,1,8,0:0:0:0:
256,192,184533,1,8,0:0:0:0:
256,192,184599,1,0,0:0:0:0:
256,192,184666,1,0,0:0:0:0:
256,192,184733,1,8,0:0:0:0:
256,192,184866,1,0,0:0:0:0:
256,192,184999,1,8,0:0:0:0:
256,192,185066,1,0,0:0:0:0:
256,192,185133,1,0,0:0:0:0:
256,192,185199,1,0,0:0:0:0:
256,192,185266,1,8,0:0:0:0:
256,192,185399,1,0,0:0:0:0:
256,192,185533,1,8,0:0:0:0:
256,192,185599,1,8,0:0:0:0:
256,192,185666,1,0,0:0:0:0:
256,192,185733,1,0,0:0:0:0:
256,192,185799,1,8,0:0:0:0:
256,192,185866,1,8,0:0:0:0:
256,192,185933,1,0,0:0:0:0:
256,192,186066,1,8,0:0:0:0:
256,192,186133,1,0,0:0:0:0:
256,192,186199,1,8,0:0:0:0:
256,192,186266,1,8,0:0:0:0:
256,192,186333,1,0,0:0:0:0:
256,192,186466,1,8,0:0:0:0:
256,192,186599,1,0,0:0:0:0:
256,192,186733,1,12,0:0:0:0:
256,192,186999,1,8,0:0:0:0:
256,192,187133,1,0,0:0:0:0:
256,192,187266,1,8,0:0:0:0:
256,192,187333,1,8,0:0:0:0:
256,192,187399,1,0,0:0:0:0:
256,192,187533,1,8,0:0:0:0:
256,192,187666,1,0,0:0:0:0:
256,192,187733,1,0,0:0:0:0:
256,192,187799,1,8,0:0:0:0:
256,192,187933,1,0,0:0:0:0:
256,192,188066,1,8,0:0:0:0:
256,192,188133,1,0,0:0:0:0:
256,192,188199,1,0,0:0:0:0:
256,192,188266,1,0,0:0:0:0:
256,192,188333,1,8,0:0:0:0:
256,192,188399,1,8,0:0:0:0:
256,192,188466,1,0,0:0:0:0:
256,192,188599,1,8,0:0:0:0:
256,192,188733,1,0,0:0:0:0:
256,192,188799,1,0,0:0:0:0:
256,192,188866,1,8,0:0:0:0:
256,192,188999,1,0,0:0:0:0:
256,192,189133,1,8,0:0:0:0:
224,192,189199,1,8,0:0:0:0:
256,192,189266,1,0,0:0:0:0:
256,192,189333,1,8,0:0:0:0:
256,192,189399,1,8,0:0:0:0:
256,192,189466,1,8,0:0:0:0:
256,192,189533,1,0,0:0:0:0:
256,192,189666,1,8,0:0:0:0:
256,192,189799,1,0,0:0:0:0:
256,192,189866,1,0,0:0:0:0:
256,192,189933,1,8,0:0:0:0:
256,192,189999,1,8,0:0:0:0:
224,192,190066,1,0,0:0:0:0:
256,192,190199,1,8,0:0:0:0:
256,192,190333,1,0,0:0:0:0:
256,192,190399,1,0,0:0:0:0:
256,192,190466,1,8,0:0:0:0:
256,192,190533,1,8,0:0:0:0:
256,192,190599,1,0,0:0:0:0:
256,192,190666,1,0,0:0:0:0:
256,192,190733,1,8,0:0:0:0:
256,192,190999,5,4,0:0:0:0:
256,192,191199,1,0,0:0:0:0:
256,192,191266,1,8,0:0:0:0:
256,192,191399,1,0,0:0:0:0:
256,192,191533,1,8,0:0:0:0:
256,192,191599,1,8,0:0:0:0:
256,192,191666,1,0,0:0:0:0:
256,192,191799,1,8,0:0:0:0:
256,192,191933,1,0,0:0:0:0:
256,192,191999,1,0,0:0:0:0:
256,192,192066,1,8,0:0:0:0:
256,192,192133,1,0,0:0:0:0:
256,192,192266,1,0,0:0:0:0:
256,192,192333,1,8,0:0:0:0:
256,192,192466,1,0,0:0:0:0:
256,192,192533,1,0,0:0:0:0:
256,192,192599,1,8,0:0:0:0:
256,192,192733,1,0,0:0:0:0:
256,192,192866,1,8,0:0:0:0:
256,192,192933,1,8,0:0:0:0:
256,192,192999,1,8,0:0:0:0:
256,192,193133,1,4,0:0:0:0:
256,192,193333,1,0,0:0:0:0:
256,192,193399,1,8,0:0:0:0:
256,192,193533,1,0,0:0:0:0:
256,192,193666,1,8,0:0:0:0:
256,192,193733,1,0,0:0:0:0:
256,192,193799,1,8,0:0:0:0:
256,192,193866,1,8,0:0:0:0:
256,192,193933,1,0,0:0:0:0:
256,192,193999,1,0,0:0:0:0:
256,192,194066,1,8,0:0:0:0:
256,192,194199,1,0,0:0:0:0:
256,192,194333,1,8,0:0:0:0:
256,192,194399,1,8,0:0:0:0:
256,192,194466,1,0,0:0:0:0:
256,192,194599,1,0,0:0:0:0:
256,192,194666,1,0,0:0:0:0:
256,192,194733,1,8,0:0:0:0:
256,192,194866,1,0,0:0:0:0:
256,192,194999,1,8,0:0:0:0:
256,192,195133,1,8,0:0:0:0:
256,192,195266,1,4,0:0:0:0:
256,192,195466,1,0,0:0:0:0:
256,192,195533,1,8,0:0:0:0:
256,192,195666,1,0,0:0:0:0:
256,192,195799,1,8,0:0:0:0:
256,192,195866,1,8,0:0:0:0:
256,192,195933,1,0,0:0:0:0:
256,192,195999,1,0,0:0:0:0:
256,192,196066,1,8,0:0:0:0:
256,192,196199,1,0,0:0:0:0:
256,192,196333,1,8,0:0:0:0:
256,192,196399,1,0,0:0:0:0:
256,192,196533,1,0,0:0:0:0:
256,192,196599,1,8,0:0:0:0:
256,192,196666,1,8,0:0:0:0:
256,192,196733,1,0,0:0:0:0:
256,192,196866,1,8,0:0:0:0:
256,192,196999,1,0,0:0:0:0:
256,192,197066,1,0,0:0:0:0:
256,192,197133,1,8,0:0:0:0:
256,192,197266,1,8,0:0:0:0:
256,192,197399,1,4,0:0:0:0:
256,192,197599,1,0,0:0:0:0:
256,192,197666,1,8,0:0:0:0:
256,192,197799,1,0,0:0:0:0:
256,192,197933,1,8,0:0:0:0:
256,192,197999,1,8,0:0:0:0:
256,192,198066,1,0,0:0:0:0:
256,192,198133,1,8,0:0:0:0:
256,192,198199,1,0,0:0:0:0:
256,192,198266,1,0,0:0:0:0:
256,192,198333,1,8,0:0:0:0:
256,192,198466,1,0,0:0:0:0:
256,192,198533,1,0,0:0:0:0:
256,192,198599,1,8,0:0:0:0:
256,192,198666,1,8,0:0:0:0:
256,192,198733,1,0,0:0:0:0:
256,192,198866,1,8,0:0:0:0:
256,192,198999,1,4,0:0:0:0:
256,192,199133,12,8,203266,0:0:0:0:
