osu file format v14

[General]
AudioFilename: audio.mp3
AudioLeadIn: 0
PreviewTime: 444
Countdown: 0
SampleSet: Soft
StackLeniency: 0.5
Mode: 0
LetterboxInBreaks: 0
WidescreenStoryboard: 1

[Editor]
Bookmarks: 1044,18111,24511,50111,67178,86378,88511,95978,113044,132244,134378,137578,154644,173844,186644,198911,203444
DistanceSpacing: 1.6
BeatDivisor: 4
GridSize: 32
TimelineZoom: 1.7

[Metadata]
Title:Under Kids
TitleUnicode:アンダーキッズ
Artist:TUYU
ArtistUnicode:ツユ
Creator:Len
Version:torriru's Tragic Farewell
Source:
Tags:underkids japanese jpop j-pop pop jrock j-rock rock 礼衣 ぷす ミロ 双葉陽 rei pusu miro futaba haru azyun vocals female fast l1ght_u light_u -hitomi nodoro erisu lanzhu pnky share ayesha altugle shizuku- shikibe mayu kazato asa torriru
BeatmapID:3729439
BeatmapSetID:1815821

[Difficulty]
HPDrainRate:5.2
CircleSize:3.8
OverallDifficulty:9
ApproachRate:9.6
SliderMultiplier:1.74
SliderTickRate:0.5

[Events]
//Background and Video events
Video,-100,"tuyu.mp4"
0,0,"uruse.jpg",0,0
//Break Periods
2,18111,21335
2,88511,91735
//Storyboard Layer 0 (Background)
//Storyboard Layer 1 (Fail)
//Storyboard Layer 2 (Pass)
//Storyboard Layer 3 (Foreground)
//Storyboard Layer 4 (Overlay)
//Storyboard Sound Samples

[TimingPoints]
-22,266.666666666667,4,2,1,60,1,0
511,-1000,4,2,1,60,0,0
977,-1000,4,2,1,5,0,0
1044,-71.4285714285714,4,2,1,80,0,1
1244,-71.4285714285714,4,2,1,5,0,1
1311,-83.3333333333333,4,2,1,80,0,1
2311,-83.3333333333333,4,2,1,5,0,1
2378,-83.3333333333333,4,2,1,80,0,1
2444,-83.3333333333333,4,2,1,5,0,1
2511,-83.3333333333333,4,2,1,80,0,1
2911,-71.4285714285714,4,2,1,80,0,1
3111,-71.4285714285714,4,2,1,5,0,1
3178,-83.3333333333333,4,2,1,80,0,0
3244,-83.3333333333333,4,2,1,5,0,0
3444,-83.3333333333333,4,2,1,80,0,0
3511,-83.3333333333333,4,2,1,5,0,0
3711,-83.3333333333333,4,2,1,80,0,0
3778,-83.3333333333333,4,2,1,5,0,0
3978,-83.3333333333333,4,2,1,80,0,0
4044,-83.3333333333333,4,2,1,5,0,0
4244,-83.3333333333333,4,2,1,80,0,1
4444,-83.3333333333333,4,2,1,5,0,1
4511,-83.3333333333333,4,2,1,80,0,1
4577,-83.3333333333333,4,2,1,5,0,1
4644,-83.3333333333333,4,2,1,80,0,1
8711,-83.3333333333333,4,2,1,5,0,1
8778,-83.3333333333333,4,2,1,80,0,1
8844,-83.3333333333333,4,2,1,5,0,1
8911,-83.3333333333333,4,2,1,80,0,1
9244,-83.3333333333333,4,2,1,5,0,1
9311,-83.3333333333333,4,2,1,80,0,1
9578,-125,4,2,1,65,0,0
11711,-71.4285714285714,4,2,1,65,0,0
13578,-500,4,2,1,65,0,0
13778,-500,4,2,1,5,0,0
13844,-500,4,2,1,80,0,1
16111,-100,4,2,1,80,0,0
17044,-125,4,2,1,80,0,0
17510,-125,4,2,1,5,0,0
17578,-125,4,2,1,80,0,0
18111,-125,4,2,1,60,0,0
21844,-125,4,2,1,70,0,0
21978,-500,4,2,1,70,0,0
22178,-500,4,2,1,5,0,0
22244,-500,4,2,1,70,0,0
22644,-71.4285714285714,4,2,1,70,0,0
22844,-71.4285714285714,4,2,1,5,0,0
22911,-83.3333333333333,4,2,1,70,0,0
22977,-83.3333333333333,4,2,1,5,0,0
23044,-83.3333333333333,4,2,1,70,0,0
23244,-83.3333333333333,4,2,1,5,0,0
23311,-83.3333333333333,4,2,1,70,0,0
23911,-83.3333333333333,4,2,1,5,0,0
23978,-83.3333333333333,4,2,1,70,0,0
24044,-83.3333333333333,4,2,1,5,0,0
24111,-100,4,2,1,70,0,0
24444,-100,4,2,1,5,0,0
24511,-250.000000000001,4,2,1,50,0,0
26644,-166.666666666667,4,2,1,50,0,0
28378,-500,4,2,1,50,0,0
28711,-500,4,2,1,5,0,0
28778,-200.000000000001,4,2,1,50,0,0
32644,-500,4,2,1,50,0,0
32977,-500,4,2,1,5,0,0
33044,-111.111111111111,4,2,1,50,0,0
33578,-125,4,2,1,50,0,0
34111,-111.111111111111,4,2,1,50,0,0
36111,-125,4,2,1,50,0,0
36511,-166.666666666667,4,2,1,50,0,0
37311,-83.3333333333333,4,2,1,70,0,0
37511,-83.3333333333333,4,2,1,5,0,0
37578,-83.3333333333333,4,2,1,70,0,0
37844,-100,4,2,1,70,0,0
38111,-83.3333333333333,4,2,1,70,0,0
38311,-83.3333333333333,4,2,1,5,0,0
38378,-83.3333333333333,4,2,1,70,0,0
38578,-83.3333333333333,4,2,1,5,0,0
38644,-83.3333333333333,4,2,1,70,0,0
38911,-100,4,2,1,70,0,0
39178,-76.9230769230769,4,2,1,70,0,0
39378,-76.9230769230769,4,2,1,5,0,0
39444,-90.9090909090909,4,2,1,70,0,0
39978,-83.3333333333333,4,2,1,70,0,0
40711,-83.3333333333333,4,2,1,5,0,0
40778,-83.3333333333333,4,2,1,70,0,0
40844,-83.3333333333333,4,2,1,5,0,0
40911,-83.3333333333333,4,2,1,70,0,0
41578,-71.4285714285714,4,2,1,70,0,0
41778,-71.4285714285714,4,2,1,5,0,0
41844,-100,4,2,1,70,0,0
41910,-100,4,2,1,5,0,0
41978,-100,4,2,1,70,0,0
42177,-100,4,2,1,5,0,0
42244,-100,4,2,1,70,0,0
42444,-100,4,2,1,5,0,0
42511,-100,4,2,1,70,0,0
42644,-71.4285714285714,4,2,1,70,0,0
42844,-71.4285714285714,4,2,1,5,0,0
42911,-100,4,2,1,70,0,0
42977,-100,4,2,1,5,0,0
43044,-100,4,2,1,70,0,0
43244,-100,4,2,1,5,0,0
43311,-100,4,2,1,70,0,0
43444,-71.4285714285714,4,2,1,70,0,0
43644,-71.4285714285714,4,2,1,5,0,0
43711,-71.4285714285714,4,2,1,70,0,0
44778,-100,4,2,1,70,0,0
44844,-100,4,2,1,5,0,0
44911,-100,4,2,1,70,0,0
45110,-100,4,2,1,5,0,0
45178,-100,4,2,1,70,0,0
45377,-100,4,2,1,5,0,0
45444,-100,4,2,1,70,0,0
45644,-100,4,2,1,5,0,0
45711,-100,4,2,1,70,0,0
45844,-62.5,4,2,1,75,0,0
46044,-62.5,4,2,1,5,0,0
46111,-83.3333333333333,4,2,1,75,0,0
46644,-100,4,2,1,75,0,0
46710,-100,4,2,1,5,0,0
46778,-100,4,2,1,75,0,0
46911,-83.3333333333333,4,2,1,75,0,0
47711,-62.5,4,2,1,75,0,0
47911,-62.5,4,2,1,5,0,0
47978,-83.3333333333333,4,2,1,75,0,0
48310,-83.3333333333333,4,2,1,5,0,0
48378,-83.3333333333333,4,2,1,75,0,0
48577,-83.3333333333333,4,2,1,5,0,0
48644,-83.3333333333333,4,2,1,75,0,0
49578,-500,4,2,1,75,0,0
50111,-62.5,4,2,1,75,0,1
50311,-62.5,4,2,1,5,0,1
50378,-83.3333333333333,4,2,1,75,0,1
51378,-83.3333333333333,4,2,1,5,0,1
51444,-83.3333333333333,4,2,1,75,0,1
51510,-83.3333333333333,4,2,1,5,0,1
51578,-83.3333333333333,4,2,1,75,0,1
51978,-62.5,4,2,1,75,0,0
52178,-62.5,4,2,1,5,0,1
52244,-83.3333333333333,4,2,1,75,0,0
52311,-83.3333333333333,4,2,1,5,0,0
52511,-83.3333333333333,4,2,1,75,0,0
52578,-83.3333333333333,4,2,1,5,0,0
52778,-83.3333333333333,4,2,1,75,0,0
52844,-83.3333333333333,4,2,1,5,0,0
53044,-83.3333333333333,4,2,1,75,0,0
53111,-83.3333333333333,4,2,1,5,0,0
53311,-71.4285714285714,4,2,1,75,0,1
53511,-71.4285714285714,4,2,1,5,0,1
53578,-83.3333333333333,4,2,1,75,0,1
53644,-83.3333333333333,4,2,1,5,0,1
53711,-83.3333333333333,4,2,1,75,0,1
57578,-71.4285714285714,4,2,1,75,0,1
57778,-71.4285714285714,4,2,1,5,0,1
57844,-83.3333333333333,4,2,1,75,0,1
57910,-83.3333333333333,4,2,1,5,0,1
57978,-83.3333333333333,4,2,1,75,0,1
58311,-83.3333333333333,4,2,1,5,0,1
58378,-83.3333333333333,4,2,1,75,0,1
58644,-166.666666666667,4,2,1,65,0,0
60778,-90.9090909090909,4,2,1,65,0,0
62644,-500,4,2,1,65,0,0
62844,-500,4,2,1,5,0,0
62911,-500,4,2,1,65,0,1
65178,-100,4,2,1,65,0,0
66111,-166.666666666667,4,2,1,65,0,0
67178,-166.666666666667,4,2,1,80,0,1
67578,-71.4285714285714,4,2,1,80,0,1
67778,-71.4285714285714,4,2,1,5,0,1
67844,-83.3333333333333,4,2,1,80,0,1
69044,-71.4285714285714,4,2,1,80,0,1
69244,-71.4285714285714,4,2,1,5,0,1
69311,-71.4285714285714,4,2,1,80,0,0
70378,-83.3333333333333,4,2,1,80,0,1
70578,-83.3333333333333,4,2,1,5,0,1
70644,-83.3333333333333,4,2,1,80,0,1
71444,-71.4285714285714,4,2,1,80,0,1
71644,-71.4285714285714,4,2,1,5,0,1
71711,-83.3333333333333,4,2,1,80,0,1
72244,-71.4285714285714,4,2,1,80,0,1
72444,-71.4285714285714,4,2,1,5,0,1
72511,-83.3333333333333,4,2,1,80,0,1
73578,-71.4285714285714,4,2,1,80,0,1
73778,-71.4285714285714,4,2,1,5,0,1
73844,-71.4285714285714,4,2,1,80,0,1
73978,-83.3333333333333,4,2,1,80,0,1
74644,-71.4285714285714,4,2,1,80,0,1
74844,-71.4285714285714,4,2,1,5,0,1
74911,-83.3333333333333,4,2,1,80,0,1
74977,-83.3333333333333,4,2,1,5,0,1
75044,-83.3333333333333,4,2,1,80,0,1
75711,-83.3333333333333,4,2,1,80,0,0
76778,-71.4285714285714,4,2,1,80,0,1
76978,-71.4285714285714,4,2,1,5,0,1
77044,-71.4285714285714,4,2,1,80,0,1
77178,-83.3333333333333,4,2,1,80,0,1
77844,-83.3333333333333,4,2,1,80,0,0
78911,-71.4285714285714,4,2,1,80,0,1
79111,-71.4285714285714,4,2,1,5,0,1
79178,-71.4285714285714,4,2,1,80,0,1
79444,-83.3333333333333,4,2,1,80,0,1
79510,-83.3333333333333,4,2,1,5,0,1
79578,-83.3333333333333,4,2,1,80,0,1
79711,-71.4285714285714,4,2,1,80,0,1
79911,-71.4285714285714,4,2,1,5,0,1
79978,-71.4285714285714,4,2,1,80,0,1
80178,-71.4285714285714,4,2,1,5,0,1
80244,-83.3333333333333,4,2,1,80,0,1
80644,-71.4285714285714,4,2,1,80,0,1
80844,-71.4285714285714,4,2,1,5,0,1
80911,-83.3333333333333,4,2,1,80,0,1
81377,-83.3333333333333,4,2,1,5,0,1
81444,-83.3333333333333,4,2,1,80,0,1
81644,-83.3333333333333,4,2,1,5,0,1
81711,-83.3333333333333,4,2,1,80,0,1
81910,-83.3333333333333,4,2,1,5,0,1
81978,-83.3333333333333,4,2,1,80,0,1
82111,-71.4285714285714,4,2,1,80,0,1
82311,-71.4285714285714,4,2,1,5,0,1
82378,-83.3333333333333,4,2,1,80,0,1
82778,-71.4285714285714,4,2,1,80,0,1
82978,-71.4285714285714,4,2,1,5,0,1
83044,-83.3333333333333,4,2,1,80,0,1
83510,-83.3333333333333,4,2,1,5,0,1
83578,-83.3333333333333,4,2,1,80,0,1
83777,-83.3333333333333,4,2,1,5,0,1
83844,-83.3333333333333,4,2,1,80,0,1
84044,-83.3333333333333,4,2,1,5,0,1
84111,-83.3333333333333,4,2,1,80,0,1
84244,-71.4285714285714,4,2,1,80,0,1
84444,-71.4285714285714,4,2,1,5,0,1
84511,-71.4285714285714,4,2,1,80,0,1
84577,-71.4285714285714,4,2,1,5,0,1
84644,-71.4285714285714,4,2,1,80,0,1
84844,-71.4285714285714,4,2,1,5,0,1
84911,-71.4285714285714,4,2,1,80,0,1
85110,-71.4285714285714,4,2,1,5,0,1
85178,-71.4285714285714,4,2,1,80,0,1
85311,-71.4285714285714,4,2,1,80,0,0
86378,-200,4,2,1,75,0,0
88511,-200,4,2,1,60,0,0
92244,-200,4,2,1,60,0,0
92378,-500,4,2,1,60,0,0
92578,-500,4,2,1,5,0,0
92644,-500,4,2,1,70,0,0
93044,-71.4285714285714,4,2,1,70,0,0
93244,-71.4285714285714,4,2,1,5,0,0
93311,-83.3333333333333,4,2,1,70,0,0
93377,-83.3333333333333,4,2,1,5,0,0
93444,-83.3333333333333,4,2,1,70,0,0
93644,-83.3333333333333,4,2,1,5,0,0
93711,-83.3333333333333,4,2,1,70,0,0
94311,-83.3333333333333,4,2,1,5,0,0
94378,-83.3333333333333,4,2,1,70,0,0
94444,-83.3333333333333,4,2,1,5,0,0
94511,-166.666666666667,4,2,1,70,0,0
95044,-166.666666666667,4,2,1,5,0,0
95444,-166.666666666667,4,2,1,70,0,0
95510,-166.666666666667,4,2,1,5,0,0
95578,-1000,4,2,1,70,0,0
95911,-1000,4,2,1,5,0,0
95978,-62.5,4,2,1,70,0,1
96711,-62.5,4,2,1,5,0,1
96778,-71.4285714285714,4,2,1,70,0,1
97178,-83.3333333333333,4,2,1,70,0,1
97311,-71.4285714285714,4,2,1,70,0,1
97511,-71.4285714285714,4,2,1,5,0,1
97578,-71.4285714285714,4,2,1,70,0,1
97711,-83.3333333333333,4,2,1,70,0,1
97844,-62.5,4,2,1,70,0,1
98044,-62.5,4,2,1,70,0,1
98111,-62.5,4,2,1,70,0,0
99178,-62.5,4,2,1,70,0,1
99578,-83.3333333333333,4,2,1,70,0,1
100244,-62.5,4,2,1,70,0,1
100444,-62.5,4,2,1,5,0,1
100511,-62.5,4,2,1,70,0,1
100778,-71.4285714285714,4,2,1,70,0,1
100978,-71.4285714285714,4,2,1,5,0,1
101044,-71.4285714285714,4,2,1,70,0,1
101778,-71.4285714285714,4,2,1,5,0,1
101844,-71.4285714285714,4,2,1,70,0,1
102111,-83.3333333333333,4,2,1,70,0,1
102378,-100,4,2,1,70,0,0
103444,-71.4285714285714,4,2,1,70,0,1
103644,-71.4285714285714,4,2,1,5,0,1
103711,-83.3333333333333,4,2,1,70,0,1
104511,-125,4,2,1,70,0,0
106644,-71.4285714285714,4,2,1,70,0,0
108511,-500,4,2,1,70,0,0
108711,-500,4,2,1,5,0,0
108778,-500,4,2,1,75,0,1
109044,-71.4285714285714,4,2,1,75,0,1
109311,-62.5,4,2,1,75,0,1
109511,-62.5,4,2,1,5,0,1
109578,-71.4285714285714,4,2,1,75,0,1
109644,-71.4285714285714,4,2,1,5,0,1
109711,-71.4285714285714,4,2,1,75,0,1
110378,-83.3333333333333,4,2,1,75,0,1
111978,-83.3333333333333,4,2,1,75,0,0
112244,-83.3333333333333,4,2,1,65,0,0
112511,-83.3333333333333,4,2,1,65,0,0
113044,-83.3333333333333,4,2,1,80,0,1
113444,-71.4285714285714,4,2,1,80,0,1
113644,-71.4285714285714,4,2,1,5,0,1
113711,-83.3333333333333,4,2,1,80,0,1
114911,-71.4285714285714,4,2,1,80,0,1
115111,-71.4285714285714,4,2,1,5,0,1
115178,-71.4285714285714,4,2,1,80,0,0
116244,-71.4285714285714,4,2,1,80,0,1
116444,-71.4285714285714,4,2,1,5,0,1
116511,-71.4285714285714,4,2,1,80,0,1
116644,-83.3333333333333,4,2,1,80,0,1
117311,-71.4285714285714,4,2,1,80,0,1
117511,-71.4285714285714,4,2,1,5,0,1
117578,-83.3333333333333,4,2,1,80,0,1
118111,-71.4285714285714,4,2,1,80,0,1
118311,-71.4285714285714,4,2,1,5,0,1
118378,-83.3333333333333,4,2,1,80,0,1
119444,-71.4285714285714,4,2,1,80,0,1
119644,-71.4285714285714,4,2,1,5,0,1
119711,-71.4285714285714,4,2,1,80,0,1
119844,-83.3333333333333,4,2,1,80,0,1
120511,-62.5,4,2,1,80,0,1
120711,-62.5,4,2,1,5,0,1
120778,-83.3333333333333,4,2,1,80,0,1
120844,-83.3333333333333,4,2,1,5,0,1
120911,-83.3333333333333,4,2,1,80,0,1
121578,-83.3333333333333,4,2,1,80,0,0
122644,-71.4285714285714,4,2,1,80,0,1
122844,-71.4285714285714,4,2,1,5,0,1
122911,-71.4285714285714,4,2,1,80,0,1
123044,-83.3333333333333,4,2,1,80,0,1
123711,-83.3333333333333,4,2,1,80,0,0
124778,-71.4285714285714,4,2,1,80,0,1
124978,-71.4285714285714,4,2,1,5,0,1
125044,-71.4285714285714,4,2,1,80,0,1
125311,-83.3333333333333,4,2,1,80,0,1
125377,-83.3333333333333,4,2,1,5,0,1
125444,-83.3333333333333,4,2,1,80,0,1
125578,-71.4285714285714,4,2,1,80,0,1
125778,-71.4285714285714,4,2,1,5,0,1
125844,-62.5,4,2,1,80,0,1
126044,-62.5,4,2,1,5,0,1
126111,-83.3333333333333,4,2,1,80,0,1
126511,-71.4285714285714,4,2,1,80,0,1
126711,-71.4285714285714,4,2,1,5,0,1
126778,-83.3333333333333,4,2,1,80,0,1
127244,-83.3333333333333,4,2,1,5,0,1
127311,-83.3333333333333,4,2,1,80,0,1
127510,-83.3333333333333,4,2,1,5,0,1
127578,-83.3333333333333,4,2,1,80,0,1
127777,-83.3333333333333,4,2,1,5,0,1
127844,-83.3333333333333,4,2,1,80,0,1
127978,-71.4285714285714,4,2,1,80,0,1
128178,-71.4285714285714,4,2,1,5,0,1
128244,-83.3333333333333,4,2,1,80,0,1
128644,-71.4285714285714,4,2,1,80,0,1
128844,-71.4285714285714,4,2,1,5,0,1
128911,-83.3333333333333,4,2,1,80,0,1
129377,-83.3333333333333,4,2,1,5,0,1
129444,-83.3333333333333,4,2,1,80,0,1
129644,-83.3333333333333,4,2,1,5,0,1
129711,-83.3333333333333,4,2,1,80,0,1
129910,-83.3333333333333,4,2,1,5,0,1
129978,-83.3333333333333,4,2,1,80,0,1
130111,-71.4285714285714,4,2,1,80,0,1
130311,-71.4285714285714,4,2,1,5,0,1
130378,-71.4285714285714,4,2,1,80,0,1
130444,-71.4285714285714,4,2,1,5,0,1
130511,-71.4285714285714,4,2,1,80,0,1
130710,-71.4285714285714,4,2,1,5,0,1
130778,-71.4285714285714,4,2,1,80,0,1
130977,-71.4285714285714,4,2,1,5,0,1
131044,-71.4285714285714,4,2,1,80,0,1
131178,-71.4285714285714,4,2,1,80,0,0
132244,-90.9090909090909,4,2,1,80,0,0
136111,-71.4285714285714,4,2,1,80,0,0
137044,-1000,4,2,1,75,0,0
137510,-1000,4,2,1,5,0,0
137578,-62.5,4,2,1,75,0,1
137778,-62.5,4,2,1,5,0,1
137844,-83.3333333333333,4,2,1,75,0,1
138644,-71.4285714285714,4,2,1,75,0,1
138844,-71.4285714285714,4,2,1,5,0,1
138911,-83.3333333333333,4,2,1,75,0,1
138977,-83.3333333333333,4,2,1,5,0,1
139044,-83.3333333333333,4,2,1,75,0,1
139444,-62.5,4,2,1,75,0,1
139644,-62.5,4,2,1,5,0,1
139711,-83.3333333333333,4,2,1,75,0,0
139778,-83.3333333333333,4,2,1,5,0,0
139978,-83.3333333333333,4,2,1,75,0,0
140044,-83.3333333333333,4,2,1,5,0,0
140244,-83.3333333333333,4,2,1,75,0,0
140311,-83.3333333333333,4,2,1,5,0,0
140511,-83.3333333333333,4,2,1,75,0,0
140578,-83.3333333333333,4,2,1,5,0,0
140778,-71.4285714285714,4,2,1,75,0,1
140978,-71.4285714285714,4,2,1,5,0,1
141044,-71.4285714285714,4,2,1,75,0,1
141178,-83.3333333333333,4,2,1,75,0,1
145044,-71.4285714285714,4,2,1,75,0,1
145244,-71.4285714285714,4,2,1,5,0,1
145311,-83.3333333333333,4,2,1,75,0,1
145377,-83.3333333333333,4,2,1,5,0,1
145444,-83.3333333333333,4,2,1,75,0,1
145778,-83.3333333333333,4,2,1,5,0,1
145844,-83.3333333333333,4,2,1,75,0,1
146111,-166.666666666667,4,2,1,75,0,0
148244,-90.9090909090909,4,2,1,75,0,0
150111,-500,4,2,1,75,0,0
150311,-500,4,2,1,5,0,0
150378,-500,4,2,1,75,0,1
152644,-100,4,2,1,75,0,0
153578,-166.666666666667,4,2,1,75,0,0
154644,-166.666666666667,4,2,1,80,0,1
155044,-71.4285714285714,4,2,1,80,0,1
155244,-71.4285714285714,4,2,1,5,0,1
155311,-83.3333333333333,4,2,1,80,0,1
156511,-71.4285714285714,4,2,1,80,0,1
156711,-71.4285714285714,4,2,1,5,0,1
156778,-71.4285714285714,4,2,1,80,0,0
157844,-71.4285714285714,4,2,1,80,0,1
158044,-71.4285714285714,4,2,1,5,0,1
158111,-71.4285714285714,4,2,1,80,0,1
158244,-83.3333333333333,4,2,1,80,0,1
158911,-71.4285714285714,4,2,1,80,0,1
159111,-71.4285714285714,4,2,1,5,0,1
159178,-83.3333333333333,4,2,1,80,0,1
159711,-71.4285714285714,4,2,1,80,0,1
159911,-71.4285714285714,4,2,1,5,0,1
159978,-83.3333333333333,4,2,1,80,0,1
161044,-71.4285714285714,4,2,1,80,0,1
161244,-71.4285714285714,4,2,1,5,0,1
161311,-71.4285714285714,4,2,1,80,0,1
161444,-83.3333333333333,4,2,1,80,0,1
162111,-71.4285714285714,4,2,1,80,0,1
162311,-71.4285714285714,4,2,1,5,0,1
162378,-83.3333333333333,4,2,1,80,0,1
162444,-83.3333333333333,4,2,1,5,0,1
162511,-83.3333333333333,4,2,1,80,0,1
163178,-83.3333333333333,4,2,1,80,0,0
164244,-71.4285714285714,4,2,1,80,0,1
164444,-71.4285714285714,4,2,1,5,0,1
164511,-71.4285714285714,4,2,1,80,0,1
164644,-83.3333333333333,4,2,1,80,0,1
165311,-83.3333333333333,4,2,1,80,0,0
166378,-62.5,4,2,1,80,0,1
166578,-62.5,4,2,1,5,0,1
166644,-62.5,4,2,1,80,0,1
166911,-83.3333333333333,4,2,1,80,0,1
166977,-83.3333333333333,4,2,1,5,0,1
167044,-83.3333333333333,4,2,1,80,0,1
167178,-62.5,4,2,1,80,0,1
167378,-62.5,4,2,1,5,0,1
167444,-71.4285714285714,4,2,1,80,0,1
167644,-71.4285714285714,4,2,1,5,0,1
167711,-83.3333333333333,4,2,1,80,0,1
168111,-62.5,4,2,1,80,0,1
168311,-62.5,4,2,1,5,0,1
168378,-83.3333333333333,4,2,1,80,0,1
168844,-83.3333333333333,4,2,1,5,0,1
168911,-83.3333333333333,4,2,1,80,0,1
169110,-83.3333333333333,4,2,1,5,0,1
169178,-83.3333333333333,4,2,1,80,0,1
169377,-83.3333333333333,4,2,1,5,0,1
169444,-83.3333333333333,4,2,1,80,0,1
169578,-71.4285714285714,4,2,1,80,0,1
169778,-71.4285714285714,4,2,1,5,0,1
169844,-83.3333333333333,4,2,1,80,0,1
170244,-71.4285714285714,4,2,1,80,0,1
170444,-71.4285714285714,4,2,1,5,0,1
170511,-83.3333333333333,4,2,1,80,0,1
170911,-71.4285714285714,4,2,1,80,0,1
170977,-71.4285714285714,4,2,1,5,0,1
171044,-71.4285714285714,4,2,1,80,0,1
171244,-71.4285714285714,4,2,1,5,0,1
171311,-71.4285714285714,4,2,1,80,0,1
171510,-71.4285714285714,4,2,1,5,0,1
171578,-71.4285714285714,4,2,1,80,0,1
171711,-62.5,4,2,1,80,0,1
171911,-62.5,4,2,1,5,0,1
171978,-71.4285714285714,4,2,1,80,0,1
172044,-71.4285714285714,4,2,1,5,0,1
172111,-71.4285714285714,4,2,1,80,0,1
172310,-71.4285714285714,4,2,1,5,0,1
172378,-71.4285714285714,4,2,1,80,0,1
172577,-71.4285714285714,4,2,1,5,0,1
172644,-71.4285714285714,4,2,1,80,0,1
172778,-71.4285714285714,4,2,1,80,0,0
173844,-62.5,4,2,1,80,0,1
174044,-62.5,4,2,1,5,0,1
174111,-83.3333333333333,4,2,1,80,0,1
174644,-62.5,4,2,1,80,0,1
174844,-62.5,4,2,1,5,0,1
174911,-83.3333333333333,4,2,1,80,0,1
175311,-71.4285714285714,4,2,1,80,0,1
176178,-71.4285714285714,4,2,1,5,0,1
176244,-71.4285714285714,4,2,1,80,0,1
176378,-62.5,4,2,1,80,0,1
176578,-62.5,4,2,1,5,0,1
176644,-83.3333333333333,4,2,1,80,0,1
177844,-62.5,4,2,1,80,0,0
178044,-62.5,4,2,1,5,0,0
178111,-83.3333333333333,4,2,1,80,0,1
181311,-71.4285714285714,4,2,1,80,0,1
181511,-71.4285714285714,4,2,1,5,0,1
181578,-83.3333333333333,4,2,1,80,0,1
182111,-100,4,2,1,80,0,1
182177,-100,4,2,1,5,0,1
182244,-100,4,2,1,80,0,1
182378,-62.5,4,2,1,80,0,1
182578,-62.5,4,2,1,5,0,1
182644,-83.3333333333333,4,2,1,80,0,1
183444,-62.5,4,2,1,80,0,1
183644,-62.5,4,2,1,5,0,1
183711,-62.5,4,2,1,80,0,1
183978,-83.3333333333333,4,2,1,80,0,1
185044,-62.5,4,2,1,80,0,1
185244,-62.5,4,2,1,5,0,1
185311,-83.3333333333333,4,2,1,80,0,1
185978,-62.5,4,2,1,80,0,1
186178,-62.5,4,2,1,5,0,1
186244,-62.5,4,2,1,80,0,1
186378,-62.5,4,2,1,80,0,0
186644,-83.3333333333333,4,2,1,80,0,1
189844,-62.5,4,2,1,80,0,1
190044,-62.5,4,2,1,5,0,1
190111,-83.3333333333333,4,2,1,80,0,1
190644,-100,4,2,1,80,0,1
190710,-100,4,2,1,5,0,1
190778,-100,4,2,1,80,0,1
190911,-71.4285714285714,4,2,1,80,0,1
191111,-71.4285714285714,4,2,1,5,0,1
191178,-83.3333333333333,4,2,1,80,0,1
191444,-71.4285714285714,4,2,1,80,0,1
191644,-71.4285714285714,4,2,1,5,0,1
191711,-83.3333333333333,4,2,1,80,0,1
191777,-83.3333333333333,4,2,1,5,0,1
191844,-83.3333333333333,4,2,1,80,0,1
191978,-62.5,4,2,1,80,0,1
192178,-62.5,4,2,1,5,0,1
192244,-62.5,4,2,1,80,0,1
192378,-71.4285714285714,4,2,1,80,0,1
193244,-71.4285714285714,4,2,1,5,0,1
193311,-71.4285714285714,4,2,1,80,0,1
194378,-62.5,4,2,1,80,0,1
194578,-62.5,4,2,1,5,0,1
194644,-83.3333333333333,4,2,1,80,0,1
195178,-71.4285714285714,4,2,1,80,0,1
195378,-71.4285714285714,4,2,1,5,0,1
195444,-83.3333333333333,4,2,1,80,0,1
195711,-71.4285714285714,4,2,1,80,0,1
195911,-71.4285714285714,4,2,1,5,0,1
195978,-83.3333333333333,4,2,1,80,0,1
196044,-83.3333333333333,4,2,1,5,0,1
196111,-83.3333333333333,4,2,1,80,0,1
196244,-71.4285714285714,4,2,1,80,0,1
196444,-71.4285714285714,4,2,1,5,0,1
196511,-71.4285714285714,4,2,1,80,0,1
198911,-71.4285714285714,4,2,2,80,0,0
201578,-71.4285714285714,4,2,2,50,0,0

[Colours]
Combo1 : 166,206,255
Combo2 : 180,180,218

[HitObjects]
61,28,511,6,0,L|70:-2,1,30.45,2|0,2:0|0:0,0:0:0:0:
3,85,1044,6,0,B|78:58|78:58|119:66|137:105|114:140,1,182.7,4|0,1:0|0:0,0:0:0:0:
182,183,1311,2,0,P|141:214|90:210,1,104.4,8|0,2:0|0:0,0:0:0:0:
6,188,1578,5,0,1:0:0:0:
83,219,1711,1,0,1:0:0:0:
115,297,1844,1,8,2:0:0:0:
83,374,1978,1,2,2:0:0:0:
228,311,2111,6,0,B|321:355|321:355|298:337|295:305,1,156.6,2|0,1:2|0:0,0:0:0:0:
373,292,2378,2,0,P|371:265|358:241,1,52.2,8|0,2:0|0:0,0:0:0:0:
350,238,2511,1,2,2:0:0:0:
174,175,2644,5,0,1:2:0:0:
249,138,2778,1,0,1:2:0:0:
144,256,2911,6,1,B|108:314|23:303|30:220|82:218,1,182.7,8|0,2:0|0:0,0:0:0:0:
152,264,3178,6,0,L|138:314,1,52.2,2|0,1:2|0:0,0:0:0:0:
253,329,3444,6,0,L|279:374,1,52.2,2|0,1:2|0:0,0:0:0:0:
372,304,3711,6,0,L|422:318,1,52.2,2|0,1:2|0:0,0:0:0:0:
437,201,3978,6,0,L|482:174,1,52.2,2|0,1:2|0:0,0:0:0:0:
249,138,4244,6,1,B|232:159|205:162|205:162|236:178|282:162|284:114,1,156.6,4|0,1:0|0:0,0:0:0:0:
206,71,4511,2,0,L|156:89,1,52.2,8|0,2:0|0:0,0:0:0:0:
429,16,4644,6,0,B|391:12|367:-18|367:-18|426:106,1,208.8,2|0,1:2|1:2,0:0:0:0:
427,106,5044,1,8,2:0:0:0:
488,215,5178,6,0,L|437:201,1,52.2,0|0,1:0|1:0,0:0:0:0:
293,384,5311,5,4,1:0:0:0:
446,212,5444,1,2,2:0:0:0:
293,384,5578,5,10,2:0:0:0:
354,174,5711,1,2,2:0:0:0:
293,384,5844,5,2,1:2:0:0:
260,212,5978,1,2,1:2:0:0:
293,384,6111,5,10,2:0:0:0:
223,305,6244,1,2,2:0:0:0:
131,343,6378,5,2,1:2:0:0:
223,305,6511,1,2,2:0:0:0:
37,305,6644,5,10,2:0:0:0:
223,305,6778,1,2,2:0:0:0:
0,212,6911,5,2,1:2:0:0:
223,305,7044,1,2,1:2:0:0:
40,120,7178,5,10,2:0:0:0:
223,305,7311,1,2,2:0:0:0:
200,105,7444,5,0,1:0:0:0:
131,149,7578,2,1,B|171:214|268:202|260:108|201:105,1,208.8,2|2,2:0|2:0,0:0:0:0:
64,32,7978,5,2,1:2:0:0:
147,0,8111,1,2,2:0:0:0:
0,212,8244,5,8,2:0:0:0:
83,244,8378,1,4,1:2:0:0:
83,244,8444,1,0,1:0:0:0:
83,244,8511,2,0,B|176:200|176:200|153:218|150:250,1,156.6,0|0,1:0|0:0,0:0:0:0:
259,318,8778,6,0,L|245:267,1,52.2,8|0,2:0|0:0,0:0:0:0:
232,259,8911,1,2,2:0:0:0:
435,135,9044,6,1,B|418:114|391:111|391:111|422:95|468:111|470:159,1,156.6,0|0,1:0|0:0,0:0:0:0:
461,159,9311,1,8,2:0:0:0:
392,215,9444,5,0,1:0:0:0:
392,215,9511,1,0,1:0:0:0:
392,215,9578,2,0,L|117:166,2,278.4,4|10|2,1:0|1:2|1:2,0:0:0:0:
392,215,11178,5,8,1:2:0:0:
15,234,11711,6,0,L|494:149,2,487.2,2|8|2,1:2|1:2|1:2,0:0:0:0:
15,234,13044,5,8,2:0:0:0:
381,77,13311,5,0,1:0:0:0:
381,77,13444,1,0,1:0:0:0:
427,143,13578,2,0,L|419:172,1,26.1,8|0,2:0|0:0,0:0:0:0:
477,227,13844,5,4,1:0:0:0:
401,283,13978,5,2,2:0:0:0:
305,271,14111,5,10,2:0:0:0:
248,195,14244,5,2,2:0:0:0:
260,101,14378,5,2,1:2:0:0:
335,43,14511,5,2,1:2:0:0:
430,55,14644,5,10,2:0:0:0:
489,131,14778,5,2,2:0:0:0:
477,227,14911,5,2,1:2:0:0:
260,101,15044,1,2,1:2:0:0:
401,283,15178,5,10,2:0:0:0:
335,43,15311,1,2,2:0:0:0:
305,271,15444,5,2,1:2:0:0:
430,55,15578,1,2,1:2:0:0:
248,195,15711,5,10,2:0:0:0:
489,131,15844,1,2,2:0:0:0:
430,55,15978,5,4,1:2:0:0:
382,120,16111,2,0,B|404:204|404:204|406:206|406:206|429:288,1,174,2|8,2:0|2:0,0:0:0:0:
293,360,16511,5,0,1:0:0:0:
385,384,16644,1,0,0:0:0:0:
293,360,16778,5,8,2:0:0:0:
385,384,16911,1,0,0:0:0:0:
240,215,17044,6,1,B|166:187|134:261|142:258|111:333|37:303,1,243.6,4|0,1:0|0:0,0:0:0:0:
47,296,17578,5,0,1:0:0:0:
385,384,17711,1,8,2:0:0:0:
33,12,21844,5,0,1:0:0:0:
84,70,21978,2,0,L|77:95,1,26.1,10|0,2:0|0:0,0:0:0:0:
82,105,22244,5,4,1:0:0:0:
171,261,22511,5,2,1:2:0:0:
209,191,22644,2,0,B|134:164|134:164|93:172|75:211|98:246,1,182.7,10|0,2:0|0:0,0:0:0:0:
280,341,22911,6,0,L|341:324,1,52.2,2|0,1:2|0:0,0:0:0:0:
171,261,23044,1,2,2:0:0:0:
309,165,23178,6,0,L|359:178,1,52.2,10|0,2:0|0:0,0:0:0:0:
251,262,23311,1,2,2:0:0:0:
479,360,23444,5,2,1:2:0:0:
511,277,23578,1,2,3:2:0:0:
330,249,23711,6,0,B|423:293|423:293|400:275|397:243,1,156.6,10|0,2:0|0:0,0:0:0:0:
434,176,23978,2,0,P|464:178|484:190,1,52.2,14|0,2:0|0:0,0:0:0:0:
266,129,24111,6,0,B|262:167|230:192|230:192|359:131,1,217.5,10|0,2:0|0:0,0:0:0:0:
352,127,24511,6,0,L|313:269,2,139.199999999999,4|2|2,1:0|1:2|1:2,0:0:0:0:
352,127,26111,1,2,1:2:0:0:
177,51,26644,6,1,B|241:27|268:90|261:87|288:152|352:127,2,208.8,2|2|2,1:2|1:2|1:2,0:0:0:0:
177,51,28244,1,2,1:2:0:0:
226,111,28378,2,0,L|214:154,1,43.5,0|0,1:0|0:0,0:0:0:0:
242,231,28778,6,0,B|174:269|174:269|133:268|109:235|125:202,2,173.999999999999,2|2|2,1:2|1:2|1:2,0:0:0:0:
242,231,30378,1,2,1:2:0:0:
354,312,30911,6,0,B|416:328|416:328|433:366|433:366|499:384,2,173.999999999999,2|2|2,1:2|1:2|1:2,0:0:0:0:
354,312,32511,1,2,1:2:0:0:
403,252,32644,2,0,L|391:209,1,43.5,0|0,1:0|0:0,0:0:0:0:
336,157,33044,6,0,B|398:179|398:179|432:172|447:140|428:111,1,156.6,2|2,1:2|2:0,0:0:0:0:
427,110,33444,1,0,0:0:0:0:
332,57,33578,6,0,L|422:24,1,69.6,2|0,1:2|0:0,0:0:0:0:
329,166,33844,2,0,L|263:142,1,69.6,2|0,2:0|0:0,0:0:0:0:
116,38,34111,6,0,P|164:56|244:-3,2,156.6,2|2|2,1:2|2:0|1:2,0:0:0:0:
185,65,34778,1,2,2:0:0:0:
213,135,34911,1,2,2:0:0:0:
185,205,35044,1,2,2:0:0:0:
114,233,35178,6,0,L|299:282,2,156.6,2|2|2,1:2|2:0|1:2,0:0:0:0:
114,233,35978,5,2,2:0:0:0:
63,295,36111,2,0,P|106:278|178:331,1,139.2,2|0,2:0|0:0,0:0:0:0:
125,384,36511,6,0,L|86:373,3,26.0999999999999,2|2|2|2,2:0|0:0|2:0|0:0,0:0:0:0:
184,318,36778,5,2,1:2:0:0:
372,384,36911,1,0,1:0:0:0:
372,384,37311,6,0,B|349:321|349:321|356:287|388:271|417:291,1,156.6,4|0,1:0|0:0,0:0:0:0:
428,305,37578,1,8,2:0:0:0:
298,151,37711,1,8,2:0:0:0:
360,102,37844,2,0,P|385:136|385:179,1,87,0|0,1:0|0:0,0:0:0:0:
121,229,38111,6,0,B|118:201|95:183|95:183|188:227,1,156.6,10|0,2:0|0:0,0:0:0:0:
286,264,38378,6,1,B|303:243|330:240|330:240|299:224|253:240|251:288,1,156.6,0|0,1:0|0:0,0:0:0:0:
219,353,38644,1,8,2:0:0:0:
121,229,38778,1,8,2:0:0:0:
72,291,38911,2,0,P|106:316|149:316,1,87,0|0,1:0|0:0,0:0:0:0:
298,151,39178,6,0,B|301:120|326:100|326:100|225:148,1,169.65,10|0,2:0|0:0,0:0:0:0:
195,218,39444,6,0,B|223:141|223:141|214:99|175:80|140:104,1,191.4,0|8,1:0|2:0,0:0:0:0:
195,218,39844,1,8,2:0:0:0:
381,77,39978,6,1,B|330:111|271:87|260:30|260:30|291:36|320:21,1,208.8,0|10,1:0|2:0,0:0:0:0:
381,77,40378,1,0,0:0:0:0:
426,189,40511,6,1,B|443:168|470:165|470:165|439:149|393:165|391:213,1,156.6,0|0,1:0|0:0,0:0:0:0:
455,311,40778,6,0,L|469:260,1,52.2,8|0,2:0|0:0,0:0:0:0:
482,252,40911,1,8,2:0:0:0:
357,384,41044,5,0,1:0:0:0:
291,154,41178,5,8,2:0:0:0:
319,264,41311,1,10,2:0:0:0:
349,376,41444,1,8,2:0:0:0:
500,162,41578,6,0,B|425:189|425:189|384:181|366:142|386:111,1,182.7,4|0,1:0|0:0,0:0:0:0:
450,67,41844,6,0,L|511:83,1,43.5,8|0,2:0|0:0,0:0:0:0:
291,154,41978,1,0,1:0:0:0:
264,0,42111,6,0,L|202:16,1,43.5,8|0,2:0|0:0,0:0:0:0:
385,113,42244,1,0,1:0:0:0:
198,196,42378,6,0,L|155:185,1,43.5,8|0,2:0|0:0,0:0:0:0:
328,57,42511,1,0,1:0:0:0:
349,376,42644,6,0,B|399:268|399:268|378:295|345:298,1,182.7,2|0,1:2|0:0,0:0:0:0:
226,350,42911,6,0,L|268:339,1,43.5,8|0,2:0|0:0,0:0:0:0:
85,249,43044,1,0,1:0:0:0:
291,154,43178,6,0,L|333:164,1,43.5,8|0,2:0|0:0,0:0:0:0:
152,300,43311,1,0,1:0:0:0:
93,154,43444,6,1,B|73:130|43:127|43:127|78:109|129:127|132:180,1,182.7,8|0,2:0|0:0,0:0:0:0:
85,249,43711,5,2,1:2:0:0:
226,350,43844,1,2,2:0:0:0:
125,384,43978,5,8,2:0:0:0:
278,251,44111,1,0,1:0:0:0:
93,154,44244,5,8,2:0:0:0:
226,350,44378,1,0,1:0:0:0:
342,123,44511,5,8,2:0:0:0:
152,300,44644,1,0,1:0:0:0:
377,374,44778,6,0,L|419:384,1,43.5,2|0,1:2|0:0,0:0:0:0:
170,216,44911,1,2,2:0:0:0:
433,192,45044,6,0,L|475:181,1,43.5,8|0,2:0|0:0,0:0:0:0:
226,350,45178,1,0,1:0:0:0:
170,216,45311,6,0,L|180:173,1,43.5,8|0,2:0|0:0,0:0:0:0:
377,374,45444,1,0,1:0:0:0:
342,123,45578,6,0,L|331:80,1,43.5,8|0,2:0|0:0,0:0:0:0:
226,350,45711,1,0,1:0:0:0:
99,172,45844,6,1,B|40:175|32:269|129:281|170:216,1,208.8,4|0,1:0|0:0,0:0:0:0:
263,245,46111,2,0,L|233:139,1,104.4,8|2,2:0|2:0,0:0:0:0:
403,42,46378,5,0,1:0:0:0:
321,6,46511,1,0,1:0:0:0:
442,227,46644,6,0,L|453:184,1,43.5,8|0,2:0|0:0,0:0:0:0:
512,131,46778,1,2,2:0:0:0:
512,131,46844,1,2,0:0:0:0:
512,131,46911,2,1,B|448:106|420:170|427:167|401:232|337:206,1,208.8,2|8,1:2|2:0,0:0:0:0:
338,206,47311,1,0,0:0:0:0:
256,384,47444,5,0,1:0:0:0:
339,348,47578,1,0,1:0:0:0:
108,166,47711,6,0,B|70:163|46:132|46:132|104:256,1,208.8,8|0,2:0|0:0,0:0:0:0:
49,315,47978,6,0,P|89:345|140:342,1,104.4,4|0,1:0|0:0,0:0:0:0:
302,152,48244,6,0,L|352:165,1,52.2,8|0,2:0|0:0,0:0:0:0:
140,342,48378,1,0,1:0:0:0:
339,348,48511,6,0,L|389:334,1,52.2,8|0,2:0|0:0,0:0:0:0:
243,282,48644,1,0,1:0:0:0:
413,108,48778,1,8,2:0:0:0:
256,0,48911,5,0,1:2:0:0:
256,0,48978,1,0,1:2:0:0:
256,0,49044,1,12,1:2:0:0:
256,0,49311,5,12,1:2:0:0:
256,0,49578,6,0,L|241:52,1,52.2,12|2,1:2|0:0,0:0:0:0:
198,118,50111,6,0,B|318:60|318:60|288:84|285:125,1,208.8,4|0,1:0|0:0,0:0:0:0:
339,185,50378,2,0,P|297:215|246:211,1,104.4,8|0,2:0|0:0,0:0:0:0:
93,300,50644,5,0,1:0:0:0:
178,265,50778,1,0,1:0:0:0:
263,300,50911,1,8,2:0:0:0:
297,384,51044,1,2,2:0:0:0:
416,272,51178,6,1,B|433:293|460:296|460:296|429:312|383:296|381:248,1,156.6,2|0,1:2|0:0,0:0:0:0:
456,204,51444,2,0,L|507:218,1,52.2,8|0,2:0|0:0,0:0:0:0:
512,226,51578,1,2,2:0:0:0:
330,95,51711,5,0,1:0:0:0:
405,58,51844,1,0,1:0:0:0:
321,183,51978,6,1,B|270:217|211:193|200:136|200:136|231:142|251:130,1,208.8,8|0,2:0|0:0,0:0:0:0:
329,191,52244,6,0,L|343:241,1,52.2,2|0,1:2|0:0,0:0:0:0:
228,256,52511,6,0,L|202:301,1,52.2,2|0,1:2|0:0,0:0:0:0:
109,231,52778,6,0,L|59:245,1,52.2,2|0,1:2|0:0,0:0:0:0:
44,128,53044,6,0,L|-1:101,1,52.2,2|0,1:2|0:0,0:0:0:0:
260,32,53311,6,0,B|224:29|203:3|203:3|254:108,1,182.7,2|0,1:2|0:0,0:0:0:0:
251,129,53578,2,0,L|227:82,1,52.2,8|0,2:0|0:0,0:0:0:0:
225,311,53711,6,1,B|185:376|88:364|96:270|156:266,1,208.8,0|0,1:0|1:0,0:0:0:0:
156,267,54111,1,8,2:0:0:0:
251,129,54244,6,0,L|233:193,1,52.2,0|0,1:0|1:0,0:0:0:0:
450,308,54378,5,4,1:0:0:0:
244,187,54511,1,2,2:0:0:0:
502,223,54644,5,10,2:0:0:0:
244,187,54778,1,2,2:0:0:0:
478,125,54911,5,2,1:2:0:0:
244,187,55044,1,2,1:2:0:0:
391,75,55178,5,10,2:0:0:0:
244,187,55311,1,2,2:0:0:0:
267,3,55444,5,2,1:2:0:0:
294,99,55578,1,2,2:0:0:0:
267,3,55711,5,10,2:0:0:0:
244,187,55844,1,2,2:0:0:0:
267,3,55978,5,2,1:2:0:0:
146,211,56111,1,2,1:2:0:0:
267,3,56244,5,10,2:0:0:0:
60,160,56378,1,2,2:0:0:0:
269,283,56511,5,2,1:2:0:0:
244,187,56644,1,2,2:0:0:0:
192,337,56778,2,0,P|234:367|285:363,1,104.4,10|2,2:0|2:0,0:0:0:0:
377,131,57044,5,2,1:2:0:0:
294,99,57178,1,2,2:0:0:0:
478,280,57311,5,10,2:0:0:0:
395,312,57444,1,2,1:2:0:0:
395,312,57511,1,0,1:2:0:0:
395,312,57578,2,0,B|320:285|320:285|280:293|262:331|285:364,1,182.7,2|0,1:2|0:0,0:0:0:0:
403,304,57844,6,0,L|353:285,1,52.2,10|0,2:0|0:0,0:0:0:0:
345,274,57978,1,2,2:0:0:0:
117,213,58111,6,1,B|100:234|73:237|73:237|104:253|150:237|152:189,1,156.6,2|0,1:2|0:0,0:0:0:0:
143,189,58378,1,10,2:0:0:0:
238,295,58511,5,2,1:2:0:0:
238,295,58578,1,0,1:0:0:0:
238,295,58644,2,0,L|276:73,2,208.8,4|8|0,1:0|1:2|1:2,0:0:0:0:
238,295,60244,5,8,1:2:0:0:
223,1,60778,6,0,L|289:379,2,382.8,0|8|0,1:2|1:2|1:2,0:0:0:0:
223,1,62111,5,10,2:0:0:0:
313,344,62378,5,0,1:0:0:0:
313,344,62511,1,0,1:0:0:0:
243,292,62644,2,0,L|214:300,1,26.1,8|8,2:0|2:0,0:0:0:0:
117,328,62911,5,4,1:0:0:0:
243,292,63044,5,2,2:0:0:0:
276,167,63178,5,10,2:0:0:0:
184,75,63311,5,2,2:0:0:0:
58,108,63444,5,2,1:2:0:0:
24,234,63578,5,2,1:2:0:0:
117,328,63711,5,10,2:0:0:0:
243,292,63844,5,2,2:0:0:0:
276,167,63978,5,2,1:2:0:0:
24,234,64111,1,2,2:0:0:0:
184,75,64244,5,10,2:0:0:0:
117,328,64378,1,2,2:0:0:0:
58,108,64511,5,2,1:2:0:0:
243,292,64644,1,2,1:2:0:0:
24,234,64778,5,10,2:0:0:0:
276,167,64911,1,10,2:0:0:0:
184,75,65044,5,4,1:0:0:0:
134,149,65178,2,1,B|183:166|209:116|204:119|227:76|283:85,1,174,2|2,2:0|2:0,0:0:0:0:
386,180,65578,2,0,P|350:204|308:206,1,87,0|0,1:0|0:0,0:0:0:0:
275,0,65844,5,8,2:0:0:0:
358,34,65978,1,2,2:0:0:0:
149,212,66111,6,0,B|105:132|105:132|106:84|145:56|184:75,1,208.8,4|2,1:0|1:2,0:0:0:0:
460,113,67178,5,4,1:0:0:0:
374,149,67311,1,2,1:2:0:0:
289,114,67444,1,10,2:0:0:0:
255,30,67578,6,0,B|360:-20|360:-20|334:0|330:36,1,182.7,2|0,2:0|0:0,0:0:0:0:
390,95,67844,2,0,P|348:124|297:121,1,104.4,2|8,1:2|2:0,0:0:0:0:
173,158,68111,5,2,2:0:0:0:
173,158,68178,1,2,2:0:0:0:
173,158,68244,2,1,B|152:133|120:130|120:130|163:102|224:129|221:190,1,208.8,0|10,1:0|2:0,0:0:0:0:
221,191,68644,1,2,2:0:0:0:
97,380,68778,5,2,1:2:0:0:
174,350,68911,1,0,1:0:0:0:
0,263,69044,6,0,B|71:302|71:302|114:301|139:267|124:236,1,182.7,10|2,2:0|2:0,0:0:0:0:
53,191,69311,5,2,1:2:0:0:
53,191,69578,5,10,2:0:0:0:
53,191,69844,5,2,1:2:0:0:
53,191,70111,5,10,2:0:0:0:
204,180,70378,6,0,B|111:136|111:136|134:154|137:186,1,156.6,4|0,1:0|0:0,0:0:0:0:
204,180,70644,1,10,2:0:0:0:
68,61,70778,6,1,B|47:86|15:89|15:89|58:117|119:90|116:29,1,208.8,2|0,1:2|1:0,0:0:0:0:
68,61,71178,1,8,2:0:0:0:
288,0,71311,5,8,2:0:0:0:
288,0,71378,1,8,2:0:0:0:
288,0,71444,2,0,B|261:75|261:75|269:116|308:134|343:111,1,182.7,4|0,1:0|0:0,0:0:0:0:
418,126,71711,2,0,P|421:75|390:34,1,104.4,8|0,2:0|0:0,0:0:0:0:
285,224,71978,5,0,1:0:0:0:
362,194,72111,1,0,1:0:0:0:
202,74,72244,6,1,B|184:53|156:51|156:51|194:26|248:50|245:104,1,182.7,8|0,2:0|0:0,0:0:0:0:
180,153,72511,6,0,L|105:133,2,52.2,2|2|2,1:2|0:0|2:0,0:0:0:0:
350,278,72778,1,10,2:0:0:0:
293,334,72911,2,1,B|252:399|155:387|163:293|222:290,1,208.8,2|2,1:2|1:2,0:0:0:0:
293,334,73311,1,10,2:0:0:0:
133,236,73444,5,2,2:0:0:0:
133,236,73511,1,0,0:0:0:0:
133,236,73578,2,0,B|159:309|159:309|151:348|113:366|79:344,1,182.7,2|0,1:2|0:0,0:0:0:0:
87,335,73844,1,10,2:0:0:0:
262,195,73978,6,1,B|313:161|367:201|364:252|364:252|345:226|313:220,1,208.8,2|2,1:2|1:2,0:0:0:0:
133,236,74378,5,10,2:0:0:0:
210,264,74511,1,2,2:0:0:0:
418,58,74644,6,0,B|312:108|312:108|338:87|341:51,1,182.7,4|0,1:2|0:0,0:0:0:0:
203,14,74911,6,0,L|254:28,1,52.2,10|0,2:0|0:0,0:0:0:0:
262,41,75044,1,2,2:0:0:0:
90,139,75178,5,2,1:2:0:0:
262,41,75311,1,2,1:2:0:0:
82,147,75444,5,10,2:0:0:0:
360,213,75578,1,2,2:0:0:0:
188,311,75711,5,4,1:0:0:0:
188,311,75978,5,0,1:0:0:0:
188,311,76244,5,0,1:0:0:0:
188,311,76511,5,0,1:0:0:0:
127,41,76778,6,0,B|232:90|232:90|206:70|202:34,1,182.7,4|0,1:0|0:0,0:0:0:0:
127,41,77044,1,10,2:0:0:0:
283,194,77178,6,1,B|304:169|336:165|336:165|293:137|231:164|235:225,1,208.8,2|0,2:0|1:0,0:0:0:0:
480,288,77578,5,10,2:0:0:0:
403,316,77711,1,2,2:0:0:0:
480,64,77844,5,4,1:0:0:0:
480,64,78111,5,10,2:0:0:0:
480,64,78378,5,10,2:0:0:0:
480,64,78644,5,10,2:0:0:0:
97,54,78911,6,0,B|170:80|170:80|209:72|227:34|205:0,1,182.7,14|0,2:0|0:0,0:0:0:0:
191,11,79178,5,8,2:0:0:0:
313,129,79311,1,0,1:0:0:0:
219,204,79444,6,0,L|232:153,1,52.2,10|0,2:0|0:0,0:0:0:0:
252,70,79578,1,2,1:2:0:0:
394,209,79711,6,1,B|412:188|440:186|440:186|402:161|348:185|351:239,1,182.7,10|0,2:0|0:0,0:0:0:0:
398,304,79978,6,0,B|292:254|292:254|318:275|321:311,1,182.7,4|0,1:0|0:0,0:0:0:0:
455,367,80244,2,0,P|484:325|481:274,1,104.4,10|2,2:0|2:0,0:0:0:0:
426,135,80511,5,2,1:2:0:0:
394,209,80644,2,0,B|467:235|467:235|506:227|524:189|502:155,1,182.7,2|0,1:2|0:0,0:0:0:0:
316,46,80911,6,1,B|296:22|264:20|264:20|307:-8|369:19|366:81,1,208.8,2|2,2:0|2:0,0:0:0:0:
115,235,81311,6,0,L|54:219,1,52.2,10|0,2:0|0:0,0:0:0:0:
249,109,81444,1,2,2:0:0:0:
291,287,81578,6,0,L|353:271,1,52.2,2|0,1:2|0:0,0:0:0:0:
182,172,81711,1,2,1:2:0:0:
316,46,81844,6,0,L|370:60,1,52.2,10|0,2:0|0:0,0:0:0:0:
203,261,81978,1,2,2:0:0:0:
74,119,82111,6,1,B|56:139|28:141|28:141|66:166|120:142|117:88,1,182.7,2|0,1:2|0:0,0:0:0:0:
175,32,82378,2,0,P|133:3|82:6,1,104.4,10|2,2:0|2:0,0:0:0:0:
263,207,82644,5,2,1:2:0:0:
203,261,82778,2,0,B|268:244|268:244|286:203|286:203|356:184,1,182.7,2|0,1:2|0:0,0:0:0:0:
426,64,83044,6,1,B|446:40|478:38|478:38|435:10|373:37|376:99,1,208.8,2|2,2:0|2:0,0:0:0:0:
397,333,83444,6,0,L|458:317,1,52.2,10|0,2:0|0:0,0:0:0:0:
263,207,83578,1,2,2:0:0:0:
454,140,83711,6,0,L|515:156,1,52.2,2|0,1:2|0:0,0:0:0:0:
281,288,83844,1,2,1:2:0:0:
217,26,83978,6,0,L|166:39,1,52.2,10|0,2:0|0:0,0:0:0:0:
394,198,84111,1,2,2:0:0:0:
203,261,84244,6,0,B|128:234|128:234|87:242|69:281|88:311,1,182.7,4|0,1:0|0:0,0:0:0:0:
147,366,84511,6,0,L|208:350,1,60.9,10|0,2:0|0:0,0:0:0:0:
21,196,84644,1,2,1:2:0:0:
249,161,84778,6,0,L|310:177,1,60.9,10|0,2:0|0:0,0:0:0:0:
87,310,84911,1,2,1:2:0:0:
86,57,85044,6,0,L|25:73,1,60.9,10|0,2:0|0:0,0:0:0:0:
203,261,85178,1,2,1:2:0:0:
256,0,85311,5,12,2:0:0:0:
256,0,85444,1,0,1:0:0:0:
256,0,86311,5,2,0:0:0:0:
256,0,86378,2,1,B|283:71|211:102|214:94|141:124|170:196|170:196|166:157|186:122|231:113,1,348,6|10,1:2|2:0,0:0:0:0:
32,374,92244,5,0,1:0:0:0:
83,316,92378,2,0,L|76:291,1,26.1,8|0,2:0|0:0,0:0:0:0:
81,281,92644,5,4,1:0:0:0:
172,123,92911,5,2,1:2:0:0:
91,160,93044,2,1,B|93:215|145:233|180:215|180:215|150:211|131:188,1,182.7,10|0,2:0|0:0,0:0:0:0:
280,43,93311,6,0,L|341:60,1,52.2,2|0,1:2|0:0,0:0:0:0:
172,123,93444,1,2,2:0:0:0:
124,0,93578,6,0,L|74:13,1,52.2,10|0,2:0|0:0,0:0:0:0:
253,121,93711,1,2,2:0:0:0:
36,231,93844,5,2,1:2:0:0:
4,148,93978,1,2,1:2:0:0:
198,301,94111,6,0,B|134:278|134:278|100:286|85:317|104:346,1,156.6,10|0,2:0|0:0,0:0:0:0:
179,384,94378,6,0,L|258:361,1,52.2,10|0,2:0|0:0,0:0:0:0:
398,265,94511,6,0,B|313:295|313:295|268:285|247:243|273:204,1,208.8,4|0,1:0|0:0,0:0:0:0:
449,0,95444,6,0,L|473:6,1,26.0999999999999,2|0,2:1|0:0,0:0:0:0:
380,75,95578,6,0,L|402:68,1,21.75,2|0,2:1|0:0,0:0:0:0:
452,127,95978,6,0,B|381:107|381:107|376:108|376:108|356:61|356:61|352:62|352:62|281:43,1,208.8,4|0,1:0|0:0,0:0:0:0:
292,35,96244,1,8,2:0:0:0:
198,137,96378,5,2,2:0:0:0:
198,137,96444,1,2,2:0:0:0:
198,137,96511,2,1,B|176:112|145:110|145:110|187:81|249:108|246:170,1,208.8,2|0,1:2|0:0,0:0:0:0:
305,233,96778,6,1,B|314:194|349:180|349:180|302:163|273:212|279:210|258:258|206:254,1,243.6,10|2,2:0|1:2,0:0:0:0:
418,384,97178,6,0,L|431:333,1,52.2,2|2,0:0|0:0,0:0:0:0:
476,269,97311,2,0,B|369:319|369:319|395:298|399:262,1,182.7,10|0,2:0|0:0,0:0:0:0:
387,260,97578,1,2,1:2:0:0:
178,383,97711,6,0,L|191:332,1,52.2,2|2,1:2|0:0,0:0:0:0:
155,229,97844,6,1,B|207:195|261:235|257:286|257:286|240:260|207:254,1,208.8,10|2,2:0|2:0,0:0:0:0:
109,303,98111,5,4,1:0:0:0:
109,303,98378,5,2,1:2:0:0:
109,303,98644,5,2,1:2:0:0:
109,303,98911,5,2,1:2:0:0:
109,303,99178,5,2,1:2:0:0:
186,335,99311,1,2,2:0:0:0:
264,303,99444,1,8,2:0:0:0:
295,226,99578,6,0,B|174:168|174:168|204:192|207:233,1,208.8,2|2,2:0|1:2,0:0:0:0:
295,226,99978,1,10,2:0:0:0:
382,114,100111,5,2,1:2:0:0:
382,114,100178,1,2,1:2:0:0:
382,114,100244,2,1,B|360:139|329:141|329:141|371:170|433:143|430:81,1,208.8,4|0,1:0|0:0,0:0:0:0:
420,76,100511,1,10,2:0:0:0:
225,20,100644,5,2,2:0:0:0:
225,20,100711,1,2,2:0:0:0:
225,20,100778,2,0,B|259:16|280:-9|280:-9|230:97,1,182.7,2|0,1:2|0:0,0:0:0:0:
225,108,101044,1,10,2:0:0:0:
67,80,101178,6,0,L|128:63,1,60.9,2|2,2:0|0:0,0:0:0:0:
137,61,101311,1,2,1:2:0:0:
302,168,101444,5,2,2:0:0:0:
302,168,101511,1,2,2:0:0:0:
302,168,101578,2,0,B|227:141|227:141|188:150|170:187|193:221,1,182.7,10|0,2:0|0:0,0:0:0:0:
203,215,101844,5,2,1:2:0:0:
282,384,101978,1,2,1:2:0:0:
334,326,102111,2,0,P|293:295|242:298,1,104.4,10|2,2:0|2:0,0:0:0:0:
51,384,102378,6,0,L|96:215,2,174,2|10|2,1:2|2:0|1:2,0:0:0:0:
51,384,103178,1,10,2:0:0:0:
0,129,103311,5,2,1:2:0:0:
0,129,103378,1,2,1:2:0:0:
0,129,103444,2,0,B|62:111|62:111|66:112|66:112|84:71|84:71|87:72|87:72|149:55,1,182.7,4|0,1:0|0:0,0:0:0:0:
209,0,103711,2,0,P|240:41|237:92,1,104.4,10|2,2:0|2:0,0:0:0:0:
53,255,103978,5,2,1:2:0:0:
128,223,104111,1,2,1:2:0:0:
205,255,104244,1,10,2:0:0:0:
236,330,104378,1,2,1:2:0:0:
120,215,104511,6,0,L|394:166,2,278.4,6|10|2,1:2|1:2|1:2,0:0:0:0:
120,215,106111,5,10,1:2:0:0:
497,234,106644,6,0,L|17:149,2,487.2,2|10|2,1:2|1:2|1:2,0:0:0:0:
497,234,107978,5,8,2:0:0:0:
192,32,108244,5,2,1:2:0:0:
192,32,108378,1,2,1:2:0:0:
238,98,108511,2,0,L|230:127,1,26.1,12|0,2:0|0:0,0:0:0:0:
143,196,108778,21,6,1:2:0:0:
167,143,108844,1,2,2:0:0:0:
223,131,108911,1,2,2:0:0:0:
267,165,108978,1,2,2:0:0:0:
259,172,109044,38,1,B|242:229|242:229|243:233|243:233|226:287,1,121.8,10|2,2:0|2:0,0:0:0:0:
181,376,109244,5,2,2:0:0:0:
173,368,109311,2,0,B|242:347|242:347|248:348|248:348|267:301|267:301|272:302|272:302|343:283,1,208.8,2|2,1:2|2:0,0:0:0:0:
414,320,109578,6,0,P|427:292|428:262,1,60.9,10|2,2:0|2:0,0:0:0:0:
340,80,109711,6,1,B|336:152|408:183|457:149|457:149|421:147|395:118,1,243.6,2|2,2:0|1:2,0:0:0:0:
340,80,110111,1,10,2:0:0:0:
193,209,110244,5,2,2:0:0:0:
193,209,110311,1,2,2:0:0:0:
193,209,110378,2,0,L|123:190,3,52.2,2|2|2|2,1:2|2:0|1:2|2:0,0:0:0:0:
259,153,110644,5,10,2:0:0:0:
159,289,110778,1,10,2:0:0:0:
256,384,110911,5,6,1:2:0:0:
256,192,110978,12,4,111978,1:0:0:0:
256,192,112511,5,2,1:2:0:0:
37,83,113044,5,4,1:0:0:0:
123,119,113178,1,2,1:2:0:0:
208,84,113311,1,10,2:0:0:0:
242,0,113444,6,0,B|215:75|215:75|224:114|261:132|295:109,1,182.7,2|0,2:0|0:0,0:0:0:0:
372,123,113711,2,0,P|375:71|346:29,1,104.4,2|8,1:2|2:0,0:0:0:0:
198,251,113978,5,2,2:0:0:0:
198,251,114044,1,2,2:0:0:0:
198,251,114111,2,0,B|318:193|318:193|288:217|285:258,1,208.8,0|10,1:0|2:0,0:0:0:0:
285,258,114511,1,2,2:0:0:0:
468,354,114644,5,2,1:2:0:0:
390,384,114778,1,0,1:0:0:0:
444,253,114911,6,1,B|489:223|537:258|533:303|533:303|518:280|490:274,1,182.7,10|2,2:0|2:0,0:0:0:0:
468,354,115178,5,2,1:2:0:0:
468,354,115444,5,10,2:0:0:0:
468,354,115711,5,2,1:2:0:0:
468,354,115978,5,10,2:0:0:0:
284,258,116244,6,0,B|359:285|359:285|398:276|416:239|393:205,1,182.7,4|0,1:0|0:0,0:0:0:0:
318,184,116511,1,10,2:0:0:0:
471,118,116644,6,1,B|491:142|523:144|523:144|480:172|418:145|421:83,1,208.8,2|0,1:2|1:0,0:0:0:0:
471,118,117044,1,8,2:0:0:0:
287,27,117178,5,8,2:0:0:0:
287,27,117244,1,8,2:0:0:0:
287,27,117311,2,0,B|321:23|342:-2|342:-2|292:104,1,182.7,4|0,1:0|0:0,0:0:0:0:
341,167,117578,2,0,P|298:195|247:192,1,104.4,8|0,2:0|0:0,0:0:0:0:
133,87,117844,5,0,1:0:0:0:
210,57,117978,1,0,1:0:0:0:
133,256,118111,6,1,B|88:286|40:251|43:206|43:206|59:229|87:234,1,182.7,8|0,2:0|0:0,0:0:0:0:
161,174,118378,6,0,L|236:154,2,52.2,2|2|2,1:2|0:0|2:0,0:0:0:0:
0,305,118644,1,10,2:0:0:0:
59,359,118778,2,0,B|133:339|133:339|154:293|154:293|233:272,1,208.8,2|2,1:2|1:2,0:0:0:0:
232,272,119178,1,10,2:0:0:0:
109,64,119311,5,2,2:0:0:0:
109,64,119378,1,0,0:0:0:0:
109,64,119444,2,0,B|82:139|82:139|91:178|128:196|162:173,1,182.7,2|0,1:2|0:0,0:0:0:0:
152,164,119711,1,10,2:0:0:0:
317,31,119844,6,0,B|195:87|195:87|225:64|230:22,1,208.8,2|2,1:2|1:2,0:0:0:0:
365,168,120244,5,10,2:0:0:0:
288,140,120378,1,2,2:0:0:0:
182,306,120511,6,1,B|179:244|241:217|284:245|284:245|252:247|232:271,1,208.8,4|0,1:2|0:0,0:0:0:0:
352,353,120778,6,0,L|301:339,1,52.2,10|0,2:0|0:0,0:0:0:0:
293,326,120911,1,2,2:0:0:0:
465,228,121044,5,2,1:2:0:0:
293,326,121178,1,2,1:2:0:0:
473,220,121311,5,10,2:0:0:0:
195,154,121444,1,2,2:0:0:0:
367,56,121578,5,4,1:0:0:0:
367,56,121844,5,0,1:0:0:0:
367,56,122111,5,0,1:0:0:0:
367,56,122378,5,0,1:0:0:0:
153,180,122644,6,1,B|149:127|203:104|241:128|241:128|213:132|195:154,1,182.7,4|0,1:0|0:0,0:0:0:0:
153,180,122911,1,10,2:0:0:0:
317,326,123044,6,0,B|278:351|234:330|225:285|225:285|255:202,1,208.8,2|0,2:0|1:0,0:0:0:0:
96,32,123444,5,10,2:0:0:0:
173,4,123578,1,2,2:0:0:0:
32,256,123711,5,4,1:0:0:0:
32,256,123978,5,10,2:0:0:0:
32,256,124244,5,10,2:0:0:0:
32,256,124511,5,10,2:0:0:0:
262,161,124778,6,0,B|197:143|197:143|178:103|178:103|109:84,1,182.7,14|0,2:0|0:0,0:0:0:0:
98,81,125044,1,10,2:0:0:0:
261,31,125178,1,2,1:2:0:0:
146,190,125311,6,0,L|159:139,1,52.2,10|0,2:0|0:0,0:0:0:0:
179,56,125444,1,2,1:2:0:0:
339,168,125578,6,0,B|342:132|368:111|368:111|262:161,1,182.7,10|0,2:0|0:0,0:0:0:0:
218,231,125844,6,1,B|198:207|166:205|166:205|209:177|271:204|268:266,1,208.8,4|0,1:0|0:0,0:0:0:0:
318,326,126111,2,0,P|275:354|224:351,1,104.4,10|2,2:0|2:0,0:0:0:0:
27,287,126378,5,2,1:2:0:0:
52,361,126511,2,0,B|86:383|124:365|132:326|132:326|106:253,1,182.7,2|0,1:2|0:0,0:0:0:0:
0,171,126778,6,0,B|120:227|120:227|91:204|87:163,1,208.8,2|2,2:0|2:0,0:0:0:0:
300,57,127178,6,0,L|361:73,1,52.2,10|0,2:0|0:0,0:0:0:0:
170,159,127311,1,2,2:0:0:0:
141,0,127444,6,0,L|79:16,1,52.2,2|0,1:2|0:0,0:0:0:0:
235,108,127578,1,2,1:2:0:0:
103,206,127711,6,0,L|52:192,1,52.2,10|0,2:0|0:0,0:0:0:0:
220,26,127844,1,2,2:0:0:0:
386,154,127978,6,0,B|280:204|280:204|306:183|309:147,1,182.7,2|0,1:2|0:0,0:0:0:0:
443,91,128244,2,0,P|472:133|469:184,1,104.4,10|2,2:0|2:0,0:0:0:0:
387,384,128511,5,2,1:2:0:0:
332,328,128644,2,1,B|329:273|384:249|422:274|422:274|393:275|376:297,1,182.7,2|0,1:2|0:0,0:0:0:0:
324,336,128911,6,1,B|283:401|186:389|194:295|253:292,1,208.8,2|2,2:0|2:0,0:0:0:0:
405,0,129311,6,0,L|466:16,1,52.2,10|0,2:0|0:0,0:0:0:0:
214,163,129444,1,2,2:0:0:0:
462,193,129578,6,0,L|523:177,1,52.2,2|0,1:2|0:0,0:0:0:0:
232,82,129711,1,2,1:2:0:0:
186,291,129844,6,0,L|135:278,1,52.2,10|0,2:0|0:0,0:0:0:0:
366,111,129978,1,2,2:0:0:0:
99,0,130111,6,0,B|73:73|73:73|81:112|119:130|153:108,1,182.7,4|0,1:0|0:0,0:0:0:0:
232,82,130378,6,0,L|293:98,1,60.9,10|0,2:0|0:0,0:0:0:0:
54,196,130511,1,2,1:2:0:0:
280,301,130644,6,0,L|339:286,1,60.9,10|0,2:0|0:0,0:0:0:0:
154,108,130778,1,2,1:2:0:0:
59,344,130911,6,0,L|0:329,1,60.9,10|0,2:0|0:0,0:0:0:0:
154,108,131044,1,2,1:2:0:0:
256,384,131178,5,12,2:0:0:0:
256,384,131311,1,0,1:0:0:0:
416,128,132244,6,0,L|432:189,2,63.8,4|2|2,1:2|2:0|2:0,0:0:0:0:
447,52,132511,37,10,2:0:0:0:
387,37,132600,1,2,2:0:0:0:
346,83,132689,1,2,2:0:0:0:
318,163,132778,5,2,1:2:0:0:
277,209,132866,1,2,2:0:0:0:
217,194,132955,1,2,2:0:0:0:
223,183,133044,6,0,L|207:122,2,63.8,10|2|2,2:0|2:0|2:0,0:0:0:0:
10,313,133311,5,2,1:2:0:0:
20,319,133400,2,0,L|36:380,1,63.8,2|2,2:0|2:0,0:0:0:0:
124,185,133578,5,10,2:0:0:0:
114,179,133666,2,0,L|98:118,1,63.8,2|2,2:0|2:0,0:0:0:0:
119,317,133844,5,2,1:2:0:0:
129,323,133933,2,0,L|145:384,1,63.8,2|2,2:0|2:0,0:0:0:0:
233,189,134111,5,10,2:0:0:0:
223,183,134200,2,0,L|207:122,1,63.8,2|2,2:0|2:0,0:0:0:0:
324,336,134378,37,2,1:2:0:0:
309,276,134466,1,2,2:0:0:0:
355,235,134555,1,2,2:0:0:0:
435,207,134644,5,10,2:0:0:0:
481,166,134733,1,2,2:0:0:0:
466,106,134822,1,2,2:0:0:0:
455,112,134911,6,0,L|394:96,2,63.8,2|2|2,1:2|2:0|2:0,0:0:0:0:
340,18,135178,37,10,2:0:0:0:
280,3,135266,1,2,2:0:0:0:
239,49,135355,1,2,2:0:0:0:
247,58,135444,5,0,1:0:0:0:
130,312,135578,1,0,1:0:0:0:
96,77,135711,5,8,2:0:0:0:
130,312,135844,1,2,1:2:0:0:
8,211,135978,5,2,1:2:0:0:
8,211,136044,1,2,1:2:0:0:
8,211,136111,2,0,L|73:228,1,60.9,10|2,1:2|1:2,0:0:0:0:
87,213,136244,2,0,L|146:229,1,60.9,10|0,1:2|0:0,0:0:0:0:
324,336,136378,5,10,1:2:0:0:
502,29,137044,6,0,L|511:-1,1,30.45,2|0,2:0|0:0,0:0:0:0:
454,102,137578,6,1,B|487:108|504:134|504:134|508:83|454:43|402:77,1,208.8,4|0,1:0|0:0,0:0:0:0:
334,38,137844,2,0,P|306:81|309:132,1,104.4,8|2,2:0|2:0,0:0:0:0:
512,259,138111,5,0,1:0:0:0:
435,227,138244,1,0,1:0:0:0:
357,259,138378,1,8,2:0:0:0:
326,336,138511,1,2,2:0:0:0:
195,183,138644,6,0,B|270:210|270:210|311:202|329:163|306:128,1,182.7,0|0,1:0|0:0,0:0:0:0:
253,75,138911,2,0,L|190:92,1,52.2,8|0,2:0|0:0,0:0:0:0:
197,97,139044,1,2,2:0:0:0:
29,270,139178,5,0,1:0:0:0:
106,300,139311,1,0,1:0:0:0:
88,170,139444,6,1,B|27:167|0:228|28:271|28:271|31:239|56:218,1,208.8,8|0,2:0|0:0,0:0:0:0:
96,162,139711,6,0,L|82:112,1,52.2,0|0,1:0|0:0,0:0:0:0:
197,97,139978,6,0,L|223:52,1,52.2,8|0,2:0|0:0,0:0:0:0:
316,122,140244,6,0,L|366:108,1,52.2,0|0,1:0|0:0,0:0:0:0:
381,225,140511,6,0,L|426:252,1,52.2,8|0,2:0|0:0,0:0:0:0:
201,302,140778,6,0,B|174:227|174:227|183:188|220:170|254:193,1,182.7,4|0,1:0|0:0,0:0:0:0:
243,205,141044,1,8,2:0:0:0:
0,92,141178,6,1,B|51:126|110:102|121:45|121:45|90:51|61:36,1,208.8,2|0,2:0|1:0,0:0:0:0:
0,92,141578,1,8,2:0:0:0:
53,249,141711,6,0,L|31:188,1,52.2,8|8,2:0|2:0,0:0:0:0:
189,1,141844,5,4,1:0:0:0:
28,181,141978,1,2,2:0:0:0:
189,1,142111,5,8,2:0:0:0:
125,221,142244,1,2,2:0:0:0:
189,1,142378,5,0,1:0:0:0:
223,181,142511,1,0,1:0:0:0:
189,1,142644,5,8,2:0:0:0:
262,83,142778,1,0,0:0:0:0:
358,44,142911,5,2,1:2:0:0:
262,83,143044,1,2,2:0:0:0:
457,83,143178,5,8,2:0:0:0:
262,83,143311,1,0,1:0:0:0:
496,181,143444,5,2,2:0:0:0:
262,83,143578,1,0,1:0:0:0:
454,277,143711,5,8,2:0:0:0:
262,83,143844,1,2,2:0:0:0:
216,214,143978,5,2,1:2:0:0:
304,221,144111,2,0,B|307:180|337:156|337:156|217:214,1,208.8,2|2,2:0|1:2,0:0:0:0:
64,65,144511,5,2,1:2:0:0:
147,33,144644,1,0,1:0:0:0:
23,249,144778,5,8,2:0:0:0:
106,281,144911,1,2,1:2:0:0:
106,281,144978,1,0,1:0:0:0:
106,281,145044,2,0,B|181:254|181:254|221:262|239:300|216:333,1,182.7,4|0,1:2|0:0,0:0:0:0:
156,384,145311,6,0,L|93:367,1,52.2,8|0,2:0|0:0,0:0:0:0:
100,362,145444,1,2,2:0:0:0:
332,169,145578,6,1,B|315:190|288:193|288:193|319:209|365:193|367:145,1,156.6,0|0,1:0|0:0,0:0:0:0:
358,145,145844,1,8,2:0:0:0:
238,89,145978,5,2,1:2:0:0:
238,89,146044,1,0,1:0:0:0:
238,89,146111,2,0,L|276:311,2,208.8,4|4|2,1:0|1:2|1:2,0:0:0:0:
238,89,147711,5,4,1:2:0:0:
223,383,148244,6,0,L|289:5,2,382.8,4|8|14,1:2|2:0|2:0,0:0:0:0:
223,383,149578,5,8,2:0:0:0:
173,106,149844,5,10,2:0:0:0:
173,106,149978,1,0,1:0:0:0:
127,172,150111,2,0,L|135:201,1,26.1,8|0,2:0|0:0,0:0:0:0:
196,258,150378,5,4,1:0:0:0:
46,208,150511,5,2,2:0:0:0:
46,53,150644,5,8,2:0:0:0:
196,4,150778,5,2,2:0:0:0:
286,131,150911,5,0,1:0:0:0:
196,258,151044,5,0,1:0:0:0:
46,208,151178,5,8,2:0:0:0:
46,53,151311,5,2,2:0:0:0:
196,4,151444,5,0,1:0:0:0:
46,208,151578,1,2,2:0:0:0:
286,131,151711,5,8,2:0:0:0:
46,53,151844,1,2,2:0:0:0:
196,258,151978,5,0,1:0:0:0:
196,4,152111,1,0,1:0:0:0:
46,208,152244,5,8,2:0:0:0:
286,131,152378,1,2,2:0:0:0:
196,4,152511,5,2,1:2:0:0:
133,68,152644,2,1,B|182:85|208:35|203:38|226:-5|282:4,1,174,2|0,0:0|0:0,0:0:0:0:
378,155,153044,5,0,1:0:0:0:
286,131,153178,1,0,1:0:0:0:
378,155,153311,5,8,2:0:0:0:
286,131,153444,1,2,2:0:0:0:
416,35,153578,6,1,B|477:31|504:93|476:136|476:136|472:104|447:83,1,208.8,2|0,1:2|1:0,0:0:0:0:
448,84,154644,5,4,1:0:0:0:
362,120,154778,1,2,1:2:0:0:
277,85,154911,1,10,2:0:0:0:
243,1,155044,6,0,B|270:76|270:76|261:115|224:133|190:110,1,182.7,2|0,2:0|0:0,0:0:0:0:
130,162,155311,2,0,P|102:120|105:69,1,104.4,2|8,1:2|2:0,0:0:0:0:
321,249,155578,5,2,2:0:0:0:
321,249,155644,1,2,2:0:0:0:
321,249,155711,2,1,B|342:224|374:221|374:221|331:193|270:220|273:281,1,208.8,0|10,1:0|2:0,0:0:0:0:
273,281,156111,1,2,2:0:0:0:
64,346,156244,5,2,1:2:0:0:
139,383,156378,1,0,1:0:0:0:
208,178,156511,6,0,B|102:228|102:228|128:208|132:172,1,182.7,10|2,2:0|2:0,0:0:0:0:
72,119,156778,5,2,1:2:0:0:
72,119,157044,5,10,2:0:0:0:
72,119,157311,5,2,1:2:0:0:
72,119,157578,5,10,2:0:0:0:
312,20,157844,6,0,B|285:95|285:95|294:134|331:152|365:129,1,182.7,4|0,1:0|0:0,0:0:0:0:
387,54,158111,1,10,2:0:0:0:
415,194,158244,6,1,B|436:169|468:166|468:166|425:138|364:165|367:226,1,208.8,2|0,1:2|1:0,0:0:0:0:
367,226,158644,1,8,2:0:0:0:
510,267,158778,5,8,2:0:0:0:
510,267,158844,1,8,2:0:0:0:
510,267,158911,2,0,B|445:284|445:284|426:324|426:324|357:343,1,182.7,4|0,1:0|0:0,0:0:0:0:
289,384,159178,2,0,P|260:341|264:289,1,104.4,8|0,2:0|0:0,0:0:0:0:
412,111,159444,5,0,1:0:0:0:
487,148,159578,1,0,1:0:0:0:
263,290,159711,6,1,B|217:319|169:284|172:239|172:239|188:262|215:267,1,182.7,8|0,2:0|0:0,0:0:0:0:
292,207,159978,6,0,L|367:187,2,52.2,2|2|2,1:2|0:0|2:0,0:0:0:0:
90,59,160244,1,10,2:0:0:0:
165,19,160378,2,0,B|195:104|195:104|185:148|143:168|106:143,1,208.8,2|2,1:2|1:2,0:0:0:0:
165,19,160778,1,10,2:0:0:0:
368,201,160911,5,2,2:0:0:0:
368,201,160978,1,2,0:0:0:0:
368,201,161044,2,0,B|262:151|262:151|288:171|292:207,1,182.7,2|0,1:2|0:0,0:0:0:0:
236,263,161311,1,10,2:0:0:0:
399,84,161444,6,1,B|460:81|488:143|459:185|459:185|456:154|433:133,1,208.8,2|2,1:2|1:2,0:0:0:0:
265,43,161844,5,10,2:0:0:0:
342,15,161978,1,2,2:0:0:0:
171,193,162111,6,0,B|95:219|95:219|56:210|38:173|60:140,1,182.7,4|0,1:2|0:0,0:0:0:0:
121,87,162378,6,0,L|172:101,1,52.2,10|0,2:0|0:0,0:0:0:0:
180,114,162511,1,2,2:0:0:0:
8,212,162644,5,2,1:2:0:0:
180,114,162778,1,2,1:2:0:0:
0,220,162911,5,10,2:0:0:0:
278,286,163044,1,2,2:0:0:0:
106,384,163178,5,4,1:0:0:0:
106,384,163444,5,0,1:0:0:0:
106,384,163711,5,0,1:0:0:0:
106,384,163978,5,0,1:0:0:0:
385,102,164244,6,0,B|280:151|280:151|306:131|310:95,1,182.7,4|0,1:0|0:0,0:0:0:0:
385,102,164511,1,10,2:0:0:0:
229,255,164644,6,1,B|208:230|176:226|176:226|219:198|281:225|277:286,1,208.8,2|0,2:0|1:0,0:0:0:0:
32,349,165044,5,10,2:0:0:0:
109,377,165178,1,2,2:0:0:0:
31,75,165311,5,4,1:0:0:0:
31,75,165578,5,10,2:0:0:0:
31,75,165844,5,10,2:0:0:0:
31,75,166111,5,10,2:0:0:0:
386,0,166378,6,0,B|357:84|357:84|366:128|409:149|448:124,1,208.8,14|0,2:0|0:0,0:0:0:0:
437,110,166644,5,8,2:0:0:0:
319,232,166778,1,0,1:0:0:0:
413,312,166911,6,0,L|400:261,1,52.2,10|0,2:0|0:0,0:0:0:0:
380,178,167044,1,2,1:2:0:0:
208,256,167178,6,1,B|205:317|266:344|309:316|309:316|277:313|256:288,1,208.8,10|0,2:0|0:0,0:0:0:0:
200,248,167444,6,0,B|125:275|125:275|84:267|66:228|89:193,1,182.7,4|0,1:0|0:0,0:0:0:0:
21,150,167711,2,0,P|62:119|113:123,1,104.4,10|2,2:0|2:0,0:0:0:0:
238,132,167978,5,2,1:2:0:0:
239,38,168111,2,0,B|196:33|173:3|173:3|229:123,1,208.8,2|0,1:2|0:0,0:0:0:0:
368,176,168378,6,1,B|389:151|421:148|421:148|378:120|317:147|320:208,1,208.8,2|2,2:0|2:0,0:0:0:0:
172,365,168778,6,0,L|121:351,1,52.2,10|0,2:0|0:0,0:0:0:0:
320,208,168911,1,2,2:0:0:0:
380,297,169044,6,0,L|430:283,1,52.2,2|0,1:2|0:0,0:0:0:0:
238,132,169178,1,2,1:2:0:0:
216,288,169311,6,0,L|165:274,1,52.2,10|0,2:0|0:0,0:0:0:0:
334,97,169444,1,2,2:0:0:0:
82,147,169578,6,0,B|188:197|188:197|162:176|159:140,1,182.7,2|0,1:2|0:0,0:0:0:0:
25,84,169844,2,0,P|-4:126|-1:177,1,104.4,10|2,2:0|2:0,0:0:0:0:
83,381,170111,5,2,1:2:0:0:
138,325,170244,2,1,B|141:270|86:246|48:271|48:271|77:272|94:294,1,182.7,2|0,1:2|0:0,0:0:0:0:
146,333,170511,6,0,B|231:363|231:363|275:353|295:311|270:274,1,208.8,2|2,2:0|2:0,0:0:0:0:
192,15,170911,6,0,L|131:31,1,60.9,10|0,2:0|0:0,0:0:0:0:
347,166,171044,1,2,2:0:0:0:
90,220,171178,6,0,L|29:204,1,60.9,2|0,1:2|0:0,0:0:0:0:
252,71,171311,1,2,1:2:0:0:
268,272,171444,6,0,L|329:256,1,60.9,10|0,2:0|0:0,0:0:0:0:
95,107,171578,1,2,2:0:0:0:
386,32,171711,6,1,B|404:7|437:6|437:6|394:-21|331:5|335:68,1,208.8,4|0,1:0|0:0,0:0:0:0:
400,118,171978,6,0,L|461:134,1,60.9,10|0,2:0|0:0,0:0:0:0:
187,249,172111,1,2,1:2:0:0:
453,336,172244,6,0,L|512:321,1,60.9,10|0,2:0|0:0,0:0:0:0:
252,71,172378,1,2,1:2:0:0:
142,384,172511,6,0,L|83:369,1,60.9,10|0,2:0|0:0,0:0:0:0:
307,152,172644,1,2,1:2:0:0:
382,246,172778,5,12,2:0:0:0:
382,246,173044,5,10,2:0:0:0:
382,246,173311,5,10,2:0:0:0:
382,246,173578,5,10,2:0:0:0:
181,114,173844,6,0,B|61:172|61:172|91:148|94:107,1,208.8,4|0,1:0|0:0,0:0:0:0:
40,47,174111,2,0,P|82:17|133:21,1,104.4,10|2,2:0|2:0,0:0:0:0:
282,234,174378,5,2,1:2:0:0:
199,202,174511,1,2,1:2:0:0:
420,113,174644,2,1,B|453:119|470:145|470:145|474:94|420:54|368:88,1,208.8,10|2,2:0|2:0,0:0:0:0:
300,49,174911,6,0,P|272:92|275:143,1,104.4,2|0,1:2|0:0,0:0:0:0:
402,303,175178,1,10,2:0:0:0:
455,242,175311,2,0,B|368:265|368:265|343:319|343:319|251:344,1,243.6,2|2,2:0|1:2,0:0:0:0:
192,111,175711,5,10,2:0:0:0:
275,143,175844,1,2,2:0:0:0:
157,294,175978,6,0,B|82:321|82:321|43:312|25:275|48:241,1,182.7,2|0,1:2|0:0,0:0:0:0:
123,217,176244,1,10,2:0:0:0:
44,52,176378,6,1,B|49:19|75:1|75:1|24:-1|-14:52|18:103,1,208.8,2|0,2:0|0:0,0:0:0:0:
91,138,176644,2,0,L|210:106,1,104.4,2|10,1:2|2:0,0:0:0:0:
401,215,176911,5,2,2:0:0:0:
455,157,177044,2,1,B|391:132|363:196|370:194|343:258|280:232,2,208.8,2|8|2,1:2|2:0|1:2,0:0:0:0:
401,215,177711,1,2,1:2:0:0:
194,85,177844,6,0,B|191:44|161:20|161:20|281:78,1,208.8,10|2,2:0|2:0,0:0:0:0:
342,25,178111,6,0,P|372:67|368:118,1,104.4,2|2,1:2|2:0,0:0:0:0:
117,357,178378,5,10,2:0:0:0:
17,174,178511,1,2,1:2:0:0:
206,300,178644,5,10,2:0:0:0:
186,93,178778,1,2,1:2:0:0:
305,340,178911,5,10,2:0:0:0:
372,144,179044,1,2,1:2:0:0:
512,348,179178,6,0,P|470:378|419:374,1,104.4,12|2,2:0|2:0,0:0:0:0:
186,93,179444,5,10,2:0:0:0:
451,142,179578,1,2,1:2:0:0:
209,199,179711,5,10,2:0:0:0:
426,31,179844,1,2,1:2:0:0:
172,89,179978,5,10,2:0:0:0:
464,145,180111,1,2,1:2:0:0:
243,306,180244,6,0,P|191:309|150:279,1,104.4,12|2,2:0|2:0,0:0:0:0:
17,130,180511,5,10,2:0:0:0:
246,0,180644,1,2,1:2:0:0:
8,130,180778,5,10,2:0:0:0:
286,78,180911,1,2,1:2:0:0:
0,132,181044,5,10,2:0:0:0:
275,169,181178,1,2,1:2:0:0:
179,352,181311,6,0,B|104:379|104:379|63:371|45:332|68:297,1,182.7,12|0,2:0|0:0,0:0:0:0:
0,254,181578,2,0,P|41:223|92:227,1,104.4,10|2,2:0|1:2,0:0:0:0:
275,169,181844,5,10,2:0:0:0:
192,137,181977,1,2,1:2:0:0:
434,384,182111,6,0,L|417:322,1,43.5,10|0,2:0|0:0,0:0:0:0:
479,270,182244,5,0,1:0:0:0:
479,270,182311,1,0,1:0:0:0:
479,270,182378,2,1,B|512:276|529:302|529:302|533:251|479:211|427:245,1,208.8,4|0,1:0|0:0,0:0:0:0:
359,206,182644,2,0,P|331:249|334:300,1,104.4,10|2,2:0|2:0,0:0:0:0:
466,86,182911,6,0,B|382:116|382:116|336:107|316:63|342:24,1,208.8,2|10,1:2|2:0,0:0:0:0:
466,86,183311,1,2,2:0:0:0:
250,189,183444,6,0,B|130:131|130:131|160:155|163:196,1,208.8,4|0,1:0|0:0,0:0:0:0:
250,189,183711,1,10,2:0:0:0:
120,330,183844,1,2,1:2:0:0:
180,384,183978,2,0,P|208:341|205:290,1,104.4,2|2,1:2|1:2,0:0:0:0:
49,87,184244,5,10,2:0:0:0:
0,153,184378,2,1,B|61:178|88:114|81:116|109:52|173:77,1,208.8,2|2,2:0|1:2,0:0:0:0:
317,244,184778,5,10,2:0:0:0:
234,276,184911,1,2,2:0:0:0:
432,113,185044,6,0,B|470:110|494:79|494:79|436:203,1,208.8,2|0,1:2|0:0,0:0:0:0:
491,261,185311,2,0,P|451:291|400:288,1,104.4,10|2,2:0|2:0,0:0:0:0:
173,77,185578,6,0,B|257:47|257:47|303:56|323:100|297:139,1,208.8,4|10,1:0|2:0,0:0:0:0:
176,281,185978,6,1,B|154:306|123:308|123:308|165:337|227:310|223:248,1,208.8,2|0,2:0|0:0,0:0:0:0:
163,196,186244,5,2,1:2:0:0:
323,384,186378,1,10,2:0:0:0:
323,384,186644,6,0,L|356:260,1,104.4,4|0,1:0|0:0,0:0:0:0:
412,12,186911,5,10,2:0:0:0:
512,195,187044,1,2,1:2:0:0:
323,69,187178,5,10,2:0:0:0:
343,276,187311,1,2,1:2:0:0:
224,29,187444,5,10,2:0:0:0:
157,225,187578,1,2,1:2:0:0:
19,142,187711,6,0,P|59:112|110:115,1,104.4,4|0,1:0|0:0,0:0:0:0:
302,358,187978,5,10,2:0:0:0:
72,233,188111,1,0,1:0:0:0:
343,276,188244,5,10,2:0:0:0:
64,230,188378,1,0,1:0:0:0:
332,189,188511,5,10,2:0:0:0:
56,229,188644,1,0,1:0:0:0:
224,29,188778,6,0,L|251:129,1,104.4,4|0,1:0|0:0,0:0:0:0:
447,363,189044,5,10,2:0:0:0:
239,215,189178,1,2,1:2:0:0:
472,266,189311,5,10,2:0:0:0:
212,316,189444,1,0,1:0:0:0:
457,372,189578,5,10,2:0:0:0:
228,207,189711,1,0,1:0:0:0:
371,62,189844,6,0,B|491:4|491:4|461:28|458:69,1,208.8,4|0,1:0|0:0,0:0:0:0:
512,129,190111,2,0,P|470:159|419:155,1,104.4,10|2,2:0|1:2,0:0:0:0:
221,32,190378,5,10,2:0:0:0:
304,0,190511,1,2,1:2:0:0:
112,226,190644,6,0,L|101:183,1,43.5,10|0,2:0|0:0,0:0:0:0:
42,130,190778,5,2,1:2:0:0:
42,130,190844,1,2,0:0:0:0:
42,130,190911,2,0,B|117:157|117:157|158:149|176:110|153:75,1,182.7,4|0,1:0|0:0,0:0:0:0:
221,32,191178,2,0,P|180:1|129:5,1,104.4,8|0,2:0|0:0,0:0:0:0:
326,206,191444,6,0,B|432:156|432:156|406:177|403:213,1,182.7,0|0,1:0|0:0,0:0:0:0:
512,285,191711,6,0,L|498:234,1,52.2,8|0,2:0|0:0,0:0:0:0:
485,226,191844,1,2,1:2:0:0:
313,331,191978,6,1,B|291:356|260:358|260:358|302:387|364:360|360:298,1,208.8,2|0,1:2|0:0,0:0:0:0:
313,331,192244,1,10,2:0:0:0:
191,222,192378,6,1,B|165:192|129:190|129:190|178:156|250:188|245:260,1,243.6,2|2,1:2|1:2,0:0:0:0:
17,352,192778,5,10,2:0:0:0:
17,352,193044,6,0,B|92:379|92:379|133:371|151:332|128:297,1,182.7,4|0,1:0|0:0,0:0:0:0:
53,274,193311,5,10,2:0:0:0:
220,73,193444,1,2,1:2:0:0:
53,274,193578,5,2,1:2:0:0:
125,43,193711,1,2,1:2:0:0:
53,274,193844,5,10,2:0:0:0:
34,89,193978,1,2,1:2:0:0:
53,274,194111,5,2,1:2:0:0:
6,185,194244,1,2,2:0:0:0:
253,230,194378,6,1,B|275:205|306:203|306:203|264:174|202:201|206:263,1,208.8,10|0,2:0|0:0,0:0:0:0:
150,319,194644,2,0,P|190:349|241:346,1,104.4,2|0,1:2|0:0,0:0:0:0:
448,128,194911,5,8,2:0:0:0:
448,128,195178,6,0,B|342:178|342:178|368:157|371:121,1,182.7,4|0,1:0|0:0,0:0:0:0:
315,66,195444,2,0,P|355:35|406:38,1,104.4,10|2,2:0|1:2,0:0:0:0:
167,169,195711,6,0,B|197:189|236:171|244:130|244:130|217:55,1,182.7,2|0,1:2|0:0,0:0:0:0:
136,28,195978,6,0,L|120:86,1,52.2,10|0,2:0|0:0,0:0:0:0:
127,94,196111,1,2,1:2:0:0:
14,241,196244,6,0,B|11:205|-15:184|-15:184|91:234,1,182.7,6|0,1:2|0:0,0:0:0:0:
106,242,196511,1,8,2:0:0:0:
227,384,196644,6,0,B|230:336|265:308|265:308|124:374,1,243.6,2|0,2:0|0:0,0:0:0:0:
315,66,197044,5,8,2:0:0:0:
315,66,197311,5,14,2:0:0:0:
470,338,197444,1,2,1:2:0:0:
315,66,197578,5,10,2:0:0:0:
351,353,197711,1,2,1:2:0:0:
315,66,197844,5,10,2:0:0:0:
253,280,197978,1,2,1:2:0:0:
315,66,198111,5,10,2:0:0:0:
240,161,198244,1,2,1:2:0:0:
37,15,198378,5,0,1:2:0:0:
37,15,198444,1,0,1:2:0:0:
37,15,198511,2,0,L|98:-1,1,60.9,0|0,1:2|1:2,0:0:0:0:
322,74,198644,1,0,1:2:0:0:
322,74,198711,1,0,1:2:0:0:
322,74,198778,2,0,L|260:90,1,60.9,0|0,1:2|1:2,0:0:0:0:
175,42,198911,5,4,1:2:0:0:
256,192,198978,12,2,203444,0:0:0:0:
