osu file format v14

[General]
AudioFilename: audio.mp3
AudioLeadIn: 0
PreviewTime: 444
Countdown: 0
SampleSet: Soft
StackLeniency: 0.5
Mode: 0
LetterboxInBreaks: 0
WidescreenStoryboard: 0

[Editor]
Bookmarks: 1044,18111,24511,50111,67178,86378,88511,95978,113044,132244,137578,154644,173844,186644,198911,203444
DistanceSpacing: 1.1
BeatDivisor: 4
GridSize: 8
TimelineZoom: 1.6

[Metadata]
Title:Under Kids
TitleUnicode:アンダーキッズ
Artist:TUYU
ArtistUnicode:ツユ
Creator:Len
Version:pnky's Hard
Source:
Tags:underkids japanese jpop j-pop pop jrock j-rock rock 礼衣 ぷす ミロ 双葉陽 rei pusu miro futaba haru azyun vocals female fast l1ght_u light_u -hitomi nodoro erisu lanzhu pnky share ayesha altugle shizuku- shikibe mayu kazato asa torriru
BeatmapID:3725349
BeatmapSetID:1815821

[Difficulty]
HPDrainRate:4
CircleSize:3.7
OverallDifficulty:6.2
ApproachRate:8
SliderMultiplier:1.42
SliderTickRate:1

[Events]
//Background and Video events
0,0,"uruse.jpg",0,0
Video,-100,"tuyu.mp4"
//Break Periods
//Storyboard Layer 0 (Background)
//Storyboard Layer 1 (Fail)
//Storyboard Layer 2 (Pass)
//Storyboard Layer 3 (Foreground)
//Storyboard Layer 4 (Overlay)
//Storyboard Sound Samples

[TimingPoints]
-22,266.666666666667,4,2,1,80,1,0
1044,-100,4,2,1,80,0,0
9578,-100,4,2,1,65,0,0
13844,-100,4,2,1,80,0,0
18111,-125,4,2,1,60,0,0
21844,-125,4,2,1,70,0,0
22244,-100,4,2,1,70,0,0
24511,-111.111111111111,4,2,1,50,0,0
37311,-99.9999999999999,4,2,1,70,0,0
45844,-99.9999999999999,4,2,1,75,0,0
58644,-99.9999999999999,4,2,1,65,0,0
67178,-99.9999999999999,4,2,1,80,0,0
86378,-111.111111111111,4,2,1,75,0,0
88511,-125,4,2,1,60,0,0
92644,-99.9999999999999,4,2,1,70,0,0
95578,-125,4,2,1,70,0,0
95978,-99.9999999999999,4,2,1,70,0,0
108778,-99.9999999999999,4,2,1,75,0,0
112244,-99.9999999999999,4,2,1,65,0,0
112511,-99.9999999999999,4,2,1,65,0,0
113044,-99.9999999999999,4,2,1,80,0,0
132244,-99.9999999999999,4,2,1,80,0,1
136511,-99.9999999999999,4,2,1,80,0,0
137044,-99.9999999999999,4,2,1,75,0,0
154644,-99.9999999999999,4,2,1,80,0,0
173844,-99.9999999999999,4,2,1,80,0,1
198911,-99.9999999999999,4,2,2,80,0,0
201578,-99.9999999999999,4,2,2,50,0,0

[Colours]
Combo1 : 166,206,255
Combo2 : 180,180,218

[HitObjects]
323,123,1044,6,0,B|390:115|390:115|398:110|398:110|474:101,2,142,4|8|0,1:0|2:0|1:0,0:0:0:0:
267,178,1711,1,0,1:0:0:0:
205,129,1844,2,0,B|190:105|190:105|209:57,1,71,8|2,2:0|2:0,0:0:0:0:
137,14,2111,6,0,P|79:21|66:102,1,142,2|8,1:2|2:0,0:0:0:0:
123,140,2511,1,2,2:0:0:0:
73,201,2644,2,0,B|39:197|39:197|32:193|32:193|-11:188,2,71,0|0|8,1:2|1:2|2:0,0:0:0:0:
120,278,3044,1,2,2:0:0:0:
120,278,3178,5,2,1:2:0:0:
256,192,3444,1,2,1:2:0:0:
392,278,3711,1,2,1:2:0:0:
256,364,3978,1,2,1:2:0:0:
190,221,4244,6,0,P|207:138|266:120,1,142,4|8,1:0|2:0,0:0:0:0:
325,151,4644,2,0,B|380:160|380:160|402:182|402:182|462:194,1,142,2|0,1:2|1:2,0:0:0:0:
502,256,5044,2,0,P|492:294|465:313,1,71,8|0,2:0|1:0,0:0:0:0:
446,350,5244,1,0,1:0:0:0:
446,350,5311,6,0,B|381:357|381:357|373:362|373:362|306:370,1,142,4|10,1:0|2:0,0:0:0:0:
242,325,5711,1,2,2:0:0:0:
174,365,5844,2,0,B|146:342|146:342|109:342,1,71,2|2,1:2|1:2,0:0:0:0:
42,374,6111,1,10,2:0:0:0:
42,374,6244,1,2,2:0:0:0:
5,297,6378,6,0,B|13:232|13:232|18:224|18:224|25:158,1,142,2|10,1:2|2:0,0:0:0:0:
92,117,6778,1,2,2:0:0:0:
54,48,6911,2,0,B|27:53|27:53|13:78|13:78|-11:85,1,71,2|2,1:2|1:2,0:0:0:0:
92,117,7178,2,0,B|119:122|119:122|133:147|133:147|157:154,1,71,10|2,2:0|2:0,0:0:0:0:
227,120,7444,5,0,1:0:0:0:
194,272,7711,1,10,2:0:0:0:
346,305,7978,1,2,1:2:0:0:
379,153,8244,1,8,2:0:0:0:
379,153,8378,1,4,1:2:0:0:
315,209,8511,6,0,P|401:194|465:189,1,142,0|8,1:0|2:0,0:0:0:0:
498,254,8911,1,2,2:0:0:0:
423,280,9044,2,0,P|393:304|407:369,1,106.5,0|0,1:0|0:0,0:0:0:0:
367,381,9311,1,8,2:0:0:0:
296,346,9444,1,0,1:0:0:0:
216,376,9578,6,0,B|150:377|150:377|142:382|142:382|75:384,1,142,4|2,1:0|2:0,0:0:0:0:
0,247,10111,2,0,B|65:248|65:248|73:253|73:253|140:255,1,142,10|2,1:2|2:0,0:0:0:0:
242,135,10644,2,0,P|257:62|202:18,1,142,2|2,1:2|2:0,0:0:0:0:
62,64,11178,2,0,P|47:137|102:181,1,142,8|0,1:2|0:0,0:0:0:0:
163,130,11578,1,0,0:0:0:0:
163,130,11711,6,0,P|217:123|274:191,1,142,2|2,1:2|2:0,0:0:0:0:
368,306,12244,2,0,P|334:262|365:179,1,142,8|2,1:2|2:0,0:0:0:0:
317,109,12644,1,0,0:0:0:0:
317,109,12778,2,0,P|385:101|418:41,2,142,2|8|0,1:2|2:0|1:0,0:0:0:0:
261,52,13444,1,0,1:0:0:0:
261,52,13578,2,0,B|212:47|212:47|204:43|204:43|152:38,1,106.5,8|0,2:0|0:0,0:0:0:0:
121,64,13844,6,0,P|78:89|103:172,1,142,4|10,1:0|2:0,0:0:0:0:
141,237,14244,1,2,2:0:0:0:
141,237,14378,2,0,B|208:229|208:229|216:224|216:224|292:215,1,142,2|10,1:2|2:0,0:0:0:0:
343,264,14778,1,2,2:0:0:0:
409,211,14911,6,0,B|403:180|403:180|398:173|398:173|391:133,1,71,2|2,1:2|1:2,0:0:0:0:
441,81,15178,1,10,2:0:0:0:
441,81,15311,1,2,2:0:0:0:
370,31,15444,2,0,B|303:23|303:23|295:18|295:18|219:9,1,142,2|10,1:2|2:0,0:0:0:0:
160,46,15844,1,2,2:0:0:0:
135,127,15978,6,0,P|144:87|59:54,1,142,4|10,1:2|2:0,0:0:0:0:
4,95,16378,1,8,2:0:0:0:
4,95,16511,2,0,B|9:125|9:125|14:132|14:132|20:163,1,71,0|0,1:0|0:0,0:0:0:0:
76,217,16778,2,0,B|70:247|70:247|65:254|65:254|59:285,1,71,8|0,2:0|0:0,0:0:0:0:
9,354,17044,6,0,B|49:348|65:314|65:314|148:288|186:371,1,213,4|0,1:0|0:0,0:0:0:0:
258,323,17578,1,0,1:0:0:0:
258,323,17711,1,8,2:0:0:0:
435,382,18111,6,0,P|413:249|403:141,1,227.2,6|2,2:0|3:2,0:0:0:0:
477,30,18911,1,2,2:0:0:0:
477,30,19178,2,0,P|365:49|252:60,1,227.2,2|2,3:2|3:2,0:0:0:0:
120,4,19978,1,2,3:2:0:0:
120,4,20244,2,0,P|142:137|152:245,2,227.2,2|2|2,3:2|3:2|3:2,0:0:0:0:
278,259,21844,5,0,1:0:0:0:
278,259,21978,1,10,2:0:0:0:
145,366,22244,6,0,B|98:353|98:353|78:308|78:308|35:297,1,142,4|2,1:0|1:2,0:0:0:0:
2,225,22644,1,10,2:0:0:0:
115,118,22911,1,2,1:2:0:0:
259,178,23178,1,10,2:0:0:0:
377,76,23444,6,0,B|424:89|424:89|444:134|444:134|487:145,1,142,2|10,1:2|2:0,0:0:0:0:
499,222,23844,1,0,0:0:0:0:
421,210,23978,2,0,B|394:215|394:215|380:240|380:240|356:247,1,71,14|10,2:0|2:0,0:0:0:0:
365,244,24511,6,0,P|311:218|316:158,1,127.8,4|2,1:0|2:0,0:0:0:0:
235,274,25044,2,0,P|230:214|284:188,1,127.8,2|2,1:2|2:0,0:0:0:0:
144,176,25578,2,0,P|193:142|242:176,1,127.8,2|2,1:2|2:0,0:0:0:0:
183,48,26111,2,0,P|237:74|232:134,1,127.8,2|2,1:2|2:0,0:0:0:0:
137,255,26644,6,0,P|75:243|3:235,1,127.8,2|2,1:2|2:0,0:0:0:0:
144,176,27178,2,0,P|82:164|10:156,1,127.8,2|2,1:2|2:0,0:0:0:0:
151,97,27711,2,0,P|89:85|17:77,2,127.8,2|2|2,1:2|2:0|1:2,0:0:0:0:
216,143,28378,1,0,1:0:0:0:
216,143,28778,6,0,P|265:176|314:142,1,127.8,2|2,1:2|2:0,0:0:0:0:
255,270,29311,2,0,P|309:244|304:184,1,127.8,2|2,1:2|2:0,0:0:0:0:
385,300,29844,2,0,P|389:240|335:214,1,127.8,2|2,1:2|2:0,0:0:0:0:
476,202,30378,2,0,P|426:168|377:202,1,127.8,2|2,1:2|2:0,0:0:0:0:
242,277,30911,6,0,P|232:176|225:121,1,127.8,2|2,1:2|2:0,0:0:0:0:
163,289,31444,2,0,P|153:188|146:133,1,127.8,2|2,1:2|2:0,0:0:0:0:
84,301,31978,2,0,P|74:200|67:145,2,127.8,2|2|2,1:2|2:0|1:2,0:0:0:0:
133,362,32644,1,0,1:0:0:0:
133,362,33044,6,0,P|166:314|248:316,1,127.8,2|2,1:2|2:0,0:0:0:0:
285,353,33444,1,0,0:0:0:0:
342,313,33578,2,0,B|335:260|335:260|329:249|329:249|321:182,1,127.8,2|2,1:2|2:0,0:0:0:0:
203,110,34111,6,0,B|185:102|177:77|177:77|191:21|250:20,2,127.8,2|2|2,1:2|2:0|1:2,0:0:0:0:
280,92,34778,1,2,2:0:0:0:
280,92,34911,2,0,P|309:81|334:60,1,63.9000000000001,2|2,2:2|2:0,0:0:0:0:
392,109,35178,6,0,P|453:139|523:143,1,127.8,2|2,1:2|2:0,0:0:0:0:
459,190,35578,1,2,2:0:0:0:
459,190,35711,2,0,P|411:226|330:242,1,127.8,2|2,1:2|2:0,0:0:0:0:
289,197,36111,1,2,2:0:0:0:
289,197,36244,5,2,1:2:0:0:
147,256,36511,2,0,P|158:243|175:238,3,31.95,2|0|2|0,2:0|0:0|2:0|0:0,0:0:0:0:
202,256,36778,2,0,P|218:259|231:271,3,31.95,2|0|0|0,1:2|0:0|1:0|0:0,0:0:0:0:
224,304,37044,2,0,P|229:320|225:337,3,31.95,2|2|2|2,2:0|2:0|2:0|2:0,0:0:0:0:
196,364,37311,6,0,B|129:356|129:356|121:351|121:351|45:342,2,142,4|8|0,1:0|2:0|1:0,0:0:0:0:
325,274,38111,1,10,2:0:0:0:
325,274,38244,1,0,0:0:0:0:
392,326,38378,6,0,P|452:328|470:241,1,142,0|8,1:0|2:0,0:0:0:0:
424,212,38778,1,8,2:0:0:0:
424,212,38911,2,0,B|398:170|398:170|424:72,1,142,0|10,1:0|2:0,0:0:0:0:
267,7,39444,6,0,B|202:14|202:14|194:19|194:19|127:27,1,142,0|8,1:0|2:0,0:0:0:0:
68,78,39844,1,8,2:0:0:0:
68,78,39978,2,0,P|74:137|151:139,1,142,0|10,1:0|2:0,0:0:0:0:
300,214,40511,6,0,P|228:193|168:236,1,142,0|8,1:0|2:0,0:0:0:0:
98,245,40911,1,8,2:0:0:0:
144,307,41044,2,0,P|152:341|161:384,1,71.0000000000001,0|8,1:0|2:0,0:0:0:0:
225,300,41311,2,0,P|233:334|242:377,1,71.0000000000001,10|8,2:0|2:0,0:0:0:0:
323,349,41578,6,0,B|379:361|379:361|405:276,1,142,4|8,1:0|2:0,0:0:0:0:
473,241,41978,1,0,1:0:0:0:
473,241,42111,2,0,L|450:161,1,71.0000000000001,8|0,2:0|1:0,0:0:0:0:
431,102,42378,1,8,2:0:0:0:
431,102,42511,1,0,1:0:0:0:
354,139,42644,6,0,B|293:131|293:131|280:123|280:123|204:113,1,142,2|8,1:2|2:0,0:0:0:0:
147,160,43044,1,0,1:0:0:0:
77,124,43178,2,0,B|66:88|66:88|87:55,1,71.0000000000001,8|0,2:0|1:0,0:0:0:0:
155,28,43444,2,0,B|185:24|185:24|192:20|192:20|230:15,1,71.0000000000001,8|0,2:0|1:0,0:0:0:0:
304,42,43711,6,0,B|365:34|365:34|378:26|378:26|454:16,1,142,2|8,1:2|2:0,0:0:0:0:
508,59,44111,1,0,1:0:0:0:
450,112,44244,2,0,P|428:141|433:184,1,71.0000000000001,8|0,2:0|1:0,0:0:0:0:
481,231,44511,2,0,P|503:260|498:303,1,71.0000000000001,8|0,2:0|1:0,0:0:0:0:
468,372,44778,6,0,B|418:303|339:330|339:330,1,142,2|8,1:2|2:0,0:0:0:0:
282,277,45178,1,0,1:0:0:0:
227,332,45311,2,0,B|240:369|240:369|203:350,1,71.0000000000001,8|0,2:0|1:0,0:0:0:0:
158,296,45578,2,0,B|162:263|162:263|166:254|166:254|171:215,1,71.0000000000001,8|0,2:0|1:0,0:0:0:0:
152,142,45844,6,0,B|79:157|108:212|29:218,1,142,4|8,1:0|2:0,0:0:0:0:
2,147,46244,1,2,2:0:0:0:
27,65,46378,2,0,P|55:83|100:81,1,71.0000000000001,0|0,1:0|1:0,0:0:0:0:
151,32,46644,1,8,2:0:0:0:
151,32,46778,1,2,2:0:0:0:
226,70,46911,6,0,B|316:89|259:125|354:140,1,142,2|8,1:2|2:0,0:0:0:0:
486,66,47444,1,0,1:0:0:0:
486,66,47578,1,0,1:0:0:0:
435,125,47711,2,0,L|419:248,1,106.5,8|0,2:0|0:0,0:0:0:0:
440,268,47978,6,0,B|432:324|432:324|341:313,1,142,4|8,1:0|2:0,0:0:0:0:
282,357,48378,1,0,1:0:0:0:
232,296,48511,2,0,B|241:268|241:268|245:262|245:262|255:227,1,71.0000000000001,8|0,2:0|1:0,0:0:0:0:
321,185,48778,1,8,2:0:0:0:
321,185,48911,1,0,1:0:0:0:
271,115,49044,6,0,B|204:123|204:123|196:128|196:128|120:137,2,142,12|12|12,1:2|1:2|1:2,0:0:0:0:
502,324,50111,6,0,P|450:257|398:268,2,142,4|8|0,1:0|2:0|1:0,0:0:0:0:
438,367,50778,1,0,1:0:0:0:
438,367,50911,2,0,P|407:345|367:345,1,71.0000000000001,8|2,2:0|2:0,0:0:0:0:
300,299,51178,6,0,P|261:345|171:342,1,142,2|8,1:2|2:0,0:0:0:0:
106,364,51578,1,2,2:0:0:0:
69,295,51711,2,0,B|43:291|43:291|24:298|24:298|-13:294,2,71.0000000000001,0|0|8,1:0|1:0|2:0,0:0:0:0:
145,254,52111,1,2,2:0:0:0:
145,254,52244,5,2,1:2:0:0:
79,112,52511,1,2,1:2:0:0:
193,5,52778,1,2,1:2:0:0:
329,81,53044,1,2,1:2:0:0:
301,236,53311,6,0,B|350:234|350:234|389:204|389:204|450:204,1,142,2|8,1:2|2:0,0:0:0:0:
477,268,53711,2,0,P|481:331|400:354,1,142,0|0,1:0|1:0,0:0:0:0:
347,324,54111,2,0,B|320:329|320:329|306:354|306:354|282:361,1,71.0000000000001,8|0,2:0|1:0,0:0:0:0:
252,355,54311,1,0,1:0:0:0:
252,355,54378,6,0,B|206:326|206:326|227:232,1,142,4|10,1:0|2:0,0:0:0:0:
301,236,54778,1,2,2:0:0:0:
342,169,54911,2,0,B|337:142|337:142|332:131|332:131|326:95,1,71.0000000000001,2|2,1:2|1:2,0:0:0:0:
405,93,55178,2,0,B|400:66|400:66|395:55|395:55|389:19,1,71.0000000000001,10|2,2:0|2:0,0:0:0:0:
326,99,55444,6,0,B|259:91|259:91|251:86|251:86|186:79,1,142,2|10,1:2|2:0,0:0:0:0:
117,117,55844,1,2,2:0:0:0:
54,69,55978,2,0,B|67:24|67:24|89:15,1,71.0000000000001,2|2,1:2|1:2,0:0:0:0:
117,117,56244,2,0,B|130:162|130:162|152:171,1,71.0000000000001,10|2,2:0|2:0,0:0:0:0:
180,252,56511,5,2,1:2:0:0:
324,191,56778,1,10,2:0:0:0:
305,346,57044,1,2,1:2:0:0:
180,252,57311,1,10,2:0:0:0:
261,277,57444,1,10,1:2:0:0:
261,277,57578,6,0,B|328:269|328:269|336:264|336:264|401:257,1,142,2|10,1:2|2:0,0:0:0:0:
468,296,57978,1,2,2:0:0:0:
409,244,58111,2,0,P|386:189|429:141,1,106.5,2|0,1:2|0:0,0:0:0:0:
444,136,58378,1,10,2:0:0:0:
487,71,58511,1,2,1:2:0:0:
418,20,58644,6,0,B|352:24|352:24|344:20|344:20|275:25,1,142,4|2,1:0|2:0,0:0:0:0:
149,116,59178,2,0,B|82:111|82:111|73:115|73:115|8:111,1,142,8|2,1:2|2:0,0:0:0:0:
125,214,59711,2,0,P|178:243|158:333,1,142,0|2,1:2|2:0,0:0:0:0:
313,251,60244,2,0,P|366:222|346:132,1,142,8|2,1:2|2:0,0:0:0:0:
289,120,60644,1,0,0:0:0:0:
289,120,60778,6,0,B|222:115|222:115|213:119|213:119|148:115,1,142,0|2,1:2|2:0,0:0:0:0:
286,42,61311,2,0,B|219:37|219:37|210:41|210:41|145:37,1,142,8|2,1:2|2:0,0:0:0:0:
73,80,61711,1,0,0:0:0:0:
73,80,61844,6,0,B|44:91|44:91|20:110|20:110|30:146|30:146|35:154|35:154|48:199,2,142,0|10|0,1:2|2:0|1:0,0:0:0:0:
148,115,62511,1,0,1:0:0:0:
127,190,62644,2,0,B|119:234|119:234|115:242|115:242|106:298,1,106.5,8|8,2:0|2:0,0:0:0:0:
133,327,62911,6,0,P|194:333|224:266,1,142,4|10,1:0|2:0,0:0:0:0:
249,196,63311,1,2,2:0:0:0:
249,196,63444,2,0,P|273:134|340:136,1,142,2|10,1:2|2:0,0:0:0:0:
415,112,63844,1,2,2:0:0:0:
485,160,63978,6,0,B|478:193|478:193|482:203|482:203|477:235,1,71.0000000000001,2|2,1:2|2:0,0:0:0:0:
466,306,64244,1,10,2:0:0:0:
466,306,64378,1,2,2:0:0:0:
398,357,64511,2,0,B|331:349|331:349|323:344|323:344|247:335,1,142,2|10,1:2|2:0,0:0:0:0:
185,364,64911,1,10,2:0:0:0:
117,312,65044,6,0,P|126:248|206:241,1,142,4|8,1:0|2:0,0:0:0:0:
257,188,65444,1,2,2:0:0:0:
257,188,65578,2,0,B|244:150|244:150|213:145,1,71.0000000000001,0|0,1:0|0:0,0:0:0:0:
191,70,65844,2,0,B|178:32|178:32|147:27,1,71.0000000000001,8|2,2:0|2:0,0:0:0:0:
71,65,66111,6,0,B|80:198|80:198|87:213|87:213|98:355,1,284,4|2,1:0|1:2,0:0:0:0:
97,346,67178,6,0,P|162:333|173:267,1,142,4|10,1:0|2:0,0:0:0:0:
206,196,67578,1,2,2:0:0:0:
285,218,67711,1,0,1:0:0:0:
285,218,67844,2,0,P|307:243|347:251,1,71.0000000000001,2|8,1:2|2:0,0:0:0:0:
406,194,68111,1,2,2:0:0:0:
406,194,68244,6,0,B|398:127|398:127|393:119|393:119|384:43,1,142,0|10,1:0|2:0,0:0:0:0:
321,8,68644,1,2,2:0:0:0:
249,40,68778,2,0,B|221:35|221:35|206:21|206:21|179:16,1,71.0000000000001,2|0,1:2|1:0,0:0:0:0:
160,91,69044,2,0,B|132:86|132:86|117:72|117:72|90:67,1,71.0000000000001,10|2,2:0|2:0,0:0:0:0:
27,120,69311,5,2,1:2:0:0:
150,215,69578,1,10,2:0:0:0:
294,156,69844,1,2,1:2:0:0:
417,251,70111,1,10,2:0:0:0:
273,310,70378,6,0,B|246:311|226:287|226:287|201:289|186:307|186:307|181:315|181:315|131:339,1,142,4|10,1:0|2:0,0:0:0:0:
86,371,70778,2,0,P|40:329|65:250,1,142,2|0,1:2|1:0,0:0:0:0:
108,199,71178,2,0,B|111:173|111:173|117:161|117:161|121:128,1,71.0000000000001,8|8,2:0|2:0,0:0:0:0:
94,103,71378,1,8,2:0:0:0:
94,103,71444,6,0,B|65:38|65:38|133:8,1,142,4|8,1:0|2:0,0:0:0:0:
200,53,71844,1,0,0:0:0:0:
200,53,71978,2,0,L|270:71,1,71.0000000000001,0|0,1:0|1:0,0:0:0:0:
338,32,72244,1,8,2:0:0:0:
338,32,72378,1,0,0:0:0:0:
410,75,72511,6,0,B|396:142|396:142|391:150|391:150|375:224,1,142,2|10,1:2|2:0,0:0:0:0:
312,256,72911,1,2,1:2:0:0:
264,194,73044,2,0,P|190:187|164:248,1,142,2|10,2:0|2:0,0:0:0:0:
98,295,73444,1,2,2:0:0:0:
98,295,73578,5,2,1:2:0:0:
17,161,73844,2,0,B|20:135|20:135|32:121|32:121|36:95,1,71.0000000000001,10|2,2:0|1:2,0:0:0:0:
110,119,74111,2,0,B|113:93|113:93|125:79|125:79|129:53,1,71.0000000000001,2|2,2:0|1:2,0:0:0:0:
203,77,74378,2,0,B|206:51|206:51|218:37|218:37|222:11,1,71.0000000000001,10|2,2:0|2:0,0:0:0:0:
283,90,74644,6,0,B|351:114|350:52|427:81,1,142,4|10,1:2|2:0,0:0:0:0:
469,139,75044,1,2,2:0:0:0:
391,152,75178,2,0,P|358:209|407:264,1,142,2|10,1:2|2:0,0:0:0:0:
459,313,75578,1,2,2:0:0:0:
394,368,75711,5,4,1:0:0:0:
238,382,75978,1,0,1:0:0:0:
176,237,76244,1,0,1:0:0:0:
293,133,76511,1,0,1:0:0:0:
293,133,76644,1,2,2:0:0:0:
229,75,76778,6,0,B|163:82|163:82|154:90|154:90|72:101,1,142,4|10,1:0|2:0,0:0:0:0:
19,65,77178,1,2,2:0:0:0:
59,1,77311,2,0,B|92:5|92:5|103:13|103:13|133:17,2,71.0000000000001,2|0|10,1:2|1:0|2:0,0:0:0:0:
12,165,77844,5,4,1:0:0:0:
156,224,78111,1,10,2:0:0:0:
226,84,78378,1,10,2:0:0:0:
370,143,78644,1,10,2:0:0:0:
440,3,78911,6,0,B|386:7|386:7|361:34|361:34|304:40,2,142,14|8|10,2:0|2:0|2:0,0:0:0:0:
491,68,79578,1,2,1:2:0:0:
491,68,79711,2,0,B|465:98|465:98|467:140,1,71.0000000000001,10|2,2:0|1:2,0:0:0:0:
430,148,79911,1,8,0:0:0:0:
430,148,79978,6,0,P|449:215|515:236,1,142,4|10,1:0|2:0,0:0:0:0:
498,316,80378,1,2,2:0:0:0:
498,316,80511,2,0,P|462:311|424:295,1,71.0000000000001,2|2,1:2|1:2,0:0:0:0:
359,275,80778,1,10,2:0:0:0:
359,275,80911,1,2,2:0:0:0:
288,321,81044,5,0,1:0:0:0:
145,255,81311,2,0,B|120:258|120:258|103:270|103:270|76:275,1,71.0000000000001,10|2,2:0|2:0,0:0:0:0:
113,187,81578,2,0,B|88:190|88:190|71:202|71:202|44:207,1,71.0000000000001,2|2,1:2|1:2,0:0:0:0:
81,119,81844,2,0,B|56:122|56:122|39:134|39:134|12:139,1,71.0000000000001,10|2,2:0|2:0,0:0:0:0:
135,67,82111,6,0,P|156:23|242:19,1,142,2|10,1:2|2:0,0:0:0:0:
281,169,82644,2,0,P|254:138|263:106,1,71.0000000000001,2|2,1:2|1:2,0:0:0:0:
333,86,82911,2,0,P|360:117|351:149,1,71.0000000000001,10|2,2:0|2:0,0:0:0:0:
348,229,83178,6,0,B|428:219|414:266|497:261,2,142,2|10|2,1:2|2:0|1:2,0:0:0:0:
297,288,83844,1,2,1:2:0:0:
221,266,83978,2,0,P|187:261|156:230,1,71.0000000000001,10|2,2:0|2:0,0:0:0:0:
128,158,84244,5,4,1:0:0:0:
4,275,84511,2,0,B|9:306|9:306|13:315|13:315|19:352,1,71.0000000000001,10|2,2:0|1:2,0:0:0:0:
57,371,84711,1,0,1:2:0:0:
57,371,84778,2,0,B|86:366|86:366|95:362|95:362|126:357,1,71.0000000000001,10|2,2:0|1:2,0:0:0:0:
169,284,85044,2,0,B|200:289|200:289|209:293|209:293|238:297,1,71.0000000000001,10|2,2:0|1:2,0:0:0:0:
322,282,85311,5,12,2:0:0:0:
336,365,85444,1,0,1:0:0:0:
328,140,86378,6,0,B|279:95|279:95|201:105|201:105|158:171|158:171|180:245|180:245|228:289|228:289|284:297|284:297|319:324|319:324|336:365,1,511.2,4|10,1:0|2:0,0:0:0:0:
335,364,88511,6,0,P|461:318|440:243,1,227.2,4|0,1:0|1:0,0:0:0:0:
347,144,89311,1,2,2:0:0:0:
463,52,89578,2,0,B|458:98|458:98|445:119|445:119|438:170,1,113.6,0|2,1:0|2:0,0:0:0:0:
313,238,90111,2,0,B|318:284|318:284|331:305|331:305|338:356,1,113.6,0|2,1:0|2:0,0:0:0:0:
190,369,90644,6,0,B|157:358|120:353|120:353|133:300|140:253|140:253|171:263|207:269,2,227.2,0|0|4,1:0|1:0|1:0,0:0:0:0:
331,110,92244,1,0,1:0:0:0:
331,110,92378,1,8,2:0:0:0:
194,8,92644,6,0,B|134:16|134:16|123:24|123:24|46:37,1,142,4|2,1:0|1:2,0:0:0:0:
10,99,93044,1,10,2:0:0:0:
157,151,93311,1,2,1:2:0:0:
11,209,93578,1,10,2:0:0:0:
158,261,93844,6,0,B|214:251|214:251|246:272|246:272|298:262,1,142,2|10,1:2|2:0,0:0:0:0:
337,199,94244,1,0,0:0:0:0:
400,244,94378,2,0,B|394:273|394:273|385:285|385:285|376:328,1,71.0000000000001,10|4,2:0|1:0,0:0:0:0:
379,310,95444,5,2,2:1:0:0:
379,310,95578,2,0,B|335:306|335:306|316:287|316:287|264:280,1,113.6,2|0,2:1|0:0,0:0:0:0:
208,226,95978,6,0,P|175:178|236:113,1,142,4|8,1:0|2:0,0:0:0:0:
268,57,96378,1,2,2:0:0:0:
268,57,96511,2,0,B|322:70|322:70|343:97|343:97|397:110,1,142,2|10,1:2|2:0,0:0:0:0:
467,162,96911,1,0,0:0:0:0:
467,162,97044,6,0,B|479:197|479:197|466:228,1,71.0000000000001,2|0,1:2|2:2,0:0:0:0:
414,287,97311,2,0,B|351:294|351:294|342:301|342:301|269:308,1,142,10|2,2:0|1:2,0:0:0:0:
219,249,97711,1,2,1:2:0:0:
141,241,97844,2,0,B|123:214|123:214|135:164,1,71.0000000000001,10|2,2:0|2:0,0:0:0:0:
55,137,98111,6,0,P|72:46|189:21,1,213,4|2,1:0|2:0,0:0:0:0:
215,83,98644,2,0,P|243:110|281:115,1,71.0000000000001,2|0,1:2|0:0,0:0:0:0:
326,57,98911,2,0,P|356:25|399:20,1,71.0000000000001,2|0,1:2|0:0,0:0:0:0:
453,64,99178,6,0,P|453:101|472:136,1,71.0000000000001,2|2,1:2|2:0,0:0:0:0:
400,167,99444,1,8,2:0:0:0:
400,167,99578,2,0,B|327:210|348:292|348:292,1,142,2|2,2:0|1:2,0:0:0:0:
399,347,99978,2,0,P|426:356|403:340,1,71.0000000000001,10|2,2:0|1:2,0:0:0:0:
317,363,100244,6,0,B|291:367|291:367|277:379|277:379|252:384,1,71.0000000000001,4|2,1:0|2:0,0:0:0:0:
223,364,100444,1,0,0:0:0:0:
223,364,100511,2,0,B|215:322|215:322|234:288,1,71.0000000000001,10|2,2:0|2:0,0:0:0:0:
172,243,100778,2,0,B|180:201|180:201|161:167,1,71.0000000000001,2|2,1:2|1:2,0:0:0:0:
235,139,101044,2,0,B|227:97|227:97|246:63,1,71.0000000000001,10|2,2:0|2:0,0:0:0:0:
171,22,101311,6,0,B|139:18|139:18|132:13|132:13|96:8,1,71.0000000000001,2|2,1:2|2:0,0:0:0:0:
75,37,101511,1,2,2:0:0:0:
75,37,101578,2,0,B|45:41|45:41|38:46|38:46|6:50,1,71.0000000000001,10|2,2:0|2:0,0:0:0:0:
11,131,101844,1,2,1:2:0:0:
11,131,101978,1,2,1:2:0:0:
87,146,102111,2,0,P|107:179|92:209,1,71.0000000000001,10|2,2:0|2:0,0:0:0:0:
93,291,102378,6,0,P|144:197|306:221,1,284,2|2,1:2|1:2,0:0:0:0:
345,279,103044,1,0,0:0:0:0:
283,327,103178,2,0,P|245:298|254:269,1,71.0000000000001,10|2,2:0|1:2,0:0:0:0:
301,215,103444,6,0,P|330:192|321:151,1,71.0000000000001,4|2,1:0|2:0,0:0:0:0:
268,118,103711,1,10,2:0:0:0:
268,118,103844,1,2,2:0:0:0:
305,48,103978,2,0,B|365:37|365:37|375:39|375:39|454:25,1,142,2|10,1:2|2:0,0:0:0:0:
503,95,104378,1,2,1:2:0:0:
503,95,104511,6,0,P|409:203|474:319,1,284,6|10,1:2|1:2,0:0:0:0:
504,247,105178,1,0,0:0:0:0:
504,247,105311,2,0,P|464:205|450:207,1,71.0000000000001,2|0,2:0|0:0,0:0:0:0:
389,257,105578,6,0,P|340:310|261:305,1,142,2|2,1:2|2:0,0:0:0:0:
229,252,105978,1,0,0:0:0:0:
229,252,106111,2,0,B|234:220|234:220|244:208|244:208|252:175,1,71.0000000000001,10|0,1:2|0:0,0:0:0:0:
175,159,106378,2,0,B|180:127|180:127|190:115|190:115|198:82,1,71.0000000000001,2|0,2:0|0:0,0:0:0:0:
150,20,106644,6,0,P|51:48|73:222,1,284,2|10,1:2|1:2,0:0:0:0:
47,287,107311,1,0,0:0:0:0:
47,287,107444,2,0,P|20:310|33:361,1,71.0000000000001,2|0,2:0|0:0,0:0:0:0:
97,378,107711,6,0,P|140:324|219:327,1,142,2|8,1:2|2:0,0:0:0:0:
270,370,108111,1,0,0:0:0:0:
333,324,108244,2,0,P|333:282|312:252,1,71.0000000000001,2|2,1:2|1:2,0:0:0:0:
269,196,108511,2,0,P|269:154|290:124,1,71.0000000000001,12|0,2:0|0:0,0:0:0:0:
358,86,108778,5,6,1:2:0:0:
358,86,108911,2,0,L|413:96,2,35.5,2|2|10,2:0|2:0|2:0,0:0:0:0:
315,26,109178,1,2,2:0:0:0:
315,26,109311,2,0,B|254:37|254:37|242:45|242:45|171:57,1,142,2|10,1:2|2:0,0:0:0:0:
124,123,109711,6,0,P|63:151|77:234,1,142,2|2,2:0|1:2,0:0:0:0:
133,253,110111,2,0,P|168:231|202:232,1,71.0000000000001,10|2,2:0|2:0,0:0:0:0:
265,277,110378,1,2,1:2:0:0:
265,277,110511,1,2,1:2:0:0:
230,346,110644,2,0,P|195:324|161:325,1,71.0000000000001,10|10,2:0|2:0,0:0:0:0:
98,375,110911,6,0,B|79:373|45:383|45:383|53:343|69:291,1,142,6|8,1:2|2:0,0:0:0:0:
133,253,111311,1,8,2:0:0:0:
62,218,111444,2,0,P|51:174|41:138,1,71.0000000000001,0|0,1:0|0:0,0:0:0:0:
102,96,111711,2,0,P|91:52|81:16,1,71.0000000000001,8|0,2:0|0:0,0:0:0:0:
165,1,111978,6,0,B|306:20|220:152|380:179,1,284,4|2,1:0|1:2,0:0:0:0:
367,176,113044,6,0,P|291:225|308:274,1,142,4|10,1:0|2:0,0:0:0:0:
367,301,113444,1,2,2:0:0:0:
320,365,113578,1,0,1:0:0:0:
320,365,113711,2,0,P|291:340|252:338,1,71.0000000000001,2|8,1:2|2:0,0:0:0:0:
179,357,113978,1,2,2:0:0:0:
179,357,114111,6,0,B|132:331|132:331|159:232,1,142,0|10,1:0|2:0,0:0:0:0:
207,186,114511,1,2,2:0:0:0:
144,139,114644,2,0,P|123:167|79:175,1,71.0000000000001,2|0,1:2|1:0,0:0:0:0:
47,110,114911,2,0,P|67:82|101:72,1,71.0000000000001,10|2,2:0|2:0,0:0:0:0:
186,60,115178,5,2,1:2:0:0:
302,157,115444,1,10,2:0:0:0:
205,273,115711,1,2,1:2:0:0:
89,176,115978,1,10,2:0:0:0:
241,205,116244,6,0,B|308:197|308:197|317:192|317:192|396:183,1,142,4|10,1:0|2:0,0:0:0:0:
447,225,116644,2,0,P|496:178|469:108,1,142,2|0,1:2|1:0,0:0:0:0:
426,52,117044,2,0,B|395:47|395:47|385:52|385:52|354:47,1,71.0000000000001,8|8,2:0|2:0,0:0:0:0:
323,28,117244,1,8,2:0:0:0:
323,28,117311,6,0,B|256:36|256:36|247:41|247:41|168:50,1,142,4|8,1:0|2:0,0:0:0:0:
113,81,117711,1,0,0:0:0:0:
113,81,117844,2,0,B|85:57|85:57|51:67,1,71.0000000000001,0|0,1:0|1:0,0:0:0:0:
66,147,118111,1,8,2:0:0:0:
66,147,118244,1,0,0:0:0:0:
0,202,118378,6,0,B|63:194|63:194|72:189|72:189|139:181,1,142,2|10,1:2|2:0,0:0:0:0:
211,148,118778,1,2,1:2:0:0:
246,217,118911,2,0,P|254:267|166:281,1,142,2|10,2:0|2:0,0:0:0:0:
102,322,119311,1,2,2:0:0:0:
102,322,119444,5,2,1:2:0:0:
246,382,119711,2,0,B|278:378|278:378|291:369|291:369|324:365,1,71.0000000000001,10|2,2:0|1:2,0:0:0:0:
325,288,119978,2,0,B|357:284|357:284|370:275|370:275|403:271,1,71.0000000000001,2|2,2:0|1:2,0:0:0:0:
404,194,120244,2,0,B|436:190|436:190|449:181|449:181|482:177,1,71.0000000000001,10|2,2:0|2:0,0:0:0:0:
404,113,120511,6,0,P|352:54|289:53,1,142,4|10,1:2|2:0,0:0:0:0:
219,23,120911,1,2,2:0:0:0:
159,72,121044,2,0,B|154:149|206:136|204:208,1,142,2|10,1:2|2:0,0:0:0:0:
249,266,121444,1,2,2:0:0:0:
201,337,121578,5,4,1:0:0:0:
49,373,121844,1,0,1:0:0:0:
93,223,122111,1,0,1:0:0:0:
137,73,122378,1,0,1:0:0:0:
137,73,122511,1,2,2:0:0:0:
209,117,122644,6,0,B|272:107|272:107|283:100|283:100|357:88,1,142,4|10,1:0|2:0,0:0:0:0:
415,50,123044,1,2,2:0:0:0:
474,101,123178,2,0,B|486:134|486:134|460:169,1,71.0000000000001,2|0,1:2|1:0,0:0:0:0:
404,212,123444,2,0,B|376:206|376:206|366:196|366:196|332:190,1,71.0000000000001,10|2,2:0|2:0,0:0:0:0:
259,225,123711,5,4,1:0:0:0:
347,89,123978,1,10,2:0:0:0:
191,91,124244,1,10,2:0:0:0:
103,227,124511,1,10,2:0:0:0:
171,361,124778,6,0,B|221:357|221:357|254:321|254:321|306:315,2,142,14|10|10,2:0|2:0|2:0,0:0:0:0:
109,321,125444,1,2,1:2:0:0:
109,321,125578,2,0,B|81:316|81:316|68:306|68:306|33:301,1,71.0000000000001,10|2,2:0|1:2,0:0:0:0:
34,264,125778,1,8,0:0:0:0:
34,264,125844,6,0,P|26:188|90:175,1,142,4|10,1:0|2:0,0:0:0:0:
128,111,126244,1,2,2:0:0:0:
128,111,126378,2,0,B|159:119|159:119|165:124|165:124|196:132,1,71.0000000000001,2|2,1:2|1:2,0:0:0:0:
265,95,126644,1,10,2:0:0:0:
265,95,126778,1,2,2:0:0:0:
230,15,126911,5,0,1:0:0:0:
380,61,127178,2,0,B|411:57|411:57|424:49|424:49|456:45,1,71.0000000000001,10|2,2:0|2:0,0:0:0:0:
408,133,127444,2,0,B|439:129|439:129|452:121|452:121|477:118,1,71.0000000000001,2|2,1:2|1:2,0:0:0:0:
436,205,127711,2,0,B|467:201|467:201|480:193|480:193|504:189,1,71.0000000000001,10|2,2:0|2:0,0:0:0:0:
379,260,127978,6,0,B|323:252|323:252|297:234|297:234|233:226,1,142,2|10,1:2|2:0,0:0:0:0:
128,334,128511,2,0,B|153:308|153:308|151:269,1,71.0000000000001,2|2,1:2|1:2,0:0:0:0:
78,244,128778,2,0,B|53:270|53:270|55:309,1,71.0000000000001,10|2,2:0|2:0,0:0:0:0:
138,193,129044,6,0,B|128:133|128:133|123:125|123:125|111:50,2,142,2|10|2,1:2|2:0|1:2,0:0:0:0:
208,157,129711,1,2,1:2:0:0:
230,82,129844,2,0,B|256:56|256:56|301:66,1,71.0000000000001,10|2,2:0|2:0,0:0:0:0:
372,83,130111,5,4,1:0:0:0:
507,5,130378,2,0,B|500:37|500:37|503:45|503:45|495:82,1,71.0000000000001,10|2,2:0|1:2,0:0:0:0:
463,99,130578,1,0,1:2:0:0:
463,99,130644,2,0,B|456:131|456:131|459:139|459:139|451:176,1,71.0000000000001,10|2,2:0|1:2,0:0:0:0:
380,213,130911,2,0,B|373:245|373:245|376:253|376:253|368:290,1,71.0000000000001,10|2,2:0|1:2,0:0:0:0:
299,330,131178,5,12,2:0:0:0:
242,266,131311,1,0,1:0:0:0:
256,192,132244,12,2,136511,1:2:0:0:
242,266,137578,6,0,B|175:258|175:258|167:253|167:253|91:244,2,142,4|8|0,1:0|2:0|1:0,0:0:0:0:
293,324,138244,1,0,1:0:0:0:
360,284,138378,2,0,B|384:262|384:262|376:216,1,71.0000000000001,8|2,2:0|2:0,0:0:0:0:
447,176,138644,6,0,P|484:127|427:50,1,142,0|8,1:0|2:0,0:0:0:0:
381,89,139044,1,2,2:0:0:0:
321,37,139178,2,0,B|294:14|294:14|255:12,2,71.0000000000001,0|0|8,1:0|1:0|2:0,0:0:0:0:
303,123,139578,1,2,2:0:0:0:
303,123,139711,5,0,1:0:0:0:
169,41,139978,1,8,2:0:0:0:
49,143,140244,1,0,1:0:0:0:
109,288,140511,1,8,2:0:0:0:
266,277,140778,6,0,P|309:219|381:219,1,142,4|8,1:0|2:0,0:0:0:0:
443,180,141178,2,0,B|489:170|489:170|480:213|480:213|476:219|476:219|464:276,1,142,2|0,2:0|1:0,0:0:0:0:
486,337,141578,2,0,B|459:357|459:357|421:356,1,71.0000000000001,8|8,2:0|2:0,0:0:0:0:
386,378,141778,1,8,2:0:0:0:
386,378,141844,6,0,B|319:370|319:370|311:365|311:365|246:358,1,142,4|8,1:0|2:0,0:0:0:0:
191,302,142244,1,2,2:0:0:0:
122,334,142378,2,0,B|102:363|102:363|55:363,1,71.0000000000001,0|0,1:0|1:0,0:0:0:0:
17,309,142644,1,8,2:0:0:0:
17,309,142778,1,0,0:0:0:0:
78,250,142911,6,0,P|139:220|132:134,1,142,2|8,1:2|2:0,0:0:0:0:
90,95,143311,1,0,1:0:0:0:
146,41,143444,2,0,B|172:38|172:38|192:48|192:48|217:46,1,71.0000000000001,2|0,2:0|1:0,0:0:0:0:
269,102,143711,2,0,B|291:103|291:103|311:93|311:93|337:96,1,71.0000000000001,8|2,2:0|2:0,0:0:0:0:
412,55,143978,5,2,1:2:0:0:
483,195,144244,1,8,2:0:0:0:
398,326,144511,1,2,1:2:0:0:
327,186,144778,1,8,2:0:0:0:
327,186,144911,1,2,2:0:0:0:
262,241,145044,6,0,B|196:244|206:181|122:191,1,142,4|8,1:2|2:0,0:0:0:0:
68,232,145444,1,2,2:0:0:0:
24,166,145578,2,0,P|29:110|75:80,1,106.5,0|0,1:0|0:0,0:0:0:0:
92,52,145844,1,8,2:0:0:0:
153,100,145978,1,2,1:2:0:0:
225,55,146111,6,0,B|292:47|292:47|300:42|300:42|365:35,1,142,4|2,1:0|2:0,0:0:0:0:
249,161,146644,2,0,B|316:153|316:153|324:148|324:148|389:141,1,142,4|2,1:2|2:0,0:0:0:0:
273,267,147178,2,0,B|340:259|340:259|348:254|348:254|413:247,1,142,2|2,1:2|2:0,0:0:0:0:
297,373,147711,2,0,B|364:365|364:365|372:360|372:360|437:353,1,142,4|2,1:2|2:0,0:0:0:0:
483,290,148111,1,0,0:0:0:0:
483,290,148244,6,0,B|508:245|508:245|482:190|482:190|489:149,1,142,4|8,1:2|2:0,0:0:0:0:
382,43,148778,2,0,B|309:44|330:99|251:97,1,142,8|2,2:0|2:0,0:0:0:0:
195,158,149178,1,2,2:0:0:0:
195,158,149311,6,0,B|120:159|141:104|68:103,2,142,14|8|10,2:0|2:0|2:0,0:0:0:0:
255,216,149978,1,0,1:0:0:0:
255,216,150111,2,0,P|267:251|203:273,1,106.5,8|0,2:0|0:0,0:0:0:0:
216,323,150378,6,0,P|291:278|363:290,1,142,4|8,1:0|2:0,0:0:0:0:
417,251,150778,1,2,2:0:0:0:
417,251,150911,2,0,B|457:225|449:171|449:171|420:195|394:195,1,142,0|8,1:0|2:0,0:0:0:0:
386,117,151311,1,2,2:0:0:0:
448,58,151444,6,0,P|407:31|366:33,1,71.0000000000001,0|2,1:0|2:0,0:0:0:0:
321,71,151711,1,8,2:0:0:0:
321,71,151844,1,2,2:0:0:0:
254,112,151978,2,0,B|187:104|187:104|179:99|179:99|103:90,1,142,0|8,1:0|2:0,0:0:0:0:
60,34,152378,1,2,2:0:0:0:
5,98,152511,6,0,B|12:177|51:150|61:231,1,142,2|8,1:2|2:0,0:0:0:0:
4,280,152911,1,0,0:0:0:0:
4,280,153044,2,0,P|34:252|68:249,1,71.0000000000001,0|0,1:0|1:0,0:0:0:0:
121,300,153311,2,0,P|145:325|179:331,1,71.0000000000001,8|2,2:0|2:0,0:0:0:0:
249,296,153578,2,0,B|233:164|233:164|222:151|222:151|206:15,1,284,2|0,1:2|1:0,0:0:0:0:
206,17,154644,6,0,P|286:18|308:81,1,142,4|10,1:0|2:0,0:0:0:0:
387,59,155044,1,2,2:0:0:0:
424,133,155178,1,0,1:0:0:0:
424,133,155311,2,0,P|386:155|382:182,1,71.0000000000001,2|8,1:2|2:0,0:0:0:0:
312,227,155578,1,2,2:0:0:0:
312,227,155711,6,0,B|388:255|387:338|387:338,1,142,0|10,1:0|2:0,0:0:0:0:
316,371,156111,1,2,2:0:0:0:
257,319,156244,2,0,B|221:328|226:346|194:353,1,71.0000000000001,2|0,1:2|1:0,0:0:0:0:
164,280,156511,2,0,P|139:253|144:218,1,71.0000000000001,10|2,2:0|2:0,0:0:0:0:
198,156,156778,5,2,1:2:0:0:
346,107,157044,1,10,2:0:0:0:
228,3,157311,1,2,1:2:0:0:
80,52,157578,1,10,2:0:0:0:
198,156,157844,6,0,B|263:148|263:148|271:143|271:143|343:136,1,142,4|10,1:0|2:0,0:0:0:0:
400,183,158244,2,0,B|420:214|447:244|447:244|408:222|372:215,1,142,2|0,1:2|1:0,0:0:0:0:
309,230,158644,2,0,P|277:250|259:284,1,71.0000000000001,8|8,2:0|2:0,0:0:0:0:
241,318,158844,1,8,2:0:0:0:
241,318,158911,6,0,B|306:310|306:310|314:305|314:305|386:298,1,142,4|8,1:0|2:0,0:0:0:0:
459,330,159311,1,0,0:0:0:0:
459,330,159444,2,0,B|467:297|467:297|466:291|466:291|474:259,1,71.0000000000001,0|0,1:0|1:0,0:0:0:0:
500,189,159711,1,8,2:0:0:0:
500,189,159844,1,0,0:0:0:0:
450,119,159978,6,0,P|371:80|361:16,1,142,2|10,1:2|2:0,0:0:0:0:
283,9,160378,1,2,1:2:0:0:
208,30,160511,2,0,B|181:54|178:93|178:93|151:65|103:68,1,142,2|10,2:0|2:0,0:0:0:0:
46,119,160911,1,2,2:0:0:0:
46,119,161044,5,2,1:2:0:0:
186,188,161311,2,0,P|225:164|254:158,1,71.0000000000001,10|2,2:0|1:2,0:0:0:0:
285,228,161578,2,0,P|250:237|221:257,1,71.0000000000001,2|2,2:0|1:2,0:0:0:0:
256,327,161844,2,0,P|295:303|324:297,1,71.0000000000001,10|2,2:0|2:0,0:0:0:0:
197,381,162111,6,0,P|134:339|47:341,1,142,4|10,1:2|2:0,0:0:0:0:
4,291,162511,1,2,2:0:0:0:
58,234,162644,2,0,P|121:192|208:194,1,142,2|10,1:2|2:0,0:0:0:0:
260,211,163044,1,2,2:0:0:0:
327,158,163178,5,4,1:0:0:0:
423,281,163444,1,0,1:0:0:0:
419,125,163711,1,0,1:0:0:0:
330,255,163978,1,0,1:0:0:0:
330,255,164111,1,2,2:0:0:0:
275,320,164244,6,0,B|210:312|210:312|202:307|202:307|130:300,1,142,4|10,1:0|2:0,0:0:0:0:
60,325,164644,1,2,2:0:0:0:
78,248,164778,2,0,B|72:217|72:217|67:209|67:209|58:175,2,71.0000000000001,2|0|10,1:2|1:0|2:0,0:0:0:0:
144,91,165311,5,4,1:0:0:0:
284,21,165578,1,10,2:0:0:0:
393,132,165844,1,10,2:0:0:0:
320,270,166111,1,10,2:0:0:0:
429,381,166378,6,0,B|454:365|483:362|483:362|516:323|499:268,2,142,14|8|10,2:0|2:0|2:0,0:0:0:0:
354,379,167044,1,2,1:2:0:0:
354,379,167178,2,0,P|318:352|285:350,1,71.0000000000001,10|2,2:0|1:2,0:0:0:0:
261,327,167378,1,0,0:0:0:0:
261,327,167444,6,0,P|200:367|115:375,1,142,4|10,1:0|2:0,0:0:0:0:
101,310,167844,1,2,2:0:0:0:
101,310,167978,2,0,P|135:286|152:247,1,71.0000000000001,2|2,1:2|1:2,0:0:0:0:
219,224,168244,1,10,2:0:0:0:
219,224,168378,1,2,2:0:0:0:
221,139,168511,6,0,B|214:114|214:114|206:104|206:104|196:70,1,71.0000000000001,0|2,1:0|2:0,0:0:0:0:
156,176,168778,2,0,B|149:151|149:151|141:141|141:141|131:107,1,71.0000000000001,10|2,2:0|2:0,0:0:0:0:
91,213,169044,2,0,B|84:188|84:188|76:178|76:178|66:144,1,71.0000000000001,2|2,1:2|1:2,0:0:0:0:
26,250,169311,2,0,B|19:225|19:225|11:215|11:215|1:181,1,71.0000000000001,10|2,2:0|2:0,0:0:0:0:
92,291,169578,6,0,B|121:316|121:316|240:286,1,142,2|10,1:2|2:0,0:0:0:0:
336,184,170111,2,0,B|372:178|372:178|406:201,1,71.0000000000001,2|2,1:2|1:2,0:0:0:0:
385,274,170378,2,0,B|349:280|349:280|315:257,1,71.0000000000001,10|2,2:0|2:0,0:0:0:0:
255,206,170644,6,0,B|198:167|198:167|126:179,2,142,2|10|2,1:2|2:0|1:2,0:0:0:0:
327,174,171311,1,2,1:2:0:0:
274,116,171444,2,0,B|270:86|270:86|274:72|274:72|271:37,1,71.0000000000001,10|2,2:0|2:0,0:0:0:0:
199,0,171711,5,4,1:0:0:0:
355,67,171978,2,0,B|381:64|381:64|395:68|395:68|425:64,1,71.0000000000001,10|2,2:0|1:2,0:0:0:0:
461,95,172178,1,0,1:2:0:0:
461,95,172244,2,0,B|463:121|463:121|459:135|459:135|463:165,1,71.0000000000001,10|2,2:0|1:2,0:0:0:0:
504,240,172511,2,0,B|501:266|501:266|505:280|505:280|501:310,1,71.0000000000001,10|2,2:0|1:2,0:0:0:0:
426,350,172778,6,0,P|400:289|359:281,1,106.5,12|0,2:0|0:0,0:0:0:0:
351,239,173044,2,0,P|285:231|257:262,1,106.5,10|0,2:0|0:0,0:0:0:0:
217,248,173311,2,0,P|177:301|190:340,1,106.5,10|0,2:0|0:0,0:0:0:0:
167,373,173578,2,0,P|127:336|95:336,1,71.0000000000001,10|2,2:0|1:2,0:0:0:0:
93,251,173844,6,0,P|42:258|3:334,2,142,4|10|2,1:0|2:0|1:2,0:0:0:0:
143,191,174511,1,2,1:2:0:0:
143,191,174644,2,0,P|159:151|146:128,1,71.0000000000001,10|2,2:0|2:0,0:0:0:0:
66,99,174911,6,0,B|133:87|133:87|143:89|143:89|210:79,1,142,2|10,1:2|2:0,0:0:0:0:
262,25,175311,2,0,B|295:12|295:12|360:42|360:42|365:78,1,142,2|2,2:0|1:2,0:0:0:0:
306,129,175711,1,10,2:0:0:0:
306,129,175844,1,2,2:0:0:0:
346,196,175978,6,0,B|401:184|401:184|435:205|435:205|490:195,1,142,2|10,1:2|2:0,0:0:0:0:
502,271,176378,1,2,2:0:0:0:
449,328,176511,1,2,1:2:0:0:
449,328,176644,2,0,B|418:320|418:320|405:310|405:310|364:299,1,71.0000000000001,2|10,1:2|2:0,0:0:0:0:
312,337,176911,1,2,2:0:0:0:
240,291,177044,6,0,P|215:231|264:178,2,142,2|8|2,1:2|2:0|1:2,0:0:0:0:
314,260,177711,1,2,1:2:0:0:
314,260,177844,2,0,P|335:230|378:223,1,71.0000000000001,10|2,2:0|2:0,0:0:0:0:
427,160,178111,5,2,1:2:0:0:
339,30,178378,2,0,B|310:26|310:26|296:33|296:33|264:28,1,71.0000000000001,10|2,2:0|1:2,0:0:0:0:
203,68,178644,2,0,B|174:64|174:64|160:71|160:71|128:66,1,71.0000000000001,10|2,2:0|1:2,0:0:0:0:
69,110,178911,2,0,B|40:106|40:106|26:113|26:113|-6:108,1,71.0000000000001,10|2,2:0|1:2,0:0:0:0:
141,148,179178,5,12,2:0:0:0:
12,236,179444,2,0,B|67:227|67:227|104:241|104:241|171:229,1,142,10|10,2:0|2:0,0:0:0:0:
224,269,179844,1,2,1:2:0:0:
224,269,179978,2,0,B|253:265|253:265|267:272|267:272|299:267,1,71.0000000000001,10|2,2:0|1:2,0:0:0:0:
362,218,180244,5,12,2:0:0:0:
455,343,180511,2,0,B|400:334|400:334|363:348|363:348|296:336,1,142,10|10,2:0|2:0,0:0:0:0:
243,376,180911,1,2,1:2:0:0:
243,376,181044,2,0,B|214:372|214:372|200:379|200:379|168:374,1,71.0000000000001,10|2,2:0|1:2,0:0:0:0:
105,325,181311,5,12,2:0:0:0:
173,184,181578,2,0,P|150:148|162:105,1,71.0000000000001,10|2,2:0|1:2,0:0:0:0:
203,62,181844,2,0,P|245:60|276:91,1,71.0000000000001,10|2,2:0|1:2,0:0:0:0:
293,148,182111,2,0,P|273:185|230:197,1,71.0000000000001,10|2,2:0|1:2,0:0:0:0:
212,214,182311,1,0,1:2:0:0:
212,214,182378,6,0,P|167:171|66:158,2,142,4|10|2,1:0|2:0|1:2,0:0:0:0:
266,276,183044,1,2,1:2:0:0:
266,276,183178,2,0,P|307:263|337:239,1,71.0000000000001,10|2,2:0|2:0,0:0:0:0:
410,285,183444,5,4,1:0:0:0:
410,285,183578,1,2,1:2:0:0:
474,241,183711,2,0,P|474:208|444:152,1,71,10|2,2:0|2:2,0:0:0:0:
420,111,183978,1,2,1:2:0:0:
420,111,184111,1,2,1:2:0:0:
342,117,184244,2,0,P|300:116|292:83,1,71.0000000000001,10|2,2:0|2:0,0:0:0:0:
227,35,184511,6,0,B|160:18|162:79|82:55,1,142,4|10,1:0|2:0,0:0:0:0:
22,95,184911,1,2,2:0:0:0:
84,141,185044,2,0,B|104:174|104:174|104:219,1,71.0000000000001,2|2,1:2|1:2,0:0:0:0:
57,268,185311,2,0,B|57:300|57:300|77:333,1,71.0000000000001,10|2,2:0|2:0,0:0:0:0:
155,367,185578,6,0,B|224:358|224:358|229:353|229:353|305:343,1,142,4|10,1:0|2:0,0:0:0:0:
365,375,185978,1,2,2:0:0:0:
416,316,186111,2,0,P|416:255|386:237,1,71.0000000000001,2|2,1:2|1:2,0:0:0:0:
340,219,186378,1,10,2:0:0:0:
202,119,186644,6,0,P|277:136|360:145,1,142,4|10,1:0|2:0,0:0:0:0:
400,92,187044,1,2,1:2:0:0:
400,92,187178,2,0,B|409:73|420:59|420:59|398:68|376:67,1,71.0000000000001,10|2,2:0|1:2,0:0:0:0:
326,20,187444,2,0,P|290:34|251:42,1,71.0000000000001,10|2,2:0|1:2,0:0:0:0:
177,69,187711,5,4,1:0:0:0:
74,187,187978,2,0,P|102:155|135:147,1,71.0000000000001,10|0,2:0|1:0,0:0:0:0:
77,266,188244,2,0,P|35:257|11:233,1,71.0000000000001,10|0,2:0|1:0,0:0:0:0:
146,227,188511,1,10,2:0:0:0:
146,227,188644,1,0,1:0:0:0:
156,311,188778,6,0,P|223:276|294:267,1,142,4|10,1:0|2:0,0:0:0:0:
356,232,189178,1,2,1:2:0:0:
415,282,189311,2,0,P|452:305|489:301,1,71.0000000000001,10|0,2:0|1:0,0:0:0:0:
504,230,189578,2,0,P|467:207|430:211,1,71.0000000000001,10|0,2:0|1:0,0:0:0:0:
417,177,189778,1,0,1:2:0:0:
417,177,189844,6,0,B|405:129|390:81|390:81|408:94|435:106,1,142,4|10,1:0|2:0,0:0:0:0:
445,25,190244,1,2,1:2:0:0:
370,0,190378,2,0,P|335:16|306:64,1,71.0000000000001,10|2,2:0|1:2,0:0:0:0:
252,87,190644,2,0,P|262:126|269:162,1,71.0000000000001,10|2,2:0|1:2,0:0:0:0:
208,217,190911,6,0,B|181:200|151:205|151:205|134:189|134:189|105:194|74:178,1,142,4|8,1:0|2:0,0:0:0:0:
28,117,191311,1,0,0:0:0:0:
88,68,191444,2,0,P|108:30|147:23,1,71.0000000000001,0|0,1:0|1:0,0:0:0:0:
202,57,191711,2,0,B|235:62|235:62|244:67|244:67|270:72,1,71.0000000000001,8|2,2:0|1:2,0:0:0:0:
333,130,191978,6,0,P|371:78|463:84,1,142,2|10,1:2|2:0,0:0:0:0:
495,132,192378,1,2,1:2:0:0:
435,181,192511,2,0,B|414:219|414:219|435:278|435:278|415:317,1,142,0|10,1:0|2:0,0:0:0:0:
377,384,192911,1,2,2:0:0:0:
377,384,193044,5,4,1:0:0:0:
255,285,193311,2,0,P|246:243|239:196,1,71.0000000000001,10|2,2:0|1:2,0:0:0:0:
163,212,193578,2,0,P|172:170|179:123,1,71.0000000000001,2|2,1:2|1:2,0:0:0:0:
91,249,193844,2,0,P|82:207|75:160,1,71.0000000000001,10|2,2:0|1:2,0:0:0:0:
24,291,194111,6,0,P|64:325|151:302,1,142,2|10,1:2|2:0,0:0:0:0:
212,349,194511,1,2,2:0:0:0:
255,285,194644,2,0,P|246:243|239:196,1,71.0000000000001,2|0,1:2|0:0,0:0:0:0:
288,153,194911,1,8,2:0:0:0:
288,153,195044,1,0,0:0:0:0:
356,204,195178,6,0,P|414:207|463:128,1,142,4|10,1:0|2:0,0:0:0:0:
492,73,195578,1,2,1:2:0:0:
424,33,195711,2,0,B|390:40|390:40|386:45|386:45|356:52,1,71.0000000000001,2|2,1:2|1:2,0:0:0:0:
282,75,195978,2,0,B|245:69|245:69|224:37,1,71.0000000000001,10|2,2:0|1:2,0:0:0:0:
144,20,196244,6,0,B|74:13|74:13|24:78,1,142,6|8,1:2|2:0,0:0:0:0:
76,133,196644,1,2,2:0:0:0:
22,190,196778,2,0,P|88:161|144:214,1,142,2|8,1:2|2:0,0:0:0:0:
215,215,197178,1,0,0:0:0:0:
202,299,197311,6,0,P|165:293|119:287,1,71.0000000000001,14|2,2:0|1:2,0:0:0:0:
269,348,197578,2,0,P|306:342|352:336,1,71.0000000000001,10|2,2:0|1:2,0:0:0:0:
409,288,197844,1,10,2:0:0:0:
409,288,197978,1,2,1:2:0:0:
489,327,198111,1,10,2:0:0:0:
489,327,198244,1,2,1:2:0:0:
512,243,198378,2,0,L|501:206,3,35.5,0|0|0|0,1:2|1:2|1:2|1:2,0:0:0:0:
468,189,198644,2,0,L|457:152,3,35.5,0|0|0|0,1:2|1:2|1:2|1:2,0:0:0:0:
429,127,198911,5,4,1:2:0:0:
256,192,199044,12,2,203444,0:0:0:0:
