osu file format v14

[General]
AudioFilename: audio.mp3
AudioLeadIn: 0
PreviewTime: 444
Countdown: 0
SampleSet: Soft
StackLeniency: 0.4
Mode: 0
LetterboxInBreaks: 0
WidescreenStoryboard: 1

[Editor]
Bookmarks: 1044,24511,50111,67178,88511,113044,132244,154644,173844,203444
DistanceSpacing: 1
BeatDivisor: 4
GridSize: 32
TimelineZoom: 1.7

[Metadata]
Title:Under Kids
TitleUnicode:アンダーキッズ
Artist:TUYU
ArtistUnicode:ツユ
Creator:Len
Version:Nodoro & Erisu's Normal
Source:
Tags:underkids japanese jpop j-pop pop jrock j-rock rock 礼衣 ぷす ミロ 双葉陽 rei pusu miro futaba haru azyun vocals female fast l1ght_u light_u -hitomi nodoro erisu lanzhu pnky share ayesha altugle shizuku- shikibe mayu kazato asa torriru
BeatmapID:3730712
BeatmapSetID:1815821

[Difficulty]
HPDrainRate:3
CircleSize:3
OverallDifficulty:4.5
ApproachRate:5.5
SliderMultiplier:0.92
SliderTickRate:0.5

[Events]
//Background and Video events
0,0,"uruse.jpg",0,0
Video,-100,"tuyu.mp4"
//Break Periods
2,18311,20719
2,88511,91119
//Storyboard Layer 0 (Background)
//Storyboard Layer 1 (Fail)
//Storyboard Layer 2 (Pass)
//Storyboard Layer 3 (Foreground)
//Storyboard Layer 4 (Overlay)
//Storyboard Sound Samples

[TimingPoints]
-22,266.666666666667,4,2,1,60,1,0
511,-100,4,2,1,60,0,0
1044,-100,4,2,1,80,0,0
9578,-100,4,2,1,65,0,0
13844,-100,4,2,1,80,0,0
18111,-100,4,2,1,60,0,0
21844,-100,4,2,1,70,0,0
24511,-100,4,2,1,50,0,0
37311,-100,4,2,1,70,0,0
45844,-100,4,2,1,75,0,0
58644,-100,4,2,1,65,0,0
67178,-90.9090909090909,4,2,1,80,0,1
85444,-90.9090909090909,4,2,1,80,0,0
86378,-125,4,2,1,75,0,1
87444,-125,4,2,1,75,0,0
88511,-125,4,2,1,60,0,0
92244,-100,4,2,1,60,0,0
92644,-100,4,2,1,70,0,0
95978,-100,4,2,1,70,0,0
108778,-100,4,2,1,75,0,0
112244,-100,4,2,1,65,0,0
112511,-100,4,2,1,65,0,0
113044,-90.9090909090909,4,2,1,80,0,1
131311,-90.9090909090909,4,2,1,80,0,0
132244,-100,4,2,1,80,0,0
137044,-100,4,2,1,75,0,0
137578,-100,4,2,1,75,0,0
154644,-90.9090909090909,4,2,1,80,0,1
173778,-90.9090909090909,4,2,1,80,0,0
201578,-90.9090909090909,4,2,1,50,0,0

[Colours]
Combo1 : 166,206,255
Combo2 : 180,180,218

[HitObjects]
189,13,511,5,2,2:0:0:0:
25,97,1044,6,0,B|33:142,1,46,4|2,1:0|2:0,0:0:0:0:
61,178,1311,2,0,B|56:228|26:275|26:275|46:327|46:327|40:384,1,184,8|8,2:0|2:0,0:0:0:0:
133,330,2111,2,0,B|186:328|180:354|248:345,1,92,2|8,1:2|2:0,0:0:0:0:
310,319,2644,2,0,L|368:333,2,46,0|0|8,1:2|1:2|2:0,0:0:0:0:
265,237,3178,6,0,P|272:178|292:26,2,184,2|2|4,1:2|1:2|1:0,0:0:0:0:
175,260,4511,1,8,2:0:0:0:
101,209,4778,2,0,P|37:223|37:223,2,46,2|0|8,2:0|1:2|2:0,0:0:0:0:
128,121,5311,5,4,1:0:0:0:
208,76,5578,2,0,P|259:73|310:100,1,92,10|0,2:0|1:2,0:0:0:0:
374,137,6111,1,10,0:0:0:0:
342,223,6378,2,0,L|352:291,2,46,2|2|10,1:2|2:0|2:0,0:0:0:0:
252,202,6911,2,0,L|240:131,2,46,2|2|10,1:2|1:2|2:0,0:0:0:0:
259,247,7311,1,2,2:0:0:0:
172,279,7578,6,0,P|110:277|50:356,2,138,2|2|4,2:0|1:2|1:2,0:0:0:0:
199,316,8511,2,0,P|257:322|321:331,1,92,0|8,1:0|2:0,0:0:0:0:
372,368,9044,1,0,1:0:0:0:
458,334,9311,1,8,2:0:0:0:
455,243,9578,6,0,P|462:148|473:55,2,184,4|10|2,1:0|1:2|1:2,0:0:0:0:
365,263,10911,1,2,2:0:0:0:
322,181,11178,2,0,P|263:139|186:179,1,138,8|0,1:2|0:0,0:0:0:0:
158,154,11711,5,2,1:2:0:0:
68,176,11978,1,2,2:0:0:0:
37,262,12244,2,0,P|57:305|190:281,1,184,8|2,1:2|1:2,0:0:0:0:
250,245,13044,1,8,2:0:0:0:
302,169,13311,2,0,L|290:94,2,46,0|0|8,1:0|1:0|2:0,0:0:0:0:
393,175,13844,6,0,P|438:234|381:350,1,184,4|2,1:0|1:2,0:0:0:0:
331,382,14644,1,10,2:0:0:0:
253,331,14911,2,0,B|233:332|214:328|214:328|178:353|178:353|127:346|64:344,1,184,2|2,1:2|1:2,0:0:0:0:
30,271,15711,1,10,2:0:0:0:
30,271,15844,6,0,L|47:162,1,92,2|2,2:0|2:0,0:0:0:0:
46,133,16244,2,0,P|13:120|-28:119,2,46,10|8|0,2:0|2:0|1:0,0:0:0:0:
118,74,16778,1,8,2:0:0:0:
209,71,17044,2,0,P|310:128|296:216,1,184,4|0,1:0|1:0,0:0:0:0:
300,227,17711,1,8,2:0:0:0:
203,325,18111,5,6,2:0:0:0:
376,338,21844,6,0,P|399:344|437:353,1,46,0|10,1:0|2:0,0:0:0:0:
462,267,22244,6,0,P|466:216|436:145,1,92,4|2,1:0|1:2,0:0:0:0:
423,144,22644,1,10,2:0:0:0:
362,74,22911,2,0,L|229:94,1,92,2|10,1:2|2:0,0:0:0:0:
192,135,23444,2,0,L|76:115,2,92,2|10|14,1:2|2:0|2:0,0:0:0:0:
217,173,24111,1,10,2:0:0:0:
298,61,24511,6,0,P|404:61|446:124,2,184,4|2|2,1:0|1:2|1:2,0:0:0:0:
351,135,25844,1,2,2:0:0:0:
297,210,26111,2,0,L|241:216,2,46,2|0|2,1:2|0:0|2:0,0:0:0:0:
357,279,26644,6,0,B|450:263|420:193|515:181,2,184,2|2|2,1:2|1:2|1:2,0:0:0:0:
292,344,27978,1,2,2:0:0:0:
220,296,28244,1,2,1:2:0:0:
220,296,28378,1,0,1:0:0:0:
86,331,28778,6,0,B|73:145,2,184,2|2|2,1:2|1:2|1:2,0:0:0:0:
162,383,30111,1,2,2:0:0:0:
236,328,30378,2,0,L|292:334,2,46,2|0|2,1:2|0:0|2:0,0:0:0:0:
192,246,30911,6,0,B|198:172|198:172|225:141|225:141|233:61,2,184,2|2|2,1:2|1:2|1:2,0:0:0:0:
111,290,32244,1,2,2:0:0:0:
45,233,32511,1,2,1:2:0:0:
45,233,32644,1,0,1:0:0:0:
127,123,33044,6,0,P|62:104|24:0,2,184,2|2|2,1:2|1:2|1:2,0:0:0:0:
202,70,34378,1,2,2:0:0:0:
272,129,34644,2,0,L|265:198,2,46,2|2|2,1:2|2:0|2:0,0:0:0:0:
329,56,35178,6,0,P|419:42|517:39,2,184,2|2|2,1:2|1:2|1:2,0:0:0:0:
260,117,36511,1,2,2:0:0:0:
310,200,36778,1,2,1:2:0:0:
310,200,36911,1,0,1:0:0:0:
221,306,37311,6,0,P|164:299|117:297,1,92,4|8,1:0|2:0,0:0:0:0:
61,234,37844,2,0,P|86:185|137:176,1,92,0|10,1:0|2:0,0:0:0:0:
207,201,38378,1,0,1:0:0:0:
261,127,38644,1,8,2:0:0:0:
344,166,38911,2,0,P|403:167|453:172,1,92,0|10,1:0|2:0,0:0:0:0:
504,108,39444,2,0,P|485:50|446:33,1,92,0|8,1:0|2:0,0:0:0:0:
372,63,39978,6,0,B|321:56|323:79|279:75,1,92,0|10,1:0|2:0,0:0:0:0:
219,143,40511,1,0,1:0:0:0:
150,81,40778,2,0,L|144:27,2,46,8|8|0,2:0|2:0|1:0,0:0:0:0:
92,152,41311,1,10,2:0:0:0:
136,232,41578,6,0,P|106:265|109:310,1,92,4|8,1:0|2:0,0:0:0:0:
190,353,42111,2,0,P|235:344|281:340,1,92,8|8,2:0|2:0,0:0:0:0:
351,281,42644,2,0,P|396:284|442:290,2,92,2|8|8,1:2|2:0|2:0,0:0:0:0:
291,213,43444,1,8,2:0:0:0:
351,143,43711,6,0,L|397:141,2,46,2|2|8,1:2|2:0|2:0,0:0:0:0:
289,74,44244,1,8,2:0:0:0:
200,100,44511,1,8,2:0:0:0:
207,191,44778,2,0,P|202:231|199:283,1,92,2|8,1:2|2:0,0:0:0:0:
118,326,45311,2,0,P|113:285|110:234,1,92,8|8,2:0|2:0,0:0:0:0:
45,168,45844,6,0,B|48:127|48:127|59:114|59:114|62:80,1,92,4|8,1:0|2:0,0:0:0:0:
141,32,46378,1,0,1:0:0:0:
212,89,46644,1,8,2:0:0:0:
196,179,46911,2,0,P|241:178|287:181,1,92,2|8,1:2|2:0,0:0:0:0:
352,247,47444,2,0,P|385:215|430:214,1,92,0|8,1:0|2:0,0:0:0:0:
502,272,47978,6,0,L|510:364,2,92,4|8|8,1:0|2:0|2:0,0:0:0:0:
511,180,48778,1,8,2:0:0:0:
437,124,49044,2,0,P|397:104|353:113,1,92,12|12,1:2|1:2,0:0:0:0:
287,179,49578,1,12,1:2:0:0:
400,327,50111,6,0,P|403:296|415:252,1,46,4|0,1:0|0:0,0:0:0:0:
446,259,50378,2,0,P|444:212|424:60,1,184,8|8,2:0|2:0,0:0:0:0:
340,45,51178,2,0,P|297:48|250:61,1,92,2|8,1:2|2:0,0:0:0:0:
159,79,51711,2,0,L|146:28,2,46,0|0|8,1:0|1:0|2:0,0:0:0:0:
111,158,52244,6,0,P|97:216|88:359,2,184,2|2|2,1:2|1:2|1:2,0:0:0:0:
202,171,53578,1,8,2:0:0:0:
242,253,53844,2,0,P|235:285|230:327,2,46,2|0|8,2:0|1:0|2:0,0:0:0:0:
317,200,54378,5,4,1:0:0:0:
393,148,54644,2,0,P|410:163|423:235,1,92,10|0,2:0|1:2,0:0:0:0:
417,319,55178,1,10,0:0:0:0:
327,339,55444,2,0,L|337:407,2,46,2|2|10,1:2|2:0|2:0,0:0:0:0:
282,258,55978,2,0,L|270:187,2,46,2|2|10,1:2|1:2|2:0,0:0:0:0:
251,292,56378,1,2,2:0:0:0:
163,262,56644,6,0,P|101:271|57:360,2,138,2|2|10,2:0|1:2|1:2,0:0:0:0:
182,220,57578,2,0,P|177:172|164:91,1,92,2|10,1:2|2:0,0:0:0:0:
172,36,58111,1,2,1:2:0:0:
257,1,58378,1,10,2:0:0:0:
322,66,58644,6,0,B|431:59|408:112|500:98,2,184,4|8|0,1:0|1:2|1:2,0:0:0:0:
267,140,59978,1,2,2:0:0:0:
342,192,60244,2,0,P|333:235|325:346,1,138,8|0,1:2|0:0,0:0:0:0:
279,334,60778,5,0,1:2:0:0:
197,291,61044,1,2,2:0:0:0:
119,340,61311,2,0,P|76:320|100:187,1,184,8|0,1:2|1:2,0:0:0:0:
99,110,62111,1,10,2:0:0:0:
187,83,62378,2,0,L|175:8,2,46,0|0|8,1:0|1:0|2:0,0:0:0:0:
250,149,62911,6,0,B|321:141|360:182|360:182|406:167|451:174,1,184,4|2,1:0|1:2,0:0:0:0:
472,93,63711,1,10,2:0:0:0:
396,39,63978,2,0,B|376:40|318:26|318:26|268:47|206:49,1,184,2|2,1:2|1:2,0:0:0:0:
128,21,64778,1,10,2:0:0:0:
128,21,64911,6,0,P|101:49|99:126,1,92,10|2,2:0|2:0,0:0:0:0:
74,143,65311,2,0,P|36:147|0:157,2,46,8|2|0,2:0|2:0|1:0,0:0:0:0:
135,212,65844,1,8,2:0:0:0:
74,280,66111,6,0,B|179:288|146:337|247:332,1,184,4|2,1:0|1:2,0:0:0:0:
414,219,67178,6,0,L|477:228,2,50.6,4|2|10,1:0|1:2|2:0,0:0:0:0:
364,206,67578,1,2,2:0:0:0:
295,131,67844,1,2,1:2:0:0:
206,180,68111,2,0,P|221:241|235:328,1,151.8,2|10,2:0|2:0,0:0:0:0:
143,371,68778,1,2,1:2:0:0:
58,315,69044,1,10,2:0:0:0:
95,220,69311,6,0,L|108:108,1,101.2,2|10,1:2|2:0,0:0:0:0:
180,50,69844,1,2,1:2:0:0:
264,105,70111,1,10,2:0:0:0:
329,28,70378,2,0,L|441:51,1,101.2,4|10,1:0|2:0,0:0:0:0:
477,60,70778,1,2,1:2:0:0:
453,161,71044,5,0,1:0:0:0:
453,161,71178,2,0,B|450:220|412:208|413:264,1,101.2,8|4,2:0|1:0,0:0:0:0:
478,329,71711,1,8,2:0:0:0:
390,380,71978,2,0,P|335:360|274:353,1,101.2,0|8,1:0|2:0,0:0:0:0:
221,281,72511,2,0,P|188:284|166:290,2,50.6,2|2|10,1:2|2:0|2:0,0:0:0:0:
259,247,72911,2,0,P|293:199|251:125,1,151.8,2|10,1:2|2:0,0:0:0:0:
209,99,73444,6,0,L|92:108,1,101.2,2|2,2:0|2:0,0:0:0:0:
57,110,73844,1,10,2:0:0:0:
84,207,74111,1,2,2:0:0:0:
1,266,74378,1,10,2:0:0:0:
67,341,74644,2,0,P|115:365|165:351,1,101.2,4|10,1:2|2:0,0:0:0:0:
205,265,75178,2,0,P|250:235|263:185,1,101.2,2|10,1:2|2:0,0:0:0:0:
289,94,75711,6,0,B|230:94|230:94|202:112|202:112|138:107,1,151.8,4|2,1:0|2:0,0:0:0:0:
49,147,76378,1,2,2:0:0:0:
56,251,76644,1,2,2:0:0:0:
56,251,76778,2,0,L|172:245,1,101.2,4|10,1:0|2:0,0:0:0:0:
224,321,77311,1,2,1:2:0:0:
321,291,77578,1,10,2:0:0:0:
287,195,77844,6,0,B|280:120|334:134|330:52,1,151.8,4|2,1:0|2:0,0:0:0:0:
243,1,78511,1,2,2:0:0:0:
187,86,78778,1,2,2:0:0:0:
187,86,78911,2,0,P|128:79|75:80,1,101.2,14|8,2:0|2:0,0:0:0:0:
49,173,79444,2,0,P|21:172|-6:176,2,50.6,10|2|10,2:0|1:2|2:0,0:0:0:0:
118,247,79978,6,0,P|160:211|220:218,1,101.2,4|10,1:0|2:0,0:0:0:0:
278,288,80511,1,2,1:2:0:0:
278,288,80644,2,0,L|433:302,1,151.8,2|0,1:2|1:0,0:0:0:0:
505,235,81311,2,0,P|488:184|396:174,1,151.8,10|2,2:0|1:2,0:0:0:0:
357,199,81844,2,0,L|340:99,1,101.2,10|2,2:0|1:2,0:0:0:0:
314,0,82378,5,10,2:0:0:0:
231,55,82644,1,2,1:2:0:0:
231,55,82778,2,0,L|81:37,1,151.8,2|2,1:2|1:2,0:0:0:0:
0,98,83444,1,10,2:0:0:0:
42,189,83711,1,2,1:2:0:0:
142,176,83978,2,0,L|199:185,1,50.6,10|2,2:0|2:0,0:0:0:0:
229,217,84244,6,0,P|324:198|436:182,1,202.4,4|10,1:0|2:0,0:0:0:0:
510,243,85044,2,0,P|478:291|430:300,1,101.2,10|12,2:0|2:0,0:0:0:0:
390,284,85444,1,0,1:0:0:0:
390,284,86378,6,0,B|288:308|253:250|262:241|208:183|120:218,1,294.4,4|10,1:0|2:0,0:0:0:0:
358,27,92244,6,0,P|381:33|419:42,1,46,0|8,1:0|2:0,0:0:0:0:
470,100,92644,6,0,P|455:141|444:222,1,92,4|2,1:0|1:2,0:0:0:0:
435,233,93044,1,10,2:0:0:0:
376,303,93311,2,0,P|325:313|267:267,1,92,2|10,1:2|2:0,0:0:0:0:
217,240,93844,2,0,L|225:117,2,92,2|10|10,1:2|2:0|2:0,0:0:0:0:
183,271,94511,5,4,1:0:0:0:
270,63,95444,5,2,2:1:0:0:
270,63,95578,2,0,L|145:42,1,92,2|0,2:1|0:0,0:0:0:0:
134,35,95978,6,0,P|95:54|96:211,1,184,4|2,1:0|1:2,0:0:0:0:
52,271,96778,1,10,2:0:0:0:
116,335,97044,2,0,P|162:325|219:317,1,92,2|10,1:2|2:0,0:0:0:0:
283,273,97578,2,0,L|344:286,2,46,2|2|10,1:2|1:2|2:0,0:0:0:0:
228,198,98111,6,0,P|221:145|208:75,1,92,4|2,1:0|1:2,0:0:0:0:
268,32,98644,1,2,1:2:0:0:
360,27,98911,1,2,1:2:0:0:
422,94,99178,2,0,L|493:82,2,46,2|2|8,1:2|2:0|2:0,0:0:0:0:
391,129,99578,1,2,2:0:0:0:
428,212,99844,2,0,P|454:214|489:222,2,46,2|10|2,1:2|2:0|1:2,0:0:0:0:
402,250,100244,6,0,B|306:239|314:295|225:284,1,184,4|2,1:0|1:2,0:0:0:0:
140,320,101044,1,10,2:0:0:0:
67,263,101311,2,0,P|48:210|68:146,1,92,2|10,1:2|2:0,0:0:0:0:
119,111,101844,2,0,L|104:30,2,46,2|2|10,1:2|1:2|2:0,0:0:0:0:
204,147,102378,6,0,B|169:270|235:231|213:345,1,184,2|2,1:2|1:2,0:0:0:0:
307,340,103178,1,10,2:0:0:0:
390,301,103444,2,0,B|410:254|410:254|398:179,1,92,4|10,1:0|2:0,0:0:0:0:
339,147,103978,2,0,B|319:100|319:100|331:25,1,92,2|10,1:2|2:0,0:0:0:0:
318,18,104378,1,2,1:2:0:0:
318,18,104511,6,0,P|266:8|177:123,2,184,6|10|2,1:2|1:2|1:2,0:0:0:0:
409,29,105844,1,2,2:0:0:0:
469,98,106111,2,0,B|460:165|450:211,1,92,10|2,1:2|2:0,0:0:0:0:
496,271,106644,6,0,B|471:306|433:314|433:314|380:281|324:311,1,184,2|10,1:2|1:2,0:0:0:0:
254,258,107444,1,2,2:0:0:0:
211,339,107711,2,0,P|165:327|97:325,1,92,2|8,1:2|2:0,0:0:0:0:
75,243,108244,2,0,L|9:257,2,46,2|2|12,1:2|1:2|2:0,0:0:0:0:
164,218,108778,6,0,B|145:124|210:145|167:30,1,184,6|2,1:2|1:2,0:0:0:0:
262,45,109578,1,10,2:0:0:0:
312,121,109844,2,0,L|303:174,2,46,2|2|10,1:2|1:2|2:0,0:0:0:0:
402,99,110378,2,0,P|396:74|391:40,2,46,2|2|10,1:2|1:2|2:0,0:0:0:0:
437,140,110778,1,10,2:0:0:0:
437,140,110911,6,0,P|446:179|454:254,1,92,6|8,1:2|2:0,0:0:0:0:
454,280,111311,1,8,2:0:0:0:
454,280,111444,1,0,1:0:0:0:
409,360,111711,1,8,2:0:0:0:
318,374,111978,1,4,1:0:0:0:
256,200,112511,1,2,1:2:0:0:
423,78,113044,6,0,L|430:18,2,50.6,4|2|10,1:0|1:2|2:0,0:0:0:0:
430,128,113444,1,2,2:0:0:0:
342,178,113711,1,2,1:2:0:0:
266,110,113978,2,0,P|203:114|113:129,1,151.8,2|10,2:0|2:0,0:0:0:0:
43,199,114644,1,2,1:2:0:0:
84,290,114911,1,10,2:0:0:0:
183,268,115178,6,0,L|285:279,1,101.2,2|10,1:2|2:0,0:0:0:0:
353,352,115711,1,2,1:2:0:0:
451,330,115978,1,10,2:0:0:0:
464,229,116244,2,0,P|448:184|398:160,1,101.2,4|10,1:0|2:0,0:0:0:0:
352,159,116644,1,2,1:2:0:0:
294,82,116911,5,0,1:0:0:0:
294,82,117044,2,0,P|231:82|203:119,1,101.2,8|4,2:0|1:0,0:0:0:0:
139,184,117578,1,8,2:0:0:0:
47,140,117844,2,0,P|40:197|38:259,1,101.2,0|8,1:0|2:0,0:0:0:0:
102,319,118378,2,0,P|102:348|106:375,2,50.6,2|2|10,1:2|2:0|2:0,0:0:0:0:
133,279,118778,2,0,P|181:245|263:282,1,151.8,2|10,1:2|2:0,0:0:0:0:
288,319,119311,6,0,L|405:310,1,101.2,2|2,2:0|2:0,0:0:0:0:
439,306,119711,1,10,2:0:0:0:
508,231,119978,1,2,2:0:0:0:
462,140,120244,1,10,2:0:0:0:
361,152,120511,2,0,L|244:143,1,101.2,4|10,1:2|2:0,0:0:0:0:
194,67,121044,2,0,P|145:74|114:120,1,101.2,2|10,1:2|2:0,0:0:0:0:
37,178,121578,6,0,P|48:241|55:331,1,151.8,4|2,1:0|2:0,0:0:0:0:
142,381,122244,1,2,2:0:0:0:
221,317,122511,1,2,2:0:0:0:
221,317,122644,2,0,P|273:309|318:357,1,101.2,4|10,1:0|2:0,0:0:0:0:
394,281,123178,1,2,1:2:0:0:
364,184,123444,1,10,2:0:0:0:
419,99,123711,6,0,P|360:92|265:91,1,151.8,4|2,1:0|2:0,0:0:0:0:
181,143,124378,1,2,2:0:0:0:
236,234,124644,1,2,2:0:0:0:
236,234,124778,2,0,B|178:230|197:263|137:261,1,101.2,14|10,2:0|2:0,0:0:0:0:
75,184,125311,2,0,P|71:154|67:126,2,50.6,10|2|10,2:0|1:2|2:0,0:0:0:0:
13,264,125844,6,0,P|6:319|33:353,1,101.2,4|10,1:0|2:0,0:0:0:0:
134,384,126378,1,2,1:2:0:0:
134,384,126511,2,0,P|173:342|263:359,1,151.8,2|0,1:2|1:0,0:0:0:0:
350,309,127178,2,0,P|341:228|384:177,1,151.8,10|2,2:0|1:2,0:0:0:0:
427,151,127711,2,0,L|414:47,1,101.2,10|2,2:0|1:2,0:0:0:0:
319,15,128244,5,10,2:0:0:0:
241,77,128511,1,2,1:2:0:0:
241,77,128644,2,0,P|166:80|91:93,1,151.8,2|2,1:2|1:2,0:0:0:0:
155,171,129311,1,10,2:0:0:0:
93,251,129578,1,2,1:2:0:0:
159,327,129844,2,0,L|217:334,1,50.6,10|2,2:0|2:0,0:0:0:0:
249,363,130111,6,0,P|302:350|453:345,1,202.4,4|10,1:0|2:0,0:0:0:0:
510,264,130911,2,0,P|493:222|429:198,1,101.2,10|12,2:0|2:0,0:0:0:0:
399,206,131311,1,0,1:0:0:0:
74,279,132244,6,0,B|174:240|155:303|276:246,1,184,4|2,1:2|1:2,0:0:0:0:
341,284,133044,1,10,2:0:0:0:
399,212,133311,2,0,P|447:218|499:233,2,92,2|10|2,1:2|2:0|1:2,0:0:0:0:
328,152,134111,1,10,2:0:0:0:
302,57,134378,6,0,P|271:61|174:84,2,92,2|10|2,1:2|2:0|1:2,0:0:0:0:
392,40,135178,1,10,2:0:0:0:
428,124,135444,2,0,P|422:174|417:230,1,92,0|8,1:0|2:0,0:0:0:0:
337,260,135978,2,0,P|345:282|351:311,2,46,2|10|10,1:2|1:2|1:2,0:0:0:0:
245,246,136511,1,2,1:2:0:0:
282,65,137044,1,2,2:0:0:0:
104,113,137578,6,0,P|81:165|83:172,1,46,4|2,1:0|2:0,0:0:0:0:
108,186,137844,2,0,B|117:297|52:241|61:386,1,184,8|8,2:0|2:0,0:0:0:0:
150,339,138644,2,0,P|195:334|240:324,1,92,0|8,1:0|2:0,0:0:0:0:
333,323,139178,2,0,L|328:378,2,46,0|0|8,1:0|1:0|2:0,0:0:0:0:
365,236,139711,6,0,P|423:222|486:329,2,184,0|0|4,1:0|1:0|1:0,0:0:0:0:
298,172,141044,1,8,2:0:0:0:
253,252,141311,2,0,P|260:284|265:326,2,46,0|0|8,1:0|1:0|2:0,0:0:0:0:
165,224,141844,5,4,1:0:0:0:
112,148,142111,2,0,B|106:97|106:97|138:55,1,92,8|0,2:0|1:2,0:0:0:0:
216,31,142644,1,10,0:0:0:0:
306,47,142911,2,0,L|316:-21,2,46,2|2|8,1:2|2:0|2:0,0:0:0:0:
347,129,143444,2,0,L|359:200,2,46,2|0|8,2:0|1:0|2:0,0:0:0:0:
381,98,143844,1,2,2:0:0:0:
463,138,144111,6,0,L|489:-29,2,138,2|2|2,2:0|1:2|2:0,0:0:0:0:
485,178,145044,2,0,P|480:226|467:307,1,92,4|8,1:2|2:0,0:0:0:0:
419,344,145578,1,0,1:0:0:0:
342,292,145844,1,8,2:0:0:0:
262,339,146111,6,0,B|153:332|176:385|84:371,2,184,4|4|2,1:0|1:2|1:2,0:0:0:0:
342,291,147444,1,2,2:0:0:0:
294,212,147711,2,0,P|285:169|277:58,1,138,4|0,1:2|0:0,0:0:0:0:
245,41,148244,5,4,1:2:0:0:
155,20,148511,1,8,2:0:0:0:
98,92,148778,2,0,P|55:112|79:245,1,184,8|14,2:0|2:0,0:0:0:0:
126,292,149578,1,8,2:0:0:0:
199,236,149844,2,0,L|187:161,2,46,10|0|8,2:0|1:0|2:0,0:0:0:0:
236,320,150378,6,0,B|314:324|314:324|346:353|346:353|438:354,1,184,4|0,1:0|1:0,0:0:0:0:
495,323,151178,1,8,2:0:0:0:
447,244,151444,2,0,B|424:148|495:174|472:61,1,184,0|0,1:0|1:0,0:0:0:0:
403,17,152244,1,8,2:0:0:0:
403,17,152378,6,0,P|364:17|308:70,1,92,2|0,2:0|0:0,0:0:0:0:
286,76,152778,2,0,P|248:80|212:90,2,46,8|0|0,2:0|0:0|1:0,0:0:0:0:
341,149,153311,1,8,2:0:0:0:
408,211,153578,6,0,B|307:206|340:255|235:263,1,184,2|0,1:2|1:0,0:0:0:0:
35,231,154644,6,0,L|30:170,2,50.6,4|2|10,1:0|1:2|2:0,0:0:0:0:
14,277,155044,1,2,2:0:0:0:
90,342,155311,1,2,1:2:0:0:
178,293,155578,2,0,P|212:261|308:289,1,151.8,2|10,2:0|2:0,0:0:0:0:
391,231,156244,1,2,1:2:0:0:
365,132,156511,1,10,2:0:0:0:
430,55,156778,6,0,P|376:50|322:49,1,101.2,2|10,1:2|2:0,0:0:0:0:
240,0,157311,1,2,1:2:0:0:
165,68,157578,1,10,2:0:0:0:
217,153,157844,2,0,L|330:140,1,101.2,4|10,1:0|2:0,0:0:0:0:
369,137,158244,1,2,1:2:0:0:
447,209,158511,5,0,1:0:0:0:
447,209,158644,2,0,P|435:275|391:299,1,101.2,8|4,2:0|1:0,0:0:0:0:
310,290,159178,1,8,2:0:0:0:
265,380,159444,2,0,L|145:373,1,101.2,0|8,1:0|2:0,0:0:0:0:
82,314,159978,2,0,L|24:320,2,50.6,2|2|10,1:2|2:0|2:0,0:0:0:0:
121,282,160378,2,0,P|158:236|124:152,1,151.8,2|10,1:2|2:0,0:0:0:0:
85,129,160911,6,0,L|202:120,1,101.2,2|2,2:0|2:0,0:0:0:0:
236,117,161311,1,10,2:0:0:0:
333,143,161578,1,2,2:0:0:0:
389,59,161844,1,10,2:0:0:0:
482,95,162111,2,0,P|475:143|474:207,1,101.2,4|10,1:2|2:0,0:0:0:0:
511,290,162644,2,0,P|492:316|420:323,1,101.2,2|10,1:2|2:0,0:0:0:0:
354,255,163178,6,0,P|310:207|229:227,1,151.8,4|2,1:0|2:0,0:0:0:0:
137,259,163844,1,2,2:0:0:0:
148,364,164111,1,2,2:0:0:0:
148,364,164244,2,0,P|206:357|266:354,1,101.2,4|10,1:0|2:0,0:0:0:0:
345,382,164778,1,2,1:2:0:0:
406,301,165044,1,10,2:0:0:0:
352,214,165311,6,0,B|347:148|347:148|330:129|330:129|325:61,1,151.8,4|2,1:0|2:0,0:0:0:0:
248,2,165978,1,2,2:0:0:0:
205,95,166244,1,2,2:0:0:0:
205,95,166378,2,0,L|99:87,1,101.2,14|8,2:0|2:0,0:0:0:0:
49,173,166911,2,0,L|-15:178,2,50.6,10|2|10,2:0|1:2|2:0,0:0:0:0:
117,248,167444,6,0,B|179:252|158:216|223:218,1,101.2,4|10,1:0|2:0,0:0:0:0:
293,157,167978,1,2,1:2:0:0:
293,157,168111,2,0,P|335:189|306:277,1,151.8,2|0,1:2|1:0,0:0:0:0:
247,353,168778,2,0,P|194:346|94:344,1,151.8,10|2,2:0|1:2,0:0:0:0:
47,355,169311,2,0,P|20:296|36:258,1,101.2,10|2,2:0|1:2,0:0:0:0:
0,167,169844,5,10,2:0:0:0:
65,90,170111,1,2,1:2:0:0:
65,90,170244,2,0,P|141:77|220:72,1,151.8,2|2,1:2|1:2,0:0:0:0:
292,6,170911,1,10,2:0:0:0:
361,80,171178,1,2,1:2:0:0:
456,45,171444,2,0,L|465:102,1,50.6,10|2,2:0|2:0,0:0:0:0:
495,134,171711,6,0,L|486:244,1,101.2,4|10,1:0|2:0,0:0:0:0:
446,328,172244,2,0,P|416:295|344:302,1,101.2,10|10,2:0|2:0,0:0:0:0:
264,318,172778,1,12,2:0:0:0:
187,251,173044,1,10,2:0:0:0:
203,151,173311,1,10,2:0:0:0:
296,111,173578,1,10,2:0:0:0:
365,184,173844,6,0,P|427:167|410:34,1,202.4,4|2,1:0|1:2,0:0:0:0:
333,15,174644,1,10,2:0:0:0:
296,111,174911,2,0,L|195:101,1,101.2,2|10,1:2|2:0,0:0:0:0:
148,81,175311,1,2,2:0:0:0:
78,154,175578,2,0,L|6:165,2,50.6,2|10|2,1:2|2:0|2:0,0:0:0:0:
116,186,175978,6,0,P|125:237|132:310,1,101.2,2|10,1:2|2:0,0:0:0:0:
119,335,176378,1,2,2:0:0:0:
219,347,176644,2,0,L|283:332,1,50.6,2|10,1:2|2:0,0:0:0:0:
308,304,176911,2,0,B|367:301|356:337|431:329|431:329,1,101.2,2|0,2:0|0:0,0:0:0:0:
450,306,177311,1,8,2:0:0:0:
461,205,177578,2,0,L|525:197,2,50.6,2|2|10,1:2|1:2|2:0,0:0:0:0:
387,135,178111,6,0,P|336:135|298:187,1,101.2,2|10,1:2|2:0,0:0:0:0:
212,215,178644,1,10,2:0:0:0:
222,315,178911,1,10,2:0:0:0:
121,305,179178,2,0,B|69:312|69:312|50:327|50:327|-5:333,1,101.2,12|10,2:0|2:0,0:0:0:0:
1,231,179711,1,10,2:0:0:0:
61,149,179978,1,10,2:0:0:0:
16,58,180244,6,0,P|61:22|189:78,1,202.4,12|10,2:0|2:0,0:0:0:0:
252,142,181044,2,0,L|241:211,2,50.6,10|2|12,2:0|1:2|2:0,0:0:0:0:
316,63,181578,2,0,P|365:55|415:43,1,101.2,10|10,2:0|2:0,0:0:0:0:
472,126,182111,1,10,2:0:0:0:
423,215,182378,6,0,B|309:215|341:279|228:281,1,202.4,4|2,1:0|1:2,0:0:0:0:
166,353,183178,1,10,2:0:0:0:
87,289,183444,2,0,L|23:305,2,50.6,4|2|10,1:0|1:2|2:0,0:0:0:0:
154,212,183978,2,0,P|159:166|173:92,1,101.2,2|10,1:2|2:0,0:0:0:0:
207,78,184378,1,2,2:0:0:0:
207,78,184511,6,0,P|256:57|338:168,1,202.4,4|2,1:0|1:2,0:0:0:0:
411,226,185311,1,10,2:0:0:0:
373,320,185578,2,0,B|315:336|315:336|245:303,1,101.2,4|10,1:0|2:0,0:0:0:0:
239,285,185978,2,0,P|256:157|256:157,1,101.2,2|2,2:0|1:2,0:0:0:0:
242,134,186378,1,10,2:0:0:0:
157,78,186644,6,0,B|96:107|96:107|47:195|97:254,1,202.4,4|10,1:0|2:0,0:0:0:0:
126,327,187444,2,0,L|200:310,1,50.6,10|2,2:0|1:2,0:0:0:0:
213,281,187711,2,0,B|272:281|259:310|338:305,1,101.2,4|10,1:0|2:0,0:0:0:0:
395,360,188244,1,10,2:0:0:0:
469,291,188511,1,10,2:0:0:0:
412,206,188778,6,0,P|395:82|395:82,1,101.2,4|10,1:0|2:0,0:0:0:0:
298,85,189311,2,0,B|296:72|313:196,1,101.2,10|10,2:0|2:0,0:0:0:0:
247,261,189844,2,0,P|179:276|130:224,1,101.2,4|10,1:0|2:0,0:0:0:0:
65,213,190378,1,10,2:0:0:0:
31,117,190644,1,10,2:0:0:0:
92,36,190911,6,0,P|142:40|219:53,1,101.2,4|8,1:0|2:0,0:0:0:0:
274,107,191444,2,0,L|348:99,2,50.6,0|0|8,1:0|1:0|2:0,0:0:0:0:
224,195,191978,2,0,P|183:196|57:219,2,151.8,2|2|10,1:2|1:2|2:0,0:0:0:0:
278,283,193044,6,0,P|320:277|383:271,1,101.2,4|10,1:0|2:0,0:0:0:0:
458,208,193578,2,0,L|513:217,2,50.6,2|2|10,1:2|1:2|2:0,0:0:0:0:
371,155,194111,2,0,L|316:164,2,50.6,2|2|10,1:2|2:0|2:0,0:0:0:0:
454,96,194644,2,0,P|463:46|402:-17,1,101.2,2|8,1:2|2:0,0:0:0:0:
340,22,195178,6,0,P|288:29|209:41,1,101.2,4|10,1:0|2:0,0:0:0:0:
138,35,195711,1,2,1:2:0:0:
91,125,195978,1,10,2:0:0:0:
153,203,196244,2,0,L|174:318,1,101.2,6|8,1:2|2:0,0:0:0:0:
142,344,196644,2,0,B|92:357|92:357|39:331,1,101.2,2|0,2:0|0:0,0:0:0:0:
17,294,197044,1,8,2:0:0:0:
59,202,197311,6,0,P|51:142|41:84,1,101.2,14|10,2:0|2:0,0:0:0:0:
49,55,197711,1,2,1:2:0:0:
49,55,197844,1,10,2:0:0:0:
151,37,198111,1,10,2:0:0:0:
222,108,198378,2,0,L|232:180,2,50.6,0|0|0,1:2|1:2|1:2,0:0:0:0:
302,40,198911,5,6,1:2:0:0:
256,192,199044,12,2,203444,0:0:0:0:
