osu file format v14

[General]
AudioFilename: audio.mp3
AudioLeadIn: 0
PreviewTime: 444
Countdown: 0
SampleSet: Soft
StackLeniency: 0.7
Mode: 0
LetterboxInBreaks: 0
WidescreenStoryboard: 1

[Editor]
Bookmarks: 1044,18111,24511,50111,58644,67178,75444,86378,88511,95978,113044,132244,137578,146111,154644,173844,177578,182378,186644,198911,203444
DistanceSpacing: 0.2
BeatDivisor: 4
GridSize: 8
TimelineZoom: 1.7

[Metadata]
Title:Under Kids
TitleUnicode:アンダーキッズ
Artist:TUYU
ArtistUnicode:ツユ
Creator:Len
Version:Ayesha's Another
Source:
Tags:underkids japanese jpop j-pop pop jrock j-rock rock 礼衣 ぷす ミロ 双葉陽 rei pusu miro futaba haru azyun vocals female fast l1ght_u light_u -hitomi nodoro erisu lanzhu pnky share ayesha altugle shizuku- shikibe mayu kazato asa torriru
BeatmapID:3729717
BeatmapSetID:1815821

[Difficulty]
HPDrainRate:5
CircleSize:3.9
OverallDifficulty:8.5
ApproachRate:9.2
SliderMultiplier:1.68
SliderTickRate:1

[Events]
//Background and Video events
0,0,"uruse.jpg",0,0
Video,-100,"tuyu.mp4"
//Break Periods
//Storyboard Layer 0 (Background)
//Storyboard Layer 1 (Fail)
//Storyboard Layer 2 (Pass)
//Storyboard Layer 3 (Foreground)
//Storyboard Layer 4 (Overlay)
//Storyboard Sound Samples

[TimingPoints]
-22,266.666666666667,4,2,1,60,1,0
511,-200,4,2,1,60,0,0
1044,-100,4,2,1,80,0,0
9578,-100,4,2,1,65,0,0
10111,-125,4,2,1,65,0,0
13844,-100,4,2,1,80,0,0
17044,-125,4,2,1,80,0,0
18111,-200,4,2,1,60,0,0
21844,-76.9230769230769,4,2,1,70,0,0
22244,-100,4,2,1,70,0,0
24511,-200,4,2,1,50,0,0
34111,-125,4,2,1,50,0,0
37311,-100,4,2,1,70,0,0
45844,-100,4,2,1,75,0,0
49578,-200,4,2,1,75,0,0
50111,-99.999999999999,4,2,1,75,0,0
58644,-125.000000000003,4,2,1,65,0,0
62911,-100,4,2,1,65,0,0
66644,-200,4,2,1,65,0,0
67178,-90.9090909090909,4,2,1,80,0,1
85444,-100,4,2,1,80,0,0
86378,-100,4,2,1,75,0,1
87444,-100,4,2,1,75,0,0
88511,-142.857142857143,4,2,1,60,0,0
92244,-76.9230769230769,4,2,1,60,0,0
92644,-100,4,2,1,70,0,0
94511,-125,4,2,1,70,0,0
95044,-125,4,2,1,5,0,0
95444,-83.3333333333333,4,2,1,70,0,0
95978,-90.9090909090909,4,2,1,70,0,0
104511,-125,4,2,1,70,0,0
108778,-90.9090909090909,4,2,1,75,0,0
111978,-142.857142857143,4,2,1,75,0,0
112244,-142.857142857143,4,2,1,65,0,0
113044,-90.9090909090909,4,2,1,80,0,1
131311,-90.9090909090909,4,2,1,80,0,0
132244,-90.9090909090909,4,2,1,80,0,1
137044,-200,4,2,1,75,0,0
137578,-100,4,2,1,75,0,0
146644,-125,4,2,1,75,0,0
150377,-100,4,2,1,75,0,0
154644,-90.9090909090909,4,2,1,80,0,1
173778,-100,4,2,1,80,0,0
173844,-90.9090909090909,4,2,1,80,0,1
182378,-90.9090909090945,4,2,1,80,0,1
198911,-100,4,2,2,80,0,0
201578,-100,4,2,2,50,0,0

[Colours]
Combo1 : 166,206,255
Combo2 : 180,180,218

[HitObjects]
427,71,511,6,0,P|418:34|430:68,1,126,2|0,2:0|0:0,0:0:0:0:
310,46,1044,5,4,1:0:0:0:
219,73,1178,1,2,2:0:0:0:
143,14,1311,2,0,P|96:62|100:158,1,168,8|0,2:0|1:0,0:0:0:0:
152,302,1711,1,0,1:0:0:0:
4,267,1844,2,0,P|47:258|83:243,1,84,8|2,2:0|2:0,0:0:0:0:
290,248,2111,6,0,P|274:303|261:373,1,126,2|0,1:2|0:0,0:0:0:0:
261,370,2378,2,0,P|304:367|330:337,1,84,8|2,2:0|2:0,0:0:0:0:
197,181,2644,6,0,P|152:120|178:29,1,168,0|8,1:2|2:0,0:0:0:0:
172,35,3044,1,2,2:0:0:0:
320,76,3178,6,0,P|280:85|237:101,1,84,2|0,1:2|0:0,0:0:0:0:
454,221,3444,1,2,1:2:0:0:
454,221,3711,2,0,P|414:212|371:196,1,84,2|0,1:2|0:0,0:0:0:0:
437,130,3978,5,2,1:2:0:0:
388,289,4111,1,0,0:0:0:0:
246,165,4244,6,0,P|169:182|127:201,1,126,4|0,1:0|0:0,0:0:0:0:
126,201,4511,2,0,P|97:170|92:129,1,84,8|2,2:0|1:2,0:0:0:0:
153,79,4778,5,2,2:0:0:0:
10,202,4911,1,0,1:2:0:0:
194,283,5044,6,0,P|261:266|318:252,1,126,8|0,2:0|1:0,0:0:0:0:
316,252,5311,5,4,1:0:0:0:
420,173,5444,1,2,2:0:0:0:
352,78,5578,2,0,P|337:118|329:160,1,84,10|2,2:0|2:0,0:0:0:0:
359,345,5844,5,2,1:2:0:0:
385,260,5978,1,2,1:2:0:0:
231,177,6111,5,10,2:0:0:0:
192,265,6245,1,2,2:0:0:0:
288,384,6378,6,0,P|245:369|206:361,1,84,2|2,1:2|2:0,0:0:0:0:
288,239,6644,2,0,P|331:254|370:262,1,84,10|2,2:0|2:0,0:0:0:0:
97,339,6911,5,2,1:2:0:0:
30,269,7044,1,2,1:2:0:0:
47,178,7178,1,10,2:0:0:0:
129,141,7311,1,2,2:0:0:0:
194,214,7444,5,0,1:0:0:0:
194,214,7578,1,2,2:0:0:0:
255,145,7711,2,0,P|247:102|236:64,1,84,10|2,2:0|2:0,0:0:0:0:
109,250,7978,2,0,P|168:299|253:286,1,168,2|8,1:2|2:0,0:0:0:0:
362,189,8378,1,4,1:2:0:0:
485,348,8511,6,0,B|441:319|386:314|386:314|369:348|336:361,1,168,0|8,1:0|2:0,0:0:0:0:
462,233,8911,1,2,2:0:0:0:
266,135,9044,2,0,P|265:177|276:226,1,84,0|0,1:0|0:0,0:0:0:0:
144,373,9311,6,0,P|131:297|91:265,1,126,8|0,2:0|1:0,0:0:0:0:
96,267,9578,2,0,P|58:281|13:292,1,84,4|2,1:0|2:0,0:0:0:0:
185,57,9844,1,2,2:0:0:0:
185,57,10111,6,0,P|173:123|156:189,1,134.4,10|2,1:2|2:0,0:0:0:0:
156,188,10511,1,2,2:0:0:0:
216,267,10644,6,0,P|248:257|281:251,1,67.2,2|2,1:2|2:0,0:0:0:0:
335,172,10911,2,0,P|301:166|269:155,1,67.2,2|0,2:0|0:0,0:0:0:0:
240,384,11178,2,0,P|283:351|361:358,1,134.4,8|0,1:2|0:0,0:0:0:0:
498,259,11578,1,0,0:0:0:0:
445,381,11711,6,0,P|436:347|434:316,1,67.2,2|0,1:2|0:0,0:0:0:0:
390,165,11978,1,2,2:0:0:0:
498,259,12111,1,0,0:0:0:0:
480,131,12244,6,0,P|400:189|299:174,1,201.6,8|0,1:2|0:0,0:0:0:0:
253,101,12778,6,0,P|260:70|268:34,1,67.2,2|0,1:2|0:0,0:0:0:0:
155,120,13044,2,0,P|147:152|140:185,1,67.2,8|0,2:0|0:0,0:0:0:0:
34,93,13311,5,0,1:0:0:0:
57,181,13444,1,0,1:0:0:0:
0,282,13578,2,0,P|54:283|98:307,1,100.8,8|0,2:0|0:0,0:0:0:0:
94,304,13844,6,0,P|136:296|175:283,1,84,4|2,1:0|2:0,0:0:0:0:
314,147,14111,2,0,P|301:184|289:229,1,84,10|2,2:0|2:0,0:0:0:0:
309,378,14378,1,2,1:2:0:0:
256,310,14511,1,2,1:2:0:0:
375,246,14644,2,0,P|416:238|457:224,1,84,10|2,2:0|2:0,0:0:0:0:
176,162,14911,6,0,P|104:182|12:199,1,168,2|10,1:2|2:0,0:0:0:0:
12,198,15311,1,2,2:0:0:0:
86,294,15444,2,0,P|106:257|99:218,1,84,2|2,1:2|1:2,0:0:0:0:
230,113,15711,1,10,2:0:0:0:
96,28,15844,1,2,2:0:0:0:
194,209,15978,6,0,P|252:196|321:182,1,126,4|0,1:2|0:0,0:0:0:0:
317,182,16244,1,10,2:0:0:0:
385,39,16378,1,8,2:0:0:0:
482,152,16511,2,0,P|443:145|401:131,1,84,0|0,1:0|0:0,0:0:0:0:
276,11,16778,2,0,P|289:48|298:91,1,84,8|0,2:0|0:0,0:0:0:0:
404,247,17044,6,0,P|327:311|218:280,1,201.6,4|0,1:0|0:0,0:0:0:0:
233,293,17578,2,0,P|227:310|223:326,1,33.6,0|0,1:0|0:0,0:0:0:0:
123,349,17711,2,0,P|147:281|163:217,1,134.4,8|0,2:0|0:0,0:0:0:0:
112,32,18111,6,0,B|70:24|23:10|23:10|49:84|66:164,1,252,6|2,2:0|2:0,0:0:0:0:
0,290,19178,6,0,P|74:242|155:258,1,168,2|2,3:2|3:2,0:0:0:0:
269,346,19978,1,2,3:2:0:0:
302,177,20244,6,0,P|309:137|322:94,2,84,2|2|2,3:2|2:0|3:2,0:0:0:0:
453,316,21044,1,2,2:0:0:0:
492,236,21311,2,0,P|431:230|380:267,1,126,2|0,3:2|0:0,0:0:0:0:
248,376,21844,6,0,L|264:268,1,109.199995001221,0|10,1:0|2:0,0:0:0:0:
264,267,22244,6,0,B|216:263|170:247|170:247|148:273|111:284,1,168,4|2,1:0|1:2,0:0:0:0:
0,187,22644,2,0,P|43:176|81:163,1,84,10|2,2:0|2:0,0:0:0:0:
266,19,22911,5,2,1:2:0:0:
182,0,23044,1,2,2:0:0:0:
160,122,23178,5,10,2:0:0:0:
244,141,23311,1,2,2:0:0:0:
359,77,23444,6,0,P|372:37|374:-8,1,84,2|2,1:2|3:2,0:0:0:0:
510,177,23711,2,0,P|426:177|356:224,1,168,10|14,2:0|2:0,0:0:0:0:
244,141,24111,1,10,2:0:0:0:
244,141,24511,5,4,1:0:0:0:
159,113,24778,1,2,2:0:0:0:
17,257,25044,5,2,1:2:0:0:
102,229,25311,1,2,2:0:0:0:
256,360,25578,5,2,1:2:0:0:
171,332,25845,1,2,2:0:0:0:
395,265,26111,5,2,1:2:0:0:
465,231,26244,1,0,0:0:0:0:
499,159,26378,1,2,2:0:0:0:
493,80,26511,1,0,0:0:0:0:
445,15,26644,5,2,1:2:0:0:
355,41,26911,1,2,2:0:0:0:
195,144,27178,5,2,1:2:0:0:
285,170,27445,1,2,2:0:0:0:
495,286,27711,5,2,1:2:0:0:
405,312,27978,1,2,2:0:0:0:
240,373,28244,5,2,1:2:0:0:
240,373,28378,2,0,L|254:279,1,84,0|0,1:0|0:0,0:0:0:0:
192,216,28778,5,2,1:2:0:0:
101,240,29044,1,2,2:0:0:0:
256,96,29311,5,2,1:2:0:0:
347,120,29577,1,2,2:0:0:0:
152,9,29844,5,2,1:2:0:0:
61,33,30110,1,2,2:0:0:0:
101,240,30378,5,2,1:2:0:0:
177,225,30511,1,0,0:0:0:0:
256,239,30644,1,2,2:0:0:0:
309,300,30778,1,0,0:0:0:0:
340,371,30911,5,2,1:2:0:0:
440,348,31178,1,2,2:0:0:0:
233,181,31444,5,2,1:2:0:0:
202,279,31711,1,2,2:0:0:0:
451,183,31978,5,2,1:2:0:0:
381,107,32245,1,2,2:0:0:0:
486,14,32511,5,2,1:2:0:0:
486,14,32644,2,0,L|470:97,1,84,0|0,1:0|0:0,0:0:0:0:
451,183,33044,5,2,1:2:0:0:
451,183,33311,1,2,2:0:0:0:
364,162,33444,1,0,0:0:0:0:
303,228,33578,1,2,1:2:0:0:
303,228,33844,5,2,2:0:0:0:
213,263,33978,1,0,0:0:0:0:
137,212,34111,2,0,P|130:179|123:146,1,67.2,2|2,1:2|2:0,0:0:0:0:
214,97,34378,2,0,P|221:129|227:162,1,67.2,2|2,2:0|2:0,0:0:0:0:
143,299,34644,5,2,1:2:0:0:
213,263,34778,1,2,2:0:0:0:
289,263,34911,1,2,2:0:0:0:
366,284,35044,1,2,2:0:0:0:
409,351,35178,5,2,1:2:0:0:
442,235,35444,1,2,2:0:0:0:
227,162,35711,5,2,1:2:0:0:
194,46,35977,1,2,2:0:0:0:
194,46,36111,1,2,2:0:0:0:
306,79,36244,6,0,B|239:75|268:133|164:125,1,134.4,2|2,1:2|2:0,0:0:0:0:
41,171,36778,1,2,1:2:0:0:
43,48,36911,2,0,B|69:111|69:111|33:186,1,134.4,0|2,1:0|2:0,0:0:0:0:
0,281,37311,6,0,P|61:267|123:257,1,126,4|0,1:0|0:0,0:0:0:0:
123,257,37578,1,8,2:0:0:0:
285,299,37711,1,8,2:0:0:0:
207,384,37844,2,0,P|200:345|201:299,1,84,0|0,1:0|0:0,0:0:0:0:
335,97,38111,2,0,P|335:138|328:180,1,84,10|0,2:0|0:0,0:0:0:0:
452,341,38378,6,0,P|403:301|293:297,1,168,0|8,1:0|2:0,0:0:0:0:
467,197,38778,1,8,2:0:0:0:
335,97,38911,2,0,P|386:109|424:107,1,84,0|0,1:0|0:0,0:0:0:0:
274,176,39178,5,10,2:0:0:0:
146,143,39311,1,0,0:0:0:0:
62,235,39444,1,0,1:0:0:0:
62,235,39711,6,0,P|41:197|35:156,1,84,8|8,2:0|2:0,0:0:0:0:
233,4,39978,2,0,P|176:51|75:51,1,168,0|10,1:0|2:0,0:0:0:0:
84,54,40378,1,0,0:0:0:0:
165,167,40511,6,0,P|171:124|182:82,1,84,0|0,1:0|0:0,0:0:0:0:
353,1,40778,2,0,P|347:44|336:86,1,84,8|8,2:0|2:0,0:0:0:0:
474,235,41044,5,0,1:0:0:0:
322,186,41178,1,8,2:0:0:0:
435,95,41311,1,10,2:0:0:0:
384,277,41444,1,8,2:0:0:0:
215,213,41578,1,4,1:0:0:0:
215,213,41844,6,0,P|186:263|186:330,1,126,8|0,2:0|0:0,0:0:0:0:
185,329,42111,2,0,P|227:339|268:351,1,84,8|0,2:0|1:0,0:0:0:0:
460,225,42378,5,8,2:0:0:0:
399,384,42511,1,0,1:0:0:0:
285,265,42644,6,0,P|327:273|366:284,1,84,2|2,1:2|2:0,0:0:0:0:
495,185,42911,1,8,2:0:0:0:
317,120,43044,1,0,1:0:0:0:
436,15,43178,6,0,P|436:56|426:97,1,84,8|0,2:0|1:0,0:0:0:0:
229,171,43444,2,0,P|218:130|219:88,1,84,8|0,2:0|1:0,0:0:0:0:
219,88,43644,1,0,0:0:0:0:
219,88,43711,1,2,1:2:0:0:
315,13,43844,1,2,2:0:0:0:
399,137,43978,6,0,P|356:127|310:118,1,84,8|0,2:0|1:0,0:0:0:0:
137,51,44244,2,0,P|125:133|152:219,1,168,8|8,2:0|2:0,0:0:0:0:
210,361,44644,1,0,1:0:0:0:
37,328,44778,6,0,P|79:315|118:308,1,84,2|2,1:2|2:0,0:0:0:0:
271,148,45044,2,0,P|258:188|249:236,1,84,8|0,2:0|1:0,0:0:0:0:
385,384,45311,5,8,2:0:0:0:
512,295,45444,1,0,1:0:0:0:
361,232,45578,1,8,2:0:0:0:
418,300,45711,1,0,1:0:0:0:
510,177,45844,6,0,B|445:189|445:189|424:213|424:213|336:230,1,168,4|8,1:0|2:0,0:0:0:0:
239,132,46244,1,2,2:0:0:0:
343,45,46378,2,0,P|342:89|332:132,1,84,0|0,1:0|1:0,0:0:0:0:
264,221,46644,1,8,2:0:0:0:
264,221,46778,1,2,2:0:0:0:
405,372,46911,6,0,P|350:335|280:337,1,126,2|0,1:2|0:0,0:0:0:0:
291,333,47178,2,0,L|204:356,1,84,8|0,2:0|0:0,0:0:0:0:
7,240,47444,5,0,1:0:0:0:
28,162,47578,1,0,1:0:0:0:
172,198,47711,5,8,2:0:0:0:
147,276,47844,1,0,0:0:0:0:
99,384,47978,6,0,B|71:285|116:316|87:217,1,168,4|8,1:0|2:0,0:0:0:0:
149,114,48378,1,0,1:0:0:0:
0,89,48511,6,0,P|66:131|153:112,1,168,8|8,2:0|2:0,0:0:0:0:
240,8,48911,1,0,1:0:0:0:
423,30,49044,6,0,P|383:42|344:56,1,83.9999999999986,12|0,1:2|0:0,0:0:0:0:
233,154,49310,2,0,P|273:166|312:179,1,83.9999999999986,12|0,1:2|0:0,0:0:0:0:
405,352,49578,6,0,B|342:341|342:341|297:383,1,126,12|0,1:2|0:0,0:0:0:0:
297,384,50111,6,0,P|242:325|248:243,1,168.000000000002,4|8,1:0|2:0,0:0:0:0:
248,242,50511,1,0,0:0:0:0:
394,157,50644,2,0,P|354:169|313:179,1,84,0|0,1:0|1:0,0:0:0:0:
331,263,50911,1,8,2:0:0:0:
228,163,51044,1,2,2:0:0:0:
439,28,51178,6,0,P|368:80|288:80,1,168,2|8,1:2|2:0,0:0:0:0:
128,176,51578,1,2,2:0:0:0:
159,11,51711,6,0,P|145:94|128:178,1,168,0|8,1:0|2:0,0:0:0:0:
49,107,52111,1,2,2:0:0:0:
110,281,52244,6,0,P|149:266|190:258,1,83.9999999999986,2|0,1:2|0:0,0:0:0:0:
316,144,52511,2,0,P|276:159|235:167,1,83.9999999999986,2|0,1:2|0:0,0:0:0:0:
158,369,52778,6,0,P|197:354|238:346,1,83.9999999999986,2|0,1:2|0:0,0:0:0:0:
367,232,53044,2,0,P|327:247|286:255,1,83.9999999999986,2|0,1:2|0:0,0:0:0:0:
486,366,53311,6,0,P|434:330|372:326,1,126,2|0,1:2|0:0,0:0:0:0:
372,326,53578,1,8,2:0:0:0:
452,245,53711,1,0,1:0:0:0:
384,146,53844,6,0,L|302:162,1,83.9999999999986,2|0,2:0|1:0,0:0:0:0:
197,298,54111,2,0,L|115:282,1,83.9999999999986,8|0,2:0|1:0,0:0:0:0:
0,89,54378,6,0,B|90:76|73:125|163:106,1,168.000000000002,4|10,1:0|2:0,0:0:0:0:
295,178,54778,1,2,2:0:0:0:
263,13,54911,2,0,P|253:54|250:96,1,83.999999999994,2|2,1:2|1:2,0:0:0:0:
92,208,55178,2,0,P|89:166|79:125,1,83.9999999999986,10|2,2:0|2:0,0:0:0:0:
295,178,55444,38,0,P|376:172|440:224,1,168.000000000002,2|10,1:2|2:0,0:0:0:0:
344,269,55844,1,2,2:0:0:0:
197,150,55978,2,0,P|205:191|211:232,1,84,2|2,1:2|1:2,0:0:0:0:
258,370,56244,1,10,2:0:0:0:
92,208,56378,1,2,2:0:0:0:
23,368,56511,38,0,P|84:313|165:316,1,168.000000000006,2|10,1:2|2:0,0:0:0:0:
165,316,56911,1,2,2:0:0:0:
341,384,57044,2,0,P|352:343|362:302,1,83.9999999999986,2|2,1:2|2:0,0:0:0:0:
211,232,57311,1,10,2:0:0:0:
226,128,57444,5,10,1:2:0:0:
226,128,57511,1,0,0:0:0:0:
226,128,57578,2,0,P|268:120|312:106,1,84,2|2,1:2|2:0,0:0:0:0:
420,145,57844,1,10,2:0:0:0:
484,49,57978,1,2,2:0:0:0:
465,218,58111,6,0,P|408:190|341:197,1,126,2|0,1:2|0:0,0:0:0:0:
347,194,58378,2,0,P|339:236|328:275,1,84,10|2,2:0|1:2,0:0:0:0:
216,384,58644,6,0,P|166:352|88:356,1,134.4,4|2,1:0|2:0,0:0:0:0:
0,212,59178,2,0,P|66:215|122:181,1,134.4,8|2,1:2|2:0,0:0:0:0:
243,262,59578,1,0,0:0:0:0:
222,125,59711,6,0,P|212:161|204:195,1,67.2,0|0,1:2|0:0,0:0:0:0:
318,319,59978,2,0,P|325:286|334:253,1,67.2,2|0,2:0|0:0,0:0:0:0:
382,131,60244,6,0,P|443:133|513:95,1,134.4,8|2,1:2|2:0,0:0:0:0:
507,100,60644,1,0,0:0:0:0:
425,210,60778,6,0,P|363:179|287:182,1,134.4,0|2,1:2|2:0,0:0:0:0:
299,178,61311,2,0,P|275:113|274:45,1,134.4,8|2,1:2|2:0,0:0:0:0:
349,80,61711,1,0,0:0:0:0:
196,126,61844,6,0,P|147:106|94:101,1,100.8,0|0,1:2|0:0,0:0:0:0:
99,100,62111,2,0,P|86:71|77:36,1,67.2,10|0,2:0|0:0,0:0:0:0:
35,175,62378,5,0,1:0:0:0:
96,232,62511,1,0,1:0:0:0:
49,309,62644,2,0,P|57:343|62:375,1,67.2,8|8,2:0|2:0,0:0:0:0:
191,230,62911,6,0,B|283:210|255:258|356:237,1,168,4|10,1:0|2:0,0:0:0:0:
450,276,63311,1,2,2:0:0:0:
371,324,63444,5,2,1:2:0:0:
427,192,63578,1,2,1:2:0:0:
309,150,63711,2,0,P|296:106|292:65,1,84,10|2,2:0|2:0,0:0:0:0:
509,6,63978,6,0,P|473:74|370:80,1,168,2|10,1:2|2:0,0:0:0:0:
207,7,64378,1,2,2:0:0:0:
228,171,64511,2,0,P|268:164|311:148,1,84,2|2,1:2|1:2,0:0:0:0:
162,102,64778,5,10,2:0:0:0:
207,265,64911,1,10,2:0:0:0:
37,228,65044,1,4,1:0:0:0:
37,228,65310,5,8,2:0:0:0:
122,205,65444,1,2,2:0:0:0:
207,265,65577,2,0,P|210:309|222:351,1,84,0|0,1:0|0:0,0:0:0:0:
113,294,65844,5,8,2:0:0:0:
205,178,65978,1,2,2:0:0:0:
121,33,66111,2,0,P|124:74|137:114,1,84,4|0,1:0|0:0,0:0:0:0:
296,81,66378,2,0,P|299:39|312:0,1,84,2|0,2:0|0:0,0:0:0:0:
492,179,66644,6,0,B|451:171|451:171|416:197,1,84,2|2,1:2|2:0,0:0:0:0:
272,240,67178,6,0,B|276:200|312:179|312:179|420:200,1,184.800005639649,4|10,1:0|2:0,0:0:0:0:
272,240,67578,1,2,2:0:0:0:
372,360,67711,6,0,P|367:312|350:269,1,92.4000028198243,0|2,1:0|1:2,0:0:0:0:
202,178,67978,1,8,2:0:0:0:
134,287,68111,1,2,2:0:0:0:
15,234,68244,6,0,P|-22:144|18:55,1,184.800005639649,0|10,1:0|2:0,0:0:0:0:
7,66,68644,1,2,2:0:0:0:
126,1,68778,2,0,P|116:48|102:94,1,92.4000028198243,2|0,1:2|1:0,0:0:0:0:
241,224,69044,1,10,2:0:0:0:
127,182,69178,1,2,2:0:0:0:
233,63,69311,6,0,B|279:59|322:84|322:84|342:34|383:20,1,184.800005639649,2|10,1:2|2:0,0:0:0:0:
512,203,69711,1,2,2:0:0:0:
385,143,69844,2,0,P|424:130|477:117,1,92.4000028198243,2|2,1:2|2:0,0:0:0:0:
347,296,70111,2,0,P|308:283|255:270,1,92.4000028198243,10|10,2:0|2:0,0:0:0:0:
377,383,70378,6,0,P|433:320|405:227,1,184.800005639649,4|10,1:0|2:0,0:0:0:0:
288,96,70778,2,0,P|296:135|305:187,1,92.4000028198243,2|2,1:2|1:2,0:0:0:0:
190,370,71044,5,0,1:0:0:0:
104,353,71178,1,8,2:0:0:0:
18,337,71311,1,8,2:0:0:0:
137,138,71444,6,0,P|155:204|164:273,1,138.600004229736,4|0,1:0|0:0,0:0:0:0:
164,273,71711,2,0,P|210:267|254:248,1,92.4000028198243,8|0,2:0|0:0,0:0:0:0:
491,338,71978,5,0,1:0:0:0:
328,201,72111,1,0,1:0:0:0:
364,384,72244,6,0,P|404:321|393:261,1,138.600004229736,8|0,2:0|0:0,0:0:0:0:
393,261,72511,2,0,P|438:242|484:234,1,92.4000028198243,2|2,1:2|2:0,0:0:0:0:
351,107,72778,1,10,2:0:0:0:
457,54,72911,6,0,P|452:99|438:148,1,92.4000028198243,2|2,1:2|2:0,0:0:0:0:
285,35,73178,5,2,1:2:0:0:
209,99,73311,1,10,2:0:0:0:
118,68,73444,1,2,2:0:0:0:
263,201,73578,6,0,B|280:301|229:282|252:387,1,184.800005639649,2|10,1:2|2:0,0:0:0:0:
433,351,73978,2,0,P|388:341|334:335,1,92.4000028198243,2|2,1:2|2:0,0:0:0:0:
190,153,74244,1,2,1:2:0:0:
87,254,74378,2,0,P|132:248|177:238,1,92.4000028198243,10|2,2:0|2:0,0:0:0:0:
457,216,74644,5,4,1:2:0:0:
476,138,74778,1,2,2:0:0:0:
339,98,74911,5,10,2:0:0:0:
320,20,75045,1,2,2:0:0:0:
199,151,75178,5,2,1:2:0:0:
177,238,75312,1,2,1:2:0:0:
328,336,75444,5,10,2:0:0:0:
361,205,75578,1,2,2:0:0:0:
259,67,75711,6,0,P|175:117|83:99,1,184.800005639649,4|0,1:0|1:0,0:0:0:0:
131,281,76111,1,2,2:0:0:0:
0,225,76244,6,0,P|50:211|104:201,1,92.4000028198243,0|2,1:0|2:0,0:0:0:0:
259,67,76511,2,0,P|245:115|237:157,1,92.4000028198243,0|2,1:0|2:0,0:0:0:0:
344,349,76778,6,0,P|423:370|501:309,1,184.800005639649,4|10,1:0|2:0,0:0:0:0:
499,311,77178,1,2,2:0:0:0:
432,190,77311,2,0,P|419:233|412:281,1,92.4000028198243,2|0,1:2|1:0,0:0:0:0:
242,384,77578,2,0,P|248:338|261:294,1,92.4000028198243,10|2,2:0|2:0,0:0:0:0:
342,120,77844,6,0,P|276:170|179:162,1,184.800005639649,4|10,1:0|2:0,0:0:0:0:
19,240,78244,2,0,P|67:250|113:264,1,92.4000028198243,2|10,2:0|2:0,0:0:0:0:
99,81,78511,5,2,2:0:0:0:
22,115,78644,1,10,2:0:0:0:
89,165,78778,1,2,2:0:0:0:
228,90,78911,6,0,P|245:39|250:-1,1,92.4000028198243,14|0,2:0|0:0,0:0:0:0:
283,207,79178,2,0,P|257:283|250:343,1,138.600004229736,8|0,2:0|0:0,0:0:0:0:
250,340,79444,1,10,2:0:0:0:
363,384,79578,1,2,1:2:0:0:
429,276,79711,2,0,P|383:283|338:301,1,92.4000028198243,10|2,2:0|1:2,0:0:0:0:
160,144,79978,1,4,1:0:0:0:
160,144,80244,6,0,P|224:160|300:159,1,138.600004229736,10|0,2:0|0:0,0:0:0:0:
296,159,80511,1,2,1:2:0:0:
405,125,80644,1,2,1:2:0:0:
329,66,80778,1,10,2:0:0:0:
370,256,80911,6,0,B|283:240|279:284|165:257,1,184.800005639649,2|2,2:0|2:0,0:0:0:0:
87,237,81311,1,10,2:0:0:0:
124,318,81444,1,2,2:0:0:0:
156,172,81578,2,0,P|144:129|141:79,1,92.4000028198243,2|2,1:2|1:2,0:0:0:0:
315,4,81844,5,10,2:0:0:0:
240,118,81978,1,2,2:0:0:0:
354,210,82111,1,2,1:2:0:0:
354,210,82378,6,0,P|417:190|492:184,1,138.600004229736,10|0,2:0|0:0,0:0:0:0:
488,183,82644,1,2,1:2:0:0:
365,120,82778,1,2,1:2:0:0:
483,53,82911,1,10,2:0:0:0:
280,156,83044,6,0,B|186:139|207:194|93:169,1,184.800005639649,2|2,2:0|2:0,0:0:0:0:
208,248,83444,1,10,2:0:0:0:
170,88,83578,1,2,2:0:0:0:
22,209,83711,2,0,P|7:248|-1:300,1,92.4000028198243,2|2,1:2|1:2,0:0:0:0:
214,377,83978,1,10,2:0:0:0:
98,277,84111,1,2,2:0:0:0:
240,113,84244,6,0,P|224:195|206:252,1,138.600004229736,4|0,1:0|0:0,0:0:0:0:
207,247,84511,2,0,P|244:266|294:274,1,92.4000028198243,10|2,2:0|1:2,0:0:0:0:
454,215,84778,1,10,2:0:0:0:
328,115,84911,1,2,1:2:0:0:
388,293,85044,2,0,P|377:338|374:388,1,92.4000028198243,10|2,2:0|1:2,0:0:0:0:
512,137,85311,5,12,2:0:0:0:
357,199,85444,1,0,1:0:0:0:
357,199,86378,6,0,B|295:167|221:208|265:221|209:252|140:231|140:231|243:216|273:100|198:5|110:45|86:83|111:138|145:145,1,588,4|0,1:0|0:0,0:0:0:0:
304,88,87444,6,0,P|313:69|313:48,1,42,10|0,2:0|0:0,0:0:0:0:
497,264,88511,6,0,P|415:254|332:308,1,176.399994616699,4|0,1:0|0:0,0:0:0:0:
337,300,89044,1,0,1:0:0:0:
179,216,89311,1,2,2:0:0:0:
315,95,89578,6,0,P|311:124|302:155,1,58.7999982055665,0|0,1:0|0:0,0:0:0:0:
266,249,89844,1,2,2:0:0:0:
232,319,89978,1,2,2:0:0:0:
271,384,90111,2,0,P|222:359|152:367,1,117.599996411133,0|2,1:0|2:0,0:0:0:0:
0,209,90644,6,0,P|57:213|110:188,1,117.599996411133,0|2,1:0|2:0,0:0:0:0:
205,99,91044,1,2,2:0:0:0:
205,99,91178,2,0,P|199:129|192:157,1,58.7999982055665,0|0,1:0|0:0,0:0:0:0:
232,319,91444,5,2,2:0:0:0:
319,305,91578,1,0,0:0:0:0:
384,359,91711,2,0,P|449:359|494:248,1,176.399994616699,4|0,1:0|0:0,0:0:0:0:
439,175,92244,6,0,L|332:200,1,109.199995001221,0|8,1:0|2:0,0:0:0:0:
333,200,92644,6,0,P|360:120|363:37,1,168,4|2,1:0|1:2,0:0:0:0:
271,5,93044,1,10,2:0:0:0:
193,101,93178,1,2,2:0:0:0:
97,54,93311,2,0,P|56:66|15:74,1,84,2|2,1:2|2:0,0:0:0:0:
170,181,93578,2,0,P|180:139|193:99,1,84,10|2,2:0|2:0,0:0:0:0:
303,58,93844,5,2,1:2:0:0:
384,123,93978,1,2,1:2:0:0:
478,88,94111,2,0,P|489:43|501:3,1,84,10|0,2:0|0:0,0:0:0:0:
359,210,94378,5,10,2:0:0:0:
504,240,94511,2,0,B|471:167|383:144|321:176|321:176|346:186|362:216,1,268.8,4|0,1:0|0:0,0:0:0:0:
359,210,95444,6,0,B|367:168|367:168|373:161|373:161|382:110,1,100.799996923828,2|2,2:1|2:1,0:0:0:0:
176,5,95978,6,0,B|99:51|99:51|-10:33,1,184.800005639649,4|8,1:0|2:0,0:0:0:0:
186,112,96378,1,2,2:0:0:0:
0,183,96511,2,0,B|93:167|93:167|170:213,1,184.800005639649,2|10,1:2|2:0,0:0:0:0:
336,153,96911,1,0,0:0:0:0:
291,4,97044,6,0,P|282:51|271:95,1,92.4000028198243,2|0,1:2|0:0,0:0:0:0:
474,180,97311,2,0,P|402:136|347:145,1,138.600004229736,10|0,2:0|0:0,0:0:0:0:
336,153,97578,2,0,P|328:200|318:243,1,92.4000028198243,2|2,1:2|1:2,0:0:0:0:
237,357,97844,1,10,2:0:0:0:
424,380,97978,5,2,2:0:0:0:
424,380,98044,1,2,2:0:0:0:
424,380,98111,2,0,P|340:351|240:356,1,184.800005639649,4|2,1:0|1:2,0:0:0:0:
42,230,98511,1,2,2:0:0:0:
1,332,98644,2,0,P|71:327|134:296,1,138.600004229736,2|0,1:2|0:0,0:0:0:0:
131,297,98911,2,0,P|149:336|157:386,1,92.4000028198243,2|0,1:2|0:0,0:0:0:0:
42,230,99178,5,2,1:2:0:0:
169,126,99311,1,2,2:0:0:0:
21,83,99444,1,8,2:0:0:0:
78,151,99578,6,0,B|177:137|145:204|248:204,1,184.800005639649,2|2,2:0|1:2,0:0:0:0:
425,148,99978,5,10,2:0:0:0:
246,66,100111,1,2,1:2:0:0:
353,12,100244,2,0,P|346:58|333:103,1,92.4000028198243,4|2,1:0|2:0,0:0:0:0:
476,363,100511,2,0,P|483:317|496:272,1,92.4000028198243,10|2,2:0|2:0,0:0:0:0:
495,272,100711,1,2,2:0:0:0:
495,272,100778,1,2,1:2:0:0:
427,202,100911,1,2,1:2:0:0:
336,246,101044,2,0,P|329:292|316:337,1,92.4000028198243,10|2,2:0|2:0,0:0:0:0:
222,384,101311,5,2,1:2:0:0:
77,330,101444,1,2,2:0:0:0:
77,330,101511,1,2,2:0:0:0:
77,330,101578,2,0,P|122:322|166:305,1,92.4000028198243,10|2,2:0|2:0,0:0:0:0:
238,244,101844,5,2,1:2:0:0:
219,165,101978,1,2,1:2:0:0:
354,27,102111,5,10,2:0:0:0:
445,68,102245,1,2,2:0:0:0:
367,123,102378,2,0,B|265:123|291:67|186:80,2,184.800005639649,2|10|2,1:2|2:0|1:2,0:0:0:0:
493,351,103178,5,10,2:0:0:0:
405,327,103311,1,2,1:2:0:0:
335,384,103444,2,0,P|291:310|306:215,1,184.800005639649,4|10,1:0|2:0,0:0:0:0:
433,64,103844,1,2,2:0:0:0:
509,109,103978,6,0,P|444:147|375:127,1,138.600004229736,2|2,1:2|1:2,0:0:0:0:
367,123,104244,1,10,2:0:0:0:
188,87,104378,1,2,1:2:0:0:
252,4,104511,6,0,B|269:24|298:43|298:43|273:107|258:178,1,201.6,6|0,1:2|0:0,0:0:0:0:
322,239,105044,2,0,P|355:230|387:226,2,67.2,10|0|2,1:2|0:0|2:0,0:0:0:0:
258,178,105444,1,0,0:0:0:0:
344,344,105578,6,0,P|312:333|279:328,1,67.2,2|0,1:2|0:0,0:0:0:0:
169,239,105844,2,0,P|201:250|234:255,1,67.2,2|0,2:0|0:0,0:0:0:0:
116,312,106111,6,0,P|82:258|101:187,1,134.4,10|2,1:2|2:0,0:0:0:0:
191,122,106511,1,0,0:0:0:0:
12,78,106644,6,0,P|83:131|200:118,1,201.6,2|0,1:2|0:0,0:0:0:0:
268,82,107178,1,10,1:2:0:0:
332,147,107311,2,0,L|318:215,2,67.2,0|2|0,0:0|2:0|0:0,0:0:0:0:
472,25,107711,6,0,P|442:33|403:39,1,67.2,2|0,1:2|0:0,0:0:0:0:
428,125,107978,2,0,P|458:117|497:111,1,67.2,8|0,2:0|0:0,0:0:0:0:
341,98,108244,1,2,1:2:0:0:
341,98,108378,1,2,1:2:0:0:
362,245,108511,2,0,B|374:218|374:218|366:172,1,67.2,12|0,2:0|0:0,0:0:0:0:
241,2,108778,6,0,P|198:15|144:27,1,92.4000028198243,6|2,1:2|2:0,0:0:0:0:
151,25,108978,1,2,2:0:0:0:
151,25,109044,2,0,P|131:67|135:115,1,92.4000028198243,10|2,2:0|2:0,0:0:0:0:
369,229,109311,6,0,P|311:160|217:152,1,184.800005639649,2|10,1:2|2:0,0:0:0:0:
48,219,109711,2,0,P|90:212|138:199,1,92.4000028198243,2|2,2:0|1:2,0:0:0:0:
298,62,109978,2,0,P|305:36|308:15,2,46.2000014099122,2|2|10,1:2|2:0|2:0,0:0:0:0:
259,241,110244,5,2,2:0:0:0:
259,241,110311,1,2,2:0:0:0:
259,241,110378,2,0,P|269:288|278:333,1,92.4000028198243,2|2,1:2|1:2,0:0:0:0:
350,196,110644,5,10,2:0:0:0:
174,318,110778,1,10,2:0:0:0:
372,384,110911,1,6,1:2:0:0:
372,384,111178,5,8,2:0:0:0:
306,287,111311,1,8,2:0:0:0:
174,318,111444,6,0,B|136:340|136:340|86:330,1,92.4000028198243,0|0,1:0|0:0,0:0:0:0:
259,369,111711,5,8,2:0:0:0:
123,254,111844,1,0,0:0:0:0:
175,82,111978,6,0,B|248:73|314:39|314:39|265:69|260:106,1,235.199992822266,4|2,1:0|1:2,0:0:0:0:
261,106,113044,6,0,P|270:148|280:199,1,92.4000028198243,4|2,1:0|1:2,0:0:0:0:
404,373,113311,1,10,2:0:0:0:
497,338,113444,2,0,P|422:285|336:303,1,184.800005639649,2|2,2:0|1:2,0:0:0:0:
192,373,113844,1,8,2:0:0:0:
224,203,113978,2,0,P|233:246|242:297,1,92.4000028198243,2|0,2:0|1:0,0:0:0:0:
30,375,114244,5,2,2:0:0:0:
142,295,114378,1,10,2:0:0:0:
8,249,114511,1,2,2:0:0:0:
95,122,114644,6,0,B|109:167|109:167|97:214,1,92.4000028198243,2|0,1:2|1:0,0:0:0:0:
244,382,114911,2,0,B|230:337|230:337|241:293,1,92.4000028198243,10|2,2:0|2:0,0:0:0:0:
292,169,115178,5,2,1:2:0:0:
197,195,115311,1,2,2:0:0:0:
292,169,115444,1,10,2:0:0:0:
197,195,115577,1,2,2:0:0:0:
344,256,115711,6,0,P|389:264|434:276,1,92.4000028198243,2|2,1:2|2:0,0:0:0:0:
407,184,115978,1,10,2:0:0:0:
372,337,116111,1,10,2:0:0:0:
407,184,116244,6,0,P|396:136|393:94,1,92.4000028198243,4|2,1:0|1:2,0:0:0:0:
294,59,116511,1,10,2:0:0:0:
456,5,116644,2,0,P|395:57|289:57,1,184.800005639649,2|0,1:2|1:0,0:0:0:0:
146,12,117044,2,0,P|156:68|171:157,1,138.600004229736,8|8,2:0|2:0,0:0:0:0:
169,148,117311,6,0,P|125:136|78:129,1,92.4000028198243,4|0,1:0|0:0,0:0:0:0:
54,240,117578,2,0,P|99:246|144:258,1,92.4000028198243,8|0,2:0|0:0,0:0:0:0:
353,141,117844,5,0,1:0:0:0:
234,209,117978,1,0,1:0:0:0:
333,293,118111,2,0,P|402:305|463:336,1,138.600004229736,8|0,2:0|0:0,0:0:0:0:
462,335,118378,6,0,P|481:293|484:245,1,92.4000028198243,2|2,1:2|2:0,0:0:0:0:
343,141,118644,1,10,2:0:0:0:
507,84,118778,6,0,P|462:145|349:146,1,184.800005639649,2|2,1:2|1:2,0:0:0:0:
217,10,119178,2,0,P|202:60|194:105,1,92.4000028198243,10|2,2:0|2:0,0:0:0:0:
245,253,119444,5,2,1:2:0:0:
164,228,119578,1,2,2:0:0:0:
99,283,119711,1,10,2:0:0:0:
181,313,119844,2,0,B|82:295|106:357|-2:338,1,184.800005639649,2|2,1:2|1:2,0:0:0:0:
164,228,120244,5,10,2:0:0:0:
245,253,120378,1,2,2:0:0:0:
315,146,120511,2,0,P|275:162|227:172,1,92.4000028198243,4|2,1:2|2:0,0:0:0:0:
441,284,120778,1,10,2:0:0:0:
441,284,120911,1,2,2:0:0:0:
406,384,121044,2,0,P|350:327|373:209,1,184.800005639649,2|10,1:2|2:0,0:0:0:0:
485,155,121444,1,2,2:0:0:0:
371,2,121578,6,0,P|374:72|392:146,1,138.600004229736,4|0,1:0|0:0,0:0:0:0:
389,138,121844,2,0,P|346:128|292:123,1,92.4000028198243,0|2,1:0|2:0,0:0:0:0:
172,16,122111,2,0,P|215:26|269:31,1,92.4000028198243,0|2,1:0|2:0,0:0:0:0:
222,200,122378,2,0,P|213:154|198:110,1,92.4000028198243,0|2,1:0|2:0,0:0:0:0:
0,339,122644,6,0,P|86:344|142:377,1,138.600004229736,4|0,1:0|0:0,0:0:0:0:
131,368,122911,2,0,P|182:359|222:336,1,92.4000028198243,10|2,2:0|2:0,0:0:0:0:
350,285,123178,1,2,1:2:0:0:
222,200,123311,1,0,1:0:0:0:
329,90,123444,2,0,P|328:142|316:190,1,92.4000028198243,10|2,2:0|2:0,0:0:0:0:
509,348,123711,6,0,P|454:295|342:287,1,184.800005639649,4|10,1:0|2:0,0:0:0:0:
138,214,124111,2,0,P|188:213|232:192,1,92.4000028198243,2|10,2:0|2:0,0:0:0:0:
378,11,124378,1,2,2:0:0:0:
319,181,124511,1,10,2:0:0:0:
504,136,124644,6,0,B|433:125|433:125|405:103|405:103|316:87,1,184.800005639649,2|2,2:0|1:2,0:0:0:0:
112,128,125044,2,0,P|103:86|86:37,1,92.4000028198243,10|2,2:0|1:2,0:0:0:0:
194,60,125311,1,10,2:0:0:0:
13,111,125444,1,2,1:2:0:0:
147,226,125578,6,0,P|216:232|281:256,1,138.600004229736,10|0,2:0|0:0,0:0:0:0:
280,255,125844,2,0,P|261:298|253:346,1,92.4000028198243,4|2,1:0|1:2,0:0:0:0:
416,384,126111,6,0,P|444:296|457:204,1,184.800005639649,10|2,2:0|1:2,0:0:0:0:
382,47,126511,1,2,1:2:0:0:
361,228,126644,1,10,2:0:0:0:
505,106,126778,6,0,B|453:107|394:147|394:147|366:134|331:129,1,184.800005639649,2|2,2:0|2:0,0:0:0:0:
183,23,127178,2,0,P|232:14|276:-3,1,92.4000028198243,10|2,2:0|2:0,0:0:0:0:
262,189,127444,5,2,1:2:0:0:
179,171,127578,1,2,1:2:0:0:
234,114,127711,1,10,2:0:0:0:
206,248,127844,1,2,2:0:0:0:
41,174,127978,6,0,P|11:244|10:352,2,184.800005639649,2|10|2,1:2|2:0|1:2,0:0:0:0:
129,90,128644,1,2,1:2:0:0:
15,51,128778,1,10,2:0:0:0:
157,200,128911,6,0,B|255:176|231:215|346:187,1,184.800005639649,2|2,2:0|2:0,0:0:0:0:
488,226,129311,2,0,P|500:179|506:135,1,92.4000028198243,10|2,2:0|2:0,0:0:0:0:
352,8,129578,5,2,1:2:0:0:
367,90,129711,1,2,1:2:0:0:
430,35,129844,1,10,2:0:0:0:
287,63,129978,1,2,2:0:0:0:
376,256,130111,6,0,P|392:212|402:167,1,92.4000028198243,4|0,1:0|0:0,0:0:0:0:
211,12,130378,2,0,P|194:55|184:100,1,92.4000028198243,10|2,2:0|1:2,0:0:0:0:
247,234,130644,6,0,B|173:250|207:276|120:294,1,138.600004229736,10|0,2:0|0:0,0:0:0:0:
123,293,130911,2,0,P|105:335|96:383,1,92.4000028198243,10|2,2:0|1:2,0:0:0:0:
233,331,131178,5,12,2:0:0:0:
33,249,131311,1,0,1:0:0:0:
33,249,132244,6,0,P|27:218|18:189,2,61.6000018798829,4|2|2,1:2|2:0|2:0,0:0:0:0:
109,141,132511,2,0,P|115:172|124:201,2,61.6000018798829,10|2|2,2:0|2:0|2:0,0:0:0:0:
141,302,132778,5,2,1:2:0:0:
169,294,132866,1,2,2:0:0:0:
199,296,132955,1,2,2:0:0:0:
227,313,133044,2,0,P|262:305|283:292,2,61.6000018798829,10|2|2,2:0|2:0|2:0,0:0:0:0:
347,344,133311,5,2,1:2:0:0:
388,353,133400,1,2,2:0:0:0:
426,346,133489,1,2,2:0:0:0:
461,316,133578,1,10,2:0:0:0:
475,276,133666,1,2,2:0:0:0:
467,224,133755,1,2,2:0:0:0:
438,186,133844,6,0,P|404:198|376:206,2,61.6000018798829,2|2|2,1:2|2:0|2:0,0:0:0:0:
379,110,134111,2,0,P|413:98|441:90,2,61.6000018798829,10|2|2,2:0|2:0|2:0,0:0:0:0:
304,47,134378,5,2,1:2:0:0:
254,36,134466,1,2,2:0:0:0:
208,50,134555,1,2,2:0:0:0:
184,93,134644,1,10,2:0:0:0:
160,136,134733,1,2,2:0:0:0:
114,150,134822,1,2,2:0:0:0:
64,139,134911,6,0,P|57:107|50:78,2,61.6000018798829,2|2|2,1:2|2:0|2:0,0:0:0:0:
4,245,135178,1,10,2:0:0:0:
49,234,135266,1,2,2:0:0:0:
98,237,135355,1,2,2:0:0:0:
139,276,135444,6,0,P|169:270|192:259,3,46.2000014099122,0|0|0|0,1:0|0:0|1:0|0:0,0:0:0:0:
243,363,135711,2,0,P|251:342|257:319,3,46.2000014099122,8|0|2|0,2:0|0:0|1:2|0:0,0:0:0:0:
337,272,135978,5,2,1:2:0:0:
370,280,136044,1,2,1:2:0:0:
404,278,136111,1,10,1:2:0:0:
436,265,136177,1,2,1:2:0:0:
462,242,136244,1,10,1:2:0:0:
407,92,136378,6,0,P|395:136|385:181,1,92.4000028198243,10|2,1:2|1:2,0:0:0:0:
385,181,137044,6,0,B|356:147|313:163|313:163|338:169|352:196,1,126,2|0,2:0|0:0,0:0:0:0:
348,190,137578,5,4,1:0:0:0:
421,79,137711,1,2,2:0:0:0:
307,0,137844,2,0,P|244:44|153:37,1,168,8|0,2:0|1:0,0:0:0:0:
40,104,138244,1,0,1:0:0:0:
47,8,138378,2,0,P|31:50|32:93,1,84,8|2,2:0|2:0,0:0:0:0:
0,242,138644,6,0,P|87:221|170:203,1,168,0|8,1:0|2:0,0:0:0:0:
296,62,139044,1,2,2:0:0:0:
326,158,139178,2,0,P|287:147|238:140,1,84,0|0,1:0|1:0,0:0:0:0:
444,0,139444,5,8,2:0:0:0:
408,101,139578,1,2,2:0:0:0:
506,166,139711,2,0,P|512:229|488:286,1,126,0|0,1:0|0:0,0:0:0:0:
488,285,139978,2,0,P|446:293|402:304,1,84,8|2,2:0|2:0,0:0:0:0:
223,261,140244,2,0,P|265:253|309:242,1,84,0|2,1:0|2:0,0:0:0:0:
331,340,140511,5,8,2:0:0:0:
395,214,140644,1,2,2:0:0:0:
298,115,140778,1,4,1:0:0:0:
298,115,141044,6,0,P|307:72|320:31,1,84,8|2,2:0|2:0,0:0:0:0:
209,203,141311,1,0,1:0:0:0:
72,104,141444,1,0,1:0:0:0:
0,238,141578,6,0,B|60:231|50:203|127:196,1,126,8|8,2:0|2:0,0:0:0:0:
117,196,141844,2,0,P|106:233|94:278,1,84,4|2,1:0|2:0,0:0:0:0:
280,375,142111,1,8,2:0:0:0:
234,238,142244,1,2,2:0:0:0:
388,268,142378,2,0,P|348:280|305:293,1,84,0|0,1:0|1:0,0:0:0:0:
188,317,142644,1,8,2:0:0:0:
318,184,142778,1,0,0:0:0:0:
194,148,142911,6,0,P|178:110|169:64,1,84,2|2,1:2|2:0,0:0:0:0:
347,0,143178,2,0,P|363:38|372:84,1,84,8|0,2:0|1:0,0:0:0:0:
479,296,143444,5,2,2:0:0:0:
495,218,143578,1,0,1:0:0:0:
318,184,143711,5,8,2:0:0:0:
299,264,143844,1,2,2:0:0:0:
411,165,143978,5,2,1:2:0:0:
411,165,144111,1,2,2:0:0:0:
330,350,144244,2,0,P|371:349|412:361,1,84,8|2,2:0|1:2,0:0:0:0:
396,267,144511,5,2,1:2:0:0:
318,184,144644,2,0,P|278:198|231:197,1,84,0|8,1:0|2:0,0:0:0:0:
8,318,144911,6,0,B|96:305|77:350|178:335,1,168,2|2,2:0|2:0,0:0:0:0:
256,368,145311,2,0,P|266:325|268:286,1,84,8|2,2:0|2:0,0:0:0:0:
126,212,145578,2,0,P|92:152|98:90,1,126,0|0,1:0|0:0,0:0:0:0:
95,96,145844,5,8,2:0:0:0:
236,198,145978,1,2,1:2:0:0:
69,295,146111,1,4,1:0:0:0:
69,295,146644,6,0,P|135:295|199:324,1,134.4,4|2,1:2|2:0,0:0:0:0:
284,295,147044,1,0,0:0:0:0:
334,370,147178,2,0,P|369:371|402:361,2,67.2,2|0|2,1:2|0:0|2:0,0:0:0:0:
284,295,147578,5,0,0:0:0:0:
442,263,147711,2,0,P|495:177|475:75,1,201.6,4|0,1:2|0:0,0:0:0:0:
423,21,148244,2,0,P|392:29|355:38,1,67.2,4|0,1:2|0:0,0:0:0:0:
237,7,148511,1,8,2:0:0:0:
237,7,148778,6,0,B|211:123|211:123|247:143|256:188,1,201.6,8|2,2:0|2:0,0:0:0:0:
311,90,149311,1,14,2:0:0:0:
164,202,149578,1,8,2:0:0:0:
401,341,149844,5,10,2:0:0:0:
360,243,149978,1,0,1:0:0:0:
279,317,150111,1,8,2:0:0:0:
279,317,150378,6,0,P|234:326|197:339,1,84,4|2,1:0|2:0,0:0:0:0:
0,246,150644,2,0,P|45:237|82:224,1,84,8|2,2:0|2:0,0:0:0:0:
235,112,150911,5,0,1:0:0:0:
197,229,151044,1,0,1:0:0:0:
61,124,151178,2,0,P|103:133|143:146,1,84,8|2,2:0|2:0,0:0:0:0:
386,3,151444,6,0,P|338:57|338:152,1,168,0|8,1:0|2:0,0:0:0:0:
426,97,151844,1,2,2:0:0:0:
269,229,151978,2,0,P|305:236|351:252,1,84,0|0,1:0|1:0,0:0:0:0:
216,43,152244,5,8,2:0:0:0:
130,123,152378,1,2,2:0:0:0:
12,92,152511,1,2,1:2:0:0:
12,92,152778,5,8,2:0:0:0:
90,43,152911,1,0,0:0:0:0:
130,123,153044,2,0,B|119:163|109:205,1,84,0|0,1:0|1:0,0:0:0:0:
88,285,153311,5,8,2:0:0:0:
246,225,153444,1,2,2:0:0:0:
348,363,153578,2,0,P|414:349|471:338,1,126,2|0,1:2|0:0,0:0:0:0:
471,337,153844,2,0,P|484:295|489:257,1,84,8|2,2:0|2:0,0:0:0:0:
322,104,154111,5,0,1:0:0:0:
388,173,154244,1,0,1:0:0:0:
477,150,154378,1,8,2:0:0:0:
477,150,154644,6,0,P|438:158|385:173,1,92.4000028198243,4|2,1:0|1:2,0:0:0:0:
194,100,154911,1,10,2:0:0:0:
210,9,155044,2,0,P|258:31|268:155,1,184.800005639649,2|2,2:0|1:2,0:0:0:0:
99,303,155444,1,8,2:0:0:0:
32,244,155578,6,0,P|71:222|128:220,1,92.4000028198243,2|0,2:0|1:0,0:0:0:0:
287,301,155844,1,2,2:0:0:0:
215,231,155978,1,10,2:0:0:0:
271,150,156111,1,2,2:0:0:0:
194,100,156244,6,0,P|150:110|103:119,1,92.4000028198243,2|0,1:2|1:0,0:0:0:0:
215,231,156511,1,10,2:0:0:0:
271,150,156645,1,2,2:0:0:0:
376,320,156778,6,0,P|334:307|287:301,1,92.4000028198243,2|2,1:2|2:0,0:0:0:0:
447,184,157044,2,0,P|405:197|358:203,1,92.4000028198243,10|2,2:0|2:0,0:0:0:0:
143,306,157311,5,2,1:2:0:0:
121,208,157444,1,2,2:0:0:0:
143,306,157578,1,10,2:0:0:0:
121,208,157711,1,10,2:0:0:0:
0,361,157844,6,0,P|45:366|94:380,1,92.4000028198243,4|2,1:0|1:2,0:0:0:0:
207,238,158111,1,10,2:0:0:0:
40,149,158244,6,0,P|13:89|44:15,1,138.600004229736,2|0,1:2|0:0,0:0:0:0:
35,23,158511,1,0,1:0:0:0:
190,59,158644,2,0,P|143:71|100:86,1,92.4000028198243,8|8,2:0|2:0,0:0:0:0:
0,249,158911,6,0,P|55:214|132:209,1,138.600004229736,4|0,1:0|0:0,0:0:0:0:
137,215,159178,2,0,B|125:261|114:306,1,92.4000028198243,8|0,2:0|0:0,0:0:0:0:
234,384,159444,2,0,B|244:340|256:294,1,92.4000028198243,0|0,1:0|1:0,0:0:0:0:
339,130,159711,2,0,P|381:119|439:102,1,92.4000028198243,8|0,2:0|0:0,0:0:0:0:
406,222,159978,5,2,1:2:0:0:
249,176,160111,1,2,2:0:0:0:
406,222,160244,1,10,2:0:0:0:
256,294,160378,6,0,B|163:277|169:317|66:302,1,184.800005639649,2|2,1:2|1:2,0:0:0:0:
150,202,160778,1,10,2:0:0:0:
0,149,160911,2,0,P|43:141|89:126,1,92.4000028198243,2|2,2:0|1:2,0:0:0:0:
257,190,161178,5,2,2:0:0:0:
193,11,161311,1,10,2:0:0:0:
384,40,161444,2,0,P|319:91|220:91,1,184.800005639649,2|2,1:2|1:2,0:0:0:0:
360,186,161844,1,10,2:0:0:0:
453,145,161978,1,2,2:0:0:0:
512,233,162111,2,0,P|502:281|493:329,1,92.4000028198243,4|2,1:2|2:0,0:0:0:0:
380,382,162378,5,10,2:0:0:0:
306,290,162511,1,2,2:0:0:0:
360,186,162644,2,0,B|297:187|240:214|240:214|212:202|177:198,1,184.800005639649,2|10,1:2|2:0,0:0:0:0:
219,80,163044,1,2,2:0:0:0:
71,0,163178,6,0,P|84:65|97:139,1,138.600004229736,4|0,1:0|0:0,0:0:0:0:
96,136,163444,1,0,1:0:0:0:
15,266,163578,2,0,P|60:268|105:293,1,92.4000028198243,2|0,2:0|1:0,0:0:0:0:
267,174,163844,2,0,P|226:195|180:197,1,92.4000028198243,2|0,2:0|1:0,0:0:0:0:
229,381,164111,2,0,P|236:336|246:288,1,92.4000028198243,2|4,2:0|1:0,0:0:0:0:
433,151,164378,5,0,0:0:0:0:
497,227,164511,2,0,P|445:269|361:268,1,138.600004229736,10|0,2:0|0:0,0:0:0:0:
361,279,164778,2,0,P|352:233|341:183,1,92.4000028198243,2|0,1:2|1:0,0:0:0:0:
383,53,165044,1,10,2:0:0:0:
250,86,165178,1,2,2:0:0:0:
134,3,165311,6,0,P|48:23|17:106,1,184.800005639649,4|10,1:0|2:0,0:0:0:0:
175,247,165711,1,2,2:0:0:0:
21,200,165844,6,0,P|70:186|114:176,1,92.4000028198243,10|2,2:0|2:0,0:0:0:0:
189,127,166111,1,10,2:0:0:0:
86,270,166244,1,2,2:0:0:0:
232,368,166378,6,0,P|305:347|371:332,1,138.600004229736,14|0,2:0|0:0,0:0:0:0:
366,333,166644,1,8,2:0:0:0:
306,244,166778,1,0,1:0:0:0:
414,147,166911,2,0,P|413:196|404:240,1,92.4000028198243,10|2,2:0|1:2,0:0:0:0:
272,169,167178,5,10,2:0:0:0:
131,255,167311,1,2,1:2:0:0:
8,110,167444,1,4,1:0:0:0:
8,110,167711,6,0,B|39:115|72:124|72:124|120:113|120:113|160:124|202:128,1,184.800005639649,10|2,2:0|1:2,0:0:0:0:
380,191,168111,1,2,1:2:0:0:
288,26,168244,1,10,2:0:0:0:
306,244,168378,6,0,B|249:201|269:114|269:114|315:138,1,184.800005639649,2|2,2:0|2:0,0:0:0:0:
463,80,168778,1,10,2:0:0:0:
288,26,168911,1,2,2:0:0:0:
380,191,169044,2,0,P|425:181|471:171,1,92.4000028198243,2|2,1:2|1:2,0:0:0:0:
403,15,169311,5,10,2:0:0:0:
305,132,169444,1,2,2:0:0:0:
145,61,169578,1,2,1:2:0:0:
145,61,169844,6,0,P|126:110|120:158,1,92.4000028198243,10|2,2:0|2:0,0:0:0:0:
181,289,170111,1,2,1:2:0:0:
11,170,170244,1,2,1:2:0:0:
202,205,170378,1,10,2:0:0:0:
3,254,170511,6,0,B|33:265|33:265|73:261|73:261|122:295|195:287,1,184.800005639649,2|2,2:0|2:0,0:0:0:0:
388,110,170911,2,0,B|374:155|366:203,1,92.4000028198243,10|2,2:0|2:0,0:0:0:0:
448,349,171178,5,2,1:2:0:0:
281,270,171311,1,2,1:2:0:0:
471,229,171444,1,10,2:0:0:0:
334,369,171578,1,2,2:0:0:0:
367,200,171711,1,4,1:0:0:0:
367,200,171978,6,0,P|379:155|387:109,1,92.4000028198243,10|2,2:0|1:2,0:0:0:0:
222,11,172244,5,10,2:0:0:0:
260,157,172378,1,2,1:2:0:0:
112,120,172511,2,0,P|65:130|21:145,1,92.4000028198243,10|2,2:0|1:2,0:0:0:0:
23,144,172711,1,0,0:0:0:0:
24,145,172778,6,0,P|9:191|-1:234,1,92.4000028198243,12|2,2:0|1:2,0:0:0:0:
200,352,173044,2,0,P|215:306|225:263,1,92.4000028198243,10|2,2:0|1:2,0:0:0:0:
104,16,173311,5,10,2:0:0:0:
181,172,173444,1,0,1:2:0:0:
284,33,173577,1,10,2:0:0:0:
284,33,173844,6,0,B|359:21|329:51|457:27,1,138.600004229736,4|0,1:0|0:0,0:0:0:0:
421,32,174111,2,0,P|410:76|399:126,1,92.4000028198243,10|2,2:0|2:0,0:0:0:0:
323,286,174378,5,2,1:2:0:0:
272,142,174511,1,2,1:2:0:0:
490,172,174644,6,0,P|431:202|360:202,1,138.600004229736,10|2,2:0|2:0,0:0:0:0:
347,197,174911,2,0,P|334:237|321:292,1,92.4000028198243,2|0,1:2|0:0,0:0:0:0:
184,215,175178,1,10,2:0:0:0:
407,334,175311,6,0,B|314:292|332:379|220:323,1,184.800005639649,2|2,2:0|1:2,0:0:0:0:
52,376,175711,1,10,2:0:0:0:
118,228,175844,5,2,2:0:0:0:
118,228,175911,1,2,2:0:0:0:
118,228,175978,2,0,P|130:272|131:318,1,92.4000028198243,2|0,1:2|0:0,0:0:0:0:
209,232,176244,1,10,2:0:0:0:
11,187,176378,2,0,P|20:142|32:97,1,92.4000028198243,2|2,2:0|1:2,0:0:0:0:
212,24,176644,5,2,1:2:0:0:
179,121,176778,1,10,2:0:0:0:
100,49,176911,1,2,2:0:0:0:
282,98,177044,1,2,1:2:0:0:
282,98,177311,6,0,B|362:79|362:79|425:96,1,138.600004229736,8|0,2:0|0:0,0:0:0:0:
416,93,177578,1,2,1:2:0:0:
348,285,177711,1,2,1:2:0:0:
512,219,177844,2,0,P|464:193|378:193,1,138.600004229736,10|2,2:0|2:0,0:0:0:0:
353,180,178111,6,0,P|308:193|265:205,1,92.4000028198243,2|2,1:2|2:0,0:0:0:0:
319,370,178378,2,0,P|324:322|333:278,1,92.4000028198243,10|2,2:0|1:2,0:0:0:0:
187,170,178644,2,0,P|106:219|14:194,1,184.800005639649,10|10,2:0|2:0,0:0:0:0:
187,170,179044,1,2,1:2:0:0:
114,37,179178,6,0,P|98:79|87:128,1,92.4000028198243,12|2,2:0|2:0,0:0:0:0:
271,249,179444,2,0,P|287:207|298:158,1,92.4000028198243,10|2,2:0|1:2,0:0:0:0:
307,36,179711,5,10,2:0:0:0:
512,87,179844,1,2,1:2:0:0:
371,227,179978,1,10,2:0:0:0:
371,227,180244,6,0,B|313:215|313:215|257:232|257:232|184:215,1,184.800005639649,12|10,2:0|2:0,0:0:0:0:
41,243,180644,1,2,1:2:0:0:
86,76,180778,2,0,P|99:120|106:168,1,92.4000028198243,10|2,2:0|1:2,0:0:0:0:
132,295,181044,1,10,2:0:0:0:
257,137,181178,5,2,1:2:0:0:
257,137,181244,1,0,0:0:0:0:
257,137,181311,2,0,P|324:137|392:104,1,138.600004229736,12|0,2:0|0:0,0:0:0:0:
387,107,181578,2,0,P|434:118|480:133,1,92.4000028198243,10|2,2:0|1:2,0:0:0:0:
462,25,181844,5,10,2:0:0:0:
417,210,181978,1,2,1:2:0:0:
257,137,182111,2,0,P|242:181|229:227,1,92.4000028198243,10|2,2:0|1:2,0:0:0:0:
64,143,182378,6,0,B|54:98|43:56|43:56|76:5|124:25,1,184.800005639649,4|10,1:0|2:0,0:0:0:0:
229,225,182778,1,2,2:0:0:0:
432,102,182911,2,0,B|335:86|357:157|256:136,1,184.799999999993,2|10,1:2|2:0,0:0:0:0:
432,102,183311,1,2,2:0:0:0:
370,214,183444,37,4,1:0:0:0:
296,43,183578,1,2,1:2:0:0:
370,214,183711,2,0,P|359:258|354:305,1,92.4000028198243,10|2,2:0|1:2,0:0:0:0:
184,344,183978,2,0,P|98:365|29:308,1,184.799999999993,2|10,1:2|2:0,0:0:0:0:
218,241,184378,1,2,2:0:0:0:
98,179,184511,38,0,P|110:224|116:270,1,92.3999999999962,4|2,1:0|1:2,0:0:0:0:
312,176,184778,2,0,P|300:131|294:85,1,92.4000028198243,10|2,2:0|2:0,0:0:0:0:
187,58,185044,2,0,P|198:149|217:240,1,184.800005639649,2|10,1:2|2:0,0:0:0:0:
421,379,185444,1,2,2:0:0:0:
511,320,185578,6,0,P|422:332|346:283,1,184.800005639649,4|10,1:0|2:0,0:0:0:0:
277,176,185978,2,0,P|285:130|294:85,1,92.3999999999962,2|2,2:0|1:2,0:0:0:0:
408,36,186244,1,2,1:2:0:0:
408,36,186378,2,0,P|399:81|390:126,1,92.3999999999962,10|2,2:0|2:0,0:0:0:0:
346,283,186644,6,0,B|294:291|255:318|255:318|209:320|172:300,1,184.800005639649,4|10,1:0|2:0,0:0:0:0:
15,242,187044,1,2,1:2:0:0:
75,384,187178,2,0,P|86:337|86:293,1,92.4000028198243,10|2,2:0|1:2,0:0:0:0:
244,149,187444,1,10,2:0:0:0:
23,79,187578,1,2,1:2:0:0:
110,180,187711,6,0,P|176:171|244:148,1,138.600004229736,4|0,1:0|0:0,0:0:0:0:
243,148,187978,2,0,P|260:191|266:237,1,92.4000028198243,10|0,2:0|1:0,0:0:0:0:
345,184,188244,5,10,2:0:0:0:
201,319,188378,1,0,1:0:0:0:
367,376,188511,2,0,P|361:331|347:287,1,92.4000028198243,10|0,2:0|1:0,0:0:0:0:
507,123,188778,6,0,P|438:178|336:181,1,184.800005639649,4|10,1:0|2:0,0:0:0:0:
193,106,189178,1,2,1:2:0:0:
316,73,189311,6,0,P|362:62|405:45,1,92.4000028198243,10|0,2:0|1:0,0:0:0:0:
266,273,189578,2,0,P|253:226|252:182,1,92.4000028198243,10|0,2:0|1:0,0:0:0:0:
118,10,189844,6,0,P|44:36|20:127,1,138.600004229736,4|0,1:0|0:0,0:0:0:0:
17,86,190111,2,0,P|29:128|41:181,1,92.4000028198243,10|2,2:0|1:2,0:0:0:0:
148,118,190378,1,10,2:0:0:0:
190,255,190511,1,2,1:2:0:0:
308,142,190644,1,10,2:0:0:0:
381,214,190778,5,2,1:2:0:0:
381,214,190844,1,0,0:0:0:0:
381,214,190911,2,0,P|450:216|506:146,1,138.600004229736,4|0,1:0|0:0,0:0:0:0:
498,170,191178,2,0,P|486:123|480:79,1,92.4000028198243,8|0,2:0|0:0,0:0:0:0:
355,16,191444,5,0,1:0:0:0:
337,93,191578,1,0,1:0:0:0:
161,52,191711,5,8,2:0:0:0:
179,129,191845,1,2,1:2:0:0:
383,177,191978,6,0,P|370:216|359:278,1,92.4000028198243,2|0,1:2|0:0,0:0:0:0:
282,202,192244,1,10,2:0:0:0:
432,323,192378,6,0,B|380:295|322:296|322:296|297:322|260:331,1,184.800005639649,2|2,1:2|1:2,0:0:0:0:
96,289,192778,2,0,P|105:334|111:383,1,92.4000028198243,10|2,2:0|2:0,0:0:0:0:
188,260,193044,5,4,1:0:0:0:
206,179,193178,1,0,2:0:0:0:
21,206,193311,5,10,2:0:0:0:
3,125,193445,1,2,1:2:0:0:
132,15,193578,5,2,1:2:0:0:
114,96,193712,1,2,1:2:0:0:
214,188,193844,5,10,2:0:0:0:
232,107,193978,1,2,1:2:0:0:
391,8,194111,6,0,P|348:22|296:31,1,92.4000028198243,2|2,1:2|2:0,0:0:0:0:
379,124,194378,1,10,2:0:0:0:
498,77,194511,1,2,2:0:0:0:
494,204,194644,2,0,P|432:261|334:248,1,184.800005639649,2|8,1:2|2:0,0:0:0:0:
201,348,195044,5,0,0:0:0:0:
201,348,195111,1,0,0:0:0:0:
201,348,195178,2,0,P|213:269|235:165,1,184.800005639649,4|10,1:0|2:0,0:0:0:0:
83,45,195578,1,2,1:2:0:0:
53,124,195711,2,0,B|101:132|101:132|151:101,1,92.4000028198243,2|2,1:2|1:2,0:0:0:0:
311,40,195978,5,10,2:0:0:0:
409,184,196111,1,2,1:2:0:0:
507,80,196244,2,0,B|416:62|421:140|307:115,1,184.800005639649,6|8,1:2|2:0,0:0:0:0:
186,170,196644,1,2,2:0:0:0:
227,17,196778,2,0,P|237:61|241:107,1,92.4000028198243,2|0,1:2|0:0,0:0:0:0:
3,226,197044,2,0,P|77:231|138:271,1,138.600004229736,8|0,2:0|0:0,0:0:0:0:
130,263,197311,6,0,P|221:244|314:223,1,184.800005639649,14|10,2:0|2:0,0:0:0:0:
462,269,197711,1,2,1:2:0:0:
389,384,197844,6,0,P|382:338|369:294,1,92.4000028198243,10|2,2:0|1:2,0:0:0:0:
488,184,198111,2,0,P|474:139|468:94,1,92.4000028198243,10|2,2:0|1:2,0:0:0:0:
296,0,198378,5,0,1:2:0:0:
272,25,198444,1,0,1:2:0:0:
241,40,198511,1,0,1:2:0:0:
207,43,198577,1,0,1:2:0:0:
174,33,198644,1,0,1:2:0:0:
45,0,198778,2,0,L|52:46,1,46.2000014099122,0|0,1:2|1:2,0:0:0:0:
67,153,198911,5,4,1:2:0:0:
256,192,198978,12,2,203444,0:0:0:0:
