osu file format v14

[General]
AudioFilename: audio.mp3
AudioLeadIn: 0
PreviewTime: 173846
Countdown: 0
SampleSet: Drum
StackLeniency: 0.3
Mode: 0
LetterboxInBreaks: 0
WidescreenStoryboard: 1

[Editor]
Bookmarks: 49579,52379,57379,60779,62912,66112,88512,91712,115579,124246,130112,131979,137579,150379,154646,165712,167446,173846
DistanceSpacing: 0.4
BeatDivisor: 8
GridSize: 8
TimelineZoom: 2.36

[Metadata]
Title:Under Kids
TitleUnicode:アンダーキッズ
Artist:TUYU
ArtistUnicode:ツユ
Creator:- Mel -
Version:Insane
Source:
Tags:def0ltt niti procq andaa kisuzu ぷす pusu 礼衣 rei おむたつ omutatsu japanese j-rock jrock rock anoyo iki no basu ni notte saraba doro bunzai de watashi dake taisetsu o ubaouda nante kuraberarekko yappari ame wa furun dane namikare mash up
BeatmapID:3889791
BeatmapSetID:1818102

[Difficulty]
HPDrainRate:4.2
CircleSize:4
OverallDifficulty:7
ApproachRate:8.9
SliderMultiplier:0.999999999999999
SliderTickRate:1

[Events]
//Background and Video events
0,0,"7badcceda82581cbc94b1c03fe3fea79.1000x563x1 (2).jpg",0,0
Video,0,"parentskickedteenagerdaughteroutforbeingtoocoolthisiswhathappened.mp4"
//Break Periods
2,18112,21171
2,88512,91571
//Storyboard Layer 0 (Background)
//Storyboard Layer 1 (Fail)
//Storyboard Layer 2 (Pass)
//Storyboard Layer 3 (Foreground)
//Storyboard Layer 4 (Overlay)
//Storyboard Sound Samples

[TimingPoints]
1046,266.666666666667,4,3,4,70,1,0
1046,-100,4,3,4,70,0,1
1579,-100,4,3,2,70,0,1
5312,-100,4,3,3,70,0,1
5446,-100,4,3,2,70,0,1
9579,-100,4,3,4,70,0,0
9712,-100,4,3,2,70,0,0
10112,-125,4,3,2,70,0,0
13846,-100,4,3,3,70,0,1
13979,-100,4,3,2,70,0,1
17046,-100,4,3,4,70,0,0
18112,-100,4,3,2,70,0,0
22246,-100,4,3,3,70,0,0
22512,-100,4,3,2,70,0,0
24512,-133.333333333333,4,3,3,70,0,0
24779,-133.333333333333,4,3,2,70,0,0
37312,-100,4,3,4,70,0,0
37446,-100,4,3,2,70,0,0
41579,-100,4,3,3,70,0,0
41846,-100,4,3,2,70,0,0
42646,-100,4,3,3,70,0,0
42779,-100,4,3,2,70,0,0
43712,-100,4,3,3,70,0,0
43846,-100,4,3,2,70,0,0
44779,-100,4,3,3,70,0,0
44912,-100,4,3,2,70,0,0
45846,-100,4,3,4,70,0,0
46112,-100,4,3,2,70,0,0
47979,-100,4,3,3,70,0,0
48246,-100,4,3,2,70,0,0
49579,-100,4,3,3,70,0,0
50112,-100,4,3,4,70,0,1
50246,-100,4,3,2,70,0,1
54379,-100,4,3,3,70,0,1
54512,-100,4,3,2,70,0,1
58646,-125,4,3,3,70,0,0
58912,-125,4,3,2,70,0,0
62912,-125,4,3,3,70,0,1
63046,-125,4,3,2,70,0,1
66112,-125,4,3,3,70,0,0
66646,-250,4,3,2,70,0,0
67179,-66.6666666666667,4,3,4,70,0,1
67312,-66.6666666666667,4,3,2,70,0,1
71446,-66.6666666666667,4,3,3,70,0,1
71579,-66.6666666666667,4,3,2,70,0,1
75712,-66.6666666666667,4,3,3,70,0,1
75846,-66.6666666666667,4,3,2,70,0,1
76779,-66.6666666666667,4,3,3,70,0,1
76912,-66.6666666666667,4,3,2,70,0,1
77846,-66.6666666666667,4,3,3,70,0,1
77979,-66.6666666666667,4,3,2,70,0,1
78913,-66.6666666666667,4,3,3,70,0,1
79046,-66.6666666666667,4,3,2,70,0,1
79979,-66.6666666666667,4,3,4,70,0,1
80246,-66.6666666666667,4,3,2,70,0,1
84246,-66.6666666666667,4,3,3,70,0,1
84379,-66.6666666666667,4,3,2,70,0,1
86379,-66.6666666666667,4,3,4,70,0,0
88379,-66.6666666666667,4,3,2,70,0,0
88512,-66.6666666666667,4,3,3,70,0,0
89046,-66.6666666666667,4,3,2,70,0,0
91712,-66.6666666666667,4,3,4,70,0,0
92246,-66.6666666666667,4,3,2,70,0,0
92646,-100,4,3,3,70,0,0
92779,-100,4,3,2,70,0,0
95979,-83.3333333333333,4,3,4,70,0,0
96112,-83.3333333333333,4,3,2,70,0,0
100246,-83.3333333333333,4,3,3,70,0,0
100379,-83.3333333333333,4,3,2,70,0,0
104512,-100,4,3,3,70,0,0
104646,-100,4,3,2,70,0,0
108779,-83.3333333333333,4,3,3,70,0,0
108846,-83.3333333333333,4,3,2,70,0,0
110912,-83.3333333333333,4,3,3,70,0,0
111046,-83.3333333333333,4,3,2,70,0,0
111979,-83.3333333333333,4,3,3,70,0,0
112112,-83.3333333333333,4,3,2,70,0,0
113046,-66.6666666666667,4,3,4,70,0,1
113179,-66.6666666666667,4,3,2,70,0,1
117312,-66.6666666666667,4,3,3,70,0,1
117446,-66.6666666666667,4,3,2,70,0,1
121579,-66.6666666666667,4,3,3,70,0,1
121712,-66.6666666666667,4,3,2,70,0,1
122646,-66.6666666666667,4,3,3,70,0,1
122779,-66.6666666666667,4,3,2,70,0,1
123712,-66.6666666666667,4,3,3,70,0,1
123846,-66.6666666666667,4,3,2,70,0,1
124779,-66.6666666666667,4,3,3,70,0,1
124912,-66.6666666666667,4,3,2,70,0,1
125846,-66.6666666666667,4,3,4,70,0,1
125979,-66.6666666666667,4,3,2,70,0,1
130112,-66.6666666666667,4,3,3,70,0,1
130246,-66.6666666666667,4,3,2,70,0,1
132246,-50,4,3,4,70,0,0
132312,-50,4,3,2,70,0,0
137046,-250,4,3,2,70,0,0
137579,-83.3333333333333,4,3,4,70,0,1
137712,-83.3333333333333,4,3,2,70,0,1
141846,-83.3333333333333,4,3,3,70,0,1
141979,-83.3333333333333,4,3,2,70,0,1
146112,-100,4,3,4,70,0,0
146379,-100,4,3,2,70,0,0
150379,-83.3333333333333,4,3,3,70,0,1
150512,-83.3333333333333,4,3,2,70,0,1
153579,-83.3333333333333,4,3,4,70,0,0
154112,-250,4,3,2,70,0,0
154646,-83.3333333333333,4,3,4,70,0,1
154779,-83.3333333333333,4,3,2,70,0,1
158912,-83.3333333333333,4,3,3,70,0,1
159046,-83.3333333333333,4,3,2,70,0,1
163179,-83.3333333333333,4,3,3,70,0,1
163312,-83.3333333333333,4,3,2,70,0,1
164246,-83.3333333333333,4,3,3,70,0,1
164379,-83.3333333333333,4,3,2,70,0,1
165312,-83.3333333333333,4,3,3,70,0,1
165446,-83.3333333333333,4,3,2,70,0,1
166379,-83.3333333333333,4,3,3,70,0,1
166646,-83.3333333333333,4,3,2,70,0,1
167446,-83.3333333333333,4,3,4,70,0,1
167712,-83.3333333333333,4,3,2,70,0,1
171712,-83.3333333333333,4,3,3,70,0,1
171846,-83.3333333333333,4,3,2,70,0,1
172779,-83.3333333333333,4,3,3,70,0,0
173846,-66.6666666666667,4,3,4,70,0,1
173979,-66.6666666666667,4,3,2,70,0,1
175979,-66.6666666666667,4,3,3,70,0,1
176113,-66.6666666666667,4,3,2,70,0,1
178112,-66.6666666666667,4,3,4,70,0,1
178246,-66.6666666666667,4,3,2,70,0,1
179179,-66.6666666666667,4,3,3,70,0,1
179313,-66.6666666666667,4,3,2,70,0,1
180246,-66.6666666666667,4,3,3,70,0,1
180380,-66.6666666666667,4,3,2,70,0,1
181312,-66.6666666666667,4,3,3,70,0,1
181446,-66.6666666666667,4,3,2,70,0,1
182379,-66.6666666666667,4,3,4,70,0,1
182513,-66.6666666666667,4,3,2,70,0,1
184512,-66.6666666666667,4,3,3,70,0,1
184646,-66.6666666666667,4,3,2,70,0,1
186646,-66.6666666666667,4,3,4,70,0,1
186780,-66.6666666666667,4,3,2,70,0,1
187712,-66.6666666666667,4,3,3,70,0,1
187846,-66.6666666666667,4,3,2,70,0,1
188779,-66.6666666666667,4,3,3,70,0,1
188913,-66.6666666666667,4,3,2,70,0,1
189846,-66.6666666666667,4,3,3,70,0,1
189980,-66.6666666666667,4,3,2,70,0,1
190912,-66.6666666666667,4,3,4,70,0,1
191046,-66.6666666666667,4,3,2,70,0,1
191979,-66.6666666666667,4,3,3,70,0,1
192113,-66.6666666666667,4,3,2,70,0,1
193046,-66.6666666666667,4,3,3,70,0,1
193180,-66.6666666666667,4,3,2,70,0,1
194112,-66.6666666666667,4,3,3,70,0,1
194246,-66.6666666666667,4,3,2,70,0,1
195179,-66.6666666666667,4,3,3,70,0,1
195313,-66.6666666666667,4,3,2,70,0,1
196246,-66.6666666666667,4,3,3,70,0,1
196380,-66.6666666666667,4,3,2,70,0,1
197312,-66.6666666666667,4,3,3,70,0,1
197446,-66.6666666666667,4,3,2,70,0,1
198912,-66.6666666666667,4,3,4,70,0,0

[Colours]
Combo1 : 83,54,95
Combo2 : 154,130,191
Combo3 : 120,73,163
Combo4 : 132,102,144
Combo5 : 246,229,230

[HitObjects]
88,80,1046,6,0,L|193:100,1,99.9999999999999,10|4,0:0|0:0,0:0:0:0:
245,165,1446,1,0,0:0:0:0:
245,165,1579,2,0,L|305:154,2,50,8|8|6,0:0|0:0|0:0,0:0:0:0:
343,79,1979,1,2,0:0:0:0:
422,110,2112,6,0,L|432:165,1,50,10|2,0:0|0:0,0:0:0:0:
377,222,2379,2,0,L|367:329,1,99.9999999999999,6|10,0:0|0:0,0:0:0:0:
296,365,2779,1,8,0:0:0:0:
296,365,2912,2,0,L|236:351,1,50,4|0,0:0|0:0,0:0:0:0:
194,284,3179,6,0,L|82:304,2,99.9999999999999,10|6|10,0:0|0:0|0:0,0:0:0:0:
240,217,3979,1,4,0:0:0:0:
29,95,4246,6,0,L|145:110,1,99.9999999999999,10|6,0:0|0:0,0:0:0:0:
205,64,4646,1,8,0:0:0:0:
205,64,4779,2,0,L|261:51,1,50,2|8,0:0|0:0,0:0:0:0:
323,100,5046,2,0,L|334:150,1,50,6|4,0:0|0:0,0:0:0:0:
413,190,5312,5,10,0:0:0:0:
461,121,5446,1,2,0:0:0:0:
411,199,5579,2,0,L|403:249,1,50,6|2,0:0|0:0,0:0:0:0:
292,291,5846,5,10,0:0:0:0:
340,360,5980,1,10,0:0:0:0:
290,282,6113,2,0,L|282:232,1,50,6|2,0:0|0:0,0:0:0:0:
329,152,6379,5,10,0:0:0:0:
258,120,6512,1,2,0:0:0:0:
204,177,6646,1,6,0:0:0:0:
116,101,6779,1,2,0:0:0:0:
46,153,6912,6,0,L|51:203,1,50,10|10,0:0|0:0,0:0:0:0:
113,253,7179,1,6,0:0:0:0:
113,253,7312,1,2,0:0:0:0:
42,325,7446,6,0,L|141:339,2,99.9999999999999,8|4|10,0:0|0:0|0:0,0:0:0:0:
213,298,8246,1,4,0:0:0:0:
192,219,8379,1,10,0:0:0:0:
192,219,8512,6,0,L|206:120,2,99.9999999999999,8|6|10,0:0|0:0|0:0,0:0:0:0:
276,66,9179,1,0,0:0:0:0:
276,66,9312,2,0,L|339:61,1,50,6|8,0:0|0:0,0:0:0:0:
396,115,9579,5,10,0:0:0:0:
475,102,9712,1,2,0:0:0:0:
503,176,9846,1,2,0:0:0:0:
503,176,10112,2,0,L|499:261,1,79.9999999999999,4|2,0:0|0:0,0:0:0:0:
440,321,10512,1,2,0:0:0:0:
440,321,10646,6,0,P|404:325|366:295,1,79.9999999999999,10|2,0:0|0:0,0:0:0:0:
299,255,11046,1,0,0:0:0:0:
299,255,11179,2,0,L|309:173,1,79.9999999999999,6|2,0:0|0:0,0:0:0:0:
249,120,11579,1,0,0:0:0:0:
184,172,11712,6,0,L|174:254,2,79.9999999999999,10|2|6,0:0|0:0|0:0,0:0:0:0:
121,117,12379,1,0,0:0:0:0:
121,117,12512,2,0,L|113:73,1,40
179,27,12779,6,0,L|261:39,1,79.9999999999999,10|6,0:0|0:0,0:0:0:0:
318,100,13179,1,0,0:0:0:0:
318,100,13312,2,0,L|407:91,1,79.9999999999999,10|6,0:0|0:0,0:0:0:0:
463,147,13712,1,0,0:0:0:0:
416,218,13846,6,0,L|423:274,1,50,10|2,0:0|0:0,0:0:0:0:
364,332,14112,2,0,L|313:320,1,50,6|2,0:0|0:0,0:0:0:0:
250,268,14379,1,10,0:0:0:0:
192,322,14512,1,10,0:0:0:0:
130,277,14646,1,6,0:0:0:0:
57,303,14779,1,2,0:0:0:0:
15,227,14912,6,0,L|11:176,1,50,10|2,0:0|0:0,0:0:0:0:
64,110,15179,2,0,L|121:120,1,50,6|2,0:0|0:0,0:0:0:0:
180,57,15446,1,10,0:0:0:0:
247,108,15579,1,10,0:0:0:0:
318,64,15712,1,6,0:0:0:0:
358,148,15846,1,6,0:0:0:0:
438,136,15979,5,8,0:0:0:0:
358,148,16246,1,4,0:0:0:0:
358,148,16379,1,6,0:0:0:0:
318,64,16512,1,10,0:0:0:0:
247,108,16779,1,6,0:0:0:0:
247,108,16912,1,2,0:0:0:0:
180,57,17046,5,10,0:0:0:0:
75,138,17579,5,8,0:0:0:0:
75,138,17712,1,4,0:0:0:0:
391,316,21846,5,8,0:0:0:0:
315,340,21979,1,4,0:0:0:0:
395,310,22246,6,0,L|286:293,1,99.9999999999999,10|8,0:0|0:0,0:0:0:0:
233,235,22646,2,0,P|209:234|162:290,2,99.9999999999999,4|8|4,0:0|0:0|0:0,0:0:0:0:
301,175,23312,1,0,0:0:0:0:
301,175,23446,6,0,L|358:185,1,50,8|0,0:0|0:0,0:0:0:0:
402,111,23712,2,0,L|503:94,1,99.9999999999999,4|8,0:0|0:0,0:0:0:0:
505,9,24112,1,4,0:0:0:0:
79,187,24512,6,0,L|165:199,2,75.000002861023,10|2|10,0:0|0:0|0:0,0:0:0:0:
32,126,25312,1,2,0:0:0:0:
170,34,25579,6,0,L|178:115,2,75.000002861023,10|2|10,0:0|0:0|0:0,0:0:0:0:
248,2,26246,1,2,0:0:0:0:
310,55,26379,2,0,L|300:93,1,37.5000014305115,2|2,0:0|0:0,0:0:0:0:
346,160,26646,6,0,L|435:140,2,75.000002861023,10|2|10,0:0|0:0|0:0,0:0:0:0:
306,223,27446,1,2,0:0:0:0:
197,298,27712,6,0,L|183:215,2,75.000002861023,10|2|10,0:0|0:0|0:0,0:0:0:0:
137,358,28379,1,10,0:0:0:0:
67,321,28779,6,0,L|74:243,2,75.000002861023,10|2|10,0:0|0:0|0:0,0:0:0:0:
137,358,29579,1,2,0:0:0:0:
210,223,29846,6,0,L|227:301,2,75.000002861023,10|2|10,0:0|0:0|0:0,0:0:0:0:
275,169,30512,1,2,0:0:0:0:
346,217,30646,2,0,L|337:258,1,37.5000014305115,2|2,0:0|0:0,0:0:0:0:
405,125,30912,6,0,L|489:109,2,75.000002861023,10|2|10,0:0|0:0|0:0,0:0:0:0:
339,81,31712,1,2,0:0:0:0:
198,45,31979,6,0,L|210:120,2,75.000002861023,10|0|10,0:0|0:0|0:0,0:0:0:0:
123,9,32646,1,10,0:0:0:0:
119,14,33046,6,0,L|110:91,1,75.000002861023,10|2,0:0|0:0,0:0:0:0:
158,160,33446,1,0,0:0:0:0:
158,160,33579,2,0,L|200:152,1,37.5000014305115,10|0,0:0|0:0,0:0:0:0:
88,220,33846,1,2,0:0:0:0:
88,220,33979,2,0,L|44:215,1,37.5000014305115,0|10,0:0|0:0,0:0:0:0:
189,299,34246,5,0,0:0:0:0:
189,299,34379,1,2,0:0:0:0:
241,235,34512,2,0,L|286:244,1,37.5000014305115,0|10,0:0|0:0,0:0:0:0:
362,312,34779,5,2,0:0:0:0:
362,312,34912,1,2,0:0:0:0:
424,359,35046,2,0,L|471:337,1,37.5000014305115,2|10,0:0|0:0,0:0:0:0:
440,259,35312,5,0,0:0:0:0:
440,259,35446,2,0,L|430:175,2,75.000002861023,2|10|2,0:0|0:0|0:0,0:0:0:0:
361,138,36112,1,0,0:0:0:0:
412,69,36246,6,0,L|491:81,2,75.000002861023,10|2|10,0:0|0:0|0:0,0:0:0:0:
507,3,36912,1,10,0:0:0:0:
181,79,37312,6,0,P|160:109|189:172,1,99.9999999999999,10|6,0:0|0:0,0:0:0:0:
320,181,37712,1,4,0:0:0:0:
325,167,37846,2,0,P|309:133|240:127,1,99.9999999999999,10|6,0:0|0:0,0:0:0:0:
137,234,38379,6,0,L|157:333,1,99.9999999999999,10|6,0:0|0:0,0:0:0:0:
237,347,38779,1,4,0:0:0:0:
243,334,38912,2,0,L|223:235,1,99.9999999999999,10|6,0:0|0:0,0:0:0:0:
305,156,39446,6,0,P|343:149|392:190,1,99.9999999999999,8|6,0:0|0:0,0:0:0:0:
414,259,39846,1,4,0:0:0:0:
414,259,39979,2,0,L|396:360,1,99.9999999999999,10|4,0:0|0:0,0:0:0:0:
244,206,40379,1,2,0:0:0:0:
244,206,40512,6,0,P|226:174|240:113,1,99.9999999999999,10|6,0:0|0:0,0:0:0:0:
297,52,40912,1,4,0:0:0:0:
297,52,41046,2,0,L|355:58,1,50,10|4,0:0|0:0,0:0:0:0:
422,19,41312,1,6,0:0:0:0:
477,76,41446,1,4,0:0:0:0:
410,136,41579,6,0,L|358:149,1,50,10|0,0:0|0:0,0:0:0:0:
461,238,41846,2,0,L|409:225,1,50,6|10,0:0|0:0,0:0:0:0:
335,269,42112,2,0,L|299:229,1,50,4|10,0:0|0:0,0:0:0:0:
268,361,42379,2,0,L|255:308,1,50,4|10,0:0|0:0,0:0:0:0:
164,301,42646,6,0,L|183:200,1,99.9999999999999,10|6,0:0|0:0,0:0:0:0:
103,168,43046,1,10,0:0:0:0:
103,168,43179,2,0,L|94:114,1,50,6|10,0:0|0:0,0:0:0:0:
149,49,43446,1,6,0:0:0:0:
225,89,43579,1,8,0:0:0:0:
280,9,43712,6,0,L|382:24,1,99.9999999999999,10|6,0:0|0:0,0:0:0:0:
442,76,44112,1,10,0:0:0:0:
442,76,44246,2,0,L|449:134,1,50,6|10,0:0|0:0,0:0:0:0:
406,209,44512,1,6,0:0:0:0:
479,260,44646,1,10,0:0:0:0:
406,338,44779,6,0,L|349:349,1,50,10|2,0:0|0:0,0:0:0:0:
292,294,45046,1,6,0:0:0:0:
224,334,45179,1,10,0:0:0:0:
165,272,45312,2,0,L|157:216,1,50,6|10,0:0|0:0,0:0:0:0:
282,164,45579,2,0,L|274:220,1,50,6|10,0:0|0:0,0:0:0:0:
86,183,45846,6,0,L|109:68,2,99.9999999999999,10|4|10,0:0|0:0|0:0,0:0:0:0:
14,234,46512,1,10,0:0:0:0:
74,294,46646,2,0,L|83:352,1,50,6|2,0:0|0:0,0:0:0:0:
155,244,46912,6,0,B|218:240|188:276|248:291,2,99.9999999999999,10|6|10,0:0|0:0|0:0,0:0:0:0:
227,171,47579,1,8,0:0:0:0:
227,171,47712,2,0,L|218:112,1,50,6|0,0:0|0:0,0:0:0:0:
280,56,47979,6,0,L|381:75,1,99.9999999999999,10|6,0:0|0:0,0:0:0:0:
434,142,48379,1,8,0:0:0:0:
349,208,48512,2,0,L|341:261,1,50,6|8,0:0|0:0,0:0:0:0:
422,306,48779,1,6,0:0:0:0:
422,306,48846,1,8,0:0:0:0:
422,306,48912,1,8,0:0:0:0:
348,358,49046,5,6,0:0:0:0:
422,306,49312,1,6,0:0:0:0:
349,208,49579,1,6,0:0:0:0:
346,214,50112,6,0,L|246:236,2,99.9999999999999,10|6|8,0:0|0:0|0:0,0:0:0:0:
407,163,50779,1,8,0:0:0:0:
407,163,50912,2,0,L|419:103,1,50,6|2,0:0|0:0,0:0:0:0:
370,45,51179,6,0,L|317:33,1,50,10|2,0:0|0:0,0:0:0:0:
267,92,51446,2,0,L|214:104,1,50,6|2,0:0|0:0,0:0:0:0:
156,45,51712,2,0,P|132:68|135:138,1,99.9999999999999,10|4,0:0|0:0,0:0:0:0:
186,187,52112,1,2,0:0:0:0:
186,187,52246,6,0,P|240:197|283:212,2,99.9999999999999,10|6|10,0:0|0:0|0:0,0:0:0:0:
126,232,53046,1,4,0:0:0:0:
158,348,53179,1,2,0:0:0:0:
158,348,53312,6,0,P|155:314|138:249,1,99.9999999999999,10|6,0:0|0:0,0:0:0:0:
50,212,53712,2,0,P|65:175|122:153,1,99.9999999999999,8|8,0:0|0:0,0:0:0:0:
192,181,54112,2,0,P|212:204|236:212,1,50,6|4,0:0|0:0,0:0:0:0:
295,154,54379,6,0,L|350:145,2,50,10|2|6,0:0|0:0|0:0,0:0:0:0:
234,106,54779,1,2,0:0:0:0:
370,60,54912,6,0,L|315:51,2,50,10|10|6,0:0|0:0|0:0,0:0:0:0:
431,12,55312,1,2,0:0:0:0:
494,64,55446,6,0,L|504:116,1,50,10|2,0:0|0:0,0:0:0:0:
400,176,55712,2,0,L|409:126,1,50,6|2,0:0|0:0,0:0:0:0:
482,206,55979,1,10,0:0:0:0:
420,249,56112,1,10,0:0:0:0:
488,298,56246,1,6,0:0:0:0:
420,363,56379,1,2,0:0:0:0:
339,307,56512,6,0,P|304:315|239:329,2,99.9999999999999,8|6|10,0:0|0:0|0:0,0:0:0:0:
174,286,57312,1,4,0:0:0:0:
224,224,57446,1,10,0:0:0:0:
224,224,57579,6,0,P|234:163|243:123,2,99.9999999999999,8|6|10,0:0|0:0|0:0,0:0:0:0:
189,68,58246,1,0,0:0:0:0:
246,16,58379,2,0,L|295:12,1,50,6|8,0:0|0:0,0:0:0:0:
367,56,58646,6,0,L|449:73,1,79.9999999999999,10|2,0:0|0:0,0:0:0:0:
442,79,59179,2,0,L|363:62,1,79.9999999999999,4|2,0:0|0:0,0:0:0:0:
301,113,59579,1,2,0:0:0:0:
301,113,59712,6,0,L|305:162,2,40,10|0|2,0:0|0:0|0:0,0:0:0:0:
232,58,60112,1,2,0:0:0:0:
232,58,60246,2,0,P|183:65|158:86,1,79.9999999999999,6|0,0:0|0:0,0:0:0:0:
102,143,60646,1,2,0:0:0:0:
102,143,60779,6,0,P|118:198|121:223,1,79.9999999999999,10|2,0:0|0:0,0:0:0:0:
63,290,61312,2,0,P|86:308|140:309,1,79.9999999999999,6|0,0:0|0:0,0:0:0:0:
199,262,61712,1,2,0:0:0:0:
199,262,61846,6,0,L|296:251,1,79.9999999999999,10|6,0:0|0:0,0:0:0:0:
326,186,62246,1,0,0:0:0:0:
326,186,62379,2,0,L|419:193,1,79.9999999999999,10|6,0:0|0:0,0:0:0:0:
262,126,62912,6,0,L|254:80,1,40,10|2,0:0|0:0,0:0:0:0:
203,35,63179,2,0,L|146:24,1,40,6|2,0:0|0:0,0:0:0:0:
102,79,63446,1,10,0:0:0:0:
102,79,63579,1,10,0:0:0:0:
41,129,63712,1,6,0:0:0:0:
134,175,63846,1,2,0:0:0:0:
29,255,63979,6,0,L|37:295,1,40,10|2,0:0|0:0,0:0:0:0:
89,352,64246,2,0,L|137:342,1,40,6|2,0:0|0:0,0:0:0:0:
195,261,64512,1,10,0:0:0:0:
286,358,64646,1,10,0:0:0:0:
267,225,64779,1,6,0:0:0:0:
204,344,64912,1,2,0:0:0:0:
322,285,65046,5,10,0:0:0:0:
373,208,65312,1,4,0:0:0:0:
373,208,65446,1,6,0:0:0:0:
373,208,65579,1,10,0:0:0:0:
314,138,65846,2,0,L|271:146,1,40,6|2,0:0|0:0,0:0:0:0:
187,288,66112,5,10,0:0:0:0:
187,288,66646,2,0,L|182:224,1,59.9999999999999,8|0,0:0|0:0,0:0:0:0:
148,138,67179,6,0,P|196:147|235:153,2,75.000002861023,10|2|6,0:0|0:0|0:0,0:0:0:0:
90,85,67579,2,0,P|87:48|119:20,1,75.000002861023,2|8,0:0|0:0,0:0:0:0:
98,218,67846,1,10,0:0:0:0:
98,218,67979,2,0,L|22:237,1,75.000002861023,4|2,0:0|0:0,0:0:0:0:
112,321,68246,6,0,L|129:167,1,150.000005722046,10|6,0:0|0:0,0:0:0:0:
181,112,68646,1,2,0:0:0:0:
181,112,68779,2,0,P|217:112|249:90,1,75.000002861023,10|8,0:0|0:0,0:0:0:0:
362,52,69046,1,6,0:0:0:0:
436,21,69179,1,2,0:0:0:0:
500,144,69312,6,0,L|369:127,1,112.500004291534,10|0,0:0|0:0,0:0:0:0:
379,135,69579,2,0,P|356:165|366:206,1,75.000002861023,6|2,0:0|0:0,0:0:0:0:
464,355,69846,6,0,P|484:324|440:269,1,112.500004291534,10|0,0:0|0:0,0:0:0:0:
437,266,70112,2,0,L|354:283,1,75.000002861023,6|2,0:0|0:0,0:0:0:0:
298,352,70379,6,0,P|256:347|228:316,2,75.000002861023,10|2|6,0:0|0:0|0:0,0:0:0:0:
437,266,70779,2,0,P|442:196|452:134,1,112.500004291534,10|0,0:0|0:0,0:0:0:0:
452,144,71046,1,8,0:0:0:0:
403,83,71179,2,0,P|359:84|330:124,1,75.000002861023,6|4,0:0|0:0,0:0:0:0:
123,38,71446,6,0,P|188:50|274:75,2,150.000005722046,10|6|10,0:0|0:0|0:0,0:0:0:0:
118,118,72112,1,8,0:0:0:0:
118,118,72246,2,0,P|103:152|116:192,1,75.000002861023,6|0,0:0|0:0,0:0:0:0:
32,213,72512,6,0,L|183:253,1,150.000005722046,10|6,0:0|0:0,0:0:0:0:
223,318,72912,1,10,0:0:0:0:
223,318,73046,2,0,P|265:318|291:293,1,75.000002861023,0|10,0:0|0:0,0:0:0:0:
358,257,73312,1,6,0:0:0:0:
311,191,73446,1,2,0:0:0:0:
311,191,73512,1,2,0:0:0:0:
311,191,73579,6,0,P|285:162|287:123,1,75.000002861023,10|2,0:0|0:0,0:0:0:0:
408,64,73846,2,0,P|395:101|361:118,1,75.000002861023,6|10,0:0|0:0,0:0:0:0:
244,43,74112,2,0,P|282:34|314:56,1,75.000002861023,0|10,0:0|0:0,0:0:0:0:
302,197,74379,2,0,P|276:168|278:129,1,75.000002861023,6|2,0:0|0:0,0:0:0:0:
375,249,74646,6,0,L|457:257,1,75.000002861023,10|2,0:0|0:0,0:0:0:0:
282,121,74912,2,0,L|201:129,1,75.000002861023,6|2,0:0|0:0,0:0:0:0:
372,255,75179,1,10,0:0:0:0:
393,326,75312,1,10,0:0:0:0:
284,377,75446,1,6,0:0:0:0:
244,239,75579,1,6,0:0:0:0:
111,366,75712,6,0,P|67:363|46:299,1,112.500004291534,10|0,0:0|0:0,0:0:0:0:
47,298,75979,2,0,L|128:283,1,75.000002861023,6|2,0:0|0:0,0:0:0:0:
153,215,76246,6,0,B|183:189|183:189|270:202,1,112.500004291534,8|0,0:0|0:0,0:0:0:0:
263,202,76512,1,4,0:0:0:0:
315,268,76646,1,2,0:0:0:0:
315,268,76779,6,0,P|388:277|426:219,1,150.000005722046,10|6,0:0|0:0,0:0:0:0:
473,152,77179,1,0,0:0:0:0:
473,152,77312,2,0,L|461:72,1,75.000002861023,10|8,0:0|0:0,0:0:0:0:
361,20,77579,2,0,P|319:18|295:49,1,75.000002861023,6|0,0:0|0:0,0:0:0:0:
204,69,77846,6,0,P|257:83|315:104,1,112.500004291534,10|0,0:0|0:0,0:0:0:0:
323,110,78112,2,0,P|326:144|297:181,1,75.000002861023,6|2,0:0|0:0,0:0:0:0:
230,227,78379,6,0,P|187:215|167:151,1,112.500004291534,8|0,0:0|0:0,0:0:0:0:
170,145,78646,2,0,P|180:106|168:73,1,75.000002861023,4|2,0:0|0:0,0:0:0:0:
56,32,78912,6,0,P|113:40|208:57,1,150.000005722046,8|6,0:0|0:0,0:0:0:0:
268,104,79312,1,10,0:0:0:0:
268,104,79446,2,0,P|306:104|337:74,1,75.000002861023,2|10,0:0|0:0,0:0:0:0:
411,55,79712,1,6,0:0:0:0:
475,116,79846,1,4,0:0:0:0:
475,116,79912,1,4,0:0:0:0:
475,116,79979,6,0,P|469:202|466:279,2,150.000005722046,10|6|10,0:0|0:0|0:0,0:0:0:0:
411,55,80646,1,10,0:0:0:0:
411,55,80779,2,0,P|372:52|339:80,1,75.000002861023,4|2,0:0|0:0,0:0:0:0:
266,117,81046,6,0,L|288:268,1,150.000005722046,8|6,0:0|0:0,0:0:0:0:
250,337,81446,1,2,0:0:0:0:
250,337,81579,2,0,P|208:346|180:325,1,75.000002861023,10|10,0:0|0:0,0:0:0:0:
103,303,81846,2,0,L|114:225,1,75.000002861023,6|2,0:0|0:0,0:0:0:0:
73,151,82112,6,0,P|135:147|225:130,2,150.000005722046,10|6|10,0:0|0:0|0:0,0:0:0:0:
20,95,82779,1,10,0:0:0:0:
20,95,82912,2,0,P|13:61|41:30,1,75.000002861023,4|2,0:0|0:0,0:0:0:0:
114,136,83179,6,0,P|150:133|193:120,1,75.000002861023,8|2,0:0|0:0,0:0:0:0:
260,90,83446,1,6,0:0:0:0:
328,142,83579,1,2,0:0:0:0:
400,96,83712,2,0,P|417:58|408:25,1,75.000002861023,10|10,0:0|0:0,0:0:0:0:
253,182,83979,2,0,P|277:215|310:224,1,75.000002861023,6|6,0:0|0:0,0:0:0:0:
411,222,84246,6,0,P|360:232|255:260,1,150.000005722046,10|6,0:0|0:0,0:0:0:0:
193,285,84646,1,8,0:0:0:0:
126,242,84779,2,0,P|111:215|123:167,1,75.000002861023,6|8,0:0|0:0,0:0:0:0:
171,116,85046,1,6,0:0:0:0:
100,71,85179,1,8,0:0:0:0:
158,8,85312,5,6,0:0:0:0:
158,8,85446,1,4,0:0:0:0:
158,8,86246,6,0,L|152:55,1,37.5000014305115,2|2,0:0|0:0,0:0:0:0:
78,28,86379,1,10,0:0:0:0:
256,192,86512,12,4,87446,0:0:0:0:
60,299,92246,5,8,0:0:0:0:
129,328,92379,1,4,0:0:0:0:
51,295,92646,6,0,L|41:194,1,99.9999999999999,10|10,0:0|0:0,0:0:0:0:
91,127,93046,2,0,L|198:139,2,99.9999999999999,6|10|6,0:0|0:0|0:0,0:0:0:0:
256,83,93712,1,0,0:0:0:0:
256,83,93846,2,0,L|316:73,1,50,10|2,0:0|0:0,0:0:0:0:
372,23,94112,2,0,L|463:68,1,99.9999999999999,6|10,0:0|0:0,0:0:0:0:
458,152,94512,5,6,0:0:0:0:
454,157,95979,6,0,L|440:276,1,119.999996337891,10|4,0:0|0:0,0:0:0:0:
383,333,96379,1,2,0:0:0:0:
383,333,96512,2,0,P|351:324|334:298,1,59.9999981689453,10|8,0:0|0:0,0:0:0:0:
266,265,96779,2,0,L|279:204,1,59.9999981689453,4|0,0:0|0:0,0:0:0:0:
227,141,97046,6,0,L|104:164,1,119.999996337891,10|6,0:0|0:0,0:0:0:0:
44,213,97446,1,2,0:0:0:0:
44,213,97579,2,0,P|41:248|57:273,1,59.9999981689453,10|10,0:0|0:0,0:0:0:0:
103,331,97846,2,0,L|164:318,1,59.9999981689453,6|2,0:0|0:0,0:0:0:0:
207,254,98112,6,0,P|253:257|307:267,1,89.999997253418,10|0,0:0|0:0,0:0:0:0:
308,267,98379,2,0,P|331:240|330:207,1,59.9999981689453,4|2,0:0|0:0,0:0:0:0:
280,157,98646,6,0,P|276:124|317:83,1,89.999997253418,10|0,0:0|0:0,0:0:0:0:
321,82,98912,2,0,L|382:91,1,59.9999981689453,4|0,0:0|0:0,0:0:0:0:
447,173,99179,6,0,L|454:234,2,59.9999981689453,10|2|6,0:0|0:0|0:0,0:0:0:0:
377,92,99579,2,0,P|418:74|491:105,1,119.999996337891,10|10,0:0|0:0,0:0:0:0:
337,161,99979,2,0,L|344:224,1,59.9999981689453,6|10,0:0|0:0,0:0:0:0:
296,286,100246,6,0,L|234:275,2,59.9999981689453,10|2|6,0:0|0:0|0:0,0:0:0:0:
351,354,100646,1,2,0:0:0:0:
351,354,100712,1,2,0:0:0:0:
351,354,100779,2,0,P|386:353|407:331,1,59.9999981689453,10|10,0:0|0:0,0:0:0:0:
477,308,101046,2,0,L|471:248,1,59.9999981689453,6|2,0:0|0:0,0:0:0:0:
412,192,101312,6,0,L|343:182,1,59.9999981689453,10|2,0:0|0:0,0:0:0:0:
335,180,101512,1,2,0:0:0:0:
317,177,101579,2,0,L|247:167,1,59.9999981689453,6|2,0:0|0:0,0:0:0:0:
200,110,101846,1,10,0:0:0:0:
200,110,101979,1,10,0:0:0:0:
248,45,102112,2,0,P|274:25|308:30,1,59.9999981689453,6|0,0:0|0:0,0:0:0:0:
200,110,102379,6,0,L|212:204,1,89.999997253418,10|0,0:0|0:0,0:0:0:0:
215,210,102646,2,0,P|190:234|159:236,1,59.9999981689453,4|0,0:0|0:0,0:0:0:0:
73,258,102912,6,0,P|129:266|183:285,1,89.999997253418,10|0,0:0|0:0,0:0:0:0:
224,318,103179,1,6,0:0:0:0:
333,282,103312,1,10,0:0:0:0:
333,282,103446,6,0,P|363:247|359:204,1,89.999997253418,10|0,0:0|0:0,0:0:0:0:
355,197,103712,2,0,P|347:166|360:137,1,59.9999981689453,6|2,0:0|0:0,0:0:0:0:
486,51,103979,6,0,P|454:62|394:73,1,89.999997253418,10|0,0:0|0:0,0:0:0:0:
331,39,104246,1,6,0:0:0:0:
262,82,104379,1,10,0:0:0:0:
262,82,104512,6,0,L|274:182,2,99.9999999999999,10|0|6,0:0|0:0|0:0,0:0:0:0:
195,33,105179,1,2,0:0:0:0:
195,33,105312,2,0,L|141:46,1,50,2|2,0:0|0:0,0:0:0:0:
68,21,105579,6,0,P|41:29|24:96,1,99.9999999999999,10|2,0:0|0:0,0:0:0:0:
71,157,105979,1,0,0:0:0:0:
71,157,106112,2,0,L|176:143,1,99.9999999999999,6|2,0:0|0:0,0:0:0:0:
237,248,106646,6,0,P|268:256|321:210,2,99.9999999999999,10|0|6,0:0|0:0|0:0,0:0:0:0:
165,205,107312,1,2,0:0:0:0:
165,205,107446,2,0,L|171:150,1,50,2|2,0:0|0:0,0:0:0:0:
226,100,107712,6,0,L|334:91,2,99.9999999999999,10|6|10,0:0|0:0|0:0,0:0:0:0:
163,42,108379,1,8,0:0:0:0:
163,42,108512,2,0,L|106:33,1,50,6|0,0:0|0:0,0:0:0:0:
56,97,108779,5,10,0:0:0:0:
59,114,108846,1,2,0:0:0:0:
61,131,108912,1,2,0:0:0:0:
64,148,108979,1,2,0:0:0:0:
67,165,109046,2,0,L|138:176,1,59.9999981689453,6|2,0:0|0:0,0:0:0:0:
188,232,109312,1,10,0:0:0:0:
132,298,109446,2,0,L|140:362,2,59.9999981689453,10|6|2,0:0|0:0|0:0,0:0:0:0:
188,232,109846,6,0,L|252:242,1,59.9999981689453,10|2,0:0|0:0,0:0:0:0:
316,200,110112,2,0,P|333:172|329:140,1,59.9999981689453,6|2,0:0|0:0,0:0:0:0:
325,136,110312,1,0,0:0:0:0:
317,127,110379,2,0,L|253:117,1,59.9999981689453,10|10,0:0|0:0,0:0:0:0:
195,65,110646,1,4,0:0:0:0:
195,65,110779,1,0,0:0:0:0:
135,126,110912,6,0,B|102:148|102:148|121:228,1,119.999996337891,10|4,0:0|0:0,0:0:0:0:
83,301,111312,1,6,0:0:0:0:
83,301,111446,2,0,L|146:313,1,59.9999981689453,10|2,0:0|0:0,0:0:0:0:
205,363,111712,1,6,0:0:0:0:
205,363,111846,1,2,0:0:0:0:
271,304,111979,5,10,0:0:0:0:
275,298,112512,5,8,0:0:0:0:
278,293,113046,6,0,L|266:208,2,75.000002861023,10|2|6,0:0|0:0|0:0,0:0:0:0:
340,344,113446,2,0,P|380:344|407:322,1,75.000002861023,2|8,0:0|0:0,0:0:0:0:
474,279,113712,1,10,0:0:0:0:
474,279,113846,2,0,L|466:190,1,75.000002861023,4|2,0:0|0:0,0:0:0:0:
411,144,114112,6,0,L|261:126,2,150.000005722046,10|6|10,0:0|0:0|0:0,0:0:0:0:
476,95,114779,1,10,0:0:0:0:
476,95,114912,2,0,P|480:56|456:27,1,75.000002861023,6|2,0:0|0:0,0:0:0:0:
368,14,115179,6,0,B|317:23|317:23|307:31|307:31|244:41,1,112.500004291534,10|0,0:0|0:0,0:0:0:0:
251,40,115446,2,0,P|236:75|255:113,1,75.000002861023,6|2,0:0|0:0,0:0:0:0:
311,164,115712,6,0,P|316:209|259:251,1,112.500004291534,10|0,0:0|0:0,0:0:0:0:
256,251,115979,2,0,L|181:231,1,75.000002861023,6|2,0:0|0:0,0:0:0:0:
93,270,116246,5,10,0:0:0:0:
166,227,116379,1,2,0:0:0:0:
218,333,116512,1,6,0:0:0:0:
331,293,116646,2,0,P|340:250|277:171,1,150.000005722046,10|8,0:0|0:0,0:0:0:0:
220,114,117046,2,0,L|142:127,1,75.000002861023,6|8,0:0|0:0,0:0:0:0:
254,12,117312,6,0,L|240:171,2,150.000005722046,10|6|10,0:0|0:0|0:0,0:0:0:0:
336,67,117979,1,8,0:0:0:0:
336,67,118112,2,0,L|411:48,1,75.000002861023,6|0,0:0|0:0,0:0:0:0:
476,106,118379,6,0,P|491:167|500:258,2,150.000005722046,10|6|0,0:0|0:0|0:0,0:0:0:0:
400,71,119046,1,10,0:0:0:0:
346,132,119179,2,0,P|346:177|379:203,1,75.000002861023,6|2,0:0|0:0,0:0:0:0:
454,222,119446,6,0,P|406:235|367:245,1,75.000002861023,10|2,0:0|0:0,0:0:0:0:
293,78,119712,2,0,P|328:113|356:141,1,75.000002861023,6|10,0:0|0:0,0:0:0:0:
257,285,119979,2,0,P|269:236|280:198,1,75.000002861023,0|10,0:0|0:0,0:0:0:0:
455,215,120246,2,0,P|407:228|368:238,1,75.000002861023,6|2,0:0|0:0,0:0:0:0:
258,288,120512,6,0,P|220:286|195:253,1,75.000002861023,10|2,0:0|0:0,0:0:0:0:
131,216,120779,2,0,L|142:140,1,75.000002861023,6|2,0:0|0:0,0:0:0:0:
202,82,121046,1,10,0:0:0:0:
357,209,121179,1,8,0:0:0:0:
224,158,121312,1,6,0:0:0:0:
342,54,121446,1,6,0:0:0:0:
474,128,121579,6,0,B|491:157|491:157|475:240,1,112.500004291534,10|0,0:0|0:0,0:0:0:0:
473,244,121846,2,0,P|435:265|402:254,1,75.000002861023,6|2,0:0|0:0,0:0:0:0:
326,219,122112,6,0,P|286:221|207:245,1,112.500004291534,8|0,0:0|0:0,0:0:0:0:
207,247,122379,2,0,B|196:285|196:285|216:316,1,75.000002861023,4|2,0:0|0:0,0:0:0:0:
300,344,122646,6,0,P|375:349|449:359,2,150.000005722046,10|6|10,0:0|0:0|0:0,0:0:0:0:
215,314,123312,1,8,0:0:0:0:
215,314,123446,2,0,B|196:285|196:285|207:247,1,75.000002861023,6|0,0:0|0:0,0:0:0:0:
165,172,123712,6,0,P|154:117|141:57,1,112.500004291534,10|0,0:0|0:0,0:0:0:0:
139,51,123979,2,0,P|99:54|79:86,1,75.000002861023,6|2,0:0|0:0,0:0:0:0:
160,167,124246,6,0,P|218:181|281:188,1,112.500004291534,8|0,0:0|0:0,0:0:0:0:
282,188,124512,2,0,P|293:224|283:260,1,75.000002861023,4|2,0:0|0:0,0:0:0:0:
238,325,124779,6,0,P|177:338|82:362,2,150.000005722046,10|6|2,0:0|0:0|0:0,0:0:0:0:
306,273,125446,1,10,0:0:0:0:
306,273,125579,2,0,L|384:289,1,75.000002861023,6|4,0:0|0:0,0:0:0:0:
446,242,125779,1,0,0:0:0:0:
446,242,125846,6,0,L|425:91,2,150.000005722046,10|6|10,0:0|0:0|0:0,0:0:0:0:
379,288,126512,1,10,0:0:0:0:
379,288,126646,2,0,L|306:273,1,75.000002861023,4|2,0:0|0:0,0:0:0:0:
244,216,126912,6,0,P|201:219|167:247,1,75.000002861023,10|0,0:0|0:0,0:0:0:0:
306,148,127179,2,0,L|291:67,1,75.000002861023,6|2,0:0|0:0,0:0:0:0:
224,30,127446,1,10,0:0:0:0:
224,30,127579,1,10,0:0:0:0:
166,88,127712,2,0,L|89:78,1,75.000002861023,6|2,0:0|0:0,0:0:0:0:
36,140,127979,6,0,P|27:188|51:290,2,150.000005722046,8|6|10,0:0|0:0|0:0,0:0:0:0:
96,85,128646,1,10,0:0:0:0:
96,85,128779,2,0,P|132:101|177:108,1,75.000002861023,4|2,0:0|0:0,0:0:0:0:
226,42,129046,6,0,B|293:32|293:32|312:43|312:43|395:30,1,150.000005722046,10|6,0:0|0:0,0:0:0:0:
430,89,129446,1,2,0:0:0:0:
430,89,129579,2,0,P|438:132|418:160,1,75.000002861023,10|10,0:0|0:0,0:0:0:0:
364,209,129846,2,0,L|288:193,1,75.000002861023,6|2,0:0|0:0,0:0:0:0:
233,254,130112,6,0,L|81:279,1,150.000005722046,10|6,0:0|0:0,0:0:0:0:
26,224,130512,1,8,0:0:0:0:
26,224,130646,2,0,P|12:191|29:150,1,75.000002861023,6|8,0:0|0:0,0:0:0:0:
152,278,130912,2,0,L|71:292,1,75.000002861023,6|8,0:0|0:0,0:0:0:0:
23,354,131179,5,6,0:0:0:0:
23,354,131312,1,4,0:0:0:0:
80,302,132246,6,0,L|148:288,5,66.6666666666666,10|2|2|6|2|6,0:0|0:0|0:0|0:0|0:0|0:0,0:0:0:0:
186,216,132779,5,10,0:0:0:0:
219,219,132868,1,2,0:0:0:0:
252,223,132957,1,2,0:0:0:0:
285,227,133046,1,6,0:0:0:0:
317,231,133134,1,2,0:0:0:0:
349,236,133223,1,2,0:0:0:0:
382,239,133312,6,0,P|402:213|405:177,5,66.6666666666666,10|2|2|6|2|6,0:0|0:0|0:0|0:0|0:0|0:0,0:0:0:0:
358,89,133846,5,10,0:0:0:0:
325,85,133934,1,2,0:0:0:0:
292,94,134023,1,2,0:0:0:0:
266,116,134112,1,6,0:0:0:0:
236,130,134201,1,2,0:0:0:0:
202,127,134290,1,2,0:0:0:0:
175,106,134379,6,0,B|148:85|148:85|111:89,5,66.6666666666666,10|2|2|6|2|6,0:0|0:0|0:0|0:0|0:0|0:0,0:0:0:0:
49,147,134912,6,0,L|56:215,2,66.6666666666666,10|2|2,0:0|0:0|0:0,0:0:0:0:
182,103,135179,2,0,L|189:35,2,66.6666666666666,6|2|2,0:0|0:0|0:0,0:0:0:0:
226,181,135446,5,10,0:0:0:0:
258,187,135534,1,10,0:0:0:0:
290,192,135623,1,10,0:0:0:0:
322,199,135712,1,10,0:0:0:0:
354,206,135801,1,10,0:0:0:0:
386,214,135890,1,10,0:0:0:0:
418,222,135979,6,0,L|424:278,4,50,10|4|4|4|4,0:0|0:0|0:0|0:0|0:0,0:0:0:0:
464,154,136379,1,4,0:0:0:0:
472,149,137046,6,0,L|465:86,1,59.9999999999999,2|0,0:0|0:0,0:0:0:0:
399,42,137579,6,0,L|278:28,2,119.999996337891,10|6|8,0:0|0:0|0:0,0:0:0:0:
447,105,138246,1,8,0:0:0:0:
388,165,138379,2,0,L|324:176,1,59.9999981689453,6|2,0:0|0:0,0:0:0:0:
252,135,138646,6,0,B|181:144|223:189|152:199,2,119.999996337891,10|6|10,0:0|0:0|0:0,0:0:0:0:
312,189,139312,1,8,0:0:0:0:
312,189,139446,2,0,P|300:217|304:252,1,59.9999981689453,4|0,0:0|0:0,0:0:0:0:
361,307,139712,6,0,P|422:291|478:279,2,119.999996337891,10|6|10,0:0|0:0|0:0,0:0:0:0:
305,363,140512,1,4,0:0:0:0:
244,306,140779,6,0,B|169:296|221:258|141:240,1,119.999996337891,10|6,0:0|0:0,0:0:0:0:
80,277,141179,1,8,0:0:0:0:
80,277,141312,2,0,P|70:315|63:343,1,59.9999981689453,2|8,0:0|0:0,0:0:0:0:
54,197,141579,2,0,P|85:189|116:180,1,59.9999981689453,6|0,0:0|0:0,0:0:0:0:
158,111,141846,5,10,0:0:0:0:
158,111,141979,1,2,0:0:0:0:
216,165,142112,2,0,L|283:176,1,59.9999981689453,6|2,0:0|0:0,0:0:0:0:
346,85,142379,5,10,0:0:0:0:
346,85,142512,1,10,0:0:0:0:
410,42,142646,2,0,P|450:41|476:56,1,59.9999981689453,6|2,0:0|0:0,0:0:0:0:
468,132,142912,6,0,L|475:197,1,59.9999981689453,10|2,0:0|0:0,0:0:0:0:
408,243,143179,2,0,L|401:303,1,59.9999981689453,6|2,0:0|0:0,0:0:0:0:
341,361,143446,1,10,0:0:0:0:
281,306,143579,1,10,0:0:0:0:
194,367,143712,1,6,0:0:0:0:
194,367,143846,1,2,0:0:0:0:
130,311,143979,6,0,P|127:263|116:190,3,119.999996337891,8|4|10|6,0:0|0:0|0:0|0:0,0:0:0:0:
194,367,144912,1,10,0:0:0:0:
194,367,145046,6,0,B|268:363|233:322|310:316,3,119.999996337891,8|6|10|6,0:0|0:0|0:0|0:0,0:0:0:0:
340,244,145979,1,8,0:0:0:0:
340,244,146046,1,8,0:0:0:0:
340,244,146112,5,10,0:0:0:0:
412,267,146246,1,0,0:0:0:0:
477,309,146379,1,2,0:0:0:0:
481,317,146646,2,0,P|438:325|379:339,1,99.9999999999999,4|2,0:0|0:0,0:0:0:0:
318,288,147046,1,2,0:0:0:0:
318,288,147179,6,0,P|285:289|243:241,1,99.9999999999999,10|2,0:0|0:0,0:0:0:0:
179,197,147579,1,2,0:0:0:0:
179,197,147712,2,0,L|193:89,1,99.9999999999999,6|0,0:0|0:0,0:0:0:0:
257,55,148112,1,2,0:0:0:0:
257,55,148246,6,0,L|314:44,1,50,10|0,0:0|0:0,0:0:0:0:
376,91,148512,2,0,L|425:101,1,50,2|0,0:0|0:0,0:0:0:0:
469,170,148779,2,0,P|475:218|437:254,1,99.9999999999999,6|0,0:0|0:0,0:0:0:0:
374,293,149312,6,0,P|342:281|259:265,1,99.9999999999999,10|4,0:0|0:0,0:0:0:0:
217,218,149712,1,0,0:0:0:0:
217,218,149846,2,0,P|173:232|115:235,1,99.9999999999999,10|4,0:0|0:0,0:0:0:0:
50,148,150379,6,0,L|41:88,1,59.9999981689453,10|2,0:0|0:0,0:0:0:0:
91,25,150646,2,0,L|150:36,1,59.9999981689453,6|2,0:0|0:0,0:0:0:0:
266,101,150912,1,10,0:0:0:0:
211,34,151046,1,10,0:0:0:0:
203,156,151180,1,6,0:0:0:0:
335,67,151312,1,2,0:0:0:0:
476,163,151446,6,0,P|481:196|483:226,1,59.9999981689453,10|2,0:0|0:0,0:0:0:0:
347,195,151712,2,0,P|373:174|398:157,1,59.9999981689453,6|2,0:0|0:0,0:0:0:0:
469,308,151979,1,10,0:0:0:0:
395,278,152112,1,10,0:0:0:0:
319,354,152246,1,6,0:0:0:0:
207,281,152379,1,6,0:0:0:0:
151,336,152512,5,8,0:0:0:0:
207,281,152779,1,4,0:0:0:0:
207,281,152912,1,6,0:0:0:0:
319,354,153046,1,10,0:0:0:0:
395,278,153312,1,6,0:0:0:0:
395,278,153446,1,2,0:0:0:0:
469,308,153579,5,10,0:0:0:0:
475,302,154112,6,0,L|479:241,1,59.9999999999999,8|0,0:0|0:0,0:0:0:0:
420,187,154646,6,0,L|335:201,2,59.9999981689453,10|2|6,0:0|0:0|0:0,0:0:0:0:
483,132,155046,2,0,P|491:98|479:70,1,59.9999981689453,2|8,0:0|0:0,0:0:0:0:
412,40,155312,1,10,0:0:0:0:
412,40,155446,2,0,P|378:50|360:74,1,59.9999981689453,4|2,0:0|0:0,0:0:0:0:
296,119,155712,6,0,P|308:154|321:238,1,119.999996337891,8|6,0:0|0:0,0:0:0:0:
276,303,156112,1,2,0:0:0:0:
276,303,156246,2,0,P|242:301|220:276,1,59.9999981689453,10|8,0:0|0:0,0:0:0:0:
147,261,156512,2,0,L|156:198,1,59.9999981689453,6|2,0:0|0:0,0:0:0:0:
102,129,156779,6,0,L|198:115,1,89.999997253418,10|0,0:0|0:0,0:0:0:0:
201,114,157046,2,0,L|262:105,1,59.9999981689453,6|2,0:0|0:0,0:0:0:0:
317,43,157312,6,0,B|377:62|345:108|364:122,1,89.999997253418,10|0,0:0|0:0,0:0:0:0:
364,122,157579,2,0,P|393:137|429:128,1,59.9999981689453,6|2,0:0|0:0,0:0:0:0:
478,76,157846,6,0,P|484:42|492:15,2,59.9999981689453,10|2|6,0:0|0:0|0:0,0:0:0:0:
360,127,158246,2,0,P|360:177|380:248,1,119.999996337891,10|8,0:0|0:0,0:0:0:0:
437,292,158646,2,0,P|466:291|491:267,1,59.9999981689453,6|10,0:0|0:0,0:0:0:0:
370,339,158912,6,0,P|330:326|252:308,1,119.999996337891,10|6,0:0|0:0,0:0:0:0:
179,291,159312,1,0,0:0:0:0:
179,291,159446,2,0,P|146:299|124:318,1,59.9999981689453,10|8,0:0|0:0,0:0:0:0:
19,230,159712,2,0,P|42:254|69:264,1,59.9999981689453,6|0,0:0|0:0,0:0:0:0:
125,209,159979,6,0,P|137:177|116:97,1,119.999996337891,10|6,0:0|0:0,0:0:0:0:
41,69,160379,1,10,0:0:0:0:
41,69,160512,2,0,L|106:57,1,59.9999981689453,0|10,0:0|0:0,0:0:0:0:
174,11,160779,2,0,L|251:24,1,59.9999981689453,6|2,0:0|0:0,0:0:0:0:
289,91,161046,6,0,P|319:90|346:70,1,59.9999981689453,10|2,0:0|0:0,0:0:0:0:
437,31,161312,2,0,P|422:57|426:90,1,59.9999981689453,6|10,0:0|0:0,0:0:0:0:
414,191,161579,2,0,P|398:165|367:152,1,59.9999981689453,0|10,0:0|0:0,0:0:0:0:
301,197,161846,2,0,L|236:207,1,59.9999981689453,6|2,0:0|0:0,0:0:0:0:
179,149,162112,6,0,B|129:164|129:164|118:180|118:180|64:197,1,119.999996337891,10|6,0:0|0:0,0:0:0:0:
27,262,162512,1,2,0:0:0:0:
27,262,162646,2,0,L|20:326,1,59.9999981689453,10|8,0:0|0:0,0:0:0:0:
79,372,162912,2,0,L|141:363,1,59.9999981689453,6|6,0:0|0:0,0:0:0:0:
199,308,163112,1,6,0:0:0:0:
199,308,163179,6,0,L|298:326,1,89.999997253418,10|0,0:0|0:0,0:0:0:0:
297,326,163446,2,0,P|337:313|349:290,1,59.9999981689453,6|2,0:0|0:0,0:0:0:0:
304,229,163712,6,0,P|307:192|352:165,1,89.999997253418,8|0,0:0|0:0,0:0:0:0:
361,165,163979,2,0,L|421:182,1,59.9999981689453,4|2,0:0|0:0,0:0:0:0:
483,130,164246,6,0,L|361:158,1,119.999996337891,10|6,0:0|0:0,0:0:0:0:
308,103,164646,1,0,0:0:0:0:
308,103,164779,2,0,P|277:87|238:93,1,59.9999981689453,10|8,0:0|0:0,0:0:0:0:
191,147,165046,2,0,L|202:207,1,59.9999981689453,6|0,0:0|0:0,0:0:0:0:
121,230,165312,6,0,L|218:251,1,89.999997253418,10|0,0:0|0:0,0:0:0:0:
218,251,165579,2,0,L|290:268,1,59.9999981689453,6|2,0:0|0:0,0:0:0:0:
471,177,165846,6,0,P|436:170|378:208,1,89.999997253418,8|0,0:0|0:0,0:0:0:0:
379,202,166112,2,0,P|362:230|360:262,1,59.9999981689453,4|2,0:0|0:0,0:0:0:0:
321,333,166379,6,0,P|377:345|443:363,1,119.999996337891,10|6,0:0|0:0,0:0:0:0:
482,296,166779,1,10,0:0:0:0:
482,296,166912,2,0,P|487:259|473:234,1,59.9999981689453,2|8,0:0|0:0,0:0:0:0:
406,205,167179,1,6,0:0:0:0:
438,133,167312,1,4,0:0:0:0:
438,133,167379,1,4,0:0:0:0:
438,133,167446,6,0,P|342:115|305:106,2,119.999996337891,10|6|10,0:0|0:0|0:0,0:0:0:0:
495,68,168112,1,10,0:0:0:0:
495,68,168246,2,0,P|473:40|443:36,1,59.9999981689453,4|2,0:0|0:0,0:0:0:0:
381,73,168512,6,0,P|340:83|257:101,1,119.999996337891,8|6,0:0|0:0,0:0:0:0:
199,59,168912,1,2,0:0:0:0:
132,94,169046,2,0,P|112:126|116:157,1,59.9999981689453,10|10,0:0|0:0,0:0:0:0:
162,211,169312,2,0,L|226:225,1,59.9999981689453,6|2,0:0|0:0,0:0:0:0:
211,313,169579,6,0,P|277:290|338:276,2,119.999996337891,8|6|10,0:0|0:0|0:0,0:0:0:0:
134,299,170246,1,10,0:0:0:0:
134,299,170379,2,0,P|113:274|112:237,1,59.9999981689453,4|2,0:0|0:0,0:0:0:0:
146,176,170646,6,0,L|211:187,1,59.9999981689453,10|2,0:0|0:0,0:0:0:0:
263,131,170912,1,6,0:0:0:0:
263,131,171046,1,2,0:0:0:0:
319,73,171179,2,0,L|379:64,1,59.9999981689453,10|10,0:0|0:0,0:0:0:0:
438,117,171446,2,0,L|462:179,1,59.9999981689453,6|2,0:0|0:0,0:0:0:0:
411,241,171712,6,0,L|398:361,1,119.999996337891,10|6,0:0|0:0,0:0:0:0:
344,193,172112,2,0,L|281:208,1,59.9999981689453,8|6,0:0|0:0,0:0:0:0:
217,165,172379,1,8,0:0:0:0:
171,237,172512,1,6,0:0:0:0:
79,190,172646,1,8,0:0:0:0:
34,292,172779,5,10,0:0:0:0:
34,292,173046,5,10,0:0:0:0:
34,292,173312,5,10,0:0:0:0:
34,292,173579,5,10,0:0:0:0:
34,292,173846,6,0,P|81:300|149:316,1,112.500004291534,10|0,0:0|0:0,0:0:0:0:
156,320,174112,2,0,P|190:298|195:259,1,75.000002861023,6|0,0:0|0:0,0:0:0:0:
151,193,174379,6,0,L|171:81,1,112.500004291534,10|0,0:0|0:0,0:0:0:0:
173,73,174646,2,0,P|205:56|243:62,1,75.000002861023,6|0,0:0|0:0,0:0:0:0:
266,178,174912,6,0,P|307:171|335:138,1,75.000002861023,10|0,0:0|0:0,0:0:0:0:
416,225,175179,5,6,0:0:0:0:
416,225,175312,2,0,P|422:183|400:146,1,75.000002861023,2|8,0:0|0:0,0:0:0:0:
511,100,175579,2,0,P|473:80|431:90,2,75.000002861023,10|6|2,0:0|0:0|0:0,0:0:0:0:
390,22,175979,6,0,P|404:87|417:169,1,150.000005722046,10|6,0:0|0:0,0:0:0:0:
377,239,176379,2,0,P|336:244|309:224,1,75.000002861023,2|8,0:0|0:0,0:0:0:0:
237,197,176646,1,10,0:0:0:0:
237,197,176779,2,0,L|225:122,1,75.000002861023,4|2,0:0|0:0,0:0:0:0:
286,61,177046,6,0,L|119:33,2,150.000005722046,10|4|10,0:0|0:0|0:0,0:0:0:0:
341,122,177712,1,8,0:0:0:0:
341,122,177846,2,0,P|382:120|404:94,1,75.000002861023,4|4,0:0|0:0,0:0:0:0:
284,192,178112,6,0,B|195:177|260:122|162:106,1,150.000005722046,10|6,0:0|0:0,0:0:0:0:
113,166,178512,1,10,0:0:0:0:
113,166,178579,1,8,0:0:0:0:
113,166,178646,2,0,P|74:171|47:204,1,75.000002861023,6|8,0:0|0:0,0:0:0:0:
87,264,178912,2,0,P|126:259|153:226,1,75.000002861023,6|8,0:0|0:0,0:0:0:0:
193,104,179179,6,0,P|262:127|345:142,1,150.000005722046,10|6,0:0|0:0,0:0:0:0:
408,106,179579,1,10,0:0:0:0:
408,106,179646,1,8,0:0:0:0:
408,106,179712,2,0,P|434:69|431:35,1,75.000002861023,6|8,0:0|0:0,0:0:0:0:
287,81,179979,2,0,P|306:122|336:136,1,75.000002861023,6|8,0:0|0:0,0:0:0:0:
476,178,180246,6,0,P|419:188|323:217,1,150.000005722046,10|6,0:0|0:0,0:0:0:0:
269,259,180646,1,8,0:0:0:0:
269,259,180712,1,8,0:0:0:0:
269,259,180779,2,0,P|223:254|200:229,1,75.000002861023,6|8,0:0|0:0,0:0:0:0:
142,189,181046,2,0,P|139:144|159:113,1,75.000002861023,6|8,0:0|0:0,0:0:0:0:
176,42,181312,6,0,L|334:72,1,150.000005722046,10|6,0:0|0:0,0:0:0:0:
393,33,181712,1,8,0:0:0:0:
393,33,181846,2,0,P|434:13|474:20,1,75.000002861023,6|8,0:0|0:0,0:0:0:0:
484,91,182112,2,0,P|451:109|414:108,1,75.000002861023,6|4,0:0|0:0,0:0:0:0:
345,147,182379,6,0,P|291:134|186:111,2,150.000005722046,10|4|10,0:0|0:0|0:0,0:0:0:0:
394,211,183046,1,8,0:0:0:0:
394,211,183179,2,0,P|395:254|406:285,1,75.000002861023,4|2,0:0|0:0,0:0:0:0:
473,328,183446,5,10,0:0:0:0:
403,366,183579,1,2,0:0:0:0:
326,292,183712,1,6,0:0:0:0:
240,329,183846,1,2,0:0:0:0:
163,256,183979,2,0,B|187:223|191:188|191:188|217:209|277:207,1,150.000005722046,10|4,0:0|0:0,0:0:0:0:
321,151,184379,1,2,0:0:0:0:
321,151,184512,6,0,P|319:106|332:68,1,75.000002861023,10|0,0:0|0:0,0:0:0:0:
393,36,184779,2,0,P|436:32|477:43,1,75.000002861023,6|2,0:0|0:0,0:0:0:0:
467,125,185046,2,0,P|475:183|489:277,1,150.000005722046,10|6,0:0|0:0,0:0:0:0:
442,338,185446,1,0,0:0:0:0:
442,338,185579,6,0,B|361:327|413:269|326:256,1,150.000005722046,10|6,0:0|0:0,0:0:0:0:
259,214,185979,2,0,P|223:229|187:237,1,75.000002861023,2|8,0:0|0:0,0:0:0:0:
121,193,186246,1,10,0:0:0:0:
59,248,186379,2,0,P|44:292|57:317,1,75.000002861023,4|4,0:0|0:0,0:0:0:0:
110,368,186646,6,0,P|165:348|260:328,2,150.000005722046,10|6|6,0:0|0:0|0:0,0:0:0:0:
46,320,187312,1,8,0:0:0:0:
101,258,187446,2,0,P|111:214|97:187,1,75.000002861023,4|10,0:0|0:0,0:0:0:0:
31,124,187712,6,0,P|95:145|183:160,2,150.000005722046,10|6|6,0:0|0:0|0:0,0:0:0:0:
238,111,188379,1,8,0:0:0:0:
238,111,188512,2,0,P|251:73|238:37,1,75.000002861023,6|0,0:0|0:0,0:0:0:0:
386,73,188779,6,0,P|338:85|232:121,2,150.000005722046,10|6|6,0:0|0:0|0:0,0:0:0:0:
458,123,189446,1,8,0:0:0:0:
458,123,189579,2,0,P|465:166|441:191,1,75.000002861023,6|8,0:0|0:0,0:0:0:0:
393,246,189846,6,0,P|357:229|316:215,1,75.000002861023,10|0,0:0|0:0,0:0:0:0:
342,373,190112,2,0,P|374:350|407:321,1,75.000002861023,6|10,0:0|0:0,0:0:0:0:
258,267,190379,2,0,P|261:306|269:349,1,75.000002861023,6|10,0:0|0:0,0:0:0:0:
396,238,190646,2,0,P|360:221|319:207,1,75.000002861023,6|12,0:0|0:0,0:0:0:0:
271,150,190912,6,0,B|189:160|241:213|146:230,2,150.000005722046,10|6|10,0:0|0:0|0:0,0:0:0:0:
328,96,191579,1,2,0:0:0:0:
376,171,191712,1,6,0:0:0:0:
447,138,191846,1,2,0:0:0:0:
493,219,191979,6,0,P|496:260|469:294,1,75.000002861023,10|0,0:0|0:0,0:0:0:0:
404,320,192246,1,6,0:0:0:0:
346,203,192379,2,0,P|385:212|409:249,1,75.000002861023,2|8,0:0|0:0,0:0:0:0:
404,320,192646,1,0,0:0:0:0:
329,283,192779,2,0,P|295:297|277:330,1,75.000002861023,6|0,0:0|0:0,0:0:0:0:
146,323,193046,6,0,P|235:339|298:358,1,150.000005722046,10|6,0:0|0:0,0:0:0:0:
92,266,193446,1,2,0:0:0:0:
92,266,193579,2,0,P|89:229|113:197,1,75.000002861023,10|2,0:0|0:0,0:0:0:0:
141,126,193846,2,0,L|214:140,1,75.000002861023,6|2,0:0|0:0,0:0:0:0:
274,78,194112,5,10,0:0:0:0:
468,146,194246,1,2,0:0:0:0:
320,182,194379,1,6,0:0:0:0:
427,67,194512,1,2,0:0:0:0:
496,217,194646,2,0,P|480:308|471:366,1,150.000005722046,10|4,0:0|0:0,0:0:0:0:
394,322,195046,1,4,0:0:0:0:
394,322,195179,6,0,B|310:336|333:258|248:284,1,150.000005722046,10|6,0:0|0:0,0:0:0:0:
206,339,195579,1,2,0:0:0:0:
137,297,195712,2,0,P|128:253|120:219,2,75.000002861023,10|2|6,0:0|0:0|0:0,0:0:0:0:
177,163,196112,1,2,0:0:0:0:
127,102,196246,6,0,P|100:84|51:94,1,75.000002861023,10|0,0:0|0:0,0:0:0:0:
177,163,196512,1,6,0:0:0:0:
209,90,196646,2,0,P|217:58|193:15,1,75.000002861023,2|8,0:0|0:0,0:0:0:0:
177,163,196912,1,0,0:0:0:0:
317,129,197046,2,0,P|290:154|254:157,1,75.000002861023,6|0,0:0|0:0,0:0:0:0:
360,59,197312,6,0,P|346:164|340:216,1,150.000005722046,14|6,0:0|0:0,0:0:0:0:
389,272,197712,1,10,0:0:0:0:
389,272,197846,1,6,0:0:0:0:
334,334,197979,1,10,0:0:0:0:
258,281,198112,1,6,0:0:0:0:
201,368,198246,1,10,0:0:0:0:
132,328,198379,5,8,0:0:0:0:
129,313,198446,1,10,0:0:0:0:
127,298,198512,1,8,0:0:0:0:
125,283,198579,1,10,0:0:0:0:
123,268,198646,2,0,L|116:217,3,37.5000014305115,8|10|8|10,0:0|0:0|0:0|0:0,0:0:0:0:
59,182,198912,5,10,0:0:0:0:
256,192,199046,12,0,203446,0:0:0:0:
