osu file format v14

[General]
AudioFilename: audio2.mp3
AudioLeadIn: 0
PreviewTime: 61273
Countdown: 0
SampleSet: Normal
StackLeniency: 0.7
Mode: 1
LetterboxInBreaks: 0
WidescreenStoryboard: 0

[Editor]
DistanceSpacing: 0.85
BeatDivisor: 4
GridSize: 4
TimelineZoom: 2.5

[Metadata]
Title:TUYU Songs Mapset
TitleUnicode:TUYU Songs Mapset
Artist:TUYU
ArtistUnicode:ツユ
Creator:Kamome Yuki
Version:Kuraberarekko
Source:
Tags:tuyu japanese rock
BeatmapID:2791246
BeatmapSetID:1347864

[Difficulty]
HPDrainRate:5
CircleSize:5
OverallDifficulty:5
ApproachRate:5
SliderMultiplier:1.4
SliderTickRate:1

[Events]
//Background and Video events
0,0,"bg53-2.jpg",0,0
//Break Periods
2,151705,155331
//Storyboard Layer 0 (Background)
//Storyboard Layer 1 (Fail)
//Storyboard Layer 2 (Pass)
//Storyboard Layer 3 (Foreground)
//Storyboard Layer 4 (Overlay)
//Storyboard Sound Samples

[TimingPoints]
655,309.278350515464,4,1,0,80,1,0
655,-133.333333333333,4,1,0,80,0,0
20448,-125,4,1,0,80,0,0
30345,-100,4,1,0,80,0,0
35294,-95.2380952380952,4,1,0,80,0,0
36067,-90.9090909090909,4,1,0,80,0,0
36685,-86.9565217391304,4,1,0,80,0,0
37459,-100,4,1,0,80,0,0
45191,-125,4,1,0,80,0,0
55087,-100,4,1,0,80,0,0
58799,-76.9230769230769,4,1,0,80,0,0
60036,-125,4,1,0,80,0,0
61273,-100,4,1,0,80,0,1
76196,-125,4,1,0,80,0,1
78593,-100,4,1,0,80,0,1
81067,-100,4,1,0,80,0,0
81222,-125,4,1,0,80,0,0
90964,-100,4,1,0,80,0,0
95912,-95.2380952380952,4,1,0,80,0,0
96685,-90.9090909090909,4,1,0,80,0,0
97304,-86.9565217391304,4,1,0,80,0,0
98077,-100,4,1,0,80,0,0
105809,-125,4,1,0,80,0,0
115706,-100,4,1,0,80,0,0
119417,-76.9230769230769,4,1,0,80,0,0
120655,-125,4,1,0,80,0,0
121428,-113.636363636364,4,1,0,80,0,0
121505,-111.111111111111,4,1,0,80,0,0
121582,-108.695652173913,4,1,0,80,0,0
121660,-106.382978723404,4,1,0,80,0,0
121737,-104.166666666667,4,1,0,80,0,0
121814,-102.040816326531,4,1,0,80,0,0
121892,-100,4,1,0,80,0,1
136892,-125,4,1,0,80,0,1
139211,-100,4,1,0,80,0,1
141685,-100,4,1,0,80,0,0
141840,-125,4,1,0,80,0,0
159005,-100,4,1,0,80,0,0
161479,-90.9090909090909,4,1,0,80,0,1
176402,-100,4,1,0,80,0,1
178799,-90.9090909090909,4,1,0,80,0,1
180809,-89.2857142857143,4,1,0,80,0,1
180886,-87.719298245614,4,1,0,80,0,1
180964,-86.2068965517241,4,1,0,80,0,1
181041,-84.7457627118644,4,1,0,80,0,1
181118,-83.3333333333333,4,1,0,80,0,1
181196,-81.9672131147541,4,1,0,80,0,1
181273,-80.6451612903226,4,1,0,80,0,1
196273,-87.719298245614,4,1,0,80,0,1
198593,-80.6451612903226,4,1,0,80,0,1
201067,-80.6451612903226,4,1,0,80,0,0
201376,-100,4,1,0,80,0,0

[HitObjects]
175,147,655,5,0,0:0:0:0:
233,139,1273,1,0,0:0:0:0:
237,145,1892,1,0,0:0:0:0:
237,145,2510,1,0,0:0:0:0:
237,145,3129,1,0,0:0:0:0:
193,89,3747,1,0,0:0:0:0:
203,130,4366,1,0,0:0:0:0:
205,137,4984,1,0,0:0:0:0:
188,141,5294,1,8,0:0:0:0:
202,129,5603,1,0,0:0:0:0:
188,141,6222,1,0,0:0:0:0:
188,141,6840,1,0,0:0:0:0:
163,101,7459,1,0,0:0:0:0:
183,124,8077,1,0,0:0:0:0:
183,124,8696,1,0,0:0:0:0:
183,124,9314,1,0,0:0:0:0:
183,124,9933,1,0,0:0:0:0:
183,130,10242,1,8,0:0:0:0:
183,124,10551,1,0,0:0:0:0:
174,153,11170,1,0,0:0:0:0:
174,153,11789,1,0,0:0:0:0:
183,151,12407,1,0,0:0:0:0:
183,151,13026,1,0,0:0:0:0:
183,151,13644,1,0,0:0:0:0:
183,151,14263,1,0,0:0:0:0:
183,151,14881,1,0,0:0:0:0:
183,151,15191,1,8,0:0:0:0:
174,160,15500,1,4,0:0:0:0:
173,162,16118,1,0,0:0:0:0:
173,162,16737,1,0,0:0:0:0:
173,162,17356,1,0,0:0:0:0:
173,162,17974,1,0,0:0:0:0:
173,162,18593,1,0,0:0:0:0:
177,165,19211,1,4,0:0:0:0:
177,165,19830,1,8,0:0:0:0:
177,165,20294,1,8,0:0:0:0:
178,157,20371,1,8,0:0:0:0:
176,157,20448,1,0,0:0:0:0:
185,156,20758,1,0,0:0:0:0:
184,148,21067,1,8,0:0:0:0:
182,148,21376,1,8,0:0:0:0:
183,147,21531,1,8,0:0:0:0:
185,143,21685,1,0,0:0:0:0:
190,151,21840,1,8,0:0:0:0:
190,151,21917,1,0,0:0:0:0:
189,150,21995,1,0,0:0:0:0:
192,153,22149,1,0,0:0:0:0:
194,153,22304,1,8,0:0:0:0:
195,148,22459,1,0,0:0:0:0:
196,148,22613,1,8,0:0:0:0:
169,81,22768,1,8,0:0:0:0:
212,146,22923,1,0,0:0:0:0:
204,142,23232,1,0,0:0:0:0:
216,145,23541,1,8,0:0:0:0:
216,143,23850,1,0,0:0:0:0:
210,146,24160,1,0,0:0:0:0:
205,148,24314,1,0,0:0:0:0:
206,149,24392,1,0,0:0:0:0:
208,148,24469,1,8,0:0:0:0:
202,144,24624,1,0,0:0:0:0:
203,145,24778,1,8,0:0:0:0:
204,145,24933,1,8,0:0:0:0:
205,145,25087,1,0,0:0:0:0:
205,148,25242,1,8,0:0:0:0:
205,148,25319,1,8,0:0:0:0:
206,149,25397,1,0,0:0:0:0:
229,166,25706,1,0,0:0:0:0:
230,160,26015,1,8,0:0:0:0:
198,57,26170,1,0,0:0:0:0:
198,57,26325,1,8,0:0:0:0:
202,133,26479,1,8,0:0:0:0:
196,146,26634,1,0,0:0:0:0:
200,145,26789,1,8,0:0:0:0:
206,140,26943,1,0,0:0:0:0:
202,133,27098,1,0,0:0:0:0:
222,136,27175,1,0,0:0:0:0:
203,137,27252,1,8,0:0:0:0:
214,133,27407,1,0,0:0:0:0:
209,131,27562,1,8,0:0:0:0:
210,133,27716,1,8,0:0:0:0:
217,137,27871,1,0,0:0:0:0:
214,129,28180,1,0,0:0:0:0:
187,126,28490,1,8,0:0:0:0:
206,135,28799,1,8,0:0:0:0:
205,137,28953,1,8,0:0:0:0:
199,129,29031,1,8,0:0:0:0:
199,128,29108,1,8,0:0:0:0:
199,131,29263,1,0,0:0:0:0:
198,131,29417,1,0,0:0:0:0:
197,129,29727,1,8,0:0:0:0:
201,117,30036,1,8,0:0:0:0:
201,115,30191,1,8,0:0:0:0:
200,120,30345,1,0,0:0:0:0:
216,130,30655,1,0,0:0:0:0:
217,129,30809,1,0,0:0:0:0:
230,135,30964,1,8,0:0:0:0:
230,135,31273,1,8,0:0:0:0:
228,131,31505,1,0,0:0:0:0:
229,129,31582,1,8,0:0:0:0:
226,126,31737,1,0,0:0:0:0:
230,129,31892,1,8,0:0:0:0:
228,128,32046,1,0,0:0:0:0:
230,129,32201,1,8,0:0:0:0:
230,129,32510,1,8,0:0:0:0:
229,138,32819,1,0,0:0:0:0:
231,114,32974,1,0,0:0:0:0:
229,138,33129,1,8,0:0:0:0:
192,53,33283,1,0,0:0:0:0:
229,137,33438,1,8,0:0:0:0:
229,138,33747,1,8,0:0:0:0:
222,146,33902,1,8,0:0:0:0:
223,137,34057,1,0,0:0:0:0:
217,128,34289,1,0,0:0:0:0:
223,137,34366,1,8,0:0:0:0:
228,124,34520,1,0,0:0:0:0:
230,125,34675,1,8,0:0:0:0:
230,123,34830,1,8,0:0:0:0:
230,122,34907,1,8,0:0:0:0:
228,122,34984,1,8,0:0:0:0:
169,132,35294,1,8,0:0:0:0:
170,138,35526,1,0,0:0:0:0:
169,132,35603,1,8,0:0:0:0:
169,137,35758,1,0,0:0:0:0:
199,107,35912,1,8,0:0:0:0:
199,107,36222,1,8,0:0:0:0:
215,127,36376,1,8,0:0:0:0:
195,131,36531,1,8,0:0:0:0:
193,130,36763,1,0,0:0:0:0:
193,130,36840,1,8,0:0:0:0:
193,122,36995,1,0,0:0:0:0:
190,118,37149,1,8,0:0:0:0:
186,90,37459,1,8,0:0:0:0:
186,90,37613,1,0,0:0:0:0:
185,126,37768,1,0,0:0:0:0:
166,89,38077,1,8,0:0:0:0:
189,128,38232,1,0,0:0:0:0:
185,126,38386,1,8,0:0:0:0:
180,113,38541,1,8,0:0:0:0:
185,126,38696,1,0,0:0:0:0:
181,112,38850,1,8,0:0:0:0:
181,113,39005,1,0,0:0:0:0:
183,117,39314,1,0,0:0:0:0:
175,152,39624,1,8,0:0:0:0:
179,149,39778,1,8,0:0:0:0:
179,148,39856,1,8,0:0:0:0:
178,147,39933,1,8,0:0:0:0:
172,111,40242,1,0,0:0:0:0:
188,168,40474,1,0,0:0:0:0:
190,168,40551,1,8,0:0:0:0:
184,128,40706,1,0,0:0:0:0:
184,130,40861,1,8,0:0:0:0:
179,137,41170,1,8,0:0:0:0:
185,133,41325,1,8,0:0:0:0:
182,134,41479,1,0,0:0:0:0:
170,146,41789,1,8,0:0:0:0:
171,147,42098,1,0,0:0:0:0:
174,142,42407,1,0,0:0:0:0:
169,140,42562,1,8,0:0:0:0:
169,140,42716,1,0,0:0:0:0:
168,141,43026,1,8,0:0:0:0:
174,142,43335,1,0,0:0:0:0:
169,140,43490,1,0,0:0:0:0:
169,140,43644,1,8,0:0:0:0:
186,122,43799,1,8,0:0:0:0:
186,118,43876,1,8,0:0:0:0:
185,124,43953,1,0,0:0:0:0:
182,137,44572,1,8,0:0:0:0:
182,137,45191,1,4,0:0:0:0:
194,146,45500,1,0,0:0:0:0:
186,154,45809,1,8,0:0:0:0:
192,155,45964,1,0,0:0:0:0:
192,155,46041,1,0,0:0:0:0:
192,155,46118,1,8,0:0:0:0:
192,155,46273,1,0,0:0:0:0:
191,157,46428,1,8,0:0:0:0:
188,176,46505,1,0,0:0:0:0:
189,175,46582,1,8,0:0:0:0:
170,66,46737,1,0,0:0:0:0:
186,187,46892,1,8,0:0:0:0:
190,182,47046,1,0,0:0:0:0:
194,182,47356,1,8,0:0:0:0:
193,182,47510,1,8,0:0:0:0:
193,182,47587,1,8,0:0:0:0:
192,180,47665,1,0,0:0:0:0:
194,182,47897,1,0,0:0:0:0:
195,180,47974,1,8,0:0:0:0:
194,182,48129,1,0,0:0:0:0:
197,177,48283,1,8,0:0:0:0:
197,171,48438,1,0,0:0:0:0:
197,173,48593,1,8,0:0:0:0:
198,173,48747,1,0,0:0:0:0:
201,186,48902,1,0,0:0:0:0:
201,191,48979,1,0,0:0:0:0:
199,184,49057,1,0,0:0:0:0:
197,184,49211,1,8,0:0:0:0:
197,186,49366,1,0,0:0:0:0:
198,182,49520,1,8,0:0:0:0:
201,189,49675,1,0,0:0:0:0:
201,186,49830,1,8,0:0:0:0:
208,193,49984,1,8,0:0:0:0:
208,195,50062,1,8,0:0:0:0:
207,194,50139,1,0,0:0:0:0:
209,179,50448,1,0,0:0:0:0:
214,182,50603,1,0,0:0:0:0:
215,182,50680,1,0,0:0:0:0:
210,179,50758,1,8,0:0:0:0:
219,177,50912,1,0,0:0:0:0:
201,182,51222,1,8,0:0:0:0:
206,186,51376,1,0,0:0:0:0:
208,190,51685,1,0,0:0:0:0:
221,195,51917,1,0,0:0:0:0:
214,189,51995,1,8,0:0:0:0:
219,202,52149,1,0,0:0:0:0:
216,204,52304,1,8,0:0:0:0:
198,175,52459,1,8,0:0:0:0:
197,174,52536,1,8,0:0:0:0:
199,177,52613,1,0,0:0:0:0:
212,189,52923,1,8,0:0:0:0:
212,204,53077,1,8,0:0:0:0:
216,204,53232,1,8,0:0:0:0:
206,207,53386,1,0,0:0:0:0:
213,201,53696,1,0,0:0:0:0:
212,201,53850,1,8,0:0:0:0:
206,205,54160,1,0,0:0:0:0:
215,206,54469,1,8,0:0:0:0:
220,212,54624,1,0,0:0:0:0:
220,215,54778,1,8,0:0:0:0:
219,217,54933,1,8,0:0:0:0:
219,216,55010,1,8,0:0:0:0:
215,214,55087,1,0,0:0:0:0:
187,168,55242,1,0,0:0:0:0:
187,168,55397,1,8,0:0:0:0:
183,160,55551,1,0,0:0:0:0:
235,196,55706,1,8,0:0:0:0:
196,125,55861,1,0,0:0:0:0:
251,113,56015,1,8,0:0:0:0:
153,77,56170,1,8,0:0:0:0:
225,195,56325,1,0,0:0:0:0:
188,118,56557,1,0,0:0:0:0:
231,207,56634,1,8,0:0:0:0:
183,115,56789,1,0,0:0:0:0:
232,211,56943,1,8,0:0:0:0:
215,120,57020,1,0,0:0:0:0:
179,112,57098,1,0,0:0:0:0:
232,209,57252,1,8,0:0:0:0:
176,98,57407,1,0,0:0:0:0:
177,97,57562,1,8,0:0:0:0:
183,115,57794,1,0,0:0:0:0:
237,209,57871,1,8,0:0:0:0:
186,114,58026,1,0,0:0:0:0:
186,116,58180,1,8,0:0:0:0:
212,113,58258,1,0,0:0:0:0:
190,142,58335,1,0,0:0:0:0:
212,113,58412,1,0,0:0:0:0:
212,113,58490,1,8,0:0:0:0:
237,209,58644,1,8,0:0:0:0:
237,209,58722,1,8,0:0:0:0:
203,168,58799,1,8,0:0:0:0:
203,168,59108,1,8,0:0:0:0:
198,159,59417,1,8,0:0:0:0:
230,169,60036,1,0,0:0:0:0:
230,169,60345,1,0,0:0:0:0:
230,159,60655,1,0,0:0:0:0:
192,102,61273,1,4,0:0:0:0:
208,120,61428,1,0,0:0:0:0:
208,120,61505,1,0,0:0:0:0:
208,120,61582,1,8,0:0:0:0:
208,117,61737,1,0,0:0:0:0:
208,113,61892,1,8,0:0:0:0:
208,113,61969,1,0,0:0:0:0:
228,110,62124,1,0,0:0:0:0:
206,88,62201,1,8,0:0:0:0:
194,46,62356,1,0,0:0:0:0:
221,135,62510,1,8,0:0:0:0:
236,143,62587,1,8,0:0:0:0:
235,141,62665,1,0,0:0:0:0:
235,140,62742,1,0,0:0:0:0:
233,138,62819,1,8,0:0:0:0:
231,140,62974,1,0,0:0:0:0:
232,139,63051,1,8,0:0:0:0:
230,138,63129,1,0,0:0:0:0:
230,139,63283,1,0,0:0:0:0:
228,139,63361,1,0,0:0:0:0:
221,135,63438,1,8,0:0:0:0:
223,135,63593,1,0,0:0:0:0:
225,140,63747,1,8,0:0:0:0:
158,136,63825,1,8,0:0:0:0:
181,120,63979,1,0,0:0:0:0:
181,115,64057,1,8,0:0:0:0:
197,136,64211,1,0,0:0:0:0:
195,134,64366,1,8,0:0:0:0:
194,135,64443,1,0,0:0:0:0:
194,135,64520,1,0,0:0:0:0:
193,133,64598,1,0,0:0:0:0:
192,132,64675,1,8,0:0:0:0:
192,132,64830,1,0,0:0:0:0:
179,135,64984,1,8,0:0:0:0:
181,151,65139,1,0,0:0:0:0:
179,148,65294,1,8,0:0:0:0:
178,144,65448,1,8,0:0:0:0:
181,149,65603,1,8,0:0:0:0:
187,146,65758,1,0,0:0:0:0:
186,146,65835,1,0,0:0:0:0:
186,145,65912,1,8,0:0:0:0:
186,145,66067,1,0,0:0:0:0:
185,153,66222,1,8,0:0:0:0:
211,157,66299,1,8,0:0:0:0:
211,157,66376,1,0,0:0:0:0:
208,155,66453,1,8,0:0:0:0:
196,148,66531,1,0,0:0:0:0:
186,113,66685,1,0,0:0:0:0:
197,144,66840,1,8,0:0:0:0:
205,165,66995,1,0,0:0:0:0:
202,161,67072,1,0,0:0:0:0:
197,158,67149,1,8,0:0:0:0:
194,157,67304,1,0,0:0:0:0:
197,148,67381,1,8,0:0:0:0:
277,190,67459,1,8,0:0:0:0:
266,186,67691,1,0,0:0:0:0:
262,183,67768,1,8,0:0:0:0:
259,185,67923,1,0,0:0:0:0:
257,186,68077,1,8,0:0:0:0:
257,186,68155,1,8,0:0:0:0:
175,121,68232,1,8,0:0:0:0:
215,142,68309,1,0,0:0:0:0:
215,142,68386,1,8,0:0:0:0:
177,125,68541,1,0,0:0:0:0:
179,128,68696,1,8,0:0:0:0:
223,162,68850,1,0,0:0:0:0:
225,159,68928,1,0,0:0:0:0:
223,159,69005,1,8,0:0:0:0:
223,159,69160,1,0,0:0:0:0:
221,153,69314,1,8,0:0:0:0:
223,153,69392,1,0,0:0:0:0:
217,124,69469,1,8,0:0:0:0:
217,124,69546,1,8,0:0:0:0:
217,124,69624,1,0,0:0:0:0:
321,216,69778,1,0,0:0:0:0:
321,216,69933,1,8,0:0:0:0:
217,124,70087,1,0,0:0:0:0:
205,121,70242,1,8,0:0:0:0:
243,164,70397,1,0,0:0:0:0:
243,164,70474,1,0,0:0:0:0:
210,129,70551,1,8,0:0:0:0:
203,131,70629,1,0,0:0:0:0:
228,163,70706,1,8,0:0:0:0:
225,165,70783,1,8,0:0:0:0:
221,163,70861,1,8,0:0:0:0:
225,161,71015,1,8,0:0:0:0:
224,161,71093,1,8,0:0:0:0:
220,158,71170,1,0,0:0:0:0:
130,147,71402,1,0,0:0:0:0:
112,139,71479,1,8,0:0:0:0:
164,171,71634,1,0,0:0:0:0:
164,171,71789,1,8,0:0:0:0:
143,115,71866,1,0,0:0:0:0:
143,115,71943,1,0,0:0:0:0:
143,115,72020,1,0,0:0:0:0:
143,115,72098,1,8,0:0:0:0:
143,115,72252,1,0,0:0:0:0:
143,115,72407,1,8,0:0:0:0:
129,97,72562,1,0,0:0:0:0:
129,97,72639,1,8,0:0:0:0:
131,95,72716,1,0,0:0:0:0:
140,92,72871,1,0,0:0:0:0:
139,92,73026,1,8,0:0:0:0:
137,90,73180,1,0,0:0:0:0:
137,90,73335,1,8,0:0:0:0:
197,97,73490,1,0,0:0:0:0:
208,117,73644,1,8,0:0:0:0:
212,114,73722,1,8,0:0:0:0:
212,111,73799,1,0,0:0:0:0:
212,111,73876,1,0,0:0:0:0:
212,111,73953,1,8,0:0:0:0:
207,108,74031,1,0,0:0:0:0:
207,108,74108,1,8,0:0:0:0:
207,108,74185,1,8,0:0:0:0:
228,107,74263,1,0,0:0:0:0:
228,107,74417,1,0,0:0:0:0:
226,104,74572,1,8,0:0:0:0:
230,155,74727,1,0,0:0:0:0:
230,155,74804,1,0,0:0:0:0:
228,161,74881,1,8,0:0:0:0:
226,162,75113,1,0,0:0:0:0:
225,162,75191,1,8,0:0:0:0:
218,144,75345,1,0,0:0:0:0:
271,182,75500,1,8,0:0:0:0:
271,182,75577,1,8,0:0:0:0:
271,182,75732,1,0,0:0:0:0:
271,182,75809,1,8,0:0:0:0:
214,171,75886,1,0,0:0:0:0:
215,155,75964,1,8,0:0:0:0:
212,172,76118,1,4,0:0:0:0:
214,171,76428,1,0,0:0:0:0:
186,172,76582,1,0,0:0:0:0:
210,175,76737,1,8,0:0:0:0:
212,172,77046,1,8,0:0:0:0:
194,140,77201,1,8,0:0:0:0:
194,140,77278,1,8,0:0:0:0:
194,140,77356,1,0,0:0:0:0:
208,188,77510,1,8,0:0:0:0:
205,184,77665,1,0,0:0:0:0:
202,186,77819,1,0,0:0:0:0:
198,184,77974,1,8,0:0:0:0:
175,166,78283,1,8,0:0:0:0:
175,166,78438,1,0,0:0:0:0:
175,166,78593,1,4,0:0:0:0:
188,116,78902,1,8,0:0:0:0:
188,116,79057,1,0,0:0:0:0:
181,116,79134,1,0,0:0:0:0:
180,115,79211,1,0,0:0:0:0:
179,115,79366,1,0,0:0:0:0:
178,113,79520,1,8,0:0:0:0:
175,123,79675,1,8,0:0:0:0:
174,120,79752,1,8,0:0:0:0:
173,120,79830,1,0,0:0:0:0:
171,120,79984,1,0,0:0:0:0:
172,121,80139,1,8,0:0:0:0:
161,90,80294,1,0,0:0:0:0:
155,89,80448,1,8,0:0:0:0:
160,109,80526,1,0,0:0:0:0:
156,106,80603,1,0,0:0:0:0:
154,106,80680,1,0,0:0:0:0:
152,106,80758,1,8,0:0:0:0:
152,106,80912,1,0,0:0:0:0:
153,109,81067,1,4,0:0:0:0:
199,137,81376,1,0,0:0:0:0:
199,137,81685,1,8,0:0:0:0:
199,137,81840,1,8,0:0:0:0:
199,137,82149,1,0,0:0:0:0:
205,137,82459,1,8,0:0:0:0:
205,137,82613,1,0,0:0:0:0:
205,131,82768,1,8,0:0:0:0:
205,133,82923,1,8,0:0:0:0:
205,132,83077,1,0,0:0:0:0:
219,146,83232,1,8,0:0:0:0:
220,146,83386,1,8,0:0:0:0:
216,144,83464,1,8,0:0:0:0:
216,143,83541,1,0,0:0:0:0:
218,147,83850,1,0,0:0:0:0:
212,157,84160,1,8,0:0:0:0:
214,156,84314,1,0,0:0:0:0:
214,152,84624,1,0,0:0:0:0:
212,157,84933,1,8,0:0:0:0:
212,157,85087,1,0,0:0:0:0:
214,156,85242,1,0,0:0:0:0:
214,152,85397,1,8,0:0:0:0:
217,157,85551,1,8,0:0:0:0:
212,157,85706,1,0,0:0:0:0:
217,155,85861,1,8,0:0:0:0:
212,157,86015,1,0,0:0:0:0:
219,159,86634,1,8,0:0:0:0:
219,160,86943,1,0,0:0:0:0:
219,159,87098,1,0,0:0:0:0:
219,167,87407,1,8,0:0:0:0:
220,166,87562,1,0,0:0:0:0:
219,160,87716,1,8,0:0:0:0:
219,160,87871,1,0,0:0:0:0:
219,159,88026,1,0,0:0:0:0:
217,161,88180,1,8,0:0:0:0:
217,162,88335,1,8,0:0:0:0:
220,162,88412,1,8,0:0:0:0:
220,166,88490,1,0,0:0:0:0:
219,160,88799,1,0,0:0:0:0:
217,161,89108,1,8,0:0:0:0:
220,162,89417,1,0,0:0:0:0:
207,144,89572,1,0,0:0:0:0:
212,146,89881,1,8,0:0:0:0:
212,146,90036,1,0,0:0:0:0:
214,155,90191,1,0,0:0:0:0:
213,154,90345,1,8,0:0:0:0:
206,152,90655,1,8,0:0:0:0:
184,68,90809,1,8,0:0:0:0:
184,68,90886,1,8,0:0:0:0:
179,70,90964,1,0,0:0:0:0:
183,86,91196,1,0,0:0:0:0:
179,70,91273,1,0,0:0:0:0:
182,84,91428,1,0,0:0:0:0:
179,74,91582,1,8,0:0:0:0:
194,87,91892,1,0,0:0:0:0:
194,87,92046,1,0,0:0:0:0:
186,91,92201,1,8,0:0:0:0:
183,95,92356,1,0,0:0:0:0:
183,98,92510,1,8,0:0:0:0:
183,98,92665,1,0,0:0:0:0:
184,98,92819,1,8,0:0:0:0:
182,99,93129,1,0,0:0:0:0:
183,98,93438,1,8,0:0:0:0:
188,95,93593,1,0,0:0:0:0:
205,108,93747,1,8,0:0:0:0:
199,101,93902,1,8,0:0:0:0:
194,100,94057,1,0,0:0:0:0:
168,105,94366,1,8,0:0:0:0:
173,107,94520,1,8,0:0:0:0:
192,77,94675,1,0,0:0:0:0:
206,81,94907,1,0,0:0:0:0:
207,81,94984,1,8,0:0:0:0:
207,82,95139,1,0,0:0:0:0:
210,81,95294,1,8,0:0:0:0:
230,78,95603,1,8,0:0:0:0:
248,80,95912,1,0,0:0:0:0:
224,90,96144,1,0,0:0:0:0:
223,89,96222,1,8,0:0:0:0:
223,89,96376,1,0,0:0:0:0:
223,89,96531,1,8,0:0:0:0:
218,97,96840,1,8,0:0:0:0:
219,97,96995,1,0,0:0:0:0:
221,97,97149,1,8,0:0:0:0:
223,89,97381,1,8,0:0:0:0:
220,100,97459,1,8,0:0:0:0:
218,97,97613,1,0,0:0:0:0:
218,97,97768,1,8,0:0:0:0:
225,89,98077,1,0,0:0:0:0:
228,101,98232,1,0,0:0:0:0:
230,106,98386,1,8,0:0:0:0:
222,104,98541,1,0,0:0:0:0:
221,104,98696,1,8,0:0:0:0:
215,81,98850,1,8,0:0:0:0:
192,56,99005,1,0,0:0:0:0:
206,69,99160,1,0,0:0:0:0:
206,72,99314,1,8,0:0:0:0:
199,97,99469,1,0,0:0:0:0:
198,94,99624,1,8,0:0:0:0:
197,103,99933,1,8,0:0:0:0:
197,106,100242,1,0,0:0:0:0:
197,105,100397,1,8,0:0:0:0:
196,103,100474,1,8,0:0:0:0:
196,103,100551,1,0,0:0:0:0:
197,103,100706,1,8,0:0:0:0:
197,103,100861,1,0,0:0:0:0:
209,90,101170,1,8,0:0:0:0:
234,134,101479,1,0,0:0:0:0:
206,92,101634,1,8,0:0:0:0:
225,109,101789,1,8,0:0:0:0:
209,90,101943,1,0,0:0:0:0:
221,122,102098,1,8,0:0:0:0:
216,119,102175,1,0,0:0:0:0:
223,104,102252,1,0,0:0:0:0:
214,118,102407,1,8,0:0:0:0:
188,57,102562,1,0,0:0:0:0:
209,119,102716,1,8,0:0:0:0:
199,111,103026,1,0,0:0:0:0:
189,106,103180,1,8,0:0:0:0:
192,111,103335,1,0,0:0:0:0:
193,111,103644,1,8,0:0:0:0:
199,111,103953,1,0,0:0:0:0:
189,106,104108,1,0,0:0:0:0:
190,104,104263,1,8,0:0:0:0:
192,104,104417,1,8,0:0:0:0:
191,102,104495,1,8,0:0:0:0:
190,102,104572,1,0,0:0:0:0:
190,104,105191,1,8,0:0:0:0:
190,104,105809,1,4,0:0:0:0:
232,111,106118,1,0,0:0:0:0:
232,111,106428,1,8,0:0:0:0:
246,111,106582,1,0,0:0:0:0:
245,110,106737,1,8,0:0:0:0:
245,109,106892,1,8,0:0:0:0:
241,109,106969,1,0,0:0:0:0:
241,109,107046,1,0,0:0:0:0:
239,106,107201,1,8,0:0:0:0:
235,106,107356,1,0,0:0:0:0:
236,106,107665,1,8,0:0:0:0:
206,107,107974,1,0,0:0:0:0:
201,102,108129,1,8,0:0:0:0:
201,102,108206,1,8,0:0:0:0:
200,104,108283,1,0,0:0:0:0:
207,124,108515,1,0,0:0:0:0:
204,120,108593,1,8,0:0:0:0:
204,120,108747,1,0,0:0:0:0:
199,123,108902,1,8,0:0:0:0:
197,121,109057,1,0,0:0:0:0:
197,122,109211,1,0,0:0:0:0:
197,122,109366,1,8,0:0:0:0:
199,122,109520,1,0,0:0:0:0:
197,126,109598,1,0,0:0:0:0:
197,126,109675,1,0,0:0:0:0:
199,123,109830,1,8,0:0:0:0:
195,126,109984,1,0,0:0:0:0:
195,128,110139,1,8,0:0:0:0:
197,122,110294,1,8,0:0:0:0:
187,79,110448,1,0,0:0:0:0:
197,126,110603,1,8,0:0:0:0:
197,126,110680,1,8,0:0:0:0:
195,126,110758,1,0,0:0:0:0:
214,127,111067,1,0,0:0:0:0:
197,122,111222,1,8,0:0:0:0:
205,137,111376,1,8,0:0:0:0:
151,84,111685,1,0,0:0:0:0:
151,84,111840,1,8,0:0:0:0:
164,91,111917,1,0,0:0:0:0:
196,100,111995,1,0,0:0:0:0:
154,100,112149,1,0,0:0:0:0:
154,104,112304,1,0,0:0:0:0:
165,109,112613,1,8,0:0:0:0:
172,63,112768,1,0,0:0:0:0:
172,63,112923,1,8,0:0:0:0:
172,63,113077,1,8,0:0:0:0:
166,60,113155,1,8,0:0:0:0:
165,60,113232,1,0,0:0:0:0:
163,57,113541,1,8,0:0:0:0:
164,55,113696,1,8,0:0:0:0:
164,56,113850,1,8,0:0:0:0:
205,63,114160,1,0,0:0:0:0:
166,53,114314,1,8,0:0:0:0:
166,53,114469,1,0,0:0:0:0:
166,35,114778,1,0,0:0:0:0:
201,55,115087,1,8,0:0:0:0:
181,75,115242,1,0,0:0:0:0:
181,75,115397,1,8,0:0:0:0:
185,77,115551,1,8,0:0:0:0:
184,74,115629,1,8,0:0:0:0:
183,73,115706,1,0,0:0:0:0:
226,93,116015,1,8,0:0:0:0:
181,75,116170,1,0,0:0:0:0:
181,75,116325,1,8,0:0:0:0:
226,93,116402,1,0,0:0:0:0:
189,74,116479,1,0,0:0:0:0:
188,74,116634,1,8,0:0:0:0:
216,104,116789,1,8,0:0:0:0:
216,104,116943,1,0,0:0:0:0:
223,95,117175,1,0,0:0:0:0:
218,91,117252,1,8,0:0:0:0:
217,91,117407,1,0,0:0:0:0:
215,92,117562,1,8,0:0:0:0:
215,91,117716,1,0,0:0:0:0:
218,91,117871,1,8,0:0:0:0:
232,102,118026,1,8,0:0:0:0:
230,101,118180,1,0,0:0:0:0:
215,95,118335,1,0,0:0:0:0:
243,90,118490,1,8,0:0:0:0:
215,92,118567,1,0,0:0:0:0:
220,91,118644,1,0,0:0:0:0:
215,91,118722,1,0,0:0:0:0:
240,84,118799,1,8,0:0:0:0:
240,84,118953,1,0,0:0:0:0:
241,106,119108,1,8,0:0:0:0:
239,104,119263,1,8,0:0:0:0:
239,105,119340,1,8,0:0:0:0:
231,112,119417,1,8,0:0:0:0:
231,112,119727,1,8,0:0:0:0:
231,112,120036,1,8,0:0:0:0:
249,108,120655,1,0,0:0:0:0:
247,105,120964,1,0,0:0:0:0:
249,108,121273,1,0,0:0:0:0:
255,107,121428,1,8,0:0:0:0:
256,107,121505,1,8,0:0:0:0:
255,106,121582,1,8,0:0:0:0:
255,106,121660,1,8,0:0:0:0:
257,108,121737,1,8,0:0:0:0:
257,112,121814,1,8,0:0:0:0:
255,110,121892,1,0,0:0:0:0:
245,101,122124,1,0,0:0:0:0:
245,101,122201,1,8,0:0:0:0:
245,101,122356,1,0,0:0:0:0:
243,98,122510,1,8,0:0:0:0:
243,98,122587,1,8,0:0:0:0:
243,98,122665,1,0,0:0:0:0:
243,98,122742,1,0,0:0:0:0:
243,98,122819,1,8,0:0:0:0:
245,101,122974,1,0,0:0:0:0:
241,96,123129,1,8,0:0:0:0:
241,96,123206,1,0,0:0:0:0:
241,96,123361,1,0,0:0:0:0:
243,98,123438,1,8,0:0:0:0:
243,98,123515,1,0,0:0:0:0:
243,98,123593,1,8,0:0:0:0:
243,98,123670,1,8,0:0:0:0:
243,98,123747,1,0,0:0:0:0:
241,95,123902,1,0,0:0:0:0:
241,96,124057,1,8,0:0:0:0:
238,86,124211,1,0,0:0:0:0:
240,84,124366,1,8,0:0:0:0:
250,93,124520,1,0,0:0:0:0:
250,93,124598,1,8,0:0:0:0:
250,91,124675,1,0,0:0:0:0:
250,91,124752,1,0,0:0:0:0:
250,91,124830,1,8,0:0:0:0:
252,90,124984,1,8,0:0:0:0:
250,89,125062,1,0,0:0:0:0:
251,91,125216,1,0,0:0:0:0:
251,90,125294,1,8,0:0:0:0:
251,91,125371,1,8,0:0:0:0:
250,93,125448,1,0,0:0:0:0:
250,93,125526,1,0,0:0:0:0:
250,93,125603,1,8,0:0:0:0:
250,91,125758,1,0,0:0:0:0:
252,90,125912,1,8,0:0:0:0:
246,102,126067,1,0,0:0:0:0:
234,113,126222,1,8,0:0:0:0:
237,111,126299,1,0,0:0:0:0:
237,111,126376,1,0,0:0:0:0:
192,64,126531,1,8,0:0:0:0:
192,64,126685,1,8,0:0:0:0:
197,88,126840,1,8,0:0:0:0:
197,88,126917,1,8,0:0:0:0:
195,88,126995,1,0,0:0:0:0:
194,86,127072,1,0,0:0:0:0:
192,85,127149,1,8,0:0:0:0:
194,88,127304,1,0,0:0:0:0:
194,86,127381,1,8,0:0:0:0:
193,86,127459,1,0,0:0:0:0:
177,59,127613,1,0,0:0:0:0:
177,59,127768,1,8,0:0:0:0:
190,106,127845,1,0,0:0:0:0:
186,95,127923,1,8,0:0:0:0:
185,93,128000,1,8,0:0:0:0:
184,92,128077,1,0,0:0:0:0:
178,93,128232,1,0,0:0:0:0:
178,93,128309,1,0,0:0:0:0:
177,91,128386,1,8,0:0:0:0:
176,91,128541,1,0,0:0:0:0:
177,59,128696,1,8,0:0:0:0:
177,59,128773,1,0,0:0:0:0:
166,55,128928,1,0,0:0:0:0:
165,53,129005,1,8,0:0:0:0:
165,53,129082,1,0,0:0:0:0:
165,53,129160,1,0,0:0:0:0:
159,50,129314,1,8,0:0:0:0:
163,66,129469,1,0,0:0:0:0:
166,66,129546,1,0,0:0:0:0:
166,66,129624,1,8,0:0:0:0:
166,66,129778,1,0,0:0:0:0:
172,71,129933,1,8,0:0:0:0:
202,75,130010,1,8,0:0:0:0:
201,82,130087,1,0,0:0:0:0:
201,75,130165,1,0,0:0:0:0:
201,76,130242,1,8,0:0:0:0:
201,46,130397,1,0,0:0:0:0:
199,50,130551,1,8,0:0:0:0:
207,150,130706,1,0,0:0:0:0:
207,150,130861,1,8,0:0:0:0:
228,155,131015,1,0,0:0:0:0:
229,154,131093,1,0,0:0:0:0:
245,155,131170,1,8,0:0:0:0:
245,155,131247,1,0,0:0:0:0:
245,155,131325,1,8,0:0:0:0:
245,155,131402,1,8,0:0:0:0:
243,154,131479,1,8,0:0:0:0:
241,146,131634,1,8,0:0:0:0:
242,146,131711,1,8,0:0:0:0:
239,145,131789,1,0,0:0:0:0:
247,173,131943,1,0,0:0:0:0:
247,173,132020,1,8,0:0:0:0:
247,173,132098,1,0,0:0:0:0:
248,175,132252,1,0,0:0:0:0:
249,175,132407,1,8,0:0:0:0:
250,177,132562,1,0,0:0:0:0:
252,178,132716,1,8,0:0:0:0:
254,177,132794,1,0,0:0:0:0:
254,173,132948,1,0,0:0:0:0:
254,174,133026,1,8,0:0:0:0:
254,174,133103,1,8,0:0:0:0:
255,174,133180,1,0,0:0:0:0:
252,178,133335,1,8,0:0:0:0:
254,180,133490,1,0,0:0:0:0:
252,178,133644,1,8,0:0:0:0:
250,161,133799,1,0,0:0:0:0:
249,160,133876,1,0,0:0:0:0:
250,161,133953,1,8,0:0:0:0:
252,166,134108,1,0,0:0:0:0:
254,168,134263,1,8,0:0:0:0:
254,168,134340,1,8,0:0:0:0:
254,165,134495,1,0,0:0:0:0:
254,164,134572,1,8,0:0:0:0:
254,163,134727,1,8,0:0:0:0:
255,162,134804,1,8,0:0:0:0:
253,149,134881,1,8,0:0:0:0:
255,162,134959,1,0,0:0:0:0:
225,104,135036,1,0,0:0:0:0:
225,104,135113,1,0,0:0:0:0:
225,104,135191,1,8,0:0:0:0:
235,188,135268,1,8,0:0:0:0:
248,146,135345,1,0,0:0:0:0:
235,188,135423,1,0,0:0:0:0:
245,141,135500,1,8,0:0:0:0:
243,148,135732,1,0,0:0:0:0:
245,141,135809,1,8,0:0:0:0:
240,145,135964,1,0,0:0:0:0:
241,147,136041,1,0,0:0:0:0:
236,142,136118,1,8,0:0:0:0:
236,142,136196,1,0,0:0:0:0:
235,150,136350,1,0,0:0:0:0:
235,150,136428,1,8,0:0:0:0:
232,149,136582,1,8,0:0:0:0:
233,150,136737,1,4,0:0:0:0:
232,149,137046,1,0,0:0:0:0:
235,150,137356,1,8,0:0:0:0:
236,155,137665,1,0,0:0:0:0:
235,155,137819,1,8,0:0:0:0:
182,199,137897,1,8,0:0:0:0:
234,135,137974,1,0,0:0:0:0:
232,140,138129,1,8,0:0:0:0:
193,75,138283,1,0,0:0:0:0:
221,153,138593,1,8,0:0:0:0:
206,88,138902,1,8,0:0:0:0:
207,88,139057,1,8,0:0:0:0:
207,144,139211,1,4,0:0:0:0:
212,143,139520,1,8,0:0:0:0:
212,142,139675,1,0,0:0:0:0:
212,142,139752,1,0,0:0:0:0:
212,141,139830,1,0,0:0:0:0:
212,138,139984,1,0,0:0:0:0:
211,137,140139,1,8,0:0:0:0:
212,143,140294,1,8,0:0:0:0:
212,143,140371,1,8,0:0:0:0:
212,143,140448,1,0,0:0:0:0:
208,136,140603,1,0,0:0:0:0:
207,136,140758,1,8,0:0:0:0:
222,125,140912,1,0,0:0:0:0:
212,121,141067,1,8,0:0:0:0:
212,121,141144,1,0,0:0:0:0:
212,121,141222,1,0,0:0:0:0:
212,121,141299,1,0,0:0:0:0:
208,121,141376,1,8,0:0:0:0:
206,122,141453,1,0,0:0:0:0:
206,122,141531,1,8,0:0:0:0:
205,122,141608,1,8,0:0:0:0:
203,122,141685,1,0,0:0:0:0:
205,182,141840,1,0,0:0:0:0:
156,146,142149,1,8,0:0:0:0:
221,148,142304,1,8,0:0:0:0:
156,146,142459,1,0,0:0:0:0:
156,146,142613,1,8,0:0:0:0:
156,146,142768,1,8,0:0:0:0:
197,141,142923,1,0,0:0:0:0:
185,137,143077,1,8,0:0:0:0:
185,137,143232,1,0,0:0:0:0:
179,134,143541,1,8,0:0:0:0:
192,135,144005,1,8,0:0:0:0:
185,137,144160,1,0,0:0:0:0:
165,157,144314,1,8,0:0:0:0:
165,151,144624,1,8,0:0:0:0:
163,151,144778,1,0,0:0:0:0:
170,115,144933,1,0,0:0:0:0:
166,120,145087,1,8,0:0:0:0:
165,122,145242,1,0,0:0:0:0:
159,138,145397,1,8,0:0:0:0:
152,140,145551,1,0,0:0:0:0:
150,141,145706,1,0,0:0:0:0:
149,142,146015,1,8,0:0:0:0:
141,143,146325,1,8,0:0:0:0:
141,143,146479,1,8,0:0:0:0:
141,142,146634,1,0,0:0:0:0:
141,143,146943,1,8,0:0:0:0:
140,148,147252,1,8,0:0:0:0:
141,143,147407,1,0,0:0:0:0:
186,58,147562,1,8,0:0:0:0:
152,119,147716,1,8,0:0:0:0:
152,119,148026,1,8,0:0:0:0:
152,119,148180,1,0,0:0:0:0:
155,113,148335,1,0,0:0:0:0:
154,104,148490,1,8,0:0:0:0:
156,86,148644,1,0,0:0:0:0:
155,86,148799,1,8,0:0:0:0:
155,85,148953,1,8,0:0:0:0:
154,84,149031,1,8,0:0:0:0:
149,77,149108,1,0,0:0:0:0:
145,87,149417,1,8,0:0:0:0:
161,108,149495,1,8,0:0:0:0:
161,108,149572,1,0,0:0:0:0:
161,109,149649,1,0,0:0:0:0:
159,109,149727,1,8,0:0:0:0:
172,104,149830,1,0,0:0:0:0:
173,104,149933,1,0,0:0:0:0:
173,104,150036,1,8,0:0:0:0:
172,95,150139,1,0,0:0:0:0:
172,94,150242,1,0,0:0:0:0:
174,82,150345,1,8,0:0:0:0:
177,84,150448,1,8,0:0:0:0:
177,84,150551,1,0,0:0:0:0:
200,104,150655,1,8,0:0:0:0:
204,107,150809,1,0,0:0:0:0:
199,94,150964,1,8,0:0:0:0:
203,89,151273,1,8,0:0:0:0:
202,88,151428,1,8,0:0:0:0:
202,88,151505,1,8,0:0:0:0:
217,94,156531,5,4,0:0:0:0:
235,116,156840,1,0,0:0:0:0:
235,116,157149,1,8,0:0:0:0:
235,110,157459,1,0,0:0:0:0:
233,106,157613,1,8,0:0:0:0:
230,105,157923,1,8,0:0:0:0:
230,104,158077,1,0,0:0:0:0:
230,104,158386,1,8,0:0:0:0:
230,105,158696,1,8,0:0:0:0:
230,105,158850,1,8,0:0:0:0:
230,105,158928,1,8,0:0:0:0:
225,91,159005,1,0,0:0:0:0:
219,134,159314,1,8,0:0:0:0:
214,135,159469,1,0,0:0:0:0:
213,132,159624,1,8,0:0:0:0:
213,132,159778,1,0,0:0:0:0:
213,132,159933,1,8,0:0:0:0:
212,135,160087,1,0,0:0:0:0:
212,135,160165,1,0,0:0:0:0:
208,70,160242,1,8,0:0:0:0:
256,192,160861,12,0,161325,0:0:0:0:
175,143,161479,5,12,0:0:0:0:
198,146,161634,1,0,0:0:0:0:
198,146,161711,1,0,0:0:0:0:
198,146,161789,1,8,0:0:0:0:
213,162,161943,1,0,0:0:0:0:
213,162,162020,1,8,0:0:0:0:
213,161,162098,1,0,0:0:0:0:
214,160,162252,1,0,0:0:0:0:
213,160,162407,1,8,0:0:0:0:
223,169,162562,1,0,0:0:0:0:
162,159,162716,1,8,0:0:0:0:
230,169,162794,1,0,0:0:0:0:
228,168,162948,1,0,0:0:0:0:
227,164,163026,1,8,0:0:0:0:
225,163,163103,1,0,0:0:0:0:
224,162,163180,1,8,0:0:0:0:
223,160,163258,1,8,0:0:0:0:
221,160,163335,1,0,0:0:0:0:
208,148,163490,1,0,0:0:0:0:
208,148,163567,1,0,0:0:0:0:
206,147,163644,1,8,0:0:0:0:
205,146,163799,1,0,0:0:0:0:
190,138,163953,1,8,0:0:0:0:
186,138,164031,1,8,0:0:0:0:
186,138,164108,1,0,0:0:0:0:
186,137,164185,1,0,0:0:0:0:
186,137,164263,1,8,0:0:0:0:
168,137,164340,1,0,0:0:0:0:
168,137,164417,1,8,0:0:0:0:
168,140,164572,1,8,0:0:0:0:
168,140,164649,1,0,0:0:0:0:
167,102,164804,1,0,0:0:0:0:
167,102,164881,1,8,0:0:0:0:
157,108,164959,1,8,0:0:0:0:
157,108,165036,1,0,0:0:0:0:
157,108,165113,1,0,0:0:0:0:
155,109,165191,1,8,0:0:0:0:
161,95,165500,1,8,0:0:0:0:
155,94,165655,1,0,0:0:0:0:
155,86,165732,1,0,0:0:0:0:
154,82,165809,1,8,0:0:0:0:
152,80,165964,1,0,0:0:0:0:
152,80,166118,1,8,0:0:0:0:
147,78,166273,1,8,0:0:0:0:
145,95,166428,1,0,0:0:0:0:
148,97,166660,1,0,0:0:0:0:
145,95,166737,1,8,0:0:0:0:
145,95,166892,1,0,0:0:0:0:
143,93,166969,1,0,0:0:0:0:
142,93,167046,1,8,0:0:0:0:
182,102,167124,1,8,0:0:0:0:
172,95,167278,1,0,0:0:0:0:
170,93,167356,1,8,0:0:0:0:
165,98,167510,1,0,0:0:0:0:
159,93,167665,1,8,0:0:0:0:
202,120,167742,1,0,0:0:0:0:
202,120,167819,1,0,0:0:0:0:
202,120,167897,1,0,0:0:0:0:
202,120,167974,1,8,0:0:0:0:
202,120,168129,1,0,0:0:0:0:
193,117,168206,1,8,0:0:0:0:
194,117,168283,1,0,0:0:0:0:
202,135,168438,1,0,0:0:0:0:
200,130,168515,1,0,0:0:0:0:
197,127,168593,1,8,0:0:0:0:
197,127,168747,1,0,0:0:0:0:
187,118,168902,1,8,0:0:0:0:
194,125,168979,1,0,0:0:0:0:
186,123,169134,1,0,0:0:0:0:
186,123,169211,1,8,0:0:0:0:
190,122,169289,1,8,0:0:0:0:
186,122,169366,1,0,0:0:0:0:
212,128,169520,1,8,0:0:0:0:
183,144,169598,1,8,0:0:0:0:
182,144,169675,1,0,0:0:0:0:
181,144,169752,1,0,0:0:0:0:
178,142,169830,1,8,0:0:0:0:
175,139,169984,1,0,0:0:0:0:
172,118,170139,1,8,0:0:0:0:
173,158,170371,1,0,0:0:0:0:
173,158,170448,1,8,0:0:0:0:
150,118,170603,1,0,0:0:0:0:
172,150,170758,1,8,0:0:0:0:
173,148,170912,1,8,0:0:0:0:
173,148,170990,1,8,0:0:0:0:
173,146,171067,1,8,0:0:0:0:
191,80,171222,1,8,0:0:0:0:
190,93,171299,1,8,0:0:0:0:
190,93,171376,1,0,0:0:0:0:
170,144,171685,1,8,0:0:0:0:
194,93,171840,1,0,0:0:0:0:
194,93,171917,1,0,0:0:0:0:
194,93,171995,1,8,0:0:0:0:
192,96,172072,1,0,0:0:0:0:
192,97,172149,1,0,0:0:0:0:
189,98,172304,1,8,0:0:0:0:
170,117,172459,1,0,0:0:0:0:
181,129,172536,1,8,0:0:0:0:
181,128,172613,1,0,0:0:0:0:
181,129,172768,1,0,0:0:0:0:
181,129,172923,1,8,0:0:0:0:
175,129,173000,1,0,0:0:0:0:
174,126,173155,1,0,0:0:0:0:
171,124,173232,1,8,0:0:0:0:
163,123,173386,1,0,0:0:0:0:
163,123,173541,1,8,0:0:0:0:
181,129,173850,1,8,0:0:0:0:
184,145,173928,1,8,0:0:0:0:
184,145,174005,1,0,0:0:0:0:
185,145,174082,1,0,0:0:0:0:
185,142,174160,1,8,0:0:0:0:
185,142,174237,1,0,0:0:0:0:
185,142,174314,1,8,0:0:0:0:
185,142,174392,1,8,0:0:0:0:
185,141,174469,1,0,0:0:0:0:
184,141,174624,1,0,0:0:0:0:
184,144,174778,1,8,0:0:0:0:
126,178,174933,1,0,0:0:0:0:
117,174,175010,1,0,0:0:0:0:
119,174,175087,1,8,0:0:0:0:
208,122,175319,1,0,0:0:0:0:
188,104,175397,1,8,0:0:0:0:
203,119,175551,1,0,0:0:0:0:
208,122,175706,1,8,0:0:0:0:
181,129,175783,1,0,0:0:0:0:
178,128,175861,1,0,0:0:0:0:
208,122,176015,1,8,0:0:0:0:
197,118,176170,1,8,0:0:0:0:
197,122,176247,1,8,0:0:0:0:
197,122,176325,1,0,0:0:0:0:
185,138,176634,1,0,0:0:0:0:
182,140,176943,1,8,0:0:0:0:
241,224,177252,1,0,0:0:0:0:
241,224,177407,1,8,0:0:0:0:
235,226,177484,1,8,0:0:0:0:
241,224,177562,1,0,0:0:0:0:
235,228,177716,1,8,0:0:0:0:
235,228,177871,1,0,0:0:0:0:
235,229,178180,1,8,0:0:0:0:
210,255,178490,1,8,0:0:0:0:
210,255,178644,1,8,0:0:0:0:
185,200,178799,1,0,0:0:0:0:
179,228,179108,1,8,0:0:0:0:
179,224,179263,1,0,0:0:0:0:
179,222,179340,1,0,0:0:0:0:
179,222,179417,1,0,0:0:0:0:
150,200,179572,1,0,0:0:0:0:
152,205,179727,1,8,0:0:0:0:
153,229,179881,1,8,0:0:0:0:
154,229,179959,1,8,0:0:0:0:
154,232,180036,1,0,0:0:0:0:
153,229,180191,1,0,0:0:0:0:
146,233,180345,1,8,0:0:0:0:
148,234,180423,1,0,0:0:0:0:
147,235,180500,1,0,0:0:0:0:
146,233,180577,1,0,0:0:0:0:
146,233,180655,1,8,0:0:0:0:
150,236,180809,1,8,0:0:0:0:
137,255,180886,1,8,0:0:0:0:
144,245,180964,1,8,0:0:0:0:
141,247,181041,1,8,0:0:0:0:
142,247,181118,1,8,0:0:0:0:
141,247,181196,1,8,0:0:0:0:
139,245,181273,1,0,0:0:0:0:
198,189,181505,1,0,0:0:0:0:
198,189,181582,1,8,0:0:0:0:
211,166,181737,1,0,0:0:0:0:
211,166,181814,1,0,0:0:0:0:
211,166,181892,1,8,0:0:0:0:
211,166,181969,1,8,0:0:0:0:
211,166,182046,1,0,0:0:0:0:
211,166,182201,1,8,0:0:0:0:
212,157,182356,1,0,0:0:0:0:
211,166,182510,1,8,0:0:0:0:
206,156,182587,1,0,0:0:0:0:
202,155,182665,1,0,0:0:0:0:
201,156,182819,1,8,0:0:0:0:
193,154,182897,1,0,0:0:0:0:
193,154,182974,1,8,0:0:0:0:
193,154,183051,1,8,0:0:0:0:
192,154,183129,1,0,0:0:0:0:
185,150,183283,1,0,0:0:0:0:
185,150,183438,1,8,0:0:0:0:
154,152,183593,1,0,0:0:0:0:
154,152,183747,1,8,0:0:0:0:
158,157,183825,1,8,0:0:0:0:
170,144,183902,1,0,0:0:0:0:
169,142,183979,1,0,0:0:0:0:
166,140,184057,1,8,0:0:0:0:
168,137,184211,1,8,0:0:0:0:
164,138,184366,1,8,0:0:0:0:
163,137,184443,1,0,0:0:0:0:
161,133,184520,1,0,0:0:0:0:
161,129,184598,1,0,0:0:0:0:
159,129,184675,1,8,0:0:0:0:
159,129,184830,1,0,0:0:0:0:
157,129,184984,1,8,0:0:0:0:
155,137,185139,1,0,0:0:0:0:
150,133,185216,1,0,0:0:0:0:
155,136,185294,1,8,0:0:0:0:
157,133,185448,1,0,0:0:0:0:
154,129,185603,1,8,0:0:0:0:
154,129,185758,1,0,0:0:0:0:
157,129,185912,1,8,0:0:0:0:
141,124,186067,1,0,0:0:0:0:
141,124,186144,1,0,0:0:0:0:
144,129,186222,1,8,0:0:0:0:
185,62,186299,1,0,0:0:0:0:
176,56,186453,1,0,0:0:0:0:
176,56,186531,1,8,0:0:0:0:
177,60,186608,1,0,0:0:0:0:
176,58,186685,1,8,0:0:0:0:
173,60,186840,1,8,0:0:0:0:
177,99,186917,1,8,0:0:0:0:
165,91,187072,1,0,0:0:0:0:
163,89,187149,1,8,0:0:0:0:
174,66,187227,1,8,0:0:0:0:
159,89,187304,1,0,0:0:0:0:
165,71,187459,1,8,0:0:0:0:
187,75,187536,1,0,0:0:0:0:
185,78,187613,1,0,0:0:0:0:
183,77,187768,1,8,0:0:0:0:
177,99,187923,1,8,0:0:0:0:
159,89,188000,1,0,0:0:0:0:
103,130,188077,1,8,0:0:0:0:
175,98,188155,1,8,0:0:0:0:
169,96,188309,1,0,0:0:0:0:
169,96,188386,1,8,0:0:0:0:
100,104,188541,1,0,0:0:0:0:
100,104,188696,1,8,0:0:0:0:
155,178,188773,1,0,0:0:0:0:
155,178,188850,1,0,0:0:0:0:
155,178,188928,1,0,0:0:0:0:
155,178,189005,1,8,0:0:0:0:
155,171,189160,1,0,0:0:0:0:
150,167,189314,1,8,0:0:0:0:
168,118,189469,1,0,0:0:0:0:
162,114,189546,1,0,0:0:0:0:
168,118,189624,1,8,0:0:0:0:
150,147,189701,1,0,0:0:0:0:
148,147,189778,1,8,0:0:0:0:
147,147,189856,1,8,0:0:0:0:
147,147,189933,1,0,0:0:0:0:
139,136,190242,1,8,0:0:0:0:
155,142,190397,1,0,0:0:0:0:
168,135,190551,1,8,0:0:0:0:
168,135,190706,1,8,0:0:0:0:
166,133,190783,1,8,0:0:0:0:
166,131,190861,1,8,0:0:0:0:
165,129,191015,1,8,0:0:0:0:
165,128,191093,1,8,0:0:0:0:
165,124,191170,1,0,0:0:0:0:
239,166,191402,1,0,0:0:0:0:
239,166,191479,1,8,0:0:0:0:
220,130,191634,1,0,0:0:0:0:
221,134,191789,1,8,0:0:0:0:
221,135,191866,1,0,0:0:0:0:
221,135,191943,1,0,0:0:0:0:
220,130,192098,1,8,0:0:0:0:
220,130,192252,1,0,0:0:0:0:
219,162,192407,1,8,0:0:0:0:
230,155,192484,1,8,0:0:0:0:
230,155,192562,1,0,0:0:0:0:
230,155,192639,1,0,0:0:0:0:
229,153,192716,1,8,0:0:0:0:
229,153,192871,1,0,0:0:0:0:
231,153,193026,1,8,0:0:0:0:
237,167,193180,1,0,0:0:0:0:
237,166,193335,1,8,0:0:0:0:
246,171,193412,1,0,0:0:0:0:
244,168,193490,1,0,0:0:0:0:
244,168,193567,1,0,0:0:0:0:
239,163,193644,1,8,0:0:0:0:
235,173,193799,1,0,0:0:0:0:
235,172,193876,1,0,0:0:0:0:
235,171,193953,1,8,0:0:0:0:
237,167,194108,1,0,0:0:0:0:
237,155,194263,1,8,0:0:0:0:
228,156,194340,1,0,0:0:0:0:
228,162,194417,1,0,0:0:0:0:
228,162,194495,1,8,0:0:0:0:
171,117,194572,1,8,0:0:0:0:
171,117,194649,1,0,0:0:0:0:
237,161,194727,1,0,0:0:0:0:
237,161,194804,1,0,0:0:0:0:
235,157,194881,1,8,0:0:0:0:
235,140,195191,1,8,0:0:0:0:
219,146,195345,1,0,0:0:0:0:
220,146,195423,1,0,0:0:0:0:
218,147,195500,1,8,0:0:0:0:
218,147,195655,1,0,0:0:0:0:
217,144,195809,1,8,0:0:0:0:
211,124,195964,1,0,0:0:0:0:
211,124,196041,1,8,0:0:0:0:
210,124,196118,1,0,0:0:0:0:
195,70,196428,1,0,0:0:0:0:
202,66,196737,1,8,0:0:0:0:
230,110,197046,1,0,0:0:0:0:
225,106,197201,1,8,0:0:0:0:
216,102,197278,1,8,0:0:0:0:
216,101,197356,1,0,0:0:0:0:
216,101,197510,1,8,0:0:0:0:
216,101,197665,1,0,0:0:0:0:
197,66,197974,1,8,0:0:0:0:
200,69,198283,1,8,0:0:0:0:
200,69,198438,1,8,0:0:0:0:
200,69,198593,1,0,0:0:0:0:
201,69,198902,1,8,0:0:0:0:
200,69,199057,1,0,0:0:0:0:
200,69,199134,1,0,0:0:0:0:
200,69,199211,1,0,0:0:0:0:
200,69,199366,1,0,0:0:0:0:
200,69,199520,1,8,0:0:0:0:
194,62,199675,1,8,0:0:0:0:
194,62,199752,1,8,0:0:0:0:
194,62,199830,1,8,0:0:0:0:
192,61,199907,1,0,0:0:0:0:
192,61,199984,1,0,0:0:0:0:
192,61,200062,1,0,0:0:0:0:
190,59,200139,1,8,0:0:0:0:
190,59,200294,1,0,0:0:0:0:
208,88,200448,1,8,0:0:0:0:
208,88,200603,1,0,0:0:0:0:
208,57,200680,1,0,0:0:0:0:
208,55,200758,1,8,0:0:0:0:
207,51,200835,1,0,0:0:0:0:
207,51,200912,1,8,0:0:0:0:
210,49,201067,1,4,0:0:0:0:
211,95,201685,1,8,0:0:0:0:
207,102,201995,1,0,0:0:0:0:
207,102,202149,1,8,0:0:0:0:
205,102,202459,1,8,0:0:0:0:
205,104,202613,1,0,0:0:0:0:
169,51,202923,1,8,0:0:0:0:
212,136,203386,1,8,0:0:0:0:
212,136,203464,1,8,0:0:0:0:
212,136,203541,1,0,0:0:0:0:
205,132,203850,1,0,0:0:0:0:
203,135,204160,1,8,0:0:0:0:
199,133,204469,1,0,0:0:0:0:
199,133,204624,1,8,0:0:0:0:
196,131,204933,1,8,0:0:0:0:
195,131,205087,1,0,0:0:0:0:
199,138,205242,1,0,0:0:0:0:
199,133,205397,1,8,0:0:0:0:
196,131,205706,1,8,0:0:0:0:
196,131,205861,1,8,0:0:0:0:
195,131,206015,1,0,0:0:0:0:
194,136,206325,1,0,0:0:0:0:
194,136,206634,1,8,0:0:0:0:
195,131,206943,1,0,0:0:0:0:
194,136,207098,1,8,0:0:0:0:
194,136,207407,1,8,0:0:0:0:
194,136,207562,1,0,0:0:0:0:
195,131,207871,1,8,0:0:0:0:
190,130,208180,1,0,0:0:0:0:
221,161,208335,1,8,0:0:0:0:
221,161,208412,1,8,0:0:0:0:
221,161,208490,1,0,0:0:0:0:
231,151,208799,1,0,0:0:0:0:
232,151,209108,1,8,0:0:0:0:
246,146,209417,1,0,0:0:0:0:
195,66,209572,1,8,0:0:0:0:
256,135,209881,1,8,0:0:0:0:
221,149,210036,1,0,0:0:0:0:
242,135,210345,1,8,0:0:0:0:
261,145,210655,1,8,0:0:0:0:
263,145,210809,1,8,0:0:0:0:
264,145,210886,1,8,0:0:0:0:
