osu file format v14

[General]
AudioFilename: audio.mp3
AudioLeadIn: 0
PreviewTime: 581
Countdown: 0
SampleSet: Soft
StackLeniency: 0.9
Mode: 0
LetterboxInBreaks: 0
EpilepsyWarning: 1
WidescreenStoryboard: 1

[Editor]
Bookmarks: 54664,96599,130884,153862,186343,223266,243778,274416,289416,318216,359392,402592,436437,466127,491390,532532
DistanceSpacing: 1.4
BeatDivisor: 4
GridSize: 32
TimelineZoom: 2.1

[Metadata]
Title:Songs Compilation
TitleUnicode:Songs Compilation
Artist:TUYU
ArtistUnicode:ツユ
Creator:Keqing
Version:Seclusion
Source:
Tags:iljaaz lowgraphics ima kowari 過去に囚われている ぷす Pusu Kako ni Torawarete Iru Trapped in the past ルーザーガール Loser Girl ruzagaru 風薫る空の下 礼衣 Kazekaoru Sora no Shita Reii 雨を浴びる Ame Wo Abiru ロックな君とはお別れだ Rock na Kimi to wa Owakare da Rock-and-Roll やっぱり雨は降るんだね Yappari Furun ne It's Raining After All 奴隷じゃないなら何ですか? Dorei Janai nara Nan Desu ka? 終点の先が在るとするならば。 Shuuten Saki ga Aru Suru naraba. if there was an endpoint. あの世行きのバスに乗ってさらば。 Anoyo-iki Bus Notte Saraba. basu 泥の分際で私だけの大切を奪おうだなんて おむたつ Doro Bunzai de Watashi dake Taisetsu o Ubaouda nante ナミカレ Namikare Even tears withered デモーニッシュ Daemonisch demonish かくれんぼっち Kakuren Bocchi くらべられっ子 Kuraberarekko Compared Child 忠犬ハチ Chuuken Hachi 太陽になれるかな Taiyou Nareru ka アサガオの散る頃に Asagao Chiru Koro omutatsu tsuyu 貴方を不幸に誘いますね jpop pop female vocals rock jrock japanese
BeatmapID:3613084
BeatmapSetID:1765136

[Difficulty]
HPDrainRate:6
CircleSize:4
OverallDifficulty:8.7
ApproachRate:9.5
SliderMultiplier:1.74
SliderTickRate:1

[Events]
//Background and Video events
0,0,"maxresdefault.jpg",0,0
//Break Periods
//Storyboard Layer 0 (Background)
//Storyboard Layer 1 (Fail)
//Storyboard Layer 2 (Pass)
//Storyboard Layer 3 (Foreground)
Animation,Foreground,Centre,"sb\circleani\Ellipse.png",308,183,31,10,LoopOnce S,13,152586,152896,0,0.5
Animation,Foreground,Centre,"sb\circleani\Ellipse.png",457,234,31,10,LoopOnce S,13,152905,153215,0,0.5
Animation,Foreground,Centre,"sb\circleani\Ellipse.png",231,330,31,10,LoopOnce S,13,153224,153534,0,0.5
Sprite,Foreground,Centre,"sb\q.png",320,240 C,0,153862,,0,0,0 V,0,153862,154087,1100,2000
Sprite,Foreground,Centre,"sb\circleani\Ellipse28.png",116,389 S,4,153384,153623,0,1.2 S,3,153623,153862,1.2,0.4
Sprite,Foreground,Centre,"sb\circleani\Ellipse27.png",116,389 S,4,153543,153703,0,0.6 S,3,153703,153862,0.6,0.4
Sprite,Foreground,Centre,"sb\circleani\Ellipse0.png",116,389 S,13,153862,154087,0,3 F,13,154087,156087,1,0
Sprite,Foreground,Centre,"sb\c2.png",316,0 MY,0,463653,,231 F,2,463653,464153,0.5,0 S,4,463653,464153,0.1,0.4631889
Sprite,Foreground,Centre,"sb\c2.png",449,0 MY,0,463962,,351 F,2,463962,464462,0.5,0 S,4,463962,464462,0.1,0.4982
Sprite,Foreground,Centre,"sb\c2.png",233,0 MY,0,464272,,395 F,2,464272,464772,0.5,0 S,4,464272,464772,0.1,0.4127949
Sprite,Foreground,Centre,"sb\c2.png",316,0 MY,0,464581,,231 F,2,464581,465081,0.5,0 S,4,464581,465081,0.1,0.3823866
Sprite,Foreground,Centre,"sb\c2.png",342,0 MY,0,464890,,337 F,2,464890,465390,0.5,0 S,4,464890,465390,0.1,0.3023952
Sprite,Foreground,Centre,"sb\c2.png",320,0 MY,0,464993,,327 F,2,464993,465493,0.5,0 S,4,464993,465493,0.1,0.3108952
Sprite,Foreground,Centre,"sb\c2.png",344,0 MY,0,465096,,315 F,2,465096,465596,0.5,0 S,4,465096,465596,0.1,0.4396508
Sprite,Foreground,Centre,"sb\c2.png",336,0 MY,0,465199,,327 F,2,465199,465699,0.5,0 S,4,465199,465699,0.1,0.3897831
Sprite,Foreground,Centre,"sb\c2.png",216,0 MY,0,465354,,257 F,2,465354,465854,0.5,0 S,4,465354,465854,0.1,0.3944833
Sprite,Foreground,Centre,"sb\c2.png",0,0 M,0,465509,,215,267 F,2,465509,466009,0.6,0 S,4,465509,466009,0.1,0.6748709
Sprite,Foreground,Centre,"sb\c2.png",0,0 M,0,465509,,340,324 F,2,465509,466009,0.8,0 S,4,465509,466009,0.1,0.5382463
Sprite,Foreground,Centre,"sb\c2.png",0,0 M,0,465663,,337,232 F,2,465663,466127,0.6,0 S,4,465663,466163,0.1,0.6528451
Sprite,Foreground,Centre,"sb\c2.png",0,0 M,0,465663,,465,194 F,2,465663,466127,0.8,0 S,4,465663,466163,0.1,0.5785463
Sprite,Foreground,Centre,"sb\c2.png",0,0 M,0,465741,,387,219 F,2,465741,466127,0.6,0 S,4,465741,466241,0.1,0.6829399
Sprite,Foreground,Centre,"sb\c2.png",0,0 M,0,465741,,159,201 F,2,465741,466127,0.8,0 S,4,465741,466241,0.1,0.5091965
Sprite,Foreground,Centre,"sb\c2.png",0,0 M,0,465818,,380,180 F,2,465818,466127,0.6,0 S,4,465818,466318,0.1,0.6166052
Sprite,Foreground,Centre,"sb\c2.png",0,0 M,0,465818,,322,361 F,2,465818,466127,0.8,0 S,4,465818,466318,0.1,0.5663835
Sprite,Foreground,Centre,"sb\c2.png",0,0 M,0,465895,,135,370 F,2,465895,466127,0.6,0 S,4,465895,466395,0.1,0.6088826
Sprite,Foreground,Centre,"sb\c2.png",0,0 M,0,465895,,162,98 F,2,465895,466127,0.8,0 S,4,465895,466395,0.1,0.5343791
Sprite,Foreground,Centre,"sb\c2.png",0,0 M,0,465973,,350,338 F,2,465973,466127,0.6,0 S,4,465973,466473,0.1,0.6228667
Sprite,Foreground,Centre,"sb\c2.png",0,0 M,0,465973,,410,94 F,2,465973,466127,0.8,0 S,4,465973,466473,0.1,0.5407544
Sprite,Foreground,Centre,"sb\c2.png",0,0 M,0,466050,,399,245 F,2,466050,466127,0.6,0 S,4,466050,466550,0.1,0.6317325
Sprite,Foreground,Centre,"sb\c2.png",0,0 M,0,466050,,419,352 F,2,466050,466127,0.8,0 S,4,466050,466550,0.1,0.55376
Sprite,Foreground,Centre,"sb\q.png",320,240 C,0,466127,,0,0,0 V,0,466127,466284,1100,2000
Sprite,Foreground,Centre,"sb\circleani\Ellipse0.png",320,240 S,13,466127,466284,0,2 F,10,466284,468284,1,0
//Storyboard Layer 4 (Overlay)
//Storyboard Sound Samples

[TimingPoints]
8,333.333333333333,4,2,4,64,1,0
674,-119.047619047619,4,2,4,64,0,0
26341,-294.117647058824,4,2,4,84,0,0
26674,-87.719298245614,4,2,4,84,0,0
48007,-119.047619047619,4,2,4,64,0,0
54674,324.324324324324,4,2,7,84,1,0
54674,-87.719298245614,4,2,7,84,0,0
55971,320.855614973262,4,2,7,84,1,0
55971,-87.719298245614,4,2,7,84,0,0
59821,324.324324324324,4,2,7,84,1,0
59821,-87.719298245614,4,2,7,74,0,0
63712,314.13612565445,4,2,7,84,1,0
63712,-227.272727272727,4,2,7,74,0,0
64968,320.855614973262,4,2,7,74,1,0
66932,322.58064516129,4,2,7,84,1,0
66932,-87.719298245614,4,2,7,84,0,0
87577,-87.719298245614,4,2,7,64,0,0
92738,-156.25,4,2,7,64,0,0
96609,342.857142857143,4,2,7,84,1,0
97980,-80.6451612903226,4,2,7,84,0,0
130894,319.148936170213,4,2,4,84,1,0
130894,-80.6451612903226,4,2,4,84,0,0
153553,-227.272727272727,4,2,7,84,0,0
153877,451.127819548872,4,2,7,84,1,0
153877,-60.9756097560976,4,2,7,84,0,0
157486,-106.382978723404,4,2,7,84,0,0
157937,-60.9756097560976,4,2,7,84,0,0
171922,-106.382978723404,4,2,7,84,0,0
172373,-60.9756097560976,4,2,7,84,0,0
182298,-106.382978723404,4,2,7,84,0,0
185907,-60.9756097560976,4,2,7,84,0,0
186353,461.538461538462,4,2,7,84,1,0
186353,-60.9756097560976,4,2,7,84,0,0
216122,-96.1538461538461,4,2,7,54,0,0
223276,512.820512820513,4,2,4,84,1,0
223276,-57.4712643678161,4,2,4,84,0,0
243793,255.31914893617,4,2,4,84,1,0
260261,-125,4,2,4,74,0,0
264218,-100,4,2,4,84,0,0
274426,250,4,2,4,84,1,0
289426,266.666666666667,4,2,4,84,1,0
309692,-100,4,2,4,54,0,0
318226,294.117647058824,4,2,7,84,1,0
318226,-87.719298245614,4,2,7,84,0,0
332343,-135.135135135135,4,2,7,64,0,0
335873,-87.719298245614,4,2,7,84,0,0
337049,-227.272727272727,4,2,7,84,0,0
338226,-87.719298245614,4,2,7,84,0,0
352343,-135.135135135135,4,2,7,64,0,0
355873,-96.1538461538461,4,2,7,74,0,0
357637,-74.6268656716418,4,2,7,84,0,0
358373,-96.1538461538461,4,2,7,84,0,0
359402,300,4,2,4,84,1,0
359402,-60.9756097560976,4,2,4,84,0,0
360002,-87.719298245614,4,2,4,84,0,0
360302,-74.6268656716418,4,2,4,84,0,0
360602,-87.719298245614,4,2,4,84,0,0
363902,-74.6268656716418,4,2,4,84,0,0
364202,-156.25,4,2,4,84,0,0
364502,-74.6268656716418,4,2,4,84,0,0
364802,-156.25,4,2,4,84,0,0
365102,-87.719298245614,4,2,4,84,0,0
366302,-101.010101010101,4,2,4,84,0,0
366602,-87.719298245614,4,2,4,84,0,0
372602,-64.9350649350649,4,2,4,84,0,0
376202,-106.382978723404,4,2,4,64,0,0
379502,-74.6268656716417,4,2,4,84,0,0
379802,-135.135135135135,4,2,4,84,0,0
380102,-74.6268656716417,4,2,4,84,0,0
380402,-135.135135135135,4,2,4,84,0,0
383402,-69.4444444444444,4,2,4,84,0,0
393002,-87.719298245614,4,2,4,84,0,0
397802,-119.047619047619,4,2,4,64,0,0
401402,-74.6268656716418,4,2,4,74,0,0
402602,307.692307692308,4,2,4,54,1,0
408755,-100,4,2,4,64,0,0
411217,-100,4,2,4,74,0,0
414294,307.692307692308,4,2,4,74,1,0
414294,-96.1538461538461,4,2,4,74,0,0
436447,309.278350515464,4,2,7,84,1,0
436447,-87.719298245614,4,2,7,84,0,0
451292,-135.135135135135,4,2,7,74,0,0
453766,-87.719298245614,4,2,7,84,0,0
456240,-119.047619047619,4,2,7,64,0,0
466137,315.789473684211,4,2,7,84,1,0
466768,-71.4285714285714,4,2,7,84,0,0
467400,-100,4,2,7,84,0,0
468031,-71.4285714285714,4,2,7,84,0,0
469137,-100,4,2,7,84,0,0
470715,-71.4285714285714,4,2,7,84,0,0
471189,-100,4,2,7,84,0,0
473084,-71.4285714285714,4,2,7,84,0,0
476558,-100,4,2,7,84,0,0
478768,-71.4285714285714,4,2,7,84,0,0
479084,-100,4,2,7,84,0,0
479873,-71.4285714285714,4,2,7,84,0,0
480031,-142.857142857143,4,2,7,84,0,0
482568,315.789473684211,4,2,7,54,1,0
482568,-142.857142857143,4,2,7,54,0,0
486979,-142.857142857143,4,2,7,74,0,0
487137,-83.3333333333334,4,2,7,74,0,0
487926,-100,4,2,7,74,0,0
488873,-100,4,2,7,64,0,0
490768,-142.857142857143,4,2,7,84,0,0
491400,342.857142857143,4,2,7,74,1,0
491400,-125,4,2,7,74,0,0
491742,-111.111111111111,4,2,7,74,0,0
510600,-99.9999999999999,4,2,7,84,0,0
532542,705.882352941176,4,2,7,84,1,0
532542,-62.5,4,2,7,84,0,0
560777,-62.5,4,2,7,54,0,0
561483,-125,4,2,7,54,0,0
572071,-200,4,2,7,54,0,0
572777,-200,4,2,7,49,0,0
573483,-200,4,2,7,44,0,0
574189,-200,4,2,7,39,0,0
574894,-200,4,2,7,34,0,0
575600,-200,4,2,7,29,0,0
576306,-200,4,2,7,24,0,0
577012,-200,4,2,7,19,0,0
577718,-200,4,2,7,14,0,0
577983,-200,4,2,7,9,0,0

[Colours]
Combo1 : 128,128,128
Combo2 : 255,53,53
Combo3 : 255,148,96
Combo4 : 3,209,189
Combo5 : 0,138,204
Combo6 : 255,255,166
Combo7 : 255,162,208
Combo8 : 192,192,192

[HitObjects]
256,192,674,101,2,3:2:0:0:
256,192,841,1,2,0:0:0:0:
362,37,1174,5,2,0:0:0:0:
485,71,1341,2,0,B|428:87|428:87|406:110|406:110|340:129,1,146.159995539551,4|8,3:2|0:0,0:0:0:0:
442,0,1841,1,0,3:2:0:0:
477,156,2007,102,0,P|465:195|458:244,1,73.0799977697755,2|0,0:0|3:2,0:0:0:0:
362,37,2341,2,0,P|329:30|289:15,1,73.0799977697755,10|0,0:0|0:0,0:0:0:0:
108,135,2674,1,2,3:2:0:0:
65,71,2841,1,2,0:0:0:0:
130,26,3007,2,0,P|167:32|203:48,1,73.0799977697755,10|0,0:0|3:2,0:0:0:0:
256,192,3341,5,2,0:0:0:0:
256,192,3507,1,2,3:2:0:0:
373,116,3674,1,8,0:0:0:0:
305,83,3841,1,2,0:0:0:0:
390,239,4007,102,0,P|395:278|404:322,1,73.0799977697755,2|2,3:2|0:0,0:0:0:0:
256,192,4341,1,10,0:0:0:0:
321,363,4507,6,0,P|316:327|303:282,1,73.0799977697755,2|0,3:2|0:0,0:0:0:0:
438,174,4841,1,2,3:2:0:0:
478,253,5007,1,8,0:0:0:0:
353,146,5174,1,2,0:0:0:0:
207,276,5341,102,0,P|173:291|133:301,1,73.0799977697755,2|0,3:2|0:0,0:0:0:0:
321,363,5674,2,0,P|355:349|395:338,1,73.0799977697755,10|0,0:2|3:2,0:0:0:0:
256,192,6007,5,2,0:0:0:0:
256,192,6174,1,2,3:2:0:0:
52,341,6341,2,0,P|63:289|76:212,1,109.619996654663,8|0,0:0|0:0,0:0:0:0:
153,228,6674,102,0,P|143:264|137:316,1,73.0799977697755,4|0,3:2|0:0,0:0:0:0:
35,131,7007,2,0,P|71:142|110:150,1,73.0799977697755,8|0,0:0|3:2,0:0:0:0:
0,204,7341,5,2,0:0:0:0:
105,149,7507,1,0,3:2:0:0:
153,228,7674,1,8,0:0:0:0:
35,131,7841,1,2,0:0:0:0:
84,71,8007,2,0,P|120:57|164:45,1,73.0799977697755,2|0,3:2|0:0,0:0:0:0:
69,232,8341,2,0,P|62:267|49:310,1,73.0799977697755,8|0,0:0|3:2,0:0:0:0:
256,192,8674,101,2,0:0:0:0:
256,192,8841,1,2,3:2:0:0:
182,118,9007,1,8,0:0:0:0:
231,273,9174,5,2,0:0:0:0:
346,181,9341,2,0,P|403:197|434:272,1,146.159995539551,2|8,3:2|0:0,0:0:0:0:
441,366,9841,2,0,P|406:357|359:336,1,73.0799977697755,2|2,3:2|0:0,0:0:0:0:
512,247,10174,1,2,3:2:0:0:
300,296,10341,102,0,P|266:282|231:273,1,73.0799977697755,10|2,0:2|0:0,0:0:0:0:
106,384,10674,1,2,3:2:0:0:
178,353,10841,1,2,0:0:0:0:
79,257,11007,2,0,P|112:270|148:280,1,73.0799977697755,10|2,0:2|3:2,0:0:0:0:
256,192,11341,5,2,0:0:0:0:
256,192,11507,1,2,3:2:0:0:
79,257,11674,1,8,0:0:0:0:
35,202,11841,1,8,0:0:0:0:
35,202,11924,1,8,0:0:0:0:
35,202,12007,102,0,P|41:166|59:114,1,73.0799977697755,4|0,3:2|0:0,0:0:0:0:
213,33,12341,1,8,0:0:0:0:
272,121,12507,2,0,P|266:157|248:209,1,73.0799977697755,2|0,3:2|0:0,0:0:0:0:
123,53,12841,1,2,3:2:0:0:
213,33,13007,6,0,P|207:69|189:121,1,73.0799977697755,10|0,0:2|0:0,0:0:0:0:
116,245,13341,2,0,P|122:209|140:157,1,73.0799977697755,2|0,3:2|0:0,0:0:0:0:
354,0,13674,2,0,P|348:36|330:88,1,73.0799977697755,10|0,0:2|3:2,0:0:0:0:
256,192,14007,101,2,0:0:0:0:
256,192,14174,1,2,3:2:0:0:
196,103,14341,1,8,0:0:0:0:
337,151,14507,1,2,0:0:0:0:
161,319,14674,6,0,P|126:333|87:342,1,73.0799977697755,2|0,3:2|0:0,0:0:0:0:
161,231,15007,1,8,0:0:0:0:
293,367,15174,2,0,P|281:335|270:292,1,73.0799977697755,2|0,3:2|0:0,0:0:0:0:
203,384,15507,1,0,3:2:0:0:
339,234,15674,102,0,P|351:266|362:309,1,73.0799977697755,10|0,0:2|0:0,0:0:0:0:
161,231,16007,2,0,P|124:240|81:258,1,73.0799977697755,2|0,3:2|0:0,0:0:0:0:
337,151,16341,2,0,P|373:141|417:124,1,73.0799977697755,10|0,0:2|3:2,0:0:0:0:
256,192,16674,5,2,0:0:0:0:
256,192,16841,1,2,3:2:0:0:
175,120,17007,2,0,P|185:63|202:10,1,109.619996654663,8|0,0:0|0:0,0:0:0:0:
200,13,17341,101,6,3:2:0:0:
273,92,17507,1,2,0:0:0:0:
160,129,17674,2,0,P|125:116|82:109,1,73.0799977697755,8|0,0:2|3:2,0:0:0:0:
33,59,18007,1,2,0:0:0:0:
107,190,18174,1,0,3:2:0:0:
11,140,18341,5,8,0:0:0:0:
119,32,18507,1,2,0:0:0:0:
185,202,18674,102,0,P|173:239|165:282,1,73.0799977697755,2|0,3:2|0:0,0:0:0:0:
89,110,19007,1,8,0:0:0:0:
71,331,19174,6,0,P|92:259|107:186,1,146.159995539551,2|2,3:2|3:2,0:0:0:0:
264,63,19674,1,8,0:0:0:0:
172,95,19841,1,2,0:0:0:0:
304,205,20007,2,0,P|341:213|381:228,1,73.0799977697755,2|0,3:2|0:0,0:0:0:0:
260,280,20341,1,8,0:0:0:0:
443,201,20507,102,0,P|389:184|293:213,1,146.159995539551,2|0,3:2|3:2,0:0:0:0:
122,306,21007,1,8,0:0:0:0:
402,364,21257,5,8,0:0:0:0:
391,356,21341,2,0,P|379:319|378:271,1,73.0799977697755,0|0,3:2|0:0,0:0:0:0:
237,137,21674,2,0,P|243:102|265:58,1,73.0799977697755,8|2,0:0|3:2,0:0:0:0:
285,0,21924,1,2,0:0:0:0:
285,0,22007,1,2,0:0:0:0:
380,94,22174,1,2,3:2:0:0:
380,94,22257,1,2,0:0:0:0:
380,94,22341,1,10,0:0:0:0:
185,192,22507,1,8,0:0:0:0:
339,384,22674,102,0,B|312:330|347:281|360:316|480:126|285:104|213:225|334:285,1,365.399988848877,2|0,0:1|0:0,0:0:0:0:
408,349,23674,1,0,3:2:0:0:
323,281,23841,5,8,0:0:0:0:
323,281,23924,1,8,0:0:0:0:
323,281,24007,2,0,L|202:301,1,109.619996654663,0|0,3:2|0:0,0:0:0:0:
199,302,24341,1,0,3:2:0:0:
370,155,24507,1,2,0:0:0:0:
399,184,24591,1,8,0:0:0:0:
393,222,24674,1,2,3:2:0:0:
198,94,24841,101,8,0:0:0:0:
167,74,24924,1,8,0:0:0:0:
132,72,25007,1,8,0:0:0:0:
99,89,25091,1,8,0:0:0:0:
78,119,25174,1,8,0:0:0:0:
76,154,25257,1,8,0:0:0:0:
82,168,25341,6,0,P|136:180|196:209,1,109.619996654663,2|0,3:2|0:0,0:0:0:0:
195,213,25674,1,8,0:1:0:0:
45,319,25841,1,8,0:1:0:0:
100,253,26007,101,2,0:0:0:0:
100,253,26174,1,2,0:0:0:0:
214,321,26341,6,0,L|224:365,1,44.370000270813,2|0,0:0|0:0,0:0:0:0:
132,328,26674,54,0,B|229:313|218:394|318:384,1,198.359997578613,4|8,3:2|0:0,0:0:0:0:
465,150,27174,2,0,B|501:145|522:166|522:166|451:152|392:209,1,198.359997578613,0|0,3:2|3:2,0:0:0:0:
320,200,27591,1,0,3:2:0:0:
320,200,27674,2,0,P|321:224|343:258,1,49.5899993946533,8|0,0:0|0:0,0:0:0:0:
456,359,27841,1,0,3:2:0:0:
467,342,27924,1,0,3:2:0:0:
466,323,28007,5,2,3:2:0:0:
403,285,28174,1,0,3:2:0:0:
512,261,28341,101,10,0:0:0:0:
340,369,28507,1,2,3:2:0:0:
466,323,28674,5,2,3:2:0:0:
317,204,28841,1,0,3:2:0:0:
317,204,28924,1,0,3:2:0:0:
317,204,29007,2,0,L|332:270,1,49.5899993946533,8|0,0:0|0:0,0:0:0:0:
123,350,29174,1,8,0:0:0:0:
175,355,29257,1,8,0:0:0:0:
214,317,29341,102,0,B|117:293|120:385|25:355,1,198.359997578613,4|8,3:2|0:0,0:0:0:0:
183,226,29841,1,2,3:2:0:0:
120,184,30007,1,2,0:0:0:0:
16,276,30174,5,2,3:2:0:0:
123,350,30341,1,10,0:0:0:0:
16,276,30507,2,0,L|69:258,1,49.5899993946533,2|0,3:2|3:2,0:0:0:0:
208,130,30674,102,0,P|194:177|182:231,1,99.1799987893067,2|0,3:2|3:2,0:0:0:0:
15,85,31007,2,0,B|53:85|103:55|103:55|85:85|82:124,1,148.76999818396,10|0,0:0|0:0,0:0:0:0:
90,117,31341,1,2,3:2:0:0:
269,31,31507,1,0,3:2:0:0:
236,0,31591,1,0,3:2:0:0:
191,6,31674,1,8,0:0:0:0:
308,118,31841,1,8,0:0:0:0:
308,118,31924,1,8,0:0:0:0:
308,118,32007,6,0,B|361:104|361:104|384:80|384:80|450:65,1,148.76999818396,4|0,3:2|0:0,0:0:0:0:
457,64,32341,1,8,0:0:0:0:
346,202,32507,1,0,3:2:0:0:
447,159,32674,101,8,0:0:0:0:
312,32,32841,1,0,3:2:0:0:
447,159,33007,2,0,P|434:206|427:260,1,99.1799987893067,8|0,0:0|3:2,0:0:0:0:
231,357,33341,6,0,P|221:295|301:245,1,148.76999818396,8|0,0:0|0:0,0:0:0:0:
346,202,33674,1,10,0:0:0:0:
464,332,33841,1,0,3:2:0:0:
512,224,34007,101,8,0:0:0:0:
360,331,34174,1,0,3:2:0:0:
360,331,34257,1,0,3:2:0:0:
360,331,34341,2,0,P|352:308|350:268,1,49.5899993946533,8|0,0:0|0:0,0:0:0:0:
180,90,34507,1,8,0:0:0:0:
146,128,34591,1,8,0:0:0:0:
173,170,34674,6,0,B|217:155|248:190|248:190|257:241|303:253,1,148.76999818396,4|0,3:2|0:0,0:0:0:0:
326,182,35007,1,8,0:0:0:0:
173,310,35174,2,0,L|183:247,1,49.5899993946533,2|0,0:0|0:0,0:0:0:0:
345,347,35341,102,0,B|298:335|298:335|236:369,1,99.1799987893067,4|0,3:2|3:2,0:0:0:0:
372,258,35674,1,8,0:0:0:0:
180,177,35841,1,0,3:2:0:0:
180,177,35924,1,8,0:2:0:0:
180,177,36007,6,0,P|213:210|267:213,1,99.1799987893067,4|0,3:2|0:0,0:0:0:0:
498,50,36341,2,0,L|377:73,1,99.1799987893067,8|0,0:0|3:2,0:0:0:0:
337,29,36591,1,0,3:2:0:0:
337,29,36674,2,0,B|324:52|324:52|328:86,1,49.5899993946533,8|0,0:0|0:0,0:0:0:0:
498,191,36841,2,0,B|511:168|511:168|507:134,1,49.5899993946533,8|8,0:0|0:0,0:0:0:0:
376,232,37007,101,8,0:0:0:0:
317,244,37091,1,8,0:0:0:0:
263,214,37174,1,8,0:0:0:0:
259,154,37257,1,8,0:0:0:0:
303,116,37341,6,0,B|345:151|318:198|318:198|250:235|274:288,1,198.359997578613,4|8,3:2|0:0,0:0:0:0:
444,379,37841,2,0,B|472:362|507:363|507:363|377:330,1,198.359997578613,2|0,3:2|3:2,0:0:0:0:
307,358,38257,1,0,3:2:0:0:
307,358,38341,1,8,0:0:0:0:
422,168,38507,1,0,3:2:0:0:
440,221,38591,1,0,3:2:0:0:
402,257,38674,101,2,3:2:0:0:
317,199,38841,1,0,3:2:0:0:
422,168,39007,5,8,0:0:0:0:
271,281,39174,1,0,3:2:0:0:
402,257,39341,102,0,L|509:284,1,99.1799987893067,0|0,3:2|3:2,0:0:0:0:
498,281,39591,1,0,3:2:0:0:
498,281,39674,1,8,0:0:0:0:
317,115,39841,5,8,0:0:0:0:
261,103,39924,1,8,0:0:0:0:
225,146,40007,2,0,B|213:196|254:231|248:210|283:235|268:296,1,148.76999818396,4|0,3:2|0:2,0:2:0:0:
221,337,40341,1,8,0:0:0:0:
348,221,40507,1,2,3:2:0:0:
174,270,40674,1,2,0:0:0:0:
333,383,40841,1,0,3:2:0:0:
362,350,40924,1,0,3:2:0:0:
350,304,41007,1,8,0:0:0:0:
139,187,41174,101,0,3:2:0:0:
112,148,41257,1,0,3:2:0:0:
133,103,41341,1,0,3:2:0:0:
271,40,41507,1,0,3:2:0:0:
107,27,41674,5,8,0:0:0:0:
282,120,41841,1,0,3:2:0:0:
208,162,42007,101,0,3:2:0:0:
179,0,42174,1,0,3:2:0:0:
179,0,42257,1,0,3:2:0:0:
179,0,42341,2,0,L|190:57,1,49.5899993946533,8|0,0:0|3:2,0:0:0:0:
426,215,42507,5,8,0:0:0:0:
455,175,42591,1,8,0:0:0:0:
427,137,42674,2,0,B|393:120|359:150|359:150|343:190|304:195,1,148.76999818396,4|0,3:2|0:0,0:0:0:0:
295,204,43007,101,8,0:0:0:0:
417,33,43174,1,0,3:2:0:0:
272,113,43341,5,8,0:0:0:0:
426,215,43507,1,0,3:2:0:0:
272,113,43674,102,0,L|166:135,1,99.1799987893067,8|0,0:0|3:2,0:0:0:0:
414,303,44007,2,0,B|441:263|441:263|421:201,1,99.1799987893067,8|0,0:0|3:2,0:0:0:0:
242,296,44341,1,8,0:0:0:0:
362,149,44507,1,0,3:2:0:0:
445,384,44674,1,8,0:0:0:0:
252,305,44841,1,0,3:2:0:0:
252,305,44924,1,0,3:2:0:0:
252,305,45007,2,0,B|211:312|211:312|206:316|206:316|133:330,1,99.1799987893067,8|8,0:0|0:0,0:0:0:0:
81,342,45257,1,8,0:0:0:0:
119,270,45341,6,0,B|230:277|190:361|292:362,1,198.359997578613,4|8,3:2|0:0,0:0:0:0:
512,228,45841,1,2,0:0:0:0:
423,308,46007,102,0,P|398:268|401:193,1,99.1799987893067,4|0,3:2|3:2,0:0:0:0:
282,84,46341,1,8,0:0:0:0:
505,7,46591,5,8,0:0:0:0:
498,19,46674,2,0,L|392:40,1,99.1799987893067,4|0,3:2|3:2,0:0:0:0:
191,190,47007,2,0,B|240:179|240:179|282:215,1,99.1799987893067,8|0,0:0|3:2,0:0:0:0:
92,60,47341,1,8,0:0:0:0:
140,0,47507,1,8,0:0:0:0:
184,24,47591,1,8,0:0:0:0:
201,71,47674,1,8,0:0:0:0:
172,115,47757,1,8,0:0:0:0:
123,141,47841,1,8,0:0:0:0:
111,194,47924,1,8,0:0:0:0:
139,238,48007,22,0,P|199:244|281:205,1,146.159995539551,4|0,3:2|3:2,0:0:0:0:
408,88,48507,1,2,0:0:0:0:
342,46,48674,2,0,P|330:80|325:123,1,73.0799977697755,2|0,3:2|0:0,0:0:0:0:
466,269,49007,2,0,P|478:235|483:192,1,73.0799977697755,2|0,3:2|0:0,0:0:0:0:
266,314,49341,6,0,P|321:314|394:378,1,146.159995539551,2|0,3:2|3:2,0:0:0:0:
275,209,49841,1,2,0:0:0:0:
420,270,50007,102,0,P|385:284|332:293,1,73.0799977697755,2|0,3:2|0:0,0:0:0:0:
128,343,50341,2,0,P|158:362|197:371,1,73.0799977697755,2|0,3:2|0:0,0:0:0:0:
275,209,50674,6,0,L|238:49,1,146.159995539551,4|0,3:2|3:2,0:0:0:0:
289,7,51174,1,2,0:0:0:0:
125,131,51341,2,0,P|134:98|141:50,1,73.0799977697755,2|0,3:2|0:0,0:0:0:0:
354,165,51674,2,0,P|341:131|333:82,1,73.0799977697755,2|0,3:2|0:0,0:0:0:0:
170,233,52007,101,2,3:2:0:0:
348,292,52174,1,0,3:2:0:0:
275,209,52341,1,0,3:2:0:0:
134,319,52507,1,0,3:2:0:0:
232,352,52674,5,0,3:2:0:0:
245,300,52757,1,0,3:2:0:0:
219,251,52841,1,0,3:2:0:0:
170,233,52924,1,0,3:2:0:0:
153,178,53007,1,0,3:2:0:0:
179,129,53091,1,0,3:2:0:0:
236,121,53174,1,0,3:2:0:0:
285,157,53257,1,0,3:2:0:0:
275,209,53341,1,4,3:2:0:0:
275,209,54007,101,2,0:0:0:0:
337,266,54174,1,2,0:0:0:0:
337,266,54257,1,2,0:0:0:0:
337,266,54341,1,2,0:0:0:0:
406,236,54507,1,2,0:0:0:0:
275,209,54674,22,0,B|238:200|209:229|209:229|191:269|148:265,1,148.76999818396,6|0,3:2|0:0,0:0:0:0:
78,304,54998,2,0,B|62:257|62:257|95:196,1,99.1799987893067,10|0,0:0|0:0,0:0:0:0:
231,67,55322,5,2,3:2:0:0:
131,106,55484,1,0,3:2:0:0:
76,15,55646,1,10,0:0:0:0:
282,219,55809,101,2,0:0:0:0:
282,219,55890,1,2,0:0:0:0:
282,219,55971,2,0,B|326:190|374:197|374:197|410:142|356:103,1,198.359997578613,2|8,3:2|0:0,0:0:0:0:
148,265,56452,1,2,0:0:0:0:
193,201,56612,5,2,3:2:0:0:
351,283,56773,1,0,3:2:0:0:
237,373,56933,2,0,B|215:331|215:331|229:279,1,99.1799987893067,10|0,0:0|0:0,0:0:0:0:
104,99,57254,102,0,P|162:125|192:211,1,148.76999818396,2|0,3:2|0:0,0:0:0:0:
148,265,57575,2,0,L|44:289,1,99.1799987893067,10|0,0:0|0:0,0:0:0:0:
107,187,57896,5,2,3:2:0:0:
228,281,58056,1,0,3:2:0:0:
361,107,58216,1,10,0:0:0:0:
491,208,58377,1,2,0:0:0:0:
491,208,58457,1,2,0:0:0:0:
491,208,58537,102,0,B|414:220|438:188|341:205,1,148.76999818396,2|0,3:2|0:0,0:0:0:0:
343,204,58858,2,0,P|353:153|361:100,1,99.1799987893067,10|0,0:0|0:0,0:0:0:0:
432,285,59179,1,2,3:2:0:0:
272,138,59339,1,0,3:2:0:0:
464,108,59500,5,10,0:0:0:0:
192,200,59660,1,8,0:0:0:0:
432,285,59821,70,0,L|490:300,1,49.5899993946533,6|0,3:2|0:0,0:0:0:0:
48,143,60469,6,0,L|0:130,1,49.5899993946533,6|0,3:2|0:0,0:0:0:0:
288,57,61118,102,0,L|300:8,1,49.5899993946533,6|0,3:2|0:0,0:0:0:0:
217,336,61766,6,0,L|202:394,1,49.5899993946533,6|0,3:2|0:0,0:0:0:0:
439,140,62415,102,0,L|488:123,1,49.5899993946533,6|0,3:2|0:0,0:0:0:0:
60,259,63064,6,0,L|11:276,1,49.5899993946533,6|0,3:2|0:0,0:0:0:0:
117,88,63712,102,0,B|139:66|140:35|140:35|188:-4|245:14|245:14|260:46|295:59,1,229.680007009278,6|0,3:2|0:0,0:0:0:0:
218,159,64811,1,2,0:0:0:0:
218,159,64890,1,2,0:0:0:0:
218,159,64968,5,2,3:2:0:0:
283,201,65128,1,2,0:0:0:0:
285,126,65288,1,2,3:2:0:0:
209,235,65449,1,2,0:0:0:0:
461,298,65609,5,6,3:2:0:0:
436,332,65689,1,0,3:2:0:0:
403,346,65770,1,0,3:2:0:0:
366,346,65850,1,0,3:2:0:0:
337,323,65930,5,8,0:0:0:0:
310,273,66010,1,8,0:0:0:0:
263,239,66090,1,8,0:0:0:0:
209,235,66171,1,8,0:0:0:0:
209,235,66932,102,0,B|191:274|191:274|196:314|217:330,1,99.1799987893067,6|0,3:2|0:0,0:0:0:0:
310,273,67254,1,10,0:0:0:0:
102,341,67415,1,2,3:2:0:0:
175,157,67577,6,0,B|193:118|193:118|188:78|167:62,1,99.1799987893067,10|0,0:2|3:2,0:0:0:0:
113,119,67819,1,2,3:2:0:0:
113,119,67899,2,0,L|276:150,1,148.76999818396,10|0,0:0|3:2,0:0:0:0:
284,151,68222,101,6,3:2:0:0:
122,229,68383,1,2,3:2:0:0:
310,272,68544,6,0,B|355:235|405:261|405:261|434:318|491:312,1,198.359997578613,8|8,0:0|0:0,0:0:0:0:
422,178,69028,1,0,3:2:0:0:
422,178,69109,1,0,3:2:0:0:
422,178,69190,1,8,0:0:0:0:
483,227,69351,1,2,3:2:0:0:
222,289,69512,101,6,3:2:0:0:
338,355,69673,1,2,0:0:0:0:
255,202,69835,1,10,0:0:0:0:
185,379,69996,1,2,3:2:0:0:
310,272,70157,6,0,B|326:250|349:235|349:235|353:181|314:139,1,148.76999818396,8|0,0:0|3:2,0:0:0:0:
306,135,70480,1,10,0:0:0:0:
124,243,70641,1,0,3:2:0:0:
124,243,70722,1,0,3:2:0:0:
124,243,70802,101,6,3:2:0:0:
333,346,70964,1,2,3:2:0:0:
255,202,71125,1,10,0:0:0:0:
219,289,71286,1,2,3:2:0:0:
185,379,71448,1,10,0:0:0:0:
114,332,71609,5,0,3:2:0:0:
114,332,71690,1,0,3:2:0:0:
114,332,71770,1,10,0:0:0:0:
310,270,71932,1,0,3:2:0:0:
123,104,72093,102,0,B|80:133|80:181|80:181|103:201|111:235,1,148.76999818396,4|0,3:2|0:0,0:0:0:0:
124,243,72415,2,0,L|27:267,1,99.1799987893067,10|0,0:0|0:0,0:0:0:0:
179,175,72738,1,2,3:2:0:0:
179,175,72899,1,2,0:0:0:0:
123,104,73061,5,10,0:0:0:0:
214,266,73222,1,2,0:0:0:0:
289,102,73383,102,0,B|295:151|295:151|265:198,1,99.1799987893067,2|0,3:2|0:0,0:0:0:0:
141,333,73706,2,0,P|189:346|236:364,1,99.1799987893067,10|0,0:0|0:0,0:0:0:0:
329,333,74028,6,0,P|281:350|229:364,1,99.1799987893067,2|0,3:2|0:0,0:0:0:0:
27,267,74351,2,0,B|0:225|0:225|6:176,1,99.1799987893067,10|0,0:2|0:0,0:0:0:0:
208,32,74673,101,2,3:2:0:0:
208,32,74835,1,2,0:0:0:0:
143,80,74996,5,10,0:0:0:0:
254,99,75157,1,2,0:0:0:0:
187,156,75319,101,2,3:2:0:0:
108,9,75480,1,2,0:0:0:0:
306,33,75641,1,10,0:0:0:0:
199,77,75802,1,2,0:0:0:0:
212,0,75964,5,2,3:2:0:0:
178,239,76125,1,2,0:0:0:0:
178,239,76206,1,2,0:0:0:0:
178,239,76286,1,10,0:0:0:0:
187,156,76448,101,2,0:0:0:0:
302,202,76609,5,2,3:2:0:0:
63,279,76770,1,10,0:0:0:0:
101,186,76931,101,10,0:0:0:0:
350,293,77093,1,8,0:0:0:0:
350,293,77173,1,8,0:0:0:0:
350,293,77254,6,0,B|395:270|395:270|421:210|394:176,1,148.76999818396,6|0,3:2|0:0,0:0:0:0:
381,157,77577,2,0,L|489:183,1,99.1799987893067,10|0,0:0|3:2,0:0:0:0:
310,210,77899,101,10,0:0:0:0:
290,133,78061,1,0,3:2:0:0:
290,133,78141,1,0,3:2:0:0:
290,133,78222,1,8,0:0:0:0:
245,264,78383,1,0,3:2:0:0:
310,210,78544,5,6,3:2:0:0:
187,167,78706,1,2,3:2:0:0:
144,244,78867,1,10,0:0:0:0:
312,130,79028,1,2,3:2:0:0:
251,64,79190,1,10,0:0:0:0:
183,329,79351,1,2,3:2:0:0:
183,329,79431,1,0,3:2:0:0:
183,329,79512,1,8,0:0:0:0:
263,288,79673,1,2,3:2:0:0:
69,203,79835,102,0,B|24:222|24:222|-3:252|4:278,1,99.1799987893067,6|0,3:2|0:2,0:2:0:0:
258,377,80157,2,0,B|255:328|216:309|216:309|194:280|202:240,1,148.76999818396,10|0,0:0|0:0,0:0:0:0:
211,233,80480,1,10,0:0:0:0:
101,341,80641,1,2,3:2:0:0:
89,324,80722,1,2,3:2:0:0:
86,297,80802,1,8,0:0:0:0:
344,175,80964,5,0,3:2:0:0:
350,223,81044,1,0,3:2:0:0:
321,258,81125,1,6,3:2:0:0:
157,161,81286,1,2,3:2:0:0:
198,89,81448,1,10,0:0:0:0:
265,320,81609,1,2,3:2:0:0:
195,283,81770,1,10,0:0:0:0:
281,118,81931,1,2,3:2:0:0:
281,118,82012,1,0,3:2:0:0:
281,118,82093,1,8,0:0:0:0:
244,204,82254,1,2,3:2:0:0:
169,12,82415,101,6,3:2:0:0:
169,12,82738,6,0,B|218:18|218:18|265:0,1,99.1799987893067,10|0,0:0|0:0,0:0:0:0:
117,170,83061,2,0,B|123:121|123:121|105:74,1,99.1799987893067,2|0,3:2|0:0,0:0:0:0:
343,49,83383,2,0,B|337:98|337:98|355:145,1,99.1799987893067,10|0,0:2|0:0,0:0:0:0:
271,364,83706,102,0,L|245:207,1,148.76999818396,2|0,3:2|0:0,0:0:0:0:
210,147,84028,2,0,B|224:126|224:101|224:101|233:125|259:141,1,99.1799987893067,10|0,0:0|0:0,0:0:0:0:
169,300,84351,5,2,3:2:0:0:
169,300,84512,1,2,0:0:0:0:
354,273,84673,1,10,0:0:0:0:
354,273,84835,1,2,0:0:0:0:
246,217,84996,101,6,3:2:0:0:
258,291,85157,1,2,0:0:0:0:
271,364,85319,5,10,0:0:0:0:
169,300,85480,1,2,3:2:0:0:
354,273,85641,1,10,0:0:0:0:
279,372,85802,1,0,3:2:0:0:
279,372,85883,1,0,3:2:0:0:
279,372,85964,1,10,0:0:0:0:
253,225,86125,1,2,3:2:0:0:
253,225,86206,1,0,3:2:0:0:
253,225,86286,101,6,3:2:0:0:
369,360,86448,1,10,0:0:0:0:
175,307,86609,1,2,3:2:0:0:
175,307,86690,1,0,3:2:0:0:
175,307,86770,1,10,0:2:0:0:
322,144,86931,1,2,3:2:0:0:
200,4,87093,5,8,0:0:0:0:
209,53,87173,1,8,0:0:0:0:
217,99,87254,1,8,0:0:0:0:
227,150,87335,1,8,0:0:0:0:
237,195,87415,1,8,0:0:0:0:
245,242,87496,1,8,0:0:0:0:
257,289,87577,69,6,3:2:0:0:
245,242,88222,1,2,3:2:0:0:
237,195,88867,1,2,3:2:0:0:
227,150,89512,1,2,3:2:0:0:
217,99,90157,1,2,3:2:0:0:
209,53,90802,1,2,3:2:0:0:
200,4,91448,1,2,3:2:0:0:
322,144,92093,5,2,3:2:0:0:
133,185,92254,1,2,3:2:0:0:
217,99,92415,1,10,0:0:0:0:
45,223,92738,102,0,B|3:232|3:232|7:219|7:219|65:205,1,111.36,6|0,3:2|0:0,0:0:0:0:
420,111,93383,2,0,B|462:102|462:102|458:115|458:115|400:129,1,111.36,2|0,3:2|0:0,0:0:0:0:
166,39,94028,6,0,B|158:8|244:-13|254:16,1,111.36,2|0,3:2|0:0,0:0:0:0:
331,309,94673,2,0,B|338:339|252:361|242:331,1,111.36,2|0,3:2|0:0,0:0:0:0:
231,99,95319,101,2,3:2:0:0:
272,254,95641,1,2,0:0:0:0:
252,178,95964,1,2,3:2:0:0:
252,178,96448,5,2,0:0:0:0:
305,382,96609,1,6,3:2:0:0:
202,0,97294,101,2,0:0:0:0:
202,0,97637,1,2,0:0:0:0:
278,53,97980,22,0,B|241:52|201:30|201:30|157:37|126:87,1,161.819993580139,6|0,3:2|0:0,0:0:0:0:
201,114,98323,2,0,L|218:206,1,71.9199971467286,10|0,0:0|0:0,0:0:0:0:
126,303,98551,1,2,0:0:0:0:
199,337,98666,2,0,B|212:319|213:295|213:295|192:266,1,71.9199971467286,2|0,3:2|0:0,0:0:0:0:
85,235,98894,1,2,0:0:0:0:
45,304,99009,2,0,B|33:324|33:347|33:347|56:375,1,71.9199971467286,10|0,0:0|0:0,0:0:0:0:
202,127,99266,53,10,0:0:0:0:
207,135,99351,2,0,L|292:154,1,71.9199971467286,6|0,3:2|0:0,0:0:0:0:
421,73,99580,1,2,0:0:0:0:
360,19,99694,2,0,B|350:47|334:67|334:67|336:119|389:149,1,143.839994293457,10|0,0:2|0:0,0:0:0:0:
333,208,100037,53,2,3:2:0:0:
434,0,100209,1,2,0:0:0:0:
220,28,100380,1,10,0:0:0:0:
388,270,100637,53,10,0:2:0:0:
398,277,100723,2,0,B|421:307|421:307|419:361,1,71.9199971467286,2|0,3:2|0:0,0:0:0:0:
268,279,100951,1,2,0:0:0:0:
196,306,101066,2,0,B|187:271|187:271|211:225,1,71.9199971467286,10|0,0:0|0:0,0:0:0:0:
271,200,101294,1,2,0:0:0:0:
258,355,101409,2,0,B|223:331|185:344|185:344|163:385|114:385,1,143.839994293457,2|0,3:2|0:0,0:0:0:0:
114,309,101751,1,10,0:0:0:0:
362,141,102009,53,10,0:0:0:0:
354,154,102094,2,0,P|280:162|222:121,1,143.839994293457,2|0,3:2|0:0,0:0:0:0:
107,156,102437,2,0,P|111:114|135:85,1,71.9199971467286,10|0,0:0|0:0,0:0:0:0:
196,56,102666,1,2,0:0:0:0:
109,16,102780,53,2,3:2:0:0:
188,220,102951,1,10,0:0:0:0:
109,16,103123,1,10,0:0:0:0:
20,317,103380,53,10,0:0:0:0:
20,317,103466,2,0,B|60:296|108:308|108:308|134:333|134:333|181:345|221:323,1,215.759991440186,6|8,3:2|0:0,0:0:0:0:
67,384,103980,1,2,0:0:0:0:
174,257,104151,1,2,3:2:0:0:
220,323,104323,1,2,3:2:0:0:
91,272,104494,2,0,B|71:243|83:208|83:208|131:178,1,107.879995720093,10|0,0:0|0:0,0:0:0:0:
298,252,104837,54,0,B|340:290|324:345|324:345|272:374,1,143.839994293457,2|2,3:2|0:0,0:0:0:0:
220,323,105180,1,10,0:0:0:0:
367,324,105437,53,10,0:0:0:0:
359,316,105523,2,0,B|401:305|401:305|439:314|457:340,1,107.879995720093,0|0,3:2|3:2,0:0:0:0:
287,365,105866,1,8,0:0:0:0:
469,261,106094,53,2,0:0:0:0:
455,337,106209,2,0,B|431:339|411:323|411:323|398:294,1,71.9199971467286,2|0,3:2|0:0,0:0:0:0:
452,183,106437,1,2,0:0:0:0:
380,206,106551,2,0,B|353:176|307:184|307:184|285:215|254:217,1,143.839994293457,10|0,0:0|0:0,0:0:0:0:
186,250,106894,1,2,3:2:0:0:
294,139,107066,1,0,3:2:0:0:
140,107,107237,1,10,0:0:0:0:
210,158,107494,53,10,0:0:0:0:
210,158,107580,2,0,L|221:97,1,53.9399978600465,14|0,0:0|0:0,0:0:0:0:
235,32,107751,1,2,3:2:0:0:
124,190,107923,54,0,L|62:211,1,53.9399978600465,10|0,0:0|0:0,0:0:0:0:
3,233,108094,1,2,3:2:0:0:
255,217,108266,53,8,3:0:0:0:
296,222,108351,1,8,3:0:0:0:
334,246,108437,1,8,3:0:0:0:
358,288,108523,1,8,3:0:0:0:
369,329,108609,1,10,0:0:0:0:
369,329,108951,54,0,B|403:312|403:312|423:282|419:245,1,107.879995720093,6|8,3:2|0:0,0:0:0:0:
465,362,109294,1,2,3:2:0:0:
337,255,109466,1,10,0:0:0:0:
491,178,109637,1,2,3:2:0:0:
432,268,109809,1,10,0:0:0:0:
283,109,109980,2,0,B|252:132|252:132|236:177|264:203,1,107.879995720093,0|8,3:2|0:2,0:2:0:0:
411,142,110323,54,0,L|428:63,1,71.9199971467286,2|2,3:2|0:0,0:0:0:0:
493,201,110580,1,10,0:0:0:0:
485,195,110666,2,0,B|449:175|420:180|420:180|401:189|401:189|365:192|331:172,1,161.819993580139,0|0,3:2|0:0,0:0:0:0:
283,109,111009,53,2,3:2:0:0:
161,177,111180,1,10,0:0:0:0:
161,177,111266,1,8,0:0:0:0:
161,177,111351,1,0,3:2:0:0:
191,84,111523,1,10,0:0:0:0:
258,211,111694,54,0,B|277:251|277:251|266:295|241:310,1,107.879995720093,2|8,3:2|0:0,0:0:0:0:
161,177,112037,1,2,3:2:0:0:
190,248,112209,1,10,0:0:0:0:
228,127,112380,1,2,3:2:0:0:
331,172,112551,53,10,0:0:0:0:
96,231,112723,2,0,B|71:204|71:204|68:156|97:130,1,107.879995720093,2|8,3:2|0:0,0:0:0:0:
326,333,113066,54,0,P|254:348|185:366,1,143.839994293457,6|0,3:2|0:0,0:0:0:0:
185,355,113409,2,0,P|255:340|325:322,1,143.839994293457,14|0,0:2|0:0,0:0:0:0:
400,309,113751,53,2,3:2:0:0:
114,384,113923,1,10,0:0:0:0:
237,262,114094,53,10,3:2:0:0:
237,262,114180,1,10,0:0:0:0:
237,262,114266,1,10,0:0:0:0:
237,262,114351,1,10,0:0:0:0:
237,262,114437,2,0,B|270:227|257:178|257:178|236:156|236:156|219:103|253:61,1,215.759991440186,6|8,3:2|0:0,0:0:0:0:
390,151,114951,53,2,0:0:0:0:
316,122,115123,1,2,3:2:0:0:
363,58,115294,2,0,B|391:83|391:83|406:133|385:161,1,107.879995720093,2|8,0:0|0:0,0:0:0:0:
96,238,115637,53,2,0:0:0:0:
170,209,115809,1,2,3:2:0:0:
123,145,115980,2,0,B|95:170|95:170|80:220|101:248,1,107.879995720093,2|8,0:0|0:0,0:0:0:0:
355,364,116323,53,2,0:0:0:0:
281,335,116495,1,2,3:2:0:0:
328,271,116666,2,0,B|356:296|356:296|371:346|350:374,1,107.879995720093,2|8,0:0|0:0,0:0:0:0:
236,262,117009,53,2,0:0:0:0:
395,207,117180,53,14,0:0:0:0:
281,335,117351,1,2,3:2:0:0:
191,187,117523,53,12,0:0:0:0:
328,271,117694,1,2,3:2:0:0:
184,355,117866,53,14,0:0:0:0:
236,262,118037,1,2,3:2:0:0:
417,283,118209,53,14,0:0:0:0:
375,126,118380,1,0,3:2:0:0:
236,262,118551,53,6,3:2:0:0:
317,248,118723,1,8,0:0:0:0:
193,193,118894,1,10,0:0:0:0:
200,331,119066,1,10,0:0:0:0:
304,77,119237,53,8,0:0:0:0:
258,85,119323,1,8,0:0:0:0:
216,96,119409,1,8,0:0:0:0:
167,108,119494,1,8,0:0:0:0:
123,120,119580,1,8,0:0:0:0:
113,124,119923,53,6,3:2:0:0:
109,107,120094,1,2,0:0:0:0:
301,62,120266,53,8,0:0:0:0:
304,77,120437,1,2,0:0:0:0:
225,152,120609,53,2,3:2:0:0:
192,34,120780,1,2,0:0:0:0:
304,77,120951,1,10,0:0:0:0:
113,124,121123,1,2,0:0:0:0:
247,242,121294,53,2,3:2:0:0:
243,257,121466,1,2,0:0:0:0:
141,213,121637,53,10,0:0:0:0:
145,197,121809,1,2,0:0:0:0:
172,288,121980,53,2,3:2:0:0:
75,326,122151,1,2,0:0:0:0:
226,161,122323,1,10,0:0:0:0:
354,245,122494,1,2,0:0:0:0:
354,245,122580,1,2,0:0:0:0:
354,245,122666,53,2,3:2:0:0:
318,313,122837,1,2,0:0:0:0:
450,200,123009,53,10,0:0:0:0:
493,261,123180,1,2,0:0:0:0:
329,136,123351,53,2,3:2:0:0:
265,247,123523,1,2,0:0:0:0:
420,32,123694,53,10,0:0:0:0:
512,148,123866,1,2,0:0:0:0:
321,54,124037,54,0,B|286:44|286:44|241:51|218:90,1,107.879995720093,2|2,3:2|0:0,0:0:0:0:
225,78,124294,1,2,0:0:0:0:
225,78,124380,2,0,B|208:111|208:111|175:130|116:126,1,107.879995720093,10|0,3:2|0:0,0:0:0:0:
40,13,124723,54,0,B|94:5|94:5|142:38,1,107.879995720093,2|0,3:2|0:0,0:0:0:0:
329,136,125066,2,0,B|383:144|383:144|431:111,1,107.879995720093,10|0,3:2|0:0,0:0:0:0:
194,218,125409,53,6,3:2:0:0:
190,233,125580,1,2,0:0:0:0:
242,294,125751,53,10,0:2:0:0:
111,254,125923,1,2,0:0:0:0:
152,345,126094,53,2,3:2:0:0:
157,333,126266,1,2,0:0:0:0:
93,258,126437,53,10,0:0:0:0:
254,313,126609,1,2,0:0:0:0:
9,384,126780,54,0,B|-15:360|-15:360|-19:323|10:288,1,107.879995720093,2|0,3:2|0:0,0:0:0:0:
255,220,127123,2,0,B|281:251|277:288|277:288|253:312,1,107.879995720093,10|0,0:2|0:0,0:0:0:0:
101,155,127466,53,2,3:2:0:0:
156,340,127637,1,2,0:0:0:0:
93,258,127809,1,10,0:0:0:0:
264,228,127980,1,2,0:0:0:0:
264,228,128066,1,2,0:0:0:0:
264,228,128151,54,0,L|384:258,1,107.879995720093,6|0,3:2|3:2,0:0:0:0:
512,291,128494,1,8,0:0:0:0:
412,373,128666,1,8,0:0:0:0:
396,356,128751,1,8,0:0:0:0:
397,331,128837,1,8,0:0:0:0:
512,214,129009,1,8,0:0:0:0:
368,254,129180,1,10,0:0:0:0:
507,384,129351,1,8,0:0:0:0:
507,384,129437,1,8,0:0:0:0:
507,384,129523,53,12,0:0:0:0:
395,89,129866,1,12,0:0:0:0:
195,333,130209,1,12,0:0:0:0:
159,265,130380,53,8,0:0:0:0:
170,256,130466,1,8,0:0:0:0:
189,256,130551,1,8,0:0:0:0:
306,347,130723,1,8,0:0:0:0:
289,345,130809,1,2,0:0:0:0:
275,331,130894,86,0,B|266:296|289:259|289:259|337:242,1,107.879995720093,6|0,3:2|0:0,0:0:0:0:
433,135,131133,1,2,0:2:0:0:
481,198,131213,2,0,B|458:230|418:229|418:229|407:212|385:201,1,107.879995720093,10|0,0:0|3:2,0:0:0:0:
257,78,131452,1,2,0:0:0:0:
302,13,131532,2,0,B|330:34|330:34|345:75|332:106,1,107.879995720093,2|0,0:2|3:2,0:0:0:0:
151,284,131771,5,2,0:0:0:0:
319,248,131851,2,0,B|229:227|234:296|138:272,1,161.819993580139,10|2,0:0|0:0,0:0:0:0:
33,100,132170,102,0,P|83:121|142:135,1,107.879995720093,2|0,3:2|0:0,0:0:0:0:
0,241,132409,1,2,0:0:0:0:
60,194,132489,2,0,P|71:221|76:255,1,53.9399978600465,10|0,0:0|0:0,0:0:0:0:
180,368,132649,2,0,B|151:342|151:342|142:300|168:271,1,107.879995720093,2|0,3:2|0:2,0:2:0:0:
393,205,132968,6,0,L|456:225,1,53.9399978600465,2|0,3:2|0:0,0:0:0:0:
495,277,133128,2,0,B|524:251|524:251|533:209|507:180,1,107.879995720093,10|0,0:2|0:2,0:2:0:0:
378,90,133367,101,2,0:0:0:0:
412,22,133447,2,0,P|368:54|295:40,1,107.879995720093,2|0,3:2|0:0,0:0:0:0:
251,6,133686,1,2,0:0:0:0:
202,108,133766,2,0,P|190:83|185:57,1,53.9399978600465,10|0,0:0|0:0,0:0:0:0:
129,137,133925,6,0,P|184:152|239:205,1,107.879995720093,2|0,3:2|0:2,0:2:0:0:
242,316,134245,102,0,P|240:347|224:375,1,53.9399978600465,2|0,3:2|0:2,0:2:0:0:
155,370,134404,2,0,P|163:320|190:256,1,107.879995720093,10|0,0:0|0:0,0:0:0:0:
52,327,134644,1,2,0:0:0:0:
2,265,134723,2,0,P|51:242|113:233,1,107.879995720093,2|0,3:2|0:2,0:2:0:0:
176,166,134963,5,2,0:0:0:0:
109,121,135042,2,0,P|133:137|168:147,1,53.9399978600465,10|0,0:0|0:0,0:0:0:0:
339,14,135202,2,0,B|415:17|421:82|421:82|402:104|398:138,1,161.819993580139,2|0,3:2|0:0,0:0:0:0:
444,184,135521,1,2,3:2:0:0:
268,93,135681,1,10,0:0:0:0:
490,8,135840,102,0,P|464:21|431:31,1,53.9399978600465,2|0,0:0|0:0,0:0:0:0:
262,225,136000,2,0,P|307:199|380:193,1,107.879995720093,6|0,3:2|0:0,0:0:0:0:
259,18,136239,1,2,0:0:0:0:
268,93,136319,2,0,P|241:91|214:77,1,53.9399978600465,10|0,0:0|0:0,0:0:0:0:
63,187,136479,2,0,P|84:174|120:168,1,53.9399978600465,2|0,3:2|0:0,0:0:0:0:
0,29,136638,6,0,P|47:52|136:68,1,107.879995720093,2|0,0:0|3:2,0:0:0:0:
198,171,136878,1,2,0:0:0:0:
254,82,136957,2,0,P|225:87|189:99,1,53.9399978600465,10|0,0:0|0:0,0:0:0:0:
62,170,137117,2,0,P|90:177|120:191,1,53.9399978600465,2|0,0:0|0:0,0:0:0:0:
260,314,137276,102,0,P|211:347|142:330,1,107.879995720093,2|0,3:2|0:0,0:0:0:0:
132,263,137516,1,2,0:0:0:0:
61,286,137596,2,0,P|47:312|40:343,1,53.9399978600465,8|0,0:0|0:0,0:0:0:0:
330,185,137755,6,0,L|311:127,1,53.9399978600465,2|0,3:2|0:0,0:0:0:0:
253,82,137915,2,0,B|224:98|224:98|196:127|201:171,1,107.879995720093,2|0,0:2|3:2,0:0:0:0:
327,279,138154,1,2,0:0:0:0:
260,314,138234,2,0,P|313:319|362:358,1,107.879995720093,10|0,0:0|0:0,0:0:0:0:
474,238,138473,1,2,0:0:0:0:
419,181,138553,102,0,P|402:203|396:242,1,53.9399978600465,2|0,3:2|0:0,0:0:0:0:
461,331,138713,2,0,P|486:322|512:316,1,53.9399978600465,2|0,0:0|0:0,0:0:0:0:
260,224,138872,2,0,P|185:246|86:262,1,161.819993580139,10|0,0:0|0:0,0:0:0:0:
38,309,139191,6,0,P|26:287|23:255,1,53.9399978600465,2|0,3:2|0:0,0:0:0:0:
178,103,139351,2,0,P|204:115|222:142,1,53.9399978600465,2|0,3:2|0:0,0:0:0:0:
18,145,139511,102,0,P|35:124|70:105,1,53.9399978600465,10|0,0:0|0:0,0:0:0:0:
260,224,139670,2,0,P|266:252|255:279,1,53.9399978600465,2|0,0:0|0:0,0:0:0:0:
164,338,139830,6,0,P|152:268|121:164,1,161.819993580139,2|2,3:2|0:0,0:0:0:0:
314,20,140149,2,0,B|289:30|273:46|273:46|239:44|211:17,1,107.879995720093,10|0,0:0|3:2,0:0:0:0:
338,94,140388,1,2,0:0:0:0:
389,34,140468,2,0,B|408:14|442:12|442:12|458:28|483:38,1,107.879995720093,2|0,0:2|3:2,0:0:0:0:
361,163,140707,101,10,0:0:0:0:
338,94,140787,1,8,0:0:0:0:
464,287,140947,5,10,0:0:0:0:
250,231,141106,102,0,B|279:241|302:265|302:265|356:270|401:231,1,161.819993580139,6|2,3:2|0:0,0:0:0:0:
219,24,141425,2,0,B|179:45|178:89|178:89|204:127,1,107.879995720093,10|0,0:0|3:2,0:0:0:0:
62,241,141665,1,2,0:0:0:0:
125,288,141745,2,0,B|157:263|149:222|149:222|117:192,1,107.879995720093,2|0,0:0|3:2,0:0:0:0:
0,133,141984,5,2,0:0:0:0:
95,96,142064,2,0,P|52:129|-6:132,1,107.879995720093,10|2,0:0|0:0,0:0:0:0:
250,231,142383,102,0,P|302:244|357:298,1,107.879995720093,6|0,3:2|0:0,0:0:0:0:
402,325,142622,1,2,0:0:0:0:
511,200,142702,2,0,P|470:229|395:246,1,107.879995720093,10|0,0:0|3:2,0:0:0:0:
361,191,142941,1,2,0:0:0:0:
405,75,143021,6,0,P|421:98|429:131,1,53.9399978600465,2|0,0:0|0:0,0:0:0:0:
343,277,143181,1,2,3:2:0:0:
465,381,143340,102,0,P|478:360|480:323,1,53.9399978600465,10|0,0:0|0:0,0:0:0:0:
353,177,143500,2,0,P|327:170|294:154,1,53.9399978600465,2|0,0:0|0:0,0:0:0:0:
183,249,143659,6,0,B|149:256|124:270|124:270|73:262|35:226,1,161.819993580139,2|2,3:2|0:0,0:0:0:0:
98,114,143979,2,0,L|118:183,1,53.9399978600465,10|0,0:0|0:0,0:0:0:0:
184,336,144138,2,0,B|206:340|223:350|223:350|258:344|284:320,1,107.879995720093,2|2,3:2|0:0,0:0:0:0:
511,200,144457,102,0,L|442:220,1,53.9399978600465,2|0,3:2|0:0,0:0:0:0:
410,279,144617,2,0,B|381:253|381:253|365:213|394:173,1,107.879995720093,10|2,0:0|0:0,0:0:0:0:
282,19,144856,5,2,0:0:0:0:
346,66,144936,2,0,P|291:66|236:107,1,107.879995720093,2|0,3:2|0:0,0:0:0:0:
198,156,145175,1,2,0:0:0:0:
298,271,145255,2,0,P|276:254|234:236,1,53.9399978600465,10|0,0:2|0:2,0:2:0:0:
53,89,145415,2,0,P|106:124|212:159,1,161.819993580139,2|0,3:2|0:2,0:2:0:0:
119,232,145734,102,0,P|94:246|58:255,1,53.9399978600465,2|0,3:2|0:0,0:0:0:0:
198,156,145894,2,0,P|237:195|254:255,1,107.879995720093,10|2,0:0|0:0,0:0:0:0:
376,334,146133,1,2,0:0:0:0:
312,384,146213,6,0,B|325:311|361:338|376:231,1,161.819993580139,6|0,3:2|0:0,0:0:0:0:
381,160,146532,2,0,B|315:137|315:137|344:172,1,107.879995720093,10|0,0:0|3:2,0:0:0:0:
119,232,146851,1,2,0:0:0:0:
253,244,147011,102,0,P|228:265|180:277,1,53.9399978600465,2|0,3:2|0:0,0:0:0:0:
96,218,147170,2,0,P|64:166|90:103,1,107.879995720093,10|0,0:0|0:0,0:0:0:0:
243,63,147409,1,2,0:0:0:0:
102,46,147489,6,0,B|134:60|149:85|149:85|205:94|246:61,1,161.819993580139,6|0,3:2|0:0,0:0:0:0:
381,160,147808,2,0,B|416:172|416:172|428:184|428:184|486:205,1,107.879995720093,10|0,0:0|3:2,0:0:0:0:
505,214,148048,1,2,0:0:0:0:
512,217,148128,101,2,0:0:0:0:
401,74,148287,2,0,L|389:21,1,53.9399978600465,2|0,3:2|0:0,0:0:0:0:
274,215,148447,1,10,0:0:0:0:
382,170,148606,6,0,P|377:153|379:169,1,53.9399978600465,2|0,0:0|0:0,0:0:0:0:
384,161,148766,2,0,B|358:186|373:229|373:229|414:258|411:314,1,161.819993580139,6|0,3:2|0:0,0:0:0:0:
368,367,149085,1,10,0:0:0:0:
255,340,149245,102,0,P|275:322|314:313,1,53.9399978600465,2|0,3:2|0:0,0:0:0:0:
512,384,149404,2,0,P|489:365|447:358,1,53.9399978600465,2|0,0:0|0:0,0:0:0:0:
388,179,149564,6,0,P|377:206|373:237,1,53.9399978600465,2|0,3:2|0:0,0:0:0:0:
375,343,149723,2,0,B|384:364|384:364|387:353|387:353|377:327,2,53.9399978600465,10|0|2,0:0|0:0|0:0,0:0:0:0:
209,210,150042,102,0,B|158:182|117:221|117:221|108:260|72:280,1,161.819993580139,6|0,3:2|0:0,0:0:0:0:
18,226,150362,1,10,0:0:0:0:
201,299,150521,6,0,P|264:313|272:206,1,161.819993580139,2|0,3:2|0:0,0:0:0:0:
298,236,150840,2,0,P|320:254|352:263,1,53.9399978600465,2|0,3:2|0:0,0:0:0:0:
290,88,151000,2,0,L|272:150,1,53.9399978600465,10|0,0:2|0:2,0:2:0:0:
145,384,151159,53,8,0:0:0:0:
124,355,151239,1,8,0:0:0:0:
132,333,151319,1,6,3:2:0:0:
200,300,151638,101,8,0:0:0:0:
298,358,151957,5,2,3:2:0:0:
399,384,152117,1,2,3:2:0:0:
454,311,152276,1,10,0:0:0:0:
239,114,152516,101,8,0:0:0:0:
244,127,152596,1,2,3:2:0:0:
390,193,152835,5,8,0:2:0:0:
393,178,152915,1,6,3:2:0:0:
162,258,153154,101,2,3:2:0:0:
167,274,153234,1,6,3:2:0:0:
293,234,153394,6,0,P|270:220|233:211,1,53.9399978600465,10|0,0:0|0:0,0:0:0:0:
75,282,153553,102,0,P|56:311|54:344,1,57.4200017523194,2|0,0:1|0:0,0:0:0:0:
52,333,153877,102,0,B|46:263|6:287|0:199,1,142.680002177124,6|0,3:2|0:0,0:0:0:0:
130,88,154215,1,2,0:0:0:0:
84,23,154328,2,0,B|175:18|140:65|215:86,1,142.680002177124,10|0,0:0|0:0,0:0:0:0:
357,195,154666,1,2,0:0:0:0:
456,121,154779,38,0,P|435:95|389:88,1,71.340001088562,2|0,3:2|0:0,0:0:0:0:
269,226,155004,2,0,P|270:264|293:295,1,71.340001088562,2|0,0:0|0:0,0:0:0:0:
321,102,155230,70,0,P|287:114|266:150,1,71.340001088562,10|0,0:0|0:0,0:0:0:0:
379,303,155455,2,0,P|417:319|461:316,1,71.340001088562,2|0,0:0|0:0,0:0:0:0:
512,183,155681,38,0,L|356:208,1,142.680002177124,2|0,3:2|0:0,0:0:0:0:
446,319,156019,1,2,0:0:0:0:
381,357,156132,2,0,P|414:341|456:328,1,71.340001088562,10|0,0:0|0:0,0:0:0:0:
445,157,156358,2,0,P|476:172|511:182,1,71.340001088562,2|0,0:0|0:0,0:0:0:0:
307,252,156583,70,0,B|227:240|245:292|155:277,1,142.680002177124,2|0,3:2|0:0,0:0:0:0:
82,217,156922,1,2,0:0:0:0:
271,333,157034,38,0,B|213:336|187:279|187:279|160:227|93:226,1,214.020003265686,12|0,0:0|0:0,0:0:0:0:
252,54,157486,2,0,L|222:174,1,122.669998128204,2|0,3:2|0:2,0:2:0:0:
133,97,157937,69,10,0:0:0:0:
177,32,158049,1,2,0:0:0:0:
295,171,158162,2,0,B|264:188|264:188|222:188,1,71.340001088562,2|0,0:0|0:0,0:0:0:0:
339,14,158388,2,0,B|394:32|394:32|416:63|416:63|485:88,1,142.680002177124,2|0,3:2|0:0,0:0:0:0:
408,195,158726,1,2,0:0:0:0:
489,154,158839,38,0,P|494:190|506:237,1,71.340001088562,10|0,0:0|0:0,0:0:0:0:
318,94,159064,2,0,P|355:88|413:73,1,71.340001088562,2|0,0:0|0:0,0:0:0:0:
279,300,159290,2,0,B|263:286|240:280|240:280|210:235|230:183,1,142.680002177124,2|0,3:2|0:0,0:0:0:0:
307,223,159628,1,2,0:0:0:0:
205,358,159741,2,0,B|172:373|172:373|128:368,1,71.340001088562,10|0,0:0|0:0,0:0:0:0:
159,293,159967,1,2,0:0:0:0:
286,375,160080,1,10,0:0:0:0:
356,326,160192,70,0,B|386:313|386:313|442:319,1,71.340001088562,2|0,3:2|0:0,0:0:0:0:
228,185,160418,2,0,B|190:169|190:169|168:140|168:140|102:117,1,142.680002177124,10|8,0:0|0:0,0:0:0:0:
106,118,160869,37,10,0:0:0:0:
26,232,160982,1,10,0:0:0:0:
0,86,161095,70,0,P|6:121|50:161,1,71.340001088562,6|0,3:2|0:0,0:0:0:0:
99,294,161320,2,0,P|125:268|140:227,1,71.340001088562,2|0,0:0|0:0,0:0:0:0:
244,104,161546,1,10,0:0:0:0:
317,91,161658,1,2,0:0:0:0:
374,123,161771,1,2,0:0:0:0:
385,164,161884,1,2,0:0:0:0:
382,180,161997,38,0,P|349:189|304:200,1,71.340001088562,2|0,3:2|0:0,0:0:0:0:
386,375,162222,2,0,P|353:363|315:354,1,71.340001088562,2|0,3:2|0:0,0:0:0:0:
512,248,162448,2,0,B|434:240|454:293|346:273,1,142.680002177124,10|2,0:0|0:0,0:0:0:0:
375,276,162786,1,2,0:0:0:0:
460,96,162899,70,0,B|477:127|477:127|475:165,1,71.340001088562,2|0,3:2|0:0,0:0:0:0:
283,273,163125,2,0,L|206:295,1,71.340001088562,2|0,0:0|0:0,0:0:0:0:
391,363,163350,38,0,B|409:333|409:333|403:289,1,71.340001088562,10|0,0:0|0:0,0:0:0:0:
230,155,163576,1,2,0:0:0:0:
306,177,163689,1,10,0:0:0:0:
148,352,163801,70,0,B|133:328|115:313|115:313|110:268|156:226,1,142.680002177124,2|2,3:2|3:2,0:0:0:0:
149,231,164252,2,0,P|113:244|72:251,1,71.340001088562,10|0,0:0|0:0,0:0:0:0:
197,58,164478,2,0,P|205:94|220:132,1,71.340001088562,2|0,0:0|0:0,0:0:0:0:
362,235,164704,1,2,3:2:0:0:
292,384,164929,38,0,P|284:351|269:308,1,71.340001088562,2|0,0:0|0:0,0:0:0:0:
356,141,165155,2,0,P|423:142|450:225,1,142.680002177124,10|0,0:0|0:0,0:0:0:0:
361,338,165493,1,2,0:0:0:0:
436,292,165606,70,0,P|409:316|362:323,1,71.340001088562,2|0,3:2|0:0,0:0:0:0:
249,196,165831,2,0,P|218:177|205:132,1,71.340001088562,2|0,3:2|0:0,0:0:0:0:
211,363,166057,38,0,P|217:331|253:287,1,71.340001088562,10|0,0:0|0:0,0:0:0:0:
359,152,166283,2,0,P|398:138|459:149,1,71.340001088562,2|0,0:0|0:0,0:0:0:0:
314,248,166508,69,2,3:2:0:0:
314,248,166734,37,2,0:0:0:0:
389,267,166846,1,2,0:0:0:0:
244,305,166959,1,10,0:0:0:0:
251,66,167185,69,2,0:0:0:0:
330,49,167298,1,8,0:2:0:0:
190,15,167410,1,2,3:2:0:0:
242,156,167523,1,8,0:0:0:0:
176,81,167636,38,0,B|172:46|172:46|189:14,1,71.340001088562,10|0,0:0|0:0,0:0:0:0:
242,156,167861,2,0,L|262:233,1,71.340001088562,10|0,0:0|0:0,0:0:0:0:
179,367,168087,69,10,0:0:0:0:
317,290,168200,1,10,0:0:0:0:
165,285,168313,38,0,B|207:278|239:307|239:307|250:344|290:364,1,142.680002177124,6|0,3:2|0:0,0:0:0:0:
438,242,168651,69,2,0:0:0:0:
317,290,168764,2,0,P|370:243|444:245,1,142.680002177124,10|0,0:0|0:0,0:0:0:0:
333,102,169102,37,2,0:0:0:0:
420,119,169215,2,0,P|386:110|340:91,1,71.340001088562,2|0,3:2|0:0,0:0:0:0:
221,204,169440,2,0,P|234:172|246:129,1,71.340001088562,2|0,0:0|0:0,0:0:0:0:
384,265,169666,70,0,P|348:276|307:294,1,71.340001088562,10|0,0:0|0:0,0:0:0:0:
126,85,169892,2,0,P|137:117|146:158,1,71.340001088562,2|0,0:0|0:0,0:0:0:0:
52,373,170117,38,0,P|15:329|39:244,1,142.680002177124,2|0,3:2|0:0,0:0:0:0:
145,153,170455,1,2,0:0:0:0:
0,156,170568,70,0,B|31:174|31:174|76:171,1,71.340001088562,10|0,0:0|0:0,0:0:0:0:
188,290,170794,2,0,B|153:288|153:288|110:313,1,71.340001088562,2|0,0:0|0:0,0:0:0:0:
299,212,171019,2,0,L|454:246,1,142.680002177124,2|0,3:2|0:0,0:0:0:0:
512,262,171358,1,2,0:0:0:0:
295,285,171470,38,0,B|330:265|366:257|366:257|391:205|391:205|431:195|475:174,1,214.020003265686,12|0,0:0|0:0,0:0:0:0:
253,15,171922,2,0,B|228:76|228:76|236:106|267:128,1,122.669998128204,2|0,3:2|0:0,0:0:0:0:
259,122,172373,1,10,0:0:0:0:
329,0,172486,1,2,0:0:0:0:
387,54,172598,2,0,P|394:91|414:135,1,71.340001088562,2|0,0:0|0:0,0:0:0:0:
208,246,172824,2,0,P|139:232|92:181,1,142.680002177124,2|0,3:2|0:0,0:0:0:0:
208,246,173162,1,2,0:0:0:0:
29,353,173275,70,0,P|56:332|100:314,1,71.340001088562,10|0,0:0|0:0,0:0:0:0:
282,202,173501,2,0,P|313:221|340:257,1,71.340001088562,2|0,0:0|0:0,0:0:0:0:
129,240,173726,38,0,P|165:225|218:225,1,71.340001088562,2|0,3:2|0:0,0:0:0:0:
410,307,173952,2,0,P|422:338|424:379,1,71.340001088562,2|0,0:0|0:0,0:0:0:0:
264,372,174177,70,0,L|306:195,1,142.680002177124,10|2,0:0|0:0,0:0:0:0:
455,0,174628,38,0,B|476:29|476:29|477:74,1,71.340001088562,2|0,3:2|0:0,0:0:0:0:
369,146,174854,2,0,L|293:122,1,71.340001088562,10|0,0:0|0:0,0:0:0:0:
205,41,175080,2,0,L|284:21,1,71.340001088562,10|0,0:0|0:0,0:0:0:0:
181,167,175305,1,8,0:0:0:0:
120,120,175418,1,8,0:0:0:0:
48,151,175531,70,0,B|31:185|31:185|31:231,1,71.340001088562,6|0,3:2|0:0,0:0:0:0:
133,302,175756,1,2,0:0:0:0:
133,302,175869,1,2,0:0:0:0:
66,365,175982,37,10,0:0:0:0:
136,331,176095,1,2,0:0:0:0:
200,343,176207,1,2,0:0:0:0:
236,371,176320,1,2,0:0:0:0:
305,312,176433,70,0,P|340:304|386:289,1,71.340001088562,2|0,3:2|0:2,0:2:0:0:
507,369,176658,2,0,P|475:353|433:341,1,71.340001088562,2|0,3:2|0:0,0:0:0:0:
390,161,176884,38,0,P|424:221|502:240,1,142.680002177124,10|2,0:0|0:0,0:0:0:0:
303,311,177222,1,2,0:0:0:0:
371,292,177335,2,0,P|336:300|299:312,1,71.340001088562,2|0,3:2|0:0,0:0:0:0:
390,161,177561,2,0,P|403:129|411:90,1,71.340001088562,2|0,0:0|0:0,0:0:0:0:
271,206,177786,69,10,0:0:0:0:
208,210,177899,1,2,0:0:0:0:
162,170,178012,1,2,0:0:0:0:
233,126,178125,37,10,0:0:0:0:
136,40,178237,2,0,P|112:67|107:111,1,71.340001088562,2|0,3:2|0:0,0:0:0:0:
226,49,178463,69,2,3:2:0:0:
226,49,178576,1,2,0:0:0:0:
48,194,178689,2,0,P|26:166|17:128,1,71.340001088562,10|0,0:0|0:0,0:0:0:0:
204,235,178914,2,0,P|176:257|137:270,1,71.340001088562,2|0,0:0|0:0,0:0:0:0:
245,120,179140,38,0,P|277:134|321:146,1,71.340001088562,2|0,3:2|0:0,0:0:0:0:
242,372,179365,2,0,P|225:300|197:217,1,142.680002177124,2|8,0:0|0:0,0:0:0:0:
203,234,179929,69,10,0:0:0:0:
269,280,180042,1,2,3:2:0:0:
341,260,180155,37,10,0:0:0:0:
396,350,180267,1,10,0:0:0:0:
199,231,180493,69,10,0:0:0:0:
412,106,180719,37,10,0:0:0:0:
351,149,180831,1,10,0:0:0:0:
302,86,180944,2,0,B|295:53|295:53|315:13,1,71.340001088562,6|0,3:2|0:0,0:0:0:0:
491,176,181170,2,0,L|419:194,1,71.340001088562,2|0,3:2|0:0,0:0:0:0:
269,280,181395,2,0,L|347:306,1,71.340001088562,2|0,3:2|0:2,0:2:0:0:
450,378,181621,2,0,B|466:348|466:348|461:302,1,71.340001088562,2|0,3:2|0:0,0:0:0:0:
256,177,181846,70,0,B|217:192|180:195|180:195|150:239|150:239|111:244|65:261,1,214.020003265686,2|0,3:2|0:0,0:0:0:0:
2,94,182298,2,0,B|27:104|51:107|51:107|79:130|92:167,1,122.669998128204,2|0,0:2|0:0,0:0:0:0:
217,349,182749,6,0,L|242:255,1,81.7799987521363,6|0,3:2|0:0,0:0:0:0:
238,269,183087,1,2,0:0:0:0:
337,299,183200,2,0,L|318:213,1,81.7799987521363,10|0,0:0|0:0,0:0:0:0:
227,122,183651,6,0,L|242:67,1,40.8899993760681,2|0,3:2|0:0,0:0:0:0:
211,12,183877,2,0,L|258:-3,1,40.8899993760681,2|0,0:0|0:0,0:0:0:0:
367,84,184102,101,10,0:0:0:0:
109,145,184328,1,10,0:0:0:0:
441,226,184553,5,6,3:2:0:0:
127,0,185004,1,6,3:2:0:0:
261,368,185455,1,6,3:2:0:0:
302,234,185681,101,10,0:0:0:0:
229,267,185794,1,10,0:0:0:0:
337,307,185907,2,0,B|362:298|362:298|378:275|376:240,1,71.340001088562,10|0,0:0|0:0,0:0:0:0:
189,191,186132,2,0,B|164:200|164:200|148:223|150:258,1,71.340001088562,10|0,0:0|0:0,0:0:0:0:
294,138,186353,54,0,B|277:63|250:98|234:1,1,142.680002177124,6|0,3:2|0:0,0:0:0:0:
314,17,186699,1,2,0:0:0:0:
144,102,186814,2,0,P|72:90|34:32,1,142.680002177124,10|0,0:0|0:0,0:0:0:0:
144,102,187160,1,2,0:0:0:0:
30,188,187276,6,0,B|29:153|29:153|56:115,1,71.340001088562,2|0,3:2|0:0,0:0:0:0:
189,191,187506,2,0,B|190:226|190:226|163:264,1,71.340001088562,2|0,0:2|0:0,0:0:0:0:
51,326,187737,1,10,0:0:0:0:
51,326,187968,101,2,0:0:0:0:
194,383,188083,1,10,0:0:0:0:
256,341,188199,6,0,B|177:327|184:382|110:363,1,142.680002177124,2|0,3:2|0:0,0:0:0:0:
275,207,188545,1,2,0:0:0:0:
204,260,188660,2,0,P|193:229|189:184,1,71.340001088562,10|0,0:0|0:0,0:0:0:0:
372,127,188891,2,0,P|403:189|407:266,1,142.680002177124,2|0,0:0|3:2,0:0:0:0:
407,261,189353,102,0,P|373:269|334:285,1,71.340001088562,10|0,0:0|0:0,0:0:0:0:
145,170,189583,2,0,P|179:160|212:147,1,71.340001088562,10|0,0:0|0:0,0:0:0:0:
338,0,189814,1,8,0:0:0:0:
312,70,189929,1,8,0:0:0:0:
246,23,190045,6,0,P|209:9|160:-3,1,71.340001088562,2|2,3:2|0:0,0:0:0:0:
295,145,190276,2,0,P|305:181|322:221,1,71.340001088562,2|2,0:0|0:0,0:0:0:0:
186,371,190506,1,10,0:0:0:0:
99,291,190622,2,0,P|146:258|237:258,1,142.680002177124,2|2,0:0|0:0,0:0:0:0:
382,357,190968,102,0,B|351:343|351:343|310:344,1,71.340001088562,2|0,3:2|0:0,0:0:0:0:
494,229,191199,2,0,B|480:260|480:260|481:301,1,71.340001088562,2|0,0:2|0:0,0:0:0:0:
370,111,191429,2,0,B|401:125|401:125|442:124,1,71.340001088562,10|0,0:2|0:0,0:0:0:0:
306,261,191660,1,2,0:0:0:0:
306,261,191776,1,10,0:0:0:0:
239,162,191891,6,0,P|233:198|221:243,1,71.340001088562,2|0,3:2|0:0,0:0:0:0:
382,357,192122,2,0,B|362:289|412:304|375:207,1,142.680002177124,2|10,0:0|0:0,0:0:0:0:
378,217,192583,101,2,0:0:0:0:
227,315,192699,1,10,0:0:0:0:
289,359,192814,2,0,B|301:326|301:326|299:278,1,71.340001088562,2|8,3:2|0:2,0:2:0:0:
148,183,193045,5,10,0:0:0:0:
222,158,193160,1,2,0:0:0:0:
115,267,193276,2,0,B|79:267|79:267|40:249,1,71.340001088562,10|0,0:0|0:0,0:0:0:0:
218,178,193506,101,10,0:0:0:0:
148,156,193622,1,8,0:0:0:0:
306,261,193737,2,0,P|372:245|430:171,1,142.680002177124,6|0,3:2|0:0,0:0:0:0:
306,261,194083,1,2,0:0:0:0:
476,116,194199,6,0,P|440:109|393:92,1,71.340001088562,10|0,0:0|0:0,0:0:0:0:
497,263,194429,2,0,P|502:227|514:188,1,71.340001088562,2|0,0:0|0:0,0:0:0:0:
306,261,194660,2,0,B|396:278|365:314|439:330,1,142.680002177124,2|0,3:2|0:0,0:0:0:0:
245,177,195006,1,2,0:0:0:0:
313,157,195122,2,0,P|279:169|232:178,1,71.340001088562,10|0,0:0|0:0,0:0:0:0:
181,352,195353,2,0,P|195:320|206:280,1,71.340001088562,2|8,0:0|0:0,0:0:0:0:
68,71,195583,102,0,P|85:142|136:187,1,142.680002177124,2|2,3:2|0:0,0:0:0:0:
306,263,195929,1,2,0:0:0:0:
204,285,196045,2,0,P|168:294|133:309,1,71.340001088562,10|0,0:0|0:0,0:0:0:0:
244,176,196276,2,0,P|231:142|224:108,1,71.340001088562,2|0,0:0|0:0,0:0:0:0:
413,221,196506,2,0,P|392:289|375:369,1,142.680002177124,2|10,3:2|0:0,0:0:0:0:
376,358,196968,6,0,P|412:345|461:334,1,71.340001088562,10|0,0:0|0:0,0:0:0:0:
343,181,197199,1,8,0:0:0:0:
409,215,197314,1,8,0:0:0:0:
236,315,197429,2,0,B|219:240|270:261|240:162,1,142.680002177124,6|0,3:2|0:0,0:0:0:0:
413,74,197776,1,2,0:0:0:0:
416,0,197891,102,0,B|381:5|381:5|346:32,1,71.340001088562,10|0,0:0|0:0,0:0:0:0:
446,149,198122,2,0,B|476:169|476:169|512:169,1,71.340001088562,2|0,0:0|0:0,0:0:0:0:
259,87,198353,6,0,L|239:165,1,71.340001088562,2|0,3:2|0:0,0:0:0:0:
309,280,198583,1,2,0:0:0:0:
236,315,198699,1,2,0:0:0:0:
376,215,198814,2,0,B|393:248|393:248|396:289,1,71.340001088562,10|0,0:0|0:0,0:0:0:0:
137,364,199045,2,0,B|138:329|138:329|157:290,1,71.340001088562,2|8,0:0|0:0,0:0:0:0:
309,280,199276,102,0,B|347:297|386:308|386:308|414:356|414:356|451:363|490:379,1,214.020003265686,6|2,3:2|0:0,0:0:0:0:
383,220,199737,1,8,0:0:0:0:
383,220,199853,1,2,0:0:0:0:
501,195,199968,6,0,P|491:229|486:273,1,71.340001088562,2|8,0:0|0:0,0:0:0:0:
289,93,200199,1,2,3:2:0:0:
358,69,200314,1,8,0:0:0:0:
347,146,200429,1,8,3:0:0:0:
333,107,200545,1,10,0:0:0:0:
498,104,200660,102,0,P|464:114|423:131,1,71.340001088562,10|8,0:0|0:0,0:0:0:0:
167,51,200891,2,0,P|203:41|240:22,1,71.340001088562,8|8,0:0|0:0,0:0:0:0:
114,216,201122,6,0,P|48:205|-5:131,1,142.680002177124,6|0,3:2|0:0,0:0:0:0:
114,216,201468,1,2,0:0:0:0:
32,323,201583,102,0,B|119:306|103:360|190:343,1,142.680002177124,10|0,0:0|0:0,0:0:0:0:
328,242,201929,1,2,0:0:0:0:
407,304,202045,2,0,P|420:273|423:233,1,71.340001088562,2|0,3:2|0:0,0:0:0:0:
247,176,202276,2,0,P|230:210|223:249,1,71.340001088562,2|0,0:0|0:0,0:0:0:0:
298,382,202506,2,0,P|311:317|336:214,1,142.680002177124,10|2,0:0|0:0,0:0:0:0:
376,43,202853,1,10,0:0:0:0:
452,111,202968,6,0,P|423:132|370:140,1,71.340001088562,2|0,3:2|0:0,0:0:0:0:
186,4,203199,2,0,P|238:59|311:78,1,142.680002177124,2|10,0:0|0:0,0:0:0:0:
300,77,203660,102,0,L|281:-3,1,71.340001088562,2|0,0:0|0:0,0:0:0:0:
95,179,203891,2,0,P|130:168|180:155,1,71.340001088562,2|0,3:2|0:0,0:0:0:0:
186,4,204122,6,0,P|153:16|103:26,1,71.340001088562,10|0,0:0|0:0,0:0:0:0:
262,157,204353,2,0,P|298:218|300:299,1,142.680002177124,10|8,0:0|0:0,0:0:0:0:
160,384,204699,1,10,0:0:0:0:
122,308,204814,101,6,3:2:0:0:
196,296,204929,1,2,0:0:0:0:
253,348,205045,1,2,0:0:0:0:
327,372,205160,1,2,0:0:0:0:
393,331,205276,2,0,B|408:299|408:299|406:250,1,71.340001088562,10|0,0:0|0:0,0:0:0:0:
265,160,205506,1,2,0:0:0:0:
265,160,205622,1,2,0:0:0:0:
418,176,205737,6,0,P|383:184|342:199,1,71.340001088562,2|0,3:2|0:0,0:0:0:0:
114,141,205968,2,0,P|149:131|190:115,1,71.340001088562,2|0,0:0|0:0,0:0:0:0:
301,21,206199,102,0,P|323:52|328:89,1,71.340001088562,10|0,0:0|0:0,0:0:0:0:
217,287,206429,2,0,P|195:256|190:219,1,71.340001088562,2|8,0:0|0:0,0:0:0:0:
264,159,206660,6,0,L|416:203,2,142.680002177124,6|2|8,3:2|0:0|0:0,0:0:0:0:
206,115,207237,1,2,0:0:0:0:
73,225,207353,2,0,B|88:192|88:192|86:155,1,71.340001088562,2|8,0:0|0:0,0:0:0:0:
272,337,207583,1,10,0:2:0:0:
217,287,207699,1,8,0:0:0:0:
145,307,207814,2,0,B|132:341|132:341|131:380,1,71.340001088562,10|0,0:0|0:0,0:0:0:0:
4,236,208045,2,0,B|41:239|41:239|86:218,1,71.340001088562,10|0,0:0|0:0,0:0:0:0:
206,115,208276,1,8,0:0:0:0:
167,181,208391,1,8,0:0:0:0:
293,259,208506,102,0,P|366:242|413:167,1,142.680002177124,6|0,3:2|0:0,0:0:0:0:
293,259,208853,1,2,0:0:0:0:
408,104,208968,6,0,B|428:185|457:147|475:237,1,142.680002177124,10|0,0:0|0:0,0:0:0:0:
490,100,209314,1,2,0:0:0:0:
318,121,209429,102,0,P|327:87|336:40,1,71.340001088562,2|0,3:2|0:0,0:0:0:0:
361,239,209660,2,0,P|324:248|278:265,1,71.340001088562,2|0,0:0|0:0,0:0:0:0:
141,144,209891,6,0,P|174:159|217:170,1,71.340001088562,10|0,0:0|0:0,0:0:0:0:
152,349,210122,2,0,P|144:311|134:276,1,71.340001088562,2|8,0:0|0:0,0:0:0:0:
63,47,210353,102,0,P|22:96|29:183,1,142.680002177124,2|2,3:2|0:0,0:0:0:0:
135,279,210699,1,2,0:0:0:0:
275,146,210814,6,0,P|239:155|188:178,1,71.340001088562,10|0,0:0|0:0,0:0:0:0:
0,306,211045,2,0,P|33:322|68:333,1,71.340001088562,2|0,0:0|0:0,0:0:0:0:
313,372,211276,102,0,P|309:298|266:237,1,142.680002177124,2|10,3:2|0:0,0:0:0:0:
272,242,211737,6,0,P|309:253|353:276,1,71.340001088562,10|0,0:0|0:0,0:0:0:0:
238,101,211968,1,10,0:0:0:0:
207,168,212083,1,10,0:0:0:0:
319,66,212199,2,0,P|251:56|182:7,1,142.680002177124,6|0,3:2|0:0,0:0:0:0:
413,146,212545,101,2,0:0:0:0:
344,164,212660,2,0,P|379:157|431:138,1,71.340001088562,10|0,0:0|0:0,0:0:0:0:
293,310,212891,2,0,P|284:276|270:238,1,71.340001088562,2|0,0:0|0:0,0:0:0:0:
512,324,213122,6,0,P|446:338|384:391,1,142.680002177124,2|2,3:2|0:0,0:0:0:0:
271,242,213468,1,2,0:0:0:0:
181,284,213583,2,0,B|163:316|163:316|165:366,1,71.340001088562,10|0,0:0|0:0,0:0:0:0:
234,384,213814,1,2,0:0:0:0:
90,279,213929,1,10,0:0:0:0:
90,279,214045,102,0,B|77:229|77:229|81:205|81:205|62:132,1,142.680002177124,6|10,3:2|0:0,0:0:0:0:
190,21,214391,1,2,0:0:0:0:
52,62,214506,2,0,B|89:62|89:62|130:89,1,71.340001088562,10|0,3:2|0:0,0:0:0:0:
236,159,214737,1,10,0:0:0:0:
164,179,214853,1,10,0:0:0:0:
272,75,214968,5,10,0:0:0:0:
329,117,215083,1,10,0:0:0:0:
347,163,215199,1,8,0:0:0:0:
351,187,215314,1,10,0:0:0:0:
435,232,215429,101,10,0:0:0:0:
373,266,215545,1,10,0:0:0:0:
355,296,215660,1,8,0:0:0:0:
350,316,215776,1,8,0:0:0:0:
298,378,215891,53,6,3:2:0:0:
298,378,216122,2,0,P|252:368|202:342,1,90.4799994477539,2|2,0:0|0:0,0:0:0:0:
41,235,216583,1,2,3:2:0:0:
111,346,216814,2,0,P|173:342|250:242,1,180.959998895508,10|2,0:0|0:0,0:0:0:0:
392,94,217506,1,10,0:0:0:0:
392,94,217622,1,2,3:2:0:0:
294,74,217737,6,0,P|312:119|322:167,1,90.4799994477539,2|0,3:2|0:0,0:0:0:0:
381,214,218083,1,2,3:2:0:0:
201,101,218429,1,2,3:2:0:0:
55,214,218660,101,10,0:0:0:0:
55,214,218776,1,2,0:0:0:0:
55,214,218891,2,0,P|100:227|145:245,1,90.4799994477539,10|8,0:0|0:0,0:0:0:0:
401,322,219353,1,8,0:0:0:0:
424,262,219468,1,8,0:0:0:0:
381,214,219583,6,0,P|336:225|279:247,1,90.4799994477539,6|0,3:2|0:0,0:0:0:0:
218,358,220045,1,2,0:0:0:0:
294,74,220276,1,2,3:2:0:0:
224,174,220506,102,0,B|250:274|288:222|308:342,1,180.959998895508,10|2,0:0|0:0,0:0:0:0:
115,122,221199,1,8,0:0:0:0:
115,122,221314,1,8,0:0:0:0:
115,122,221429,6,0,L|135:22,1,90.4799994477539,2|0,3:2|0:0,0:0:0:0:
233,89,221776,2,0,L|215:-1,1,90.4799994477539,2|0,3:2|0:0,0:0:0:0:
315,60,222122,2,0,L|329:1,1,45.239999723877,2|0,3:2|0:0,0:0:0:0:
493,168,222353,101,8,3:2:0:0:
493,168,222468,1,10,0:0:0:0:
419,189,222583,1,8,0:0:0:0:
419,189,222699,1,8,0:0:0:0:
478,248,222814,5,8,0:2:0:0:
478,248,222929,1,8,0:0:0:0:
435,113,223045,1,8,0:0:0:0:
435,113,223160,1,8,0:0:0:0:
341,208,223276,22,0,P|304:200|260:187,1,75.6900006352158,6|2,3:2|0:0,0:0:0:0:
132,293,223532,1,2,0:0:0:0:
156,216,223660,1,2,0:0:0:0:
303,341,223788,2,0,P|265:349|217:364,1,75.6900006352158,10|0,0:0|0:0,0:0:0:0:
133,216,224045,5,2,0:0:0:0:
162,290,224173,1,2,0:0:0:0:
345,185,224301,2,0,P|307:195|257:206,1,75.6900006352158,2|0,3:2|0:0,0:0:0:0:
304,364,224558,2,0,P|270:352|225:339,1,75.6900006352158,2|0,0:0|0:0,0:0:0:0:
364,282,224814,2,0,B|454:271|435:330|521:319,1,151.380001270432,10|2,0:0|0:0,0:0:0:0:
271,203,225199,101,2,0:0:0:0:
418,109,225327,2,0,P|438:143|437:187,1,75.6900006352158,2|0,3:2|0:0,0:0:0:0:
229,359,225583,5,2,0:0:0:0:
364,282,225711,1,2,0:0:0:0:
158,147,225840,2,0,P|137:180|136:231,1,75.6900006352158,10|0,0:0|0:0,0:0:0:0:
346,366,226096,101,2,0:0:0:0:
271,203,226224,1,2,0:0:0:0:
222,267,226352,2,0,P|219:308|210:348,1,75.6900006352158,2|0,3:2|0:0,0:0:0:0:
132,215,226609,5,2,0:0:0:0:
283,45,226737,1,2,0:0:0:0:
331,106,226865,2,0,P|336:146|348:183,1,75.6900006352158,10|0,0:0|0:0,0:0:0:0:
129,33,227122,2,0,P|166:22|214:3,1,75.6900006352158,2|0,0:0|0:0,0:0:0:0:
132,215,227378,102,0,P|71:160|-16:151,1,151.380001270432,2|2,3:2|0:0,0:0:0:0:
132,215,227763,1,2,0:0:0:0:
0,334,227891,2,0,P|35:319|88:305,1,75.6900006352158,10|0,0:0|0:0,0:0:0:0:
229,359,228147,2,0,P|216:325|207:287,1,75.6900006352158,2|0,0:0|0:0,0:0:0:0:
346,179,228404,6,0,L|508:222,1,151.380001270432,2|2,3:2|0:0,0:0:0:0:
434,276,228788,1,2,0:0:0:0:
492,384,228917,102,0,B|510:350|510:350|509:307,1,75.6900006352158,10|0,0:0|0:0,0:0:0:0:
280,122,229173,2,0,B|262:156|262:156|263:199,1,75.6900006352158,2|0,0:0|0:0,0:0:0:0:
399,296,229429,6,0,B|415:248|410:245|413:244|405:206|406:209|408:207|431:142,1,151.380001270432,6|2,3:2|0:0,0:0:0:0:
328,255,229814,1,2,0:0:0:0:
499,220,229942,1,10,0:0:0:0:
499,220,230199,101,2,0:0:0:0:
356,89,230327,2,0,B|336:120|336:120|334:163,1,75.6900006352158,2|0,0:0|3:2,0:0:0:0:
428,149,230583,5,2,0:0:0:0:
328,255,230711,1,10,0:0:0:0:
261,39,230840,1,10,0:0:0:0:
334,158,230968,102,0,P|298:169|249:181,1,75.6900006352158,10|0,0:0|0:0,0:0:0:0:
440,63,231224,2,0,P|476:71|515:84,1,75.6900006352158,10|0,0:0|0:0,0:0:0:0:
410,230,231481,5,6,3:2:0:0:
356,89,231609,1,2,0:0:0:0:
429,151,231737,1,2,0:0:0:0:
328,255,231865,1,2,0:0:0:0:
261,178,231993,2,0,P|269:142|276:94,1,75.6900006352158,10|0,0:0|0:0,0:0:0:0:
30,292,232250,101,2,0:2:0:0:
84,151,232378,1,2,0:0:0:0:
11,213,232506,1,2,3:2:0:0:
112,317,232634,1,2,0:0:0:0:
179,240,232762,2,0,P|171:204|164:156,1,75.6900006352158,2|0,0:2|0:0,0:0:0:0:
337,273,233019,6,0,B|431:255|411:321|503:308,1,151.380001270432,10|2,0:0|0:0,0:0:0:0:
304,365,233404,1,2,0:0:0:0:
491,215,233532,2,0,P|456:228|401:240,1,75.6900006352158,6|0,3:2|0:0,0:0:0:0:
486,317,233788,101,2,0:0:0:0:
306,207,233917,1,2,0:0:0:0:
391,384,234045,2,0,P|383:346|371:308,1,75.6900006352158,10|0,0:0|0:0,0:0:0:0:
390,161,234301,5,2,0:0:0:0:
257,289,234429,1,2,0:0:0:0:
166,210,234558,2,0,P|130:200|83:191,1,75.6900006352158,2|0,3:2|0:0,0:0:0:0:
372,310,234814,101,2,0:0:0:0:
238,158,234942,1,2,0:0:0:0:
114,279,235071,2,0,P|78:289|31:298,1,75.6900006352158,10|0,0:2|0:0,0:0:0:0:
224,380,235327,6,0,B|223:344|223:344|242:301,1,75.6900006352158,2|0,0:0|0:0,0:0:0:0:
484,177,235583,2,0,P|436:222|340:232,1,151.380001270432,6|0,3:2|0:0,0:0:0:0:
237,70,235968,1,2,0:0:0:0:
156,134,236096,2,0,P|192:144|234:158,1,75.6900006352158,10|0,0:0|0:0,0:0:0:0:
349,70,236352,2,0,P|359:33|374:0,1,75.6900006352158,2|0,0:0|0:0,0:0:0:0:
156,134,236609,102,0,B|159:177|194:212|200:187|225:222|226:269,1,151.380001270432,2|0,3:2|0:0,0:0:0:0:
78,349,236993,1,2,0:0:0:0:
12,274,237122,6,0,P|42:253|88:252,1,75.6900006352158,10|0,0:0|0:0,0:0:0:0:
167,340,237378,2,0,P|202:365|255:363,1,75.6900006352158,2|0,0:0|0:0,0:0:0:0:
417,277,237634,102,0,L|377:109,1,151.380001270432,2|0,3:2|0:0,0:0:0:0:
464,149,238019,1,2,0:0:0:0:
352,49,238147,2,0,B|385:31|385:31|427:31,1,75.6900006352158,10|0,0:0|0:0,0:0:0:0:
303,179,238404,2,0,B|288:145|288:145|290:100,1,75.6900006352158,2|0,0:0|0:0,0:0:0:0:
506,302,238660,6,0,B|450:315|450:315|424:340|424:340|367:354,1,151.380001270432,2|2,3:2|0:0,0:0:0:0:
303,179,239045,1,2,0:0:0:0:
257,271,239173,102,0,P|249:309|238:350,1,75.6900006352158,10|0,0:0|0:0,0:0:0:0:
464,149,239429,2,0,P|473:186|487:225,1,75.6900006352158,2|0,0:0|0:0,0:0:0:0:
280,28,239686,1,2,3:2:0:0:
280,28,240199,5,10,0:0:0:0:
352,49,240327,1,2,0:0:0:0:
191,162,240455,2,0,B|172:130|172:130|173:83,1,75.6900006352158,2|0,0:0|0:0,0:0:0:0:
392,197,240711,102,0,P|382:236|374:280,1,75.6900006352158,2|0,3:2|0:0,0:0:0:0:
291,159,240968,1,2,0:0:0:0:
131,325,241096,2,0,P|182:275|265:269,1,151.380001270432,2|2,0:0|0:0,0:0:0:0:
104,72,241481,2,0,P|140:87|183:98,1,75.6900006352158,2|0,0:0|0:0,0:0:0:0:
39,215,241737,5,10,0:0:0:0:
45,203,241865,1,2,0:0:0:0:
124,205,241993,101,10,0:0:0:0:
167,178,242122,1,8,3:2:0:0:
242,203,242250,5,8,0:0:0:0:
310,171,242378,1,2,0:0:0:0:
369,221,242506,101,10,0:0:0:0:
467,200,242634,1,10,0:0:0:0:
507,245,242763,69,2,3:2:0:0:
442,215,242891,1,2,3:2:0:0:
371,206,243019,1,8,3:2:0:0:
310,171,243147,1,8,3:2:0:0:
346,100,243276,5,10,0:0:0:0:
212,162,243404,1,10,0:0:0:0:
167,90,243532,101,8,0:0:0:0:
167,90,243596,1,8,0:0:0:0:
167,90,243660,1,8,0:0:0:0:
167,90,243724,1,8,0:0:0:0:
167,90,243793,70,0,P|228:111|293:212,1,174,6|10,3:2|0:0,0:0:0:0:
156,344,244175,1,2,0:0:0:0:
268,384,244303,2,0,P|256:344|247:298,1,87,2|0,3:2|0:0,0:0:0:0:
64,171,244558,1,10,0:0:0:0:
8,221,244686,1,2,0:0:0:0:
8,221,244750,1,2,0:0:0:0:
8,221,244814,22,0,B|106:189|82:276|197:247,1,174,6|10,3:2|0:0,0:0:0:0:
293,192,245197,1,2,0:0:0:0:
350,262,245324,85,2,3:2:0:0:
210,174,245452,1,2,3:2:0:0:
152,334,245580,1,10,0:0:0:0:
251,265,245707,1,2,0:0:0:0:
123,121,245835,22,0,B|101:160|101:160|108:203,1,87,2|0,3:2|0:0,0:0:0:0:
326,320,246090,2,0,B|344:281|344:281|340:238,1,87,10|0,0:0|0:0,0:0:0:0:
246,77,246346,85,2,3:2:0:0:
222,163,246473,1,2,3:2:0:0:
198,250,246601,1,10,0:0:0:0:
123,121,246729,21,2,0:0:0:0:
327,223,246856,2,0,B|380:203|380:203|402:170|402:170|492:133,1,174,2|10,3:2|0:0,0:0:0:0:
459,237,247239,85,2,0:0:0:0:
390,82,247367,1,2,3:2:0:0:
327,223,247495,1,2,3:2:0:0:
473,140,247622,1,10,0:0:0:0:
316,37,247750,1,2,0:0:0:0:
265,106,247878,22,0,P|203:120|140:149,1,130.5,6|0,3:2|0:0,0:0:0:0:
142,147,248133,2,0,P|128:104|106:67,1,87,10|0,0:0|0:0,0:0:0:0:
215,166,248388,1,2,3:2:0:0:
102,255,248516,1,0,3:2:0:0:
194,300,248644,2,0,P|211:342|218:392,1,87,10|0,0:0|0:0,0:0:0:0:
440,272,248899,86,0,P|366:262|270:201,1,174,2|10,3:2|0:0,0:0:0:0:
332,345,249282,1,2,0:0:0:0:
375,178,249410,2,0,P|417:168|456:149,1,87,2|0,3:2|3:2,0:0:0:0:
250,298,249665,2,0,P|208:307|158:329,1,87,10|0,0:0|0:0,0:0:0:0:
280,208,249920,22,0,P|300:135|308:33,1,174,2|10,3:2|0:0,0:0:0:0:
118,143,250303,1,2,0:0:0:0:
211,91,250431,1,2,3:2:0:0:
120,46,250558,1,2,3:2:0:0:
195,178,250686,1,10,0:0:0:0:
42,251,250814,1,2,0:0:0:0:
42,251,250941,86,0,P|23:213|8:72,1,174,2|8,3:2|0:0,0:0:0:0:
195,178,251324,1,2,0:0:0:0:
167,323,251452,2,0,P|212:315|251:297,1,87,0|0,3:2|3:2,0:2:0:0:
388,165,251707,21,10,0:0:0:0:
467,359,251835,1,10,0:0:0:0:
411,300,251963,86,0,B|423:273|428:242|428:242|461:212|461:212|466:178|479:138,1,174,6|10,3:2|0:0,0:0:0:0:
333,35,252346,1,2,0:0:0:0:
433,48,252473,22,0,P|390:39|341:19,1,87,2|0,3:2|3:2,0:0:0:0:
388,165,252729,1,10,0:0:0:0:
255,109,252856,85,2,0:0:0:0:
255,109,252920,1,2,0:0:0:0:
255,109,252984,2,0,B|223:120|159:132|159:132|176:174|172:208,1,174,6|10,3:2|0:0,0:0:0:0:
42,83,253367,1,2,0:0:0:0:
156,25,253495,22,0,P|150:68|136:116,1,87,2|0,3:2|3:2,0:0:0:0:
69,299,253750,1,10,0:0:0:0:
0,207,253878,1,2,0:0:0:0:
173,204,254005,86,0,P|236:218|300:266,1,130.5,6|0,3:2|0:0,0:0:0:0:
320,257,254261,2,0,P|304:298|297:352,1,87,10|0,0:0|0:0,0:0:0:0:
439,223,254516,21,6,3:2:0:0:
391,82,254644,1,2,3:2:0:0:
501,103,254771,85,10,0:0:0:0:
335,181,254899,1,2,0:0:0:0:
335,181,254963,1,2,0:0:0:0:
335,181,255027,2,0,L|426:205,1,87,6|0,3:2|0:0,0:0:0:0:
289,97,255282,21,10,0:0:0:0:
505,185,255410,1,2,0:0:0:0:
320,257,255537,85,2,3:2:0:0:
419,203,255665,1,2,3:2:0:0:
238,215,255793,21,10,0:0:0:0:
420,364,255920,1,2,0:0:0:0:
420,364,255984,1,2,0:0:0:0:
420,364,256048,2,0,P|414:321|390:267,1,87,6|0,3:2|0:0,0:0:0:0:
483,64,256303,2,0,P|446:108|365:128,1,130.5,10|0,0:0|0:0,0:0:0:0:
377,128,256558,2,0,P|420:137|463:164,1,87,2|0,3:2|0:0,0:0:0:0:
274,35,256814,2,0,P|231:26|187:2,1,87,10|0,0:0|0:0,0:0:0:0:
238,215,257069,86,0,P|225:275|185:338,1,130.5,2|0,3:2|0:0,0:0:0:0:
189,333,257324,2,0,P|226:315|285:301,1,87,10|0,0:0|0:0,0:0:0:0:
118,234,257580,1,2,3:2:0:0:
238,215,257707,1,0,3:2:0:0:
99,327,257835,1,10,0:0:0:0:
58,152,257963,1,2,0:0:0:0:
58,152,258027,1,2,0:0:0:0:
58,152,258090,22,0,P|96:134|145:126,1,87,6|0,3:2|0:0,0:0:0:0:
384,284,258346,2,0,P|304:276|231:199,1,174,10|2,0:0|3:2,0:0:0:0:
345,62,258729,1,0,3:2:0:0:
246,40,258856,2,0,P|261:83|271:130,1,87,10|0,0:0|0:0,0:0:0:0:
467,198,259112,86,0,P|424:183|386:163,1,87,2|0,3:2|0:0,0:0:0:0:
188,323,259367,2,0,P|230:307|284:295,1,87,10|0,0:0|0:0,0:0:0:0:
431,377,259622,2,0,P|412:336|398:291,1,87,2|0,3:2|3:2,0:0:0:0:
225,207,259878,21,10,0:0:0:0:
412,81,260005,1,8,0:0:0:0:
412,81,260069,1,8,0:0:0:0:
412,81,260133,2,0,P|401:126|385:169,1,87,6|0,3:2|0:0,0:0:0:0:
287,263,260388,2,0,P|255:203|252:119,1,139.2,10|2,0:0|3:2,0:0:0:0:
211,63,260771,1,0,3:2:0:0:
132,72,260899,2,0,P|140:39|163:-7,1,69.6,10|0,0:0|0:0,0:0:0:0:
249,132,261154,86,0,P|211:157|102:184,1,139.2,2|8,3:2|0:0,0:0:0:0:
66,235,261537,1,2,0:0:0:0:
201,293,261665,2,0,P|172:273|131:256,1,69.6,2|0,3:2|3:2,0:0:0:0:
23,92,261920,2,0,P|31:126|47:162,1,69.6,10|0,0:0|0:0,0:0:0:0:
17,345,262175,22,0,P|47:327|86:311,1,69.6,2|2,3:2|0:0,0:0:0:0:
279,255,262431,2,0,P|243:297|218:377,1,139.2,8|2,0:0|3:2,0:0:0:0:
140,259,262814,1,2,0:0:0:0:
324,352,262941,1,10,0:0:0:0:
324,352,263197,85,2,3:2:0:0:
383,306,263324,1,2,0:0:0:0:
413,237,263452,1,10,0:0:0:0:
415,162,263580,1,2,0:0:0:0:
485,215,263707,21,2,3:2:0:0:
374,97,263835,1,2,3:2:0:0:
494,136,263963,85,10,0:0:0:0:
313,55,264090,1,2,0:0:0:0:
313,55,264154,1,2,0:0:0:0:
313,55,264218,22,0,P|254:75|179:84,1,130.5,4|0,3:2|0:0,0:0:0:0:
186,83,264473,2,0,P|157:114|115:139,1,87,10|0,0:0|0:0,0:0:0:0:
130,225,264729,1,2,3:2:0:0:
20,120,264856,1,2,3:2:0:0:
104,50,264984,1,10,0:0:0:0:
222,166,265112,1,2,0:0:0:0:
222,166,265239,86,0,P|266:158|327:135,1,87,6|0,3:2|0:0,0:0:0:0:
114,257,265495,2,0,P|73:268|25:289,1,87,10|0,0:0|0:0,0:0:0:0:
280,301,265750,22,0,P|324:314|374:335,1,87,2|2,3:2|3:2,0:0:0:0:
99,153,266005,2,0,P|57:139|12:115,1,87,10|2,0:0|0:0,0:0:0:0:
174,377,266261,86,0,P|179:336|195:287,1,87,2|0,3:2|0:0,0:0:0:0:
306,144,266516,1,10,0:0:0:0:
165,206,266644,1,2,0:0:0:0:
280,301,266771,1,2,3:2:0:0:
206,114,266899,1,2,3:2:0:0:
82,274,267027,1,10,0:0:0:0:
257,216,267154,1,2,0:0:0:0:
287,299,267282,22,0,P|282:340|269:390,1,87,2|0,3:2|0:0,0:0:0:0:
165,206,267537,1,10,0:0:0:0:
389,321,267665,86,0,P|383:277|367:230,1,87,2|0,0:0|3:2,0:0:0:0:
201,331,267920,1,2,3:2:0:0:
389,321,268048,21,10,0:0:0:0:
162,204,268175,1,2,3:2:0:0:
337,384,268303,86,0,P|397:360|481:348,1,130.5,6|0,3:2|0:0,0:0:0:0:
461,349,268558,2,0,P|479:297|501:262,1,87,10|0,0:0|0:0,0:0:0:0:
336,122,268814,1,2,3:2:0:0:
445,178,268941,1,2,3:2:0:0:
275,220,269069,1,10,0:0:0:0:
336,122,269197,1,2,0:0:0:0:
224,134,269324,22,0,P|185:153|133:164,1,87,2|0,3:2|0:2,0:0:0:0:
434,175,269580,2,0,P|472:153|522:136,1,87,10|2,0:0|0:0,0:0:0:0:
232,226,269835,86,0,P|210:267|199:314,1,87,2|0,3:2|3:2,0:0:0:0:
417,91,270090,2,0,P|435:53|449:-3,1,87,10|0,0:0|0:0,0:0:0:0:
299,175,270346,21,6,3:2:0:0:
450,269,270473,1,2,0:0:0:0:
331,97,270601,85,10,0:0:0:0:
351,271,270729,1,2,0:0:0:0:
482,164,270856,1,2,3:2:0:0:
375,190,270984,1,2,3:2:0:0:
451,269,271112,1,10,0:0:0:0:
482,164,271239,1,2,0:0:0:0:
297,334,271367,22,0,P|337:348|387:369,1,87,6|0,3:2|0:0,0:0:0:0:
375,190,271622,1,10,0:0:0:0:
178,252,271750,86,0,P|219:239|271:219,1,87,6|0,3:2|0:0,0:0:0:0:
11,319,272005,2,0,P|93:339|189:380,1,174,6|0,3:2|0:0,0:0:0:0:
175,373,272388,37,2,3:2:0:0:
80,111,272899,5,8,0:0:0:0:
284,228,273282,101,10,0:0:0:0:
293,195,273410,1,0,3:2:0:0:
441,276,273665,5,10,0:0:0:0:
398,154,273920,101,2,3:2:0:0:
472,196,274048,1,8,0:0:0:0:
472,196,274112,1,8,0:0:0:0:
472,196,274175,1,8,0:0:0:0:
339,296,274303,1,10,0:0:0:0:
284,227,274426,22,0,P|293:184|306:119,1,87,6|0,3:2|0:0,0:0:0:0:
483,352,274676,2,0,P|471:311|462:263,1,87,10|0,0:0|0:0,0:0:0:0:
263,378,274926,37,2,3:2:0:0:
361,281,275051,1,2,3:2:0:0:
196,199,275176,2,0,B|193:241|193:241|210:282,1,87,10|0,0:0|0:0,0:0:0:0:
284,227,275426,70,0,B|252:238|222:242|222:242|195:271|195:271|156:279|118:292,1,174,2|8,3:2|0:0,0:0:0:0:
5,165,275801,1,2,0:0:0:0:
109,186,275926,1,2,3:2:0:0:
39,259,276051,1,2,3:2:0:0:
68,105,276176,1,10,0:0:0:0:
202,199,276301,1,2,0:0:0:0:
202,199,276363,1,2,0:0:0:0:
202,199,276426,38,0,P|191:243|184:293,1,87,6|0,3:2|0:0,0:0:0:0:
339,367,276676,1,10,0:0:0:0:
397,310,276801,70,0,P|389:269|375:219,1,87,2|2,0:0|3:2,0:0:0:0:
202,371,277051,1,2,3:2:0:0:
291,251,277176,1,10,0:0:0:0:
276,329,277301,1,2,0:0:0:0:
105,173,277426,38,0,P|146:131|263:125,1,174,4|8,3:2|0:0,0:0:0:0:
309,175,277801,1,2,0:0:0:0:
311,64,277926,69,2,3:2:0:0:
202,199,278051,1,2,3:2:0:0:
139,92,278176,37,10,0:0:0:0:
316,180,278301,1,2,0:0:0:0:
123,300,278426,70,0,P|80:311|32:327,1,87,6|0,3:2|0:0,0:0:0:0:
222,117,278676,2,0,P|180:105|129:88,1,87,10|0,0:0|0:0,0:0:0:0:
266,255,278926,38,0,B|366:235|343:315|448:294,1,174,2|10,3:2|0:0,0:0:0:0:
326,353,279301,1,2,0:2:0:0:
342,142,279426,70,0,B|359:183|359:183|356:240,1,87,2|0,3:2|0:0,0:0:0:0:
432,384,279676,1,10,0:0:0:0:
512,272,279801,2,0,L|427:290,1,87,2|0,0:0|3:2,0:0:0:0:
230,329,280051,1,2,3:2:0:0:
356,225,280176,1,10,0:0:0:0:
319,374,280301,1,2,0:0:0:0:
205,202,280426,38,0,P|216:159|224:103,1,87,6|0,3:2|0:0,0:0:0:0:
305,21,280676,1,10,0:0:0:0:
117,91,280801,1,2,3:2:0:0:
342,142,280926,69,12,0:0:0:0:
204,1,281051,1,2,3:2:0:0:
205,202,281176,1,10,0:0:0:0:
432,105,281301,1,2,3:2:0:0:
301,39,281426,38,0,B|306:83|306:83|322:129,1,87,10|0,0:0|3:2,0:0:0:0:
462,349,281676,2,0,B|475:310|475:310|477:254,1,87,10|0,0:0|3:2,0:0:0:0:
512,166,281926,69,6,3:2:0:0:
387,286,282051,1,8,0:0:0:0:
387,286,282113,1,8,0:0:0:0:
387,286,282176,1,8,0:0:0:0:
291,217,282301,1,10,0:0:0:0:
231,280,282426,38,0,L|135:306,1,87,6|2,3:2|0:0,0:0:0:0:
53,382,282676,1,10,0:0:0:0:
110,207,282801,1,2,0:0:0:0:
35,239,282926,69,2,3:2:0:0:
147,302,283051,1,0,3:2:0:0:
196,209,283176,2,0,P|185:166|168:119,1,87,10|0,0:0|0:0,0:0:0:0:
147,302,283426,38,0,P|188:312|240:332,1,87,2|0,3:2|0:2,0:2:0:0:
110,207,283676,1,10,0:0:0:0:
271,135,283801,70,0,P|315:123|373:103,1,87,2|0,0:0|3:2,0:0:0:0:
261,251,284051,1,2,3:2:0:0:
190,43,284176,1,10,0:0:0:0:
271,135,284301,1,2,0:0:0:0:
86,134,284426,38,0,P|42:123|-10:103,1,87,2|0,3:2|0:0,0:0:0:0:
147,302,284676,1,10,0:0:0:0:
170,125,284801,70,0,P|179:169|194:221,1,87,2|0,0:0|3:2,0:0:0:0:
65,372,285051,1,0,3:2:0:0:
232,339,285176,37,10,0:0:0:0:
59,282,285301,1,2,0:0:0:0:
59,282,285363,1,2,0:0:0:0:
59,282,285426,2,0,B|89:293|120:299|120:299|147:333|147:333|183:342|218:355,1,174,4|10,3:2|0:0,0:0:0:0:
385,252,285801,1,2,0:0:0:0:
311,215,285926,1,2,3:2:0:0:
403,332,286051,69,8,0:0:0:0:
339,139,286176,1,10,0:0:0:0:
200,266,286301,1,10,0:0:0:0:
316,243,286426,37,4,3:2:0:0:
316,243,286551,1,0,3:2:0:0:
151,72,287426,69,4,3:2:0:0:
151,72,287551,1,0,3:2:0:0:
105,146,287676,101,10,0:0:0:0:
235,82,287926,1,10,0:0:0:0:
193,156,288176,101,0,3:2:0:0:
151,72,288301,1,10,0:0:0:0:
193,156,288426,1,0,3:2:0:0:
83,22,288551,5,10,0:0:0:0:
261,199,288676,2,0,P|253:245|243:286,1,87,6|8,3:2|0:0,0:0:0:0:
235,81,288926,102,0,P|276:66|339:54,1,87,6|8,3:2|0:0,0:0:0:0:
153,238,289176,1,8,0:0:0:0:
153,238,289238,1,8,0:0:0:0:
153,238,289301,1,8,0:0:0:0:
153,238,289363,1,8,0:0:0:0:
153,238,289426,22,0,P|86:228|7:140,1,174,6|10,3:2|0:0,0:0:0:0:
168,18,289826,1,2,0:0:0:0:
235,81,289959,2,0,P|196:98|151:110,1,87,2|0,3:2|3:2,0:0:0:0:
261,199,290226,2,0,P|305:210|348:233,1,87,10|2,0:0|0:0,0:0:0:0:
417,181,290492,53,2,3:2:0:0:
349,320,290626,1,2,3:2:0:0:
426,268,290759,1,10,0:0:0:0:
438,357,290892,1,2,3:2:0:0:
341,229,291026,2,0,P|300:245|258:256,1,87,2|0,0:0|3:2,0:0:0:0:
424,187,291292,2,0,P|432:144|447:98,1,87,10|2,0:0|0:0,0:0:0:0:
445,102,291492,1,2,0:0:0:0:
445,102,291559,54,0,P|386:97|321:45,1,130.5,2|0,3:2|0:0,0:0:0:0:
268,10,291826,2,0,P|226:25|158:39,1,87,10|0,0:0|0:0,0:0:0:0:
44,127,292092,1,2,3:2:0:0:
192,172,292226,1,2,3:2:0:0:
99,202,292359,1,10,0:0:0:0:
130,109,292492,1,2,0:0:0:0:
251,229,292626,53,2,3:2:0:0:
230,319,292759,1,0,3:2:0:0:
328,208,292892,1,10,0:0:0:0:
163,263,293026,2,0,P|148:306|141:353,1,87,2|2,3:2|0:0,0:0:0:0:
99,202,293292,1,2,3:2:0:0:
230,319,293426,1,10,0:0:0:0:
58,384,293559,1,2,0:0:0:0:
163,263,293692,54,0,P|245:285|333:346,1,174,6|10,3:2|0:0,0:0:0:0:
458,219,294092,1,2,0:0:0:0:
408,291,294226,1,2,3:2:0:0:
331,126,294359,1,2,3:2:0:0:
424,149,294492,1,10,0:0:0:0:
323,231,294626,1,2,0:0:0:0:
323,231,294692,1,2,0:0:0:0:
323,231,294759,54,0,P|279:219|239:191,1,87,2|2,3:2|3:2,0:0:0:0:
408,291,295026,1,10,0:0:0:0:
331,126,295159,1,2,3:2:0:0:
166,262,295292,2,0,P|126:274|80:305,1,87,2|0,0:0|3:2,0:0:0:0:
162,346,295559,53,10,0:0:0:0:
0,221,295692,1,2,0:0:0:0:
0,221,295759,1,2,0:0:0:0:
0,221,295826,2,0,P|77:253|181:262,1,174,2|10,3:2|0:2,0:0:0:0:
244,196,296226,1,2,0:0:0:0:
241,306,296359,53,2,3:2:0:0:
179,138,296492,1,2,3:2:0:0:
89,218,296626,1,10,0:0:0:0:
144,0,296759,1,2,0:0:0:0:
224,54,296892,53,2,3:2:0:0:
95,96,297026,1,2,3:2:0:0:
193,179,297159,1,10,0:0:0:0:
322,136,297292,2,0,P|335:96|342:48,1,87,2|2,3:2|0:2,0:2:0:0:
169,110,297559,1,2,3:2:0:0:
277,227,297692,1,10,0:0:0:0:
281,0,297826,1,10,0:0:0:0:
169,110,297959,54,0,P|147:197|134:281,1,174,6|10,3:2|0:0,0:0:0:0:
0,93,298359,1,2,0:0:0:0:
73,143,298492,2,0,P|66:188|55:238,1,87,2|0,3:2|3:2,0:0:0:0:
115,363,298759,1,10,0:0:0:0:
219,289,298892,1,2,0:0:0:0:
297,346,299026,54,0,P|302:304|315:248,1,87,2|0,3:2|3:2,0:0:0:0:
169,110,299292,1,10,0:0:0:0:
267,165,299426,1,2,3:2:0:0:
186,195,299559,1,2,0:0:0:0:
253,75,299692,1,2,3:2:0:0:
375,143,299826,1,10,0:0:0:0:
311,260,299959,1,2,0:0:0:0:
311,260,300092,54,0,P|304:216|290:166,1,87,2|0,3:2|3:2,0:0:0:0:
225,0,300359,2,0,P|297:46|391:59,1,174,10|2,0:0|3:2,0:0:0:0:
186,195,300759,1,2,3:2:0:0:
253,75,300892,1,10,0:0:0:0:
171,111,301026,1,2,0:0:0:0:
293,175,301159,1,2,3:2:0:0:
135,297,301292,1,2,3:2:0:0:
253,251,301426,1,10,0:0:0:0:
186,195,301559,1,2,3:2:0:0:
225,350,301692,1,2,0:0:0:0:
334,244,301826,1,0,3:2:0:0:
244,269,301959,1,10,0:0:0:0:
397,321,302092,1,2,0:0:0:0:
397,321,302159,1,2,0:0:0:0:
397,321,302226,54,0,P|427:261|419:131,2,174,6|10|2,3:2|0:0|3:2,0:0:0:0:
225,350,302892,1,2,3:2:0:0:
95,213,303026,2,0,P|101:174|124:126,1,87,10|0,0:0|0:0,0:0:0:0:
186,195,303292,53,2,3:2:0:0:
39,279,303426,1,2,3:2:0:0:
226,350,303559,2,0,P|239:307|244:256,1,87,10|0,0:0|3:2,0:0:0:0:
158,290,303826,53,0,0:0:0:0:
318,339,303959,1,2,3:2:0:0:
271,184,304092,1,10,0:0:0:0:
253,273,304226,53,2,0:0:0:0:
253,273,304292,1,2,0:0:0:0:
253,273,304359,2,0,P|298:265|359:245,1,87,2|0,3:2|3:2,0:0:0:0:
170,109,304626,2,0,P|175:154|187:200,1,87,10|0,0:0|0:0,0:0:0:0:
396,111,304892,2,0,P|362:65|241:27,1,174,2|10,3:2|0:0,0:0:0:0:
349,174,305292,1,2,0:0:0:0:
255,25,305426,54,0,P|298:17|344:3,1,87,2|2,3:2|3:2,0:0:0:0:
185,194,305692,2,0,P|142:205|97:222,1,87,10|0,0:0|3:2,0:0:0:0:
268,120,305959,53,2,3:2:0:0:
168,82,306092,1,2,3:2:0:0:
268,120,306226,1,10,0:0:0:0:
379,163,306359,1,2,0:0:0:0:
379,163,306426,1,2,0:0:0:0:
379,163,306492,54,0,P|403:243|407:338,1,174,6|10,3:2|0:0,0:0:0:0:
489,233,306892,1,2,0:0:0:0:
326,384,307026,2,0,P|315:344|317:293,1,87,2|0,3:2|3:2,0:0:0:0:
200,206,307292,1,10,0:0:0:0:
200,206,307359,1,2,0:0:0:0:
200,206,307426,1,2,0:0:0:0:
200,206,307492,1,2,0:0:0:0:
200,206,307559,54,0,P|157:191|112:181,1,87,6|0,3:2|3:2,0:0:0:0:
200,206,307826,2,0,P|244:197|288:181,1,87,10|0,0:0|3:2,0:0:0:0:
116,181,308092,54,0,P|76:208|43:238,1,87,10|0,0:0|3:2,0:0:0:0:
283,182,308359,2,0,P|307:150|336:102,1,87,8|0,0:0|3:2,0:0:0:0:
47,233,308626,54,0,P|41:276|39:329,1,87,10|0,0:0|3:2,0:0:0:0:
331,110,308892,2,0,P|336:66|338:12,1,87,8|0,0:0|3:2,0:0:0:0:
337,23,309092,1,0,3:2:0:0:
337,23,309159,1,12,0:0:0:0:
250,88,309292,1,2,0:0:0:0:
403,168,309426,1,10,0:0:0:0:
403,168,309559,1,2,0:0:0:0:
352,238,309692,21,2,3:2:0:0:
352,238,310759,5,2,3:2:0:0:
352,238,311826,101,2,3:2:0:0:
309,301,312359,1,2,0:0:0:0:
352,238,312892,5,2,3:2:0:0:
414,283,313426,1,2,0:0:0:0:
352,238,313959,101,2,3:2:0:0:
340,163,314226,1,2,0:0:0:0:
187,342,314492,5,10,0:0:0:0:
191,330,314759,1,2,0:0:0:0:
61,215,315026,101,2,3:2:0:0:
78,290,315292,1,2,0:0:0:0:
251,115,315559,5,10,0:0:0:0:
218,232,315826,1,10,0:0:0:0:
187,341,316092,101,2,3:2:0:0:
347,196,316359,5,10,0:0:0:0:
135,158,316626,1,10,0:0:0:0:
135,158,316692,1,8,0:0:0:0:
135,158,316759,1,8,0:0:0:0:
135,158,316826,1,8,0:0:0:0:
135,158,316892,1,10,0:0:0:0:
135,158,316959,1,10,0:0:0:0:
135,158,317026,1,10,0:0:0:0:
135,158,317092,1,10,0:0:0:0:
135,158,317159,1,6,3:2:0:0:
135,158,318226,54,0,B|176:152|224:142|224:142|228:180|246:206,1,148.76999818396,6|0,3:2|0:0,0:0:0:0:
248,203,318520,1,10,0:0:0:0:
164,67,318667,1,0,3:2:0:0:
306,107,318814,5,10,0:0:0:0:
119,214,318961,2,0,L|132:160,2,49.5899993946533,0|0|8,3:2|0:2|0:0,0:0:0:0:
57,119,319255,101,2,3:2:0:0:
261,298,319402,2,0,B|266:251|266:251|247:202,1,99.1799987893067,6|2,3:2|0:0,0:0:0:0:
40,311,319696,1,10,0:0:0:0:
168,270,319843,1,2,3:2:0:0:
23,227,319990,5,10,0:0:0:0:
151,384,320137,1,2,3:2:0:0:
247,202,320284,1,10,0:0:0:0:
144,282,320431,1,2,3:2:0:0:
281,322,320578,102,0,B|321:314|321:314|384:337|384:337|448:326,1,148.76999818396,6|0,3:2|0:0,0:0:0:0:
439,327,320873,1,10,0:0:0:0:
381,242,321020,1,0,3:2:0:0:
503,265,321167,5,10,0:0:0:0:
350,368,321314,1,2,3:2:0:0:
467,347,321461,102,0,L|521:368,2,49.5899993946533,8|0|0,0:0|0:2|3:2,0:0:0:0:
220,159,321755,6,0,B|250:105|330:130|326:189|326:189|306:205|305:236,1,198.359997578613,6|8,3:2|0:0,0:0:0:0:
512,111,322196,1,2,3:2:0:0:
381,242,322343,102,0,P|433:232|453:183,1,99.1799987893067,10|0,0:0|3:2,0:0:0:0:
271,7,322637,2,0,P|280:31|288:69,1,49.5899993946533,10|0,0:0|0:0,0:0:0:0:
318,127,322784,2,0,P|326:105|333:68,1,49.5899993946533,2|0,3:2|0:0,0:0:0:0:
84,175,322931,6,0,B|65:211|90:248|90:248|131:267|136:326,1,148.76999818396,6|0,3:2|0:0,0:0:0:0:
147,325,323226,2,0,L|45:351,1,99.1799987893067,10|0,0:0|0:0,0:0:0:0:
194,206,323520,1,2,3:2:0:0:
194,206,323667,1,2,0:0:0:0:
84,175,323814,101,10,0:0:0:0:
294,235,323961,1,2,0:0:0:0:
147,325,324108,1,2,3:2:0:0:
209,124,324255,1,2,0:0:0:0:
179,224,324402,5,10,0:0:0:0:
127,44,324549,1,10,0:0:0:0:
316,100,324696,2,0,B|314:151|314:151|289:201,1,99.1799987893067,2|0,3:2|0:0,0:0:0:0:
103,138,324990,2,0,B|105:87|105:87|130:37,1,99.1799987893067,10|2,0:2|0:0,0:0:0:0:
179,224,325284,102,0,B|201:304|161:283|184:360,1,132.239998385742,2|2,3:2|0:0,0:0:0:0:
255,321,325578,2,0,P|287:307|330:295,2,66.1199991928711,10|0|0,0:0|0:0|0:0,0:0:0:0:
104,262,325873,2,0,P|75:245|36:230,1,66.1199991928711,2|2,3:2|0:0,0:0:0:0:
19,233,326069,1,2,0:0:0:0:
237,167,326167,6,0,P|256:197|257:238,1,66.1199991928711,10|0,0:0|0:0,0:0:0:0:
181,224,326363,1,2,0:0:0:0:
65,384,326461,102,0,P|73:321|110:251,1,132.239998385742,2|0,3:2|0:0,0:0:0:0:
173,227,326755,1,10,0:0:0:0:
36,27,326951,5,2,0:0:0:0:
132,24,327049,2,0,B|108:19|108:19|65:31|65:31|36:27,1,99.1799987893067,8|8,0:2|0:2,0:0:0:0:
199,101,327343,101,10,0:0:0:0:
8,139,327490,1,10,0:0:0:0:
8,139,327564,1,10,0:0:0:0:
8,139,327637,2,0,B|41:155|78:159|78:159|107:205|107:205|145:209|187:230,1,198.359997578613,6|8,3:2|0:0,0:0:0:0:
319,344,328078,5,2,0:0:0:0:
411,275,328226,2,0,B|431:320|431:320|432:373,1,99.1799987893067,2|0,3:2|3:2,0:0:0:0:
314,237,328520,101,10,0:0:0:0:
512,323,328667,1,2,0:0:0:0:
438,194,328814,5,2,3:2:0:0:
305,373,328961,2,0,L|292:315,1,49.5899993946533,2|2,0:0|0:0,0:0:0:0:
174,224,329108,102,0,P|109:220|53:285,1,148.76999818396,10|0,0:0|0:0,0:0:0:0:
52,287,329402,1,2,3:2:0:0:
191,212,329549,1,0,3:2:0:0:
48,110,329696,6,0,P|9:148|11:196,1,99.1799987893067,10|0,0:0|0:0,0:0:0:0:
267,108,329990,2,0,P|241:52|147:25,1,148.76999818396,6|0,3:2|0:0,0:0:0:0:
153,29,330284,1,10,0:0:0:0:
302,329,330431,101,2,0:0:0:0:
302,329,330505,1,2,0:0:0:0:
302,329,330578,2,0,P|348:311|403:304,1,99.1799987893067,6|0,3:2|3:2,0:0:0:0:
144,344,330873,2,0,P|191:363|246:380,1,99.1799987893067,10|0,0:0|0:0,0:0:0:0:
381,197,331167,6,0,P|427:216|476:227,1,99.1799987893067,6|0,3:2|3:2,0:0:0:0:
65,289,331461,2,0,P|109:267|156:253,1,99.1799987893067,10|0,0:0|0:0,0:0:0:0:
365,384,331755,101,2,3:2:0:0:
272,224,331902,1,2,3:2:0:0:
302,329,332049,5,10,0:0:0:0:
376,111,332196,1,10,0:0:0:0:
376,111,332270,1,8,0:0:0:0:
376,111,332343,102,0,P|345:121|294:130,1,64.3800015717774,6|2,3:2|0:0,0:0:0:0:
127,34,332637,2,0,P|158:47|193:57,1,64.3800015717774,2|0,3:2|0:0,0:0:0:0:
99,170,332931,6,0,P|128:156|164:143,1,64.3800015717774,2|0,3:2|3:2,0:0:0:0:
158,144,333152,1,0,3:2:0:0:
158,144,333226,1,0,3:2:0:0:
286,62,333373,1,2,3:2:0:0:
286,62,333520,102,0,P|266:125|258:198,1,128.760003143555,2|2,3:2|3:2,0:0:0:0:
304,247,333961,1,2,0:0:0:0:
448,183,334108,6,0,P|418:195|370:207,1,64.3800015717774,2|0,3:2|3:2,0:0:0:0:
307,255,334328,1,2,0:0:0:0:
307,255,334402,2,0,P|340:265|381:295,1,64.3800015717774,2|0,3:2|0:0,0:0:0:0:
424,347,334696,101,6,3:2:0:0:
338,142,334990,1,2,3:2:0:0:
490,298,335284,5,2,3:2:0:0:
365,280,335431,1,2,0:0:0:0:
303,384,335578,1,2,3:2:0:0:
100,145,335873,101,10,0:0:0:0:
168,208,336020,1,2,3:2:0:0:
191,113,336167,1,10,0:0:0:0:
89,130,336314,5,2,3:2:0:0:
161,234,336461,1,10,0:2:0:0:
228,118,336608,1,2,3:2:0:0:
73,112,336755,101,10,0:0:0:0:
154,258,336902,6,0,B|155:272|155:272|149:282|149:282|146:269|146:269|152:258,1,49.5899993946533,2|2,3:2|3:2,0:0:0:0:
266,125,337049,22,0,B|341:109|303:67|408:53,1,153.120004672852,12|2,0:0|0:0,0:0:0:0:
398,54,337931,2,0,L|411:97,1,38.2800011682129,2|0,0:0|0:0,0:0:0:0:
496,174,338226,70,0,B|449:172|417:122|417:122|406:183|353:217,1,198.359997578613,6|10,3:2|0:0,0:0:0:0:
254,42,338667,5,2,3:2:0:0:
113,112,338814,1,10,0:0:0:0:
254,42,338961,102,0,P|246:66|239:99,1,49.5899993946533,0|0,3:2|0:2,0:0:0:0:
278,243,339108,1,10,0:0:0:0:
117,117,339255,6,0,P|126:139|132:168,1,49.5899993946533,2|0,3:2|0:0,0:0:0:0:
278,243,339402,2,0,B|194:225|208:287|119:271,1,148.76999818396,6|0,3:2|0:0,0:0:0:0:
123,282,339696,101,10,0:0:0:0:
221,163,339843,1,2,3:2:0:0:
358,357,339990,6,0,P|313:343|261:334,1,99.1799987893067,10|0,0:0|0:0,0:0:0:0:
30,205,340284,2,0,P|80:194|133:174,1,99.1799987893067,10|0,0:0|3:2,0:0:0:0:
387,0,340578,102,0,P|332:35|306:120,1,148.76999818396,6|2,3:2|0:0,0:0:0:0:
309,125,340873,2,0,P|336:138|366:146,1,49.5899993946533,10|0,0:0|0:0,0:0:0:0:
454,230,341020,1,2,3:2:0:0:
229,325,341167,6,0,P|251:312|294:300,1,49.5899993946533,10|0,0:0|0:0,0:0:0:0:
454,230,341314,1,2,3:2:0:0:
344,228,341461,101,10,0:0:0:0:
511,312,341608,1,2,3:2:0:0:
344,228,341755,6,0,B|270:235|294:185|181:202,1,148.76999818396,6|0,3:2|0:0,0:0:0:0:
184,190,342049,1,10,0:0:0:0:
273,304,342196,1,2,3:2:0:0:
258,97,342343,1,10,0:0:0:0:
83,209,342490,1,2,3:2:0:0:
216,204,342637,101,10,0:0:0:0:
200,191,342784,1,0,3:2:0:0:
194,208,342931,1,6,3:2:0:0:
203,201,343226,6,0,P|252:212|304:230,1,99.1799987893067,10|0,0:0|0:0,0:0:0:0:
67,334,343520,2,0,P|113:315|167:299,1,99.1799987893067,2|0,3:2|0:0,0:0:0:0:
390,262,343814,102,0,P|343:248|297:227,1,99.1799987893067,10|0,0:0|0:0,0:0:0:0:
495,119,344108,2,0,P|450:140|393:155,1,99.1799987893067,2|0,3:2|0:0,0:0:0:0:
203,201,344402,5,10,0:0:0:0:
314,339,344549,1,10,0:0:0:0:
203,201,344696,102,0,P|155:183|101:170,1,99.1799987893067,2|0,3:2|0:0,0:0:0:0:
390,262,344990,2,0,P|437:279|492:293,1,99.1799987893067,10|0,0:2|0:0,0:0:0:0:
108,171,345284,6,0,P|59:187|-13:223,1,99.1799987893067,2|2,3:2|0:0,0:0:0:0:
282,110,345578,1,10,0:0:0:0:
203,201,345726,1,2,0:0:0:0:
72,49,345873,102,0,P|115:68|169:81,1,99.1799987893067,2|0,3:2|0:0,0:0:0:0:
286,273,346167,2,0,P|238:287|194:310,1,99.1799987893067,10|0,0:2|0:2,0:2:0:0:
384,192,346461,5,2,3:2:0:0:
185,324,346755,101,10,0:0:0:0:
165,80,347049,5,2,3:2:0:0:
384,192,347196,101,10,0:0:0:0:
185,324,347343,1,10,0:0:0:0:
165,80,347490,1,10,0:0:0:0:
250,185,347637,6,0,P|169:215|56:212,1,198.359997578613,6|10,3:2|0:0,0:0:0:0:
185,324,348078,1,2,0:0:0:0:
0,384,348226,102,0,P|24:348|76:321,1,99.1799987893067,2|0,3:2|3:2,0:0:0:0:
271,273,348520,2,0,P|316:298|351:345,1,99.1799987893067,10|0,0:0|0:0,0:0:0:0:
152,186,348814,6,0,P|142:137|130:89,1,99.1799987893067,2|0,3:2|0:0,0:0:0:0:
94,21,349034,1,2,0:0:0:0:
140,78,349108,2,0,P|151:118|163:180,1,99.1799987893067,10|0,0:0|0:0,0:0:0:0:
72,321,349402,101,2,3:2:0:0:
271,273,349549,1,2,3:2:0:0:
58,212,349696,5,10,0:0:0:0:
240,384,349843,1,10,0:0:0:0:
268,284,349990,102,0,B|165:253|176:351|67:318,1,198.359997578613,6|10,3:2|0:0,0:0:0:0:
163,174,350431,1,2,0:0:0:0:
86,130,350578,5,6,3:2:0:0:
190,255,350726,1,2,3:2:0:0:
253,104,350873,2,0,B|247:56|247:56|221:5,1,99.1799987893067,10|0,0:0|0:0,0:0:0:0:
86,130,351167,102,0,B|63:175|63:175|67:224,1,99.1799987893067,6|0,3:2|0:0,0:0:0:0:
237,376,351461,2,0,L|339:348,1,99.1799987893067,10|0,0:0|0:0,0:0:0:0:
450,258,351755,5,6,3:2:0:0:
346,213,351902,1,2,3:2:0:0:
488,184,352049,101,10,0:0:0:0:
341,356,352196,1,8,0:0:0:0:
341,356,352270,1,8,0:0:0:0:
341,356,352343,6,0,P|330:326|321:274,1,64.3800015717774,6|0,3:2|0:0,0:0:0:0:
229,142,352637,2,0,P|214:174|208:207,1,64.3800015717774,2|0,3:2|0:0,0:0:0:0:
138,300,352931,102,0,P|171:293|209:272,1,64.3800015717774,2|0,3:2|0:0,0:0:0:0:
383,204,353226,2,0,P|355:188|304:177,1,64.3800015717774,2|0,3:2|0:0,0:0:0:0:
153,89,353520,6,0,P|165:140|217:210,1,128.760003143555,2|0,3:2|3:2,0:0:0:0:
323,294,353961,1,2,0:0:0:0:
138,300,354108,102,0,P|107:321|84:350,1,64.3800015717774,2|0,3:2|0:0,0:0:0:0:
324,179,354402,2,0,P|337:150|345:110,1,64.3800015717774,2|2,3:2|0:2,0:0:0:0:
215,222,354696,6,0,L|238:360,1,128.760003143555,6|2,3:2|3:2,0:0:0:0:
138,300,355137,1,2,0:0:0:0:
108,372,355284,1,2,3:2:0:0:
36,256,355431,1,2,0:0:0:0:
236,349,355578,102,0,P|268:358|321:378,1,64.3800015717774,2|0,3:2|0:0,0:0:0:0:
151,143,355873,2,0,P|119:157|56:171,1,90.4799994477539,6|2,3:2|0:0,0:0:0:0:
215,222,356167,5,10,0:0:0:0:
261,70,356314,1,0,3:2:0:0:
351,163,356461,101,10,0:0:0:0:
388,281,356608,1,2,3:2:0:0:
471,218,356755,5,10,0:0:0:0:
500,123,356902,1,2,3:2:0:0:
500,123,356976,1,2,3:2:0:0:
500,123,357049,102,0,B|497:168|497:168|478:220,1,90.4799994477539,6|0,3:2|0:0,0:0:0:0:
314,343,357343,2,0,B|295:304|295:304|296:256,1,90.4799994477539,10|0,0:0|3:2,0:0:0:0:
180,94,357637,1,8,3:2:0:0:
180,94,357711,1,0,3:2:0:0:
180,94,357784,1,8,3:0:0:0:
180,94,357858,1,8,3:0:0:0:
180,94,357931,1,8,0:0:0:0:
238,85,358005,1,8,0:0:0:0:
286,108,358078,1,8,0:0:0:0:
311,145,358152,1,8,0:0:0:0:
317,187,358226,38,0,P|285:198|241:217,1,58.2899972427522,6|0,3:2|0:0,0:0:0:0:
75,334,358373,2,0,P|116:358|180:372,1,90.4799994477539,2|8,0:0|0:0,0:0:0:0:
157,369,358814,5,2,3:2:0:0:
121,210,358961,1,8,0:0:0:0:
121,210,359034,1,8,0:0:0:0:
121,210,359108,1,0,3:2:0:0:
74,302,359255,1,10,0:0:0:0:
252,112,359402,6,0,B|287:48|233:-22|151:30|176:103,1,214.020003265686,6|0,3:2|0:0,0:0:0:0:
205,171,359702,1,10,0:0:0:0:
263,241,359852,1,2,0:0:0:0:
263,241,359927,1,2,0:0:0:0:
263,241,360002,2,0,P|198:215|93:214,1,148.76999818396,2|0,3:2|0:0,0:0:0:0:
40,192,360302,102,0,P|43:223|59:267,1,58.2899972427522,10|0,0:0|0:0,0:0:0:0:
313,299,360452,2,0,P|331:273|340:245,1,58.2899972427522,2|0,0:0|0:0,0:0:0:0:
138,289,360602,6,0,P|172:319|226:305,1,99.1799987893067,2|0,3:2|0:0,0:0:0:0:
300,313,360827,1,2,0:0:0:0:
313,299,360902,2,0,P|390:308|460:358,1,148.76999818396,10|0,0:0|0:0,0:0:0:0:
461,358,361202,1,2,3:2:0:0:
414,206,361352,1,2,0:0:0:0:
512,252,361502,101,10,0:0:0:0:
313,299,361652,1,2,0:0:0:0:
384,133,361802,6,0,B|433:128|433:128|477:156,1,99.1799987893067,2|0,3:2|0:0,0:0:0:0:
414,206,362027,2,0,L|402:261,1,49.5899993946533,2|8,0:0|0:0,0:0:0:0:
193,57,362252,1,2,0:0:0:0:
272,104,362402,2,0,B|211:142|211:142|136:126,1,148.76999818396,2|0,3:2|0:0,0:0:0:0:
124,123,362702,1,10,0:0:0:0:
182,8,362852,102,0,L|195:71,1,49.5899993946533,2|0,0:0|0:0,0:0:0:0:
7,222,363002,2,0,B|87:198|87:198|97:238|114:260,1,148.76999818396,2|0,3:2|0:0,0:0:0:0:
124,268,363302,5,10,0:0:0:0:
227,305,363452,1,2,0:0:0:0:
336,220,363602,1,2,3:2:0:0:
336,220,363752,1,2,0:0:0:0:
170,148,363902,102,0,B|170:122|170:122|182:92,1,58.2899972427522,10|0,0:0|0:0,0:0:0:0:
336,220,364052,2,0,B|337:247|337:247|325:275,1,58.2899972427522,2|0,0:0|0:0,0:0:0:0:
242,222,364202,6,0,L|268:123,1,83.52,2|0,3:2|0:0,0:0:0:0:
337,86,364502,102,0,B|349:115|349:115|352:147,1,58.2899972427522,10|0,0:0|0:0,0:0:0:0:
168,279,364652,2,0,B|156:250|156:250|153:218,1,58.2899972427522,2|0,0:0|0:0,0:0:0:0:
263,141,364802,6,0,L|242:222,1,83.52,2|0,3:2|0:0,0:0:0:0:
87,145,365102,102,0,B|89:93|89:93|114:42,1,99.1799987893067,10|0,0:0|0:0,0:0:0:0:
416,220,365402,2,0,B|418:267|418:267|397:315,1,99.1799987893067,2|0,3:2|0:0,0:0:0:0:
77,328,365702,6,0,B|58:282|58:282|53:231,1,99.1799987893067,8|0,0:0|0:0,0:0:0:0:
431,40,366002,2,0,B|449:85|449:85|454:134,1,99.1799987893067,2|0,3:2|0:0,0:0:0:0:
241,221,366302,102,0,L|263:143,1,43.0649998685761,10|0,0:0|0:0,0:0:0:0:
264,138,366452,2,0,L|242:217,1,43.0649998685761,2|0,0:0|0:0,0:0:0:0:
309,282,366602,5,2,3:2:0:0:
309,282,366752,1,2,0:0:0:0:
156,228,366902,101,10,0:0:0:0:
156,228,367052,1,2,0:0:0:0:
357,145,367202,5,2,3:2:0:0:
357,145,367352,1,2,0:0:0:0:
201,77,367502,101,10,0:0:0:0:
201,77,367652,1,2,0:0:0:0:
380,231,367802,5,2,3:2:0:0:
252,179,367952,1,2,0:0:0:0:
210,308,368102,1,10,0:0:0:0:
347,359,368252,1,2,0:0:0:0:
255,186,368402,101,2,3:2:0:0:
112,131,368552,1,2,0:0:0:0:
163,0,368702,1,10,0:0:0:0:
291,49,368852,1,2,0:0:0:0:
210,308,369002,6,0,P|162:322|105:336,1,99.1799987893067,2|0,3:2|0:0,0:0:0:0:
380,231,369302,2,0,P|426:250|475:277,1,99.1799987893067,10|0,0:0|0:0,0:0:0:0:
112,131,369602,2,0,P|65:116|16:94,1,99.1799987893067,2|0,3:2|0:0,0:0:0:0:
291,49,369902,2,0,P|338:33|396:19,1,99.1799987893067,10|0,0:0|0:0,0:0:0:0:
235,195,370202,102,0,B|242:162|242:162|248:157|248:157|281:166|281:166|274:204|274:204|267:209|267:209|240:204,1,148.76999818396,6|0,3:2|0:0,0:0:0:0:
235,203,370502,1,2,3:2:0:0:
235,203,371402,5,6,3:2:0:0:
104,242,371552,1,2,3:2:0:0:
155,179,371702,101,10,0:0:0:0:
218,384,371852,1,2,3:2:0:0:
149,326,372002,6,0,P|195:310|248:299,1,99.1799987893067,2|2,3:2|3:2,0:0:0:0:
244,299,372227,1,2,3:2:0:0:
244,299,372302,1,10,0:0:0:0:
104,242,372452,1,0,3:2:0:0:
218,384,372602,1,2,3:2:0:0:
429,211,372752,102,0,P|399:222|354:232,1,66.9899986711579,10|0,0:0|0:0,0:0:0:0:
158,340,372902,1,2,3:2:0:0:
385,376,373052,6,0,P|353:360|309:349,1,66.9899986711579,10|0,0:0|0:0,0:0:0:0:
159,339,373202,1,0,3:2:0:0:
159,339,373277,1,0,3:2:0:0:
158,340,373352,102,0,P|127:353|74:367,1,66.9899986711579,10|8,0:2|0:2,0:0:0:0:
41,217,373502,6,0,P|71:232|107:242,1,66.9899986711579,2|0,3:2|0:0,0:0:0:0:
233,376,373652,102,0,P|237:343|248:301,1,66.9899986711579,10|0,0:0|0:0,0:0:0:0:
290,84,373802,5,2,3:2:0:0:
290,84,373952,1,2,3:2:0:0:
208,118,374102,101,10,0:0:0:0:
348,148,374252,1,2,3:2:0:0:
267,184,374402,5,2,3:2:0:0:
251,11,374552,1,0,3:2:0:0:
303,3,374627,1,0,3:2:0:0:
349,32,374702,1,8,0:0:0:0:
208,118,374852,1,0,3:2:0:0:
439,173,375002,101,2,3:2:0:0:
252,311,375152,6,0,P|284:299|325:290,1,66.9899986711579,10|0,0:0|0:0,0:0:0:0:
439,173,375302,1,2,3:2:0:0:
186,78,375452,102,0,P|217:91|253:99,1,66.9899986711579,10|0,0:0|0:0,0:0:0:0:
439,173,375602,1,2,3:2:0:0:
439,173,375677,1,0,3:2:0:0:
439,173,375752,6,0,B|424:168|424:168|390:175|390:175|372:193,1,66.9899986711579,8|8,0:0|0:0,0:0:0:0:
252,311,375902,2,0,B|239:323|239:323|208:329|208:329|185:320,1,66.9899986711579,0|0,3:2|0:2,0:0:0:0:
44,207,376052,102,0,B|61:204|61:204|64:221|64:221|49:225|49:225|44:208,1,66.9899986711579,10|0,0:0|0:0,0:0:0:0:
130,154,376202,6,0,P|137:195|149:242,1,81.7799987521363,6|0,3:2|0:0,0:0:0:0:
4,321,376502,2,0,P|43:310|92:299,1,81.7799987521363,2|0,3:2|0:0,0:0:0:0:
4,321,376802,1,2,3:2:0:0:
190,321,376952,2,0,P|228:337|268:347,1,81.7799987521363,2|0,0:0|3:2,0:0:0:0:
395,304,377252,1,2,0:0:0:0:
395,304,377327,1,2,0:0:0:0:
395,304,377402,102,0,P|433:290|484:279,1,81.7799987521363,2|0,3:2|0:0,0:0:0:0:
190,321,377702,2,0,P|228:337|268:347,1,81.7799987521363,2|0,3:2|0:0,0:0:0:0:
4,321,378002,2,0,P|43:310|92:299,1,81.7799987521363,2|0,3:2|0:0,0:0:0:0:
473,280,378302,2,0,P|433:289|395:304,1,81.7799987521363,2|0,3:2|0:0,0:0:0:0:
182,174,378602,6,0,P|162:138|170:88,1,81.7799987521363,2|0,3:2|0:0,0:0:0:0:
250,80,378902,2,0,P|270:116|262:166,1,81.7799987521363,2|0,3:2|0:0,0:0:0:0:
67,107,379202,102,0,P|69:67|102:24,1,81.7799987521363,2|0,3:2|0:0,0:0:0:0:
359,202,379502,2,0,P|284:194|200:252,1,174.869991728257,10|0,0:0|0:0,0:0:0:0:
124,255,379802,2,0,P|147:299|181:321,1,64.3800015717774,2|0,3:2|0:0,0:0:0:0:
326,373,380102,6,0,P|337:292|364:182,1,174.869991728257,10|0,0:0|0:0,0:0:0:0:
413,142,380402,2,0,P|431:169|439:212,1,64.3800015717774,0|0,3:2|3:2,0:0:0:0:
251,321,380702,1,10,0:0:0:0:
383,280,380852,101,2,0:0:0:0:
395,287,380927,1,2,0:0:0:0:
404,302,381002,1,2,0:0:0:0:
154,65,382202,101,0,3:2:0:0:
84,99,382352,1,0,3:2:0:0:
150,145,382502,1,0,3:2:0:0:
157,155,382577,1,0,3:2:0:0:
164,166,382652,1,0,3:2:0:0:
169,179,382727,1,0,3:2:0:0:
174,194,382802,1,0,3:2:0:0:
178,212,382877,1,0,3:2:0:0:
179,229,382952,1,0,3:2:0:0:
178,245,383027,1,0,3:2:0:0:
175,256,383102,118,0,P|147:273|108:290,1,64.3800015717774,10|2,0:0|0:0,0:0:0:0:
263,35,383402,22,0,P|295:42|321:63,1,62.6400015292969,6|0,3:2|0:0,0:0:0:0:
390,177,383552,2,0,P|422:169|452:146,1,62.6400015292969,2|0,3:2|0:0,0:0:0:0:
511,60,383702,1,10,0:0:0:0:
299,163,383852,102,0,P|302:195|318:228,1,62.6400015292969,2|0,3:2|0:0,0:0:0:0:
451,330,384002,1,2,3:2:0:0:
169,384,384152,6,0,P|195:371|236:363,1,62.6400015292969,2|0,3:2|3:2,0:0:0:0:
451,330,384302,1,10,0:0:0:0:
377,283,384452,102,0,B|363:313|363:313|365:348,1,62.6400015292969,2|0,3:2|0:0,0:0:0:0:
451,330,384602,2,0,L|244:289,1,187.920004587891,2|0,3:2|0:0,0:0:0:0:
253,292,384902,1,2,3:2:0:0:
21,153,385052,6,0,B|47:136|47:136|99:139,1,62.6400015292969,10|0,0:0|0:0,0:0:0:0:
163,205,385202,1,0,3:2:0:0:
163,205,385277,1,0,3:2:0:0:
163,205,385352,2,0,L|143:274,1,62.6400015292969,8|8,0:0|0:0,0:0:0:0:
36,296,385502,2,0,L|23:225,1,62.6400015292969,2|0,3:2|0:0,0:0:0:0:
192,347,385652,2,0,B|162:362|162:362|122:360,1,62.6400015292969,10|0,0:0|0:0,0:0:0:0:
24,234,385802,101,2,3:2:0:0:
145,265,385952,1,2,3:2:0:0:
266,293,386102,1,10,0:0:0:0:
132,359,386252,6,0,P|142:328|148:292,1,62.6400015292969,2|0,3:2|0:0,0:0:0:0:
283,157,386402,1,2,3:2:0:0:
423,314,386552,102,0,P|410:285|402:248,1,62.6400015292969,2|2,3:2|3:2,0:0:0:0:
283,157,386702,1,10,0:0:0:0:
264,234,386852,6,0,B|299:236|299:236|343:216,1,62.6400015292969,2|0,3:2|0:0,0:0:0:0:
329,75,387002,2,0,B|265:66|265:66|195:103,1,125.280003058594,0|10,3:2|0:0,0:0:0:0:
317,348,387302,1,2,3:2:0:0:
188,181,387452,102,0,B|174:211|174:211|173:248,1,62.6400015292969,10|0,0:0|0:0,0:0:0:0:
392,315,387602,1,0,3:2:0:0:
392,315,387677,1,0,3:2:0:0:
392,315,387752,2,0,B|402:287|402:287|403:248,1,62.6400015292969,8|8,0:0|0:0,0:0:0:0:
446,129,387902,6,0,P|418:141|370:155,1,62.6400015292969,2|0,3:2|0:0,0:0:0:0:
162,343,388052,2,0,P|190:332|234:319,1,62.6400015292969,10|0,0:0|0:0,0:0:0:0:
324,214,388202,101,2,3:2:0:0:
317,220,388277,1,2,0:0:0:0:
307,225,388352,1,2,3:2:0:0:
292,226,388427,1,2,0:0:0:0:
282,223,388502,6,0,L|261:151,1,62.6400015292969,10|2,0:0|0:0,0:0:0:0:
148,31,388652,2,0,L|133:95,1,62.6400015292969,0|0,3:2|0:0,0:0:0:0:
13,217,388802,1,2,3:2:0:0:
27,202,388877,1,2,0:0:0:0:
65,189,388952,1,2,3:2:0:0:
116,205,389027,1,0,3:2:0:0:
144,257,389102,2,0,L|128:323,1,62.6400015292969,10|0,0:0|0:0,0:0:0:0:
274,147,389252,2,0,L|292:217,1,62.6400015292969,2|0,3:2|0:0,0:0:0:0:
465,338,389402,101,2,3:2:0:0:
442,350,389477,1,2,0:0:0:0:
391,344,389552,1,10,0:0:0:0:
356,289,389627,1,2,0:0:0:0:
385,233,389702,6,0,P|414:220|451:211,1,62.6400015292969,2|0,3:2|0:0,0:0:0:0:
262,362,389852,2,0,P|252:332|245:295,1,62.6400015292969,10|0,0:0|0:0,0:0:0:0:
351,72,390002,102,0,P|364:101|374:141,1,62.6400015292969,2|0,3:2|3:2,0:0:0:0:
151,263,390152,1,8,0:0:0:0:
151,263,390227,1,8,0:0:0:0:
151,263,390302,2,0,P|120:256|77:236,1,62.6400015292969,2|0,3:2|0:0,0:0:0:0:
388,215,390452,6,0,P|421:223|454:236,1,62.6400015292969,10|0,0:0|0:0,0:0:0:0:
180,136,390602,1,2,3:2:0:0:
168,122,390677,1,2,0:0:0:0:
161,107,390752,1,2,3:2:0:0:
157,88,390827,1,2,0:0:0:0:
159,72,390902,102,0,P|169:39|175:4,1,62.6400015292969,10|0,0:0|0:0,0:0:0:0:
273,140,391052,2,0,P|261:171|254:203,1,62.6400015292969,2|0,3:2|0:0,0:0:0:0:
263,50,391202,6,0,P|292:39|321:28,1,62.6400015292969,2|0,3:2|0:0,0:0:0:0:
114,209,391352,2,0,P|83:218|54:232,1,62.6400015292969,2|0,3:2|3:2,0:0:0:0:
0,83,391502,102,0,P|31:95|70:106,1,62.6400015292969,10|0,0:0|0:0,0:0:0:0:
327,319,391652,2,0,P|300:306|258:294,1,62.6400015292969,2|0,3:2|0:0,0:0:0:0:
178,157,391802,5,2,3:2:0:0:
431,109,391952,102,0,P|400:121|363:128,1,62.6400015292969,10|0,0:0|0:0,0:0:0:0:
178,157,392102,1,2,3:2:0:0:
202,143,392177,1,2,0:0:0:0:
248,143,392252,1,10,0:0:0:0:
287,175,392327,1,2,0:0:0:0:
306,229,392402,1,2,3:2:0:0:
340,272,392477,1,2,3:2:0:0:
391,289,392552,1,10,0:0:0:0:
448,261,392627,1,10,0:0:0:0:
473,195,392702,5,8,0:0:0:0:
469,191,392777,1,8,0:0:0:0:
465,185,392852,1,8,0:0:0:0:
459,181,392927,1,8,0:0:0:0:
455,176,393002,102,0,P|408:166|348:146,1,99.1799987893067,4|0,3:2|0:0,0:0:0:0:
307,92,393227,1,2,0:0:0:0:
295,106,393302,2,0,P|228:129|133:148,1,148.76999818396,10|0,0:0|0:0,0:0:0:0:
77,200,393602,6,0,P|67:178|61:133,1,49.5899993946533,2|0,3:2|0:2,0:2:0:0:
285,247,393752,2,0,P|280:275|266:302,1,49.5899993946533,2|0,0:0|0:0,0:0:0:0:
0,364,393902,102,0,P|45:346|115:328,1,99.1799987893067,10|0,0:0|0:0,0:0:0:0:
258,268,394202,2,0,P|170:254|70:194,1,198.359997578613,2|8,3:2|0:0,0:0:0:0:
210,380,394652,1,2,0:0:0:0:
76,199,394802,2,0,P|118:230|157:286,1,99.1799987893067,2|0,3:2|0:0,0:0:0:0:
347,334,395102,6,0,P|323:343|270:355,1,49.5899993946533,10|0,0:0|0:0,0:0:0:0:
47,349,395252,2,0,P|69:339|100:330,1,49.5899993946533,2|0,0:0|0:0,0:0:0:0:
273,139,395402,101,2,3:2:0:0:
273,139,395477,1,2,3:2:0:0:
273,139,395552,2,0,L|257:202,1,49.5899993946533,2|0,3:2|0:0,0:0:0:0:
210,380,395702,1,10,0:0:0:0:
146,266,395852,5,2,3:2:0:0:
363,157,396002,1,2,3:2:0:0:
154,62,396152,1,0,3:2:0:0:
154,62,396227,1,0,3:2:0:0:
154,62,396302,2,0,L|168:125,1,49.5899993946533,8|0,0:0|0:0,0:0:0:0:
255,48,396452,102,0,P|264:27|267:-9,1,49.5899993946533,2|0,3:2|0:2,0:0:0:0:
144,231,396602,1,2,3:2:0:0:
0,0,396752,6,0,P|3:27|15:61,1,49.5899993946533,10|0,0:0|0:0,0:0:0:0:
144,231,396902,1,0,3:2:0:0:
13,217,397052,102,0,P|20:195|35:169,1,49.5899993946533,10|0,0:0|0:0,0:0:0:0:
256,226,397202,1,0,3:2:0:0:
245,281,397277,1,0,3:2:0:0:
214,323,397352,1,8,0:0:0:0:
171,347,397427,1,10,0:0:0:0:
118,352,397502,1,10,0:0:0:0:
193,127,397652,1,10,0:0:0:0:
14,227,397802,6,0,B|51:230|51:230|93:212,1,73.0799977697755,6|0,3:2|0:0,0:0:0:0:
259,352,398102,2,0,L|240:258,1,73.0799977697755,0|0,3:2|0:2,0:2:0:0:
404,159,398402,102,0,B|366:160|366:160|316:185,1,73.0799977697755,2|0,3:2|0:0,0:0:0:0:
163,309,398702,2,0,L|178:390,1,73.0799977697755,0|0,3:2|0:0,0:0:0:0:
322,260,399002,5,2,3:2:0:0:
200,208,399152,1,2,0:0:0:0:
244,280,399302,1,2,3:2:0:0:
232,122,399452,1,2,0:0:0:0:
232,122,399527,1,2,0:0:0:0:
232,122,399602,1,2,3:2:0:0:
104,208,399752,1,0,3:2:0:0:
104,208,399827,1,0,3:2:0:0:
104,208,399902,1,0,3:2:0:0:
189,198,400052,1,0,3:2:0:0:
36,87,400202,102,0,P|22:123|15:164,1,73.0799977697755,2|0,3:2|0:0,0:0:0:0:
129,300,400502,1,2,3:2:0:0:
311,183,400652,1,2,0:0:0:0:
311,183,400727,1,2,0:0:0:0:
311,183,400802,1,0,3:2:0:0:
197,213,400952,1,2,3:2:0:0:
197,213,401027,1,0,3:3:0:0:
197,213,401102,5,8,0:0:0:0:
345,349,401252,1,10,0:0:0:0:
403,292,401402,102,0,P|391:257|384:212,1,77.7199963236696,6|0,3:2|0:0,0:0:0:0:
238,341,401602,1,2,0:0:0:0:
268,250,401702,6,0,P|262:290|247:338,1,77.7199963236696,10|0,0:0|0:0,0:0:0:0:
350,370,401902,1,2,3:2:0:0:
467,319,402002,102,0,P|437:311|406:297,1,58.2899972427522,2|0,3:2|0:0,0:0:0:0:
169,369,402152,2,0,P|198:357|232:349,1,58.2899972427522,10|8,0:0|0:0,0:0:0:0:
511,344,402302,6,0,P|480:350|450:362,1,58.2899972427522,10|0,0:0|3:2,0:0:0:0:
123,310,402452,2,0,P|152:323|184:332,1,58.2899972427522,10|0,0:0|3:2,0:0:0:0:
328,381,402602,85,6,3:2:0:0:
295,108,402909,5,10,0:0:0:0:
295,108,403063,1,8,0:0:0:0:
311,183,403217,1,0,3:2:0:0:
276,31,403525,1,8,0:0:0:0:
327,258,403832,1,2,3:2:0:0:
169,296,404140,101,10,0:0:0:0:
169,296,404294,1,8,0:0:0:0:
247,278,404448,1,0,3:2:0:0:
87,314,404755,1,8,0:0:0:0:
327,258,405063,1,2,3:2:0:0:
173,153,405371,5,10,0:0:0:0:
173,153,405525,1,8,0:0:0:0:
240,192,405678,1,0,3:2:0:0:
104,105,405986,1,10,0:0:0:0:
327,258,406294,1,2,3:2:0:0:
452,166,406602,101,10,0:0:0:0:
452,166,406755,1,8,0:0:0:0:
394,213,406909,1,0,3:2:0:0:
512,116,407217,1,10,0:0:0:0:
387,47,407371,1,0,3:2:0:0:
387,47,407448,1,0,3:2:0:0:
387,47,407525,6,0,B|370:87|370:87|374:136,1,87,2|2,3:2|0:0,0:0:0:0:
465,262,407832,1,2,3:2:0:0:
419,321,407986,1,2,0:0:0:0:
345,300,408140,1,2,3:2:0:0:
246,222,408294,101,8,3:0:0:0:
224,218,408371,1,0,3:0:0:0:
201,223,408448,1,8,3:0:0:0:
180,239,408525,1,0,3:0:0:0:
164,266,408602,1,8,3:0:0:0:
104,320,408755,70,0,P|64:332|14:343,1,87,6|0,3:2|3:2,0:0:0:0:
246,222,409063,1,10,0:0:0:0:
62,146,409217,1,2,3:2:0:0:
184,351,409371,2,0,P|226:368|280:385,1,87,10|0,0:0|3:2,0:0:0:0:
36,246,409678,1,10,0:0:0:0:
302,136,409832,1,0,3:2:0:0:
302,136,409909,1,0,3:2:0:0:
302,136,409986,1,6,3:2:0:0:
302,136,410602,37,2,3:2:0:0:
111,12,410755,69,8,0:0:0:0:
135,16,410831,1,8,0:0:0:0:
141,40,410908,1,8,0:0:0:0:
122,56,410985,1,8,0:0:0:0:
97,51,411062,1,8,0:0:0:0:
92,26,411139,1,8,0:0:0:0:
118,29,411217,38,0,P|160:43|206:51,1,87,6|0,3:2|0:0,0:0:0:0:
302,136,411525,69,10,0:0:0:0:
227,124,411678,37,8,0:0:0:0:
145,158,411832,69,8,0:0:0:0:
86,249,411986,37,8,0:0:0:0:
112,365,412140,69,8,0:0:0:0:
235,290,412294,37,0,3:2:0:0:
235,290,412371,1,0,3:2:0:0:
235,290,412448,2,0,P|243:249|262:185,1,87,6|0,3:2|0:0,0:0:0:0:
112,365,412755,70,0,P|71:345|24:330,1,87,6|0,3:2|0:0,0:0:0:0:
333,384,413063,37,6,3:2:0:0:
194,163,413217,69,8,0:0:0:0:
216,160,413293,1,8,0:0:0:0:
245,177,413370,1,8,0:0:0:0:
265,172,413447,1,8,0:0:0:0:
290,187,413524,1,8,0:0:0:0:
318,185,413601,1,8,0:0:0:0:
341,195,413678,1,2,0:0:0:0:
341,195,414294,38,0,B|306:202|273:214|273:214|236:201|225:172,1,135.719999171631,6|2,3:2|0:2,0:0:0:0:
223,161,414601,1,10,0:0:0:0:
314,67,414755,70,0,L|296:121,1,45.239999723877,2|0,3:2|0:0,0:0:0:0:
235,296,414909,1,2,3:2:0:0:
375,258,415063,1,2,3:2:0:0:
369,219,415140,1,0,3:2:0:0:
341,195,415217,1,8,0:2:0:0:
96,347,415447,37,2,3:2:0:0:
104,351,415524,2,0,B|63:372|63:372|17:362,1,90.4799994477539,6|0,3:2|3:2,0:0:0:0:
132,270,415755,1,2,0:0:0:0:
147,274,415832,2,0,L|255:301,1,90.4799994477539,10|0,0:0|3:2,0:0:0:0:
309,315,416063,1,2,0:0:0:0:
325,319,416140,1,2,3:2:0:0:
103,155,416294,69,0,3:2:0:0:
103,155,416370,1,0,3:2:0:0:
103,155,416447,2,0,B|91:138|91:138|92:107,1,45.239999723877,10|0,0:0|0:0,0:0:0:0:
167,85,416601,2,0,B|179:102|179:102|178:133,1,45.239999723877,2|2,0:2|0:0,0:0:0:0:
28,206,416755,38,0,B|14:186|-5:173|-5:173|-24:97|51:43,1,180.959998895508,6|8,3:2|0:0,0:0:0:0:
162,201,417217,1,2,3:2:0:0:
91,113,417370,69,2,3:2:0:0:
256,46,417524,1,0,3:2:0:0:
256,46,417601,1,0,3:2:0:0:
256,46,417678,1,10,0:0:0:0:
356,170,417832,2,0,L|341:216,1,45.239999723877,2|0,0:0|3:2,0:0:0:0:
397,272,417986,37,6,3:2:0:0:
469,288,418140,1,2,3:2:0:0:
512,216,418294,1,10,0:0:0:0:
282,330,418447,69,2,3:2:0:0:
383,384,418601,37,2,3:2:0:0:
252,228,418755,69,0,3:2:0:0:
208,233,418832,1,0,3:2:0:0:
176,267,418909,1,8,0:2:0:0:
22,367,419140,37,2,0:2:0:0:
17,353,419217,2,0,B|34:293|57:319|75:244,1,120.639999263672,6|2,3:2|0:0,0:0:0:0:
68,170,419524,70,0,P|37:162|-4:145,1,60.3199996318359,10|0,0:0|0:0,0:0:0:0:
158,93,419729,1,2,0:0:0:0:
60,41,419832,38,0,P|87:26|123:16,1,60.3199996318359,2|0,3:2|0:0,0:0:0:0:
243,147,420037,1,2,0:0:0:0:
333,32,420140,70,0,P|328:62|313:93,1,60.3199996318359,10|0,0:0|0:0,0:0:0:0:
172,211,420345,1,2,0:0:0:0:
231,69,420447,38,0,P|237:99|253:141,1,60.3199996318359,2|0,3:2|0:0,0:0:0:0:
359,228,420652,1,2,0:0:0:0:
440,168,420755,70,0,P|413:158|380:139,1,60.3199996318359,10|0,0:0|0:0,0:0:0:0:
323,321,420960,1,2,0:0:0:0:
471,277,421063,38,0,P|441:287|408:303,1,60.3199996318359,2|0,3:2|0:0,0:0:0:0:
269,222,421268,1,2,0:0:0:0:
218,366,421370,70,0,P|228:338|235:304,1,60.3199996318359,10|0,0:0|0:0,0:0:0:0:
359,228,421576,1,2,0:0:0:0:
202,171,421678,38,0,B|114:144|118:229|24:201,1,180.959998895508,2|8,3:2|0:0,0:0:0:0:
164,62,422140,1,2,0:0:0:0:
164,62,422217,1,2,0:0:0:0:
164,62,422294,1,2,3:2:0:0:
77,119,422447,1,2,0:0:0:0:
170,245,422601,1,10,0:0:0:0:
102,335,422755,70,0,L|89:285,1,45.239999723877,2|0,0:0|0:0,0:0:0:0:
214,163,422909,38,0,B|302:136|298:221|392:193,1,180.959998895508,6|8,3:2|0:0,0:0:0:0:
266,363,423447,69,10,0:0:0:0:
269,353,423524,1,0,3:2:0:0:
292,271,423678,37,10,0:0:0:0:
328,142,423832,69,2,3:2:0:0:
360,38,423986,37,0,3:2:0:0:
364,26,424063,1,0,3:2:0:0:
367,16,424140,2,0,P|322:28|257:38,1,90.4799994477539,6|2,3:2|3:2,0:0:0:0:
417,110,424370,1,2,0:2:0:0:
424,118,424447,2,0,P|468:131|512:150,1,90.4799994477539,10|0,0:0|3:2,0:0:0:0:
292,271,424755,69,2,3:2:0:0:
384,195,424909,1,2,3:2:0:0:
394,210,424986,1,0,3:2:0:0:
399,229,425063,1,10,0:0:0:0:
147,111,425294,37,2,0:0:0:0:
140,95,425370,2,0,B|141:51|141:51|163:6,1,90.4799994477539,6|0,3:2|3:2,0:0:0:0:
250,110,425678,1,10,0:0:0:0:
59,233,425832,69,0,3:2:0:0:
55,247,425909,2,0,L|40:305,1,45.239999723877,2|2,0:2|3:2,0:0:0:0:
235,360,426140,38,0,L|224:317,1,45.239999723877,2|2,3:2|3:2,3:2:0:0:
399,229,426294,1,10,0:0:0:0:
362,358,426524,69,2,3:2:0:0:
367,342,426601,2,0,B|382:292|389:320|405:246,1,90.4799994477539,6|0,3:2|3:2,0:0:0:0:
250,110,426909,1,10,0:0:0:0:
353,164,427063,37,2,3:2:0:0:
189,234,427217,1,2,3:2:0:0:
113,150,427370,1,0,3:2:0:0:
108,133,427447,1,0,3:2:0:0:
125,108,427524,1,8,0:0:0:0:
292,277,427755,69,2,3:2:0:0:
295,268,427832,1,6,3:2:0:0:
196,213,427986,1,2,3:2:0:0:
59,295,428140,1,10,0:0:0:0:
237,131,428294,37,2,3:2:0:0:
164,202,428447,1,2,3:2:0:0:
281,300,428601,1,0,3:2:0:0:
300,302,428678,1,0,3:2:0:0:
314,291,428755,2,0,L|336:234,1,45.239999723877,10|0,0:0|0:0,0:0:0:0:
466,128,428909,69,2,0:0:0:0:
466,128,428986,1,2,0:0:0:0:
466,128,429063,2,0,P|408:165|337:159,1,120.639999263672,6|0,3:2|0:0,0:0:0:0:
190,60,429370,38,0,P|202:33|211:-9,1,60.3199996318359,10|0,0:0|0:0,0:0:0:0:
261,98,429576,1,2,0:0:0:0:
88,29,429678,70,0,P|108:91|121:162,1,120.639999263672,2|0,3:2|0:0,0:0:0:0:
0,287,429986,1,10,0:0:0:0:
142,274,430191,37,2,0:0:0:0:
11,197,430294,2,0,B|84:209|60:243|138:258,1,120.639999263672,2|0,3:2|0:0,0:0:0:0:
268,375,430601,70,0,P|274:343|290:306,1,60.3199996318359,10|0,0:0|0:0,0:0:0:0:
396,240,430806,1,2,0:0:0:0:
462,281,430909,2,0,P|472:310|479:340,1,60.3199996318359,2|0,3:2|0:0,0:0:0:0:
312,203,431114,1,2,0:0:0:0:
363,142,431217,2,0,P|420:117|479:112,1,120.639999263672,10|0,0:0|0:0,0:0:0:0:
227,206,431524,38,0,P|180:192|138:161,1,90.4799994477539,6|0,3:2|0:0,0:0:0:0:
284,317,431832,1,10,0:0:0:0:
50,362,432063,69,10,0:0:0:0:
57,347,432140,1,0,3:2:0:0:
98,253,432294,37,10,0:0:0:0:
142,141,432447,69,8,0:0:0:0:
104,116,432524,1,8,0:0:0:0:
45,140,432601,1,8,0:0:0:0:
36,199,432678,1,8,0:0:0:0:
98,253,432755,38,0,P|162:274|213:325,1,120.639999263672,6|0,3:2|0:0,0:0:0:0:
410,169,433063,70,0,B|425:153|445:146|446:146|446:146|394:143|371:189,1,120.639999263672,6|0,3:2|0:0,0:0:0:0:
183,35,433370,38,0,B|172:45|159:24|182:-1|240:42|243:105,1,120.639999263672,6|0,3:2|0:0,0:0:0:0:
271,203,433678,69,2,0:0:0:0:
271,203,433986,53,2,3:2:0:0:
98,253,434294,101,2,0:0:0:0:
226,365,434601,5,2,3:2:0:0:
199,282,434909,101,2,0:0:0:0:
199,282,435217,5,2,3:2:0:0:
199,282,435832,101,2,3:2:0:0:
121,383,435986,1,0,3:2:0:0:
174,176,436140,1,8,0:0:0:0:
174,176,436217,1,8,0:0:0:0:
174,176,436294,1,8,0:0:0:0:
174,176,436370,1,8,0:0:0:0:
178,179,436447,54,0,P|244:182|313:216,1,132.239998385742,6|2,3:2|0:0,0:0:0:0:
348,273,436756,2,0,P|394:293|452:302,1,99.1799987893067,10|0,0:0|3:2,0:0:0:0:
281,328,437065,1,10,0:0:0:0:
418,204,437220,1,2,3:2:0:0:
281,328,437374,1,10,0:0:0:0:
450,383,437529,5,2,3:2:0:0:
303,208,437684,2,0,P|314:138|357:67,1,132.239998385742,6|0,3:2|0:0,0:0:0:0:
371,11,437993,2,0,P|326:29|263:42,1,99.1799987893067,10|0,0:0|3:2,3:0:0:0:
67,94,438302,1,10,0:2:0:0:
149,13,438457,1,2,3:2:0:0:
190,125,438611,1,10,0:0:0:0:
233,246,438766,101,2,3:2:0:0:
233,246,438843,1,2,3:2:0:0:
233,246,438921,2,0,P|180:271|81:273,1,132.239998385742,6|2,3:2|0:0,0:0:0:0:
143,367,439230,2,0,P|190:350|264:350,1,99.1799987893067,10|0,0:0|3:2,0:0:0:0:
107,277,439539,1,10,0:0:0:0:
329,384,439694,1,2,3:2:0:0:
257,235,439849,1,10,0:0:0:0:
143,367,440003,1,2,3:2:0:0:
362,286,440158,6,0,P|386:225|391:135,1,132.239998385742,6|0,3:2|0:0,0:0:0:0:
361,87,440467,1,10,0:0:0:0:
470,172,440622,1,2,3:2:0:0:
338,217,440776,1,10,0:0:0:0:
392,159,440931,101,2,3:2:0:0:
261,209,441086,1,10,0:0:0:0:
362,286,441240,1,2,3:2:0:0:
260,109,441395,6,0,P|203:82|125:74,1,132.239998385742,6|0,3:2|0:0,0:0:0:0:
81,15,441704,2,0,P|64:43|55:82,1,66.1199991928711,10|0,0:0|0:0,0:0:0:0:
98,142,441910,1,2,0:0:0:0:
134,73,442014,2,0,P|200:81|260:109,1,132.239998385742,2|0,3:2|0:0,0:0:0:0:
340,105,442323,2,0,P|329:141|310:172,1,66.1199991928711,10|0,0:0|0:0,0:0:0:0:
239,184,442529,1,2,0:0:0:0:
297,243,442632,102,0,P|318:304|329:382,1,132.239998385742,2|0,3:2|0:0,0:0:0:0:
406,338,442941,2,0,P|397:308|385:225,1,99.1799987893067,10|10,0:0|0:2,0:0:0:0:
230,328,443251,1,2,3:2:0:0:
134,130,443457,5,2,0:0:0:0:
175,237,443560,2,0,P|106:227|39:182,1,132.239998385742,10|0,0:0|0:0,0:0:0:0:
47,301,443869,2,0,P|73:281|117:268,1,66.1199991928711,2|0,3:2|0:0,0:0:0:0:
175,237,444075,1,2,0:0:0:0:
231,302,444178,2,0,P|284:357|359:365,1,132.239998385742,10|0,0:0|0:0,0:0:0:0:
404,323,444488,2,0,P|434:308|473:300,1,66.1199991928711,2|0,3:2|0:0,0:0:0:0:
457,380,444694,1,2,0:0:0:0:
354,257,444797,2,10,P|363:190|411:125,1,132.239998385742,10|2,0:0|0:0,0:0:0:0:
489,107,445106,102,0,P|414:99|350:54,1,148.76999818396,2|0,3:2|0:0,0:0:0:0:
344,46,445416,1,10,0:0:0:0:
50,184,445725,6,0,L|110:169,1,49.5899993946533,2|0,3:2|0:0,0:0:0:0:
180,70,445879,1,8,0:0:0:0:
180,70,445957,1,8,0:0:0:0:
180,70,446034,2,0,L|158:136,1,49.5899993946533,2|0,3:2|0:0,0:0:0:0:
273,272,446189,1,10,0:0:0:0:
273,272,446266,1,10,0:0:0:0:
273,272,446343,102,0,P|217:248|170:190,1,132.239998385742,6|2,3:2|0:0,0:0:0:0:
164,117,446653,1,10,0:0:0:0:
348,206,446807,6,0,P|364:252|365:307,1,99.1799987893067,2|2,3:2|0:0,0:0:0:0:
324,122,447117,1,2,3:2:0:0:
189,290,447271,2,0,P|173:244|172:189,1,99.1799987893067,10|2,0:2|0:0,0:0:0:0:
237,150,447503,1,2,0:0:0:0:
240,140,447581,2,0,P|235:91|212:33,1,99.1799987893067,2|2,3:2|0:0,0:0:0:0:
348,206,447890,1,10,0:0:0:0:
189,290,448044,1,2,3:2:0:0:
267,384,448199,2,0,P|283:339|290:277,1,99.1799987893067,2|0,0:0|3:2,0:0:0:0:
72,336,448508,2,0,P|78:286|94:240,1,99.1799987893067,10|0,0:0|0:2,0:0:0:0:
218,44,448818,102,0,P|160:77|75:71,1,132.239998385742,2|0,3:2|0:0,0:0:0:0:
38,26,449127,1,10,0:0:0:0:
180,151,449282,1,2,3:2:0:0:
13,218,449436,1,2,0:0:0:0:
71,116,449591,1,2,3:2:0:0:
71,116,449745,2,0,P|92:159|103:216,1,99.1799987893067,10|0,0:0|0:0,0:0:0:0:
361,317,450055,6,0,P|287:308|184:377,1,198.359997578613,2|8,3:2|0:2,0:2:0:0:
423,248,450519,2,0,P|448:295|449:357,1,99.1799987893067,2|0,3:2|0:0,0:0:0:0:
329,215,450828,1,2,3:2:0:0:
351,315,450983,1,10,0:0:0:0:
406,138,451137,1,10,0:0:0:0:
223,198,451292,102,0,P|195:144|191:62,2,128.760003143555,6|2|10,3:2|3:2|0:0,0:0:0:0:
329,215,452220,1,2,0:0:0:0:
163,300,452374,1,8,0:0:0:0:
163,300,452452,1,8,0:0:0:0:
163,300,452529,1,0,3:2:0:0:
281,323,452684,1,10,0:0:0:0:
223,198,452838,1,2,3:2:0:0:
121,9,453148,5,10,0:0:0:0:
329,215,453457,101,10,0:0:0:0:
163,300,453611,1,10,0:0:0:0:
200,108,453766,6,0,P|250:114|308:140,1,99.1799987893067,6|0,3:2|0:0,0:0:0:0:
87,374,454075,2,0,P|70:330|60:266,1,99.1799987893067,10|0,0:0|0:0,0:0:0:0:
233,229,454385,2,0,P|251:276|261:325,1,99.1799987893067,2|0,3:2|3:2,0:0:0:0:
183,384,454694,1,10,0:0:0:0:
172,136,454926,101,10,0:0:0:0:
172,136,455003,2,0,P|129:158|71:159,1,99.1799987893067,6|0,3:2|3:2,0:0:0:0:
340,253,455312,2,0,P|383:231|441:230,1,99.1799987893067,10|0,0:2|3:2,0:0:0:0:
233,229,455622,5,10,0:0:0:0:
317,60,455776,1,2,3:2:0:0:
172,136,455931,101,10,0:0:0:0:
338,253,456086,1,2,3:2:0:0:
153,358,456240,5,6,3:2:0:0:
153,358,456395,2,0,P|143:310|126:263,1,73.0799977697755,2|0,0:0|0:0,0:0:0:0:
269,146,456704,1,2,0:0:0:0:
171,202,456859,2,0,P|230:243|317:251,1,146.159995539551,10|2,0:2|0:2,0:2:0:0:
433,363,457323,1,2,3:2:0:0:
371,305,457477,102,0,P|354:343|351:381,1,73.0799977697755,2|8,0:0|0:0,0:0:0:0:
498,302,457787,2,0,P|508:270|513:226,1,73.0799977697755,2|0,3:2|0:0,0:0:0:0:
372,66,458096,2,0,P|396:137|416:222,1,146.159995539551,10|0,0:0|0:0,0:0:0:0:
495,106,458560,1,10,0:0:0:0:
299,160,458715,6,0,P|265:147|223:139,1,73.0799977697755,2|0,3:2|0:0,0:0:0:0:
371,307,459024,2,0,P|408:302|450:288,1,73.0799977697755,2|0,3:2|0:0,0:0:0:0:
219,277,459333,102,0,P|161:298|101:376,1,146.159995539551,10|2,0:0|0:0,0:0:0:0:
219,277,459797,1,2,3:2:0:0:
76,213,459952,1,2,0:0:0:0:
126,273,460106,1,10,0:0:0:0:
96,137,460261,1,0,3:2:0:0:
96,137,460570,6,0,P|163:167|247:179,1,146.159995539551,10|8,0:0|0:0,0:0:0:0:
0,225,461034,1,10,0:0:0:0:
163,11,461189,102,0,P|177:48|185:90,1,73.0799977697755,2|0,3:2|0:0,0:0:0:0:
332,281,461498,2,0,P|360:232|366:127,1,146.159995539551,2|10,0:0|0:0,0:0:0:0:
234,178,461962,1,2,0:0:0:0:
278,46,462117,1,2,0:0:0:0:
292,124,462271,1,2,3:2:0:0:
183,80,462426,1,2,0:0:0:0:
248,282,462581,5,10,0:0:0:0:
248,282,462658,1,2,0:0:0:0:
248,282,462735,1,2,3:2:0:0:
234,178,462890,1,2,0:0:0:0:
157,234,463044,1,10,0:0:0:0:
295,365,463199,1,2,0:0:0:0:
349,184,463354,1,2,0:0:0:0:
252,170,463508,1,8,0:0:0:0:
252,170,463586,1,8,0:0:0:0:
252,170,463663,1,2,3:2:0:0:
385,290,463972,38,0,P|413:297|440:311,2,48.7199985131836,2|2|2,3:2|0:0|0:0,0:0:0:0:
169,334,464282,6,0,P|146:342|124:359,2,48.7199985131836,10|2|2,0:0|0:0|0:0,0:0:0:0:
252,170,464591,102,0,P|246:145|236:116,2,48.7199985131836,2|2|2,3:2|0:0|0:0,0:0:0:0:
278,276,464900,5,2,0:0:0:0:
256,266,465003,1,2,0:0:0:0:
280,254,465106,1,2,0:0:0:0:
272,266,465209,101,10,0:0:0:0:
152,196,465364,1,2,3:2:0:0:
297,374,465519,1,10,0:0:0:0:
368,168,465673,1,8,0:0:0:0:
368,168,465751,1,8,0:0:0:0:
368,168,465828,1,8,0:0:0:0:
368,168,465905,1,8,0:0:0:0:
368,168,465983,1,8,0:0:0:0:
368,168,466060,1,8,0:0:0:0:
368,168,466137,38,0,B|273:137|279:228|176:194,1,174,6|8,3:2|0:0,0:0:0:0:
67,99,466610,1,2,3:2:0:0:
183,30,466768,38,0,B|154:24|131:0|131:0|171:65|166:117,1,182.699994424439,10|0,0:0|0:0,0:0:0:0:
158,128,467084,1,10,0:0:0:0:
13,250,467242,1,0,3:2:0:0:
13,250,467321,1,0,3:2:0:0:
13,250,467400,70,0,P|45:222|111:209,1,87,6|0,3:2|3:2,0:0:0:0:
254,337,467715,1,10,0:2:0:0:
141,377,467873,1,2,3:2:0:0:
137,370,467952,1,0,3:2:0:0:
134,364,468031,38,0,L|168:280,1,60.8999981414796,10|0,0:0|0:0,0:0:0:0:
336,225,468189,2,0,B|351:253|351:253|354:287,1,60.8999981414796,2|0,3:2|0:0,0:0:0:0:
278,365,468347,1,10,0:0:0:0:
182,206,468505,70,0,P|211:220|250:231,1,60.8999981414796,2|0,3:2|0:0,0:0:0:0:
512,332,468663,38,0,B|475:326|439:282|439:282|424:339|386:362,1,182.699994424439,6|0,3:2|0:0,0:0:0:0:
374,362,468979,1,10,0:0:0:0:
479,191,469137,1,0,3:2:0:0:
508,210,469215,1,0,3:2:0:0:
511,247,469294,1,10,0:0:0:0:
440,284,469452,1,2,3:2:0:0:
283,150,469610,69,10,0:0:0:0:
170,91,469768,1,0,3:2:0:0:
170,91,469847,1,0,3:2:0:0:
170,91,469926,2,0,L|67:114,1,87,2|0,3:2|3:2,0:0:0:0:
12,136,470163,1,0,3:2:0:0:
9,124,470242,1,8,0:0:0:0:
126,184,470400,1,2,3:2:0:0:
36,238,470558,37,10,0:0:0:0:
186,57,470715,2,0,B|201:84|201:84|204:118,1,60.8999981414796,2|0,3:2|0:0,0:0:0:0:
257,240,470873,70,0,B|267:251|267:251|208:230,1,60.8999981414796,10|0,0:0|0:0,0:0:0:0:
70,123,471031,2,0,B|80:115|80:115|32:125,1,60.8999981414796,2|0,3:2|0:0,0:0:0:0:
218,232,471189,38,0,B|264:222|264:222|335:245|335:245|392:234,1,174,6|10,3:2|0:0,0:0:0:0:
174,336,471663,1,2,0:0:0:0:
275,339,471821,70,0,B|246:352|246:352|186:338,1,87,10|0,0:0|0:0,0:0:0:0:
11,232,472137,2,0,B|37:228|67:218|67:218|111:234|116:279,1,130.5,10|0,0:0|0:0,0:0:0:0:
95,345,472452,37,2,3:2:0:0:
218,232,472610,1,2,3:2:0:0:
276,321,472768,69,10,0:0:0:0:
143,160,472926,1,2,3:2:0:0:
143,160,473005,1,0,3:2:0:0:
143,160,473084,2,0,P|137:110|195:63,1,121.799996282959,10|0,0:0|3:2,0:0:0:0:
283,18,473321,37,2,3:2:0:0:
295,22,473400,2,0,B|310:27|310:27|334:46|334:46|359:53,1,60.8999981414796,10|0,0:0|0:0,0:0:0:0:
493,103,473558,2,0,B|474:110|474:110|466:117|466:117|432:130,1,60.8999981414796,2|0,3:2|0:0,0:0:0:0:
303,242,473715,70,0,B|280:234|250:235|250:235|406:203,1,182.699994424439,6|0,3:2|0:0,0:0:0:0:
398,208,474031,1,10,0:0:0:0:
262,96,474189,38,0,B|245:125|245:125|245:171,1,60.8999981414796,2|0,3:2|0:0,0:0:0:0:
386,289,474347,1,10,0:0:0:0:
337,348,474505,1,0,3:2:0:0:
269,314,474663,1,10,0:0:0:0:
477,224,474821,70,0,B|501:231|501:231|506:236|506:236|468:227,1,60.8999981414796,2|0,3:2|0:0,0:0:0:0:
398,208,474979,37,0,3:2:0:0:
291,182,475137,69,2,3:2:0:0:
157,153,475294,37,10,0:0:0:0:
8,122,475452,69,2,3:2:0:0:
17,124,475531,1,2,3:2:0:0:
11,128,475610,2,0,B|39:122|66:100|66:100|31:216,1,182.699994424439,12|0,0:0|0:0,0:0:0:0:
190,347,475926,38,0,P|183:322|177:278,1,60.8999981414796,10|0,0:0|0:0,0:0:0:0:
311,98,476084,69,8,0:0:0:0:
311,98,476163,1,8,0:0:0:0:
311,98,476242,2,0,P|266:148|154:151,1,182.699994424439,6|0,3:2|0:0,0:0:0:0:
133,158,476558,38,0,P|148:118|163:50,1,87,10|0,0:0|3:2,0:0:0:0:
344,279,476873,2,0,P|300:291|254:309,1,87,10|0,0:0|3:2,0:0:0:0:
437,200,477189,1,10,0:0:0:0:
273,121,477347,1,0,3:2:0:0:
273,121,477426,1,0,3:2:0:0:
273,121,477505,70,0,B|368:133|333:195|426:214,1,174,6|10,3:2|0:0,0:0:0:0:
246,323,477979,1,2,3:2:0:0:
200,213,478137,37,10,0:0:0:0:
335,278,478294,1,2,3:2:0:0:
122,377,478452,70,0,B|105:338|105:338|114:288,1,87,10|0,0:2|0:2,0:2:0:0:
289,43,478768,38,0,B|319:160|319:160|302:135|267:118,1,182.699994424439,6|0,3:2|0:0,0:0:0:0:
272,120,479084,2,0,B|297:112|297:112|308:103|308:103|359:88,1,87,10|2,0:0|3:2,0:0:0:0:
196,228,479400,69,10,0:0:0:0:
57,163,479558,1,0,3:2:0:0:
169,136,479715,37,10,0:0:0:0:
20,313,479873,2,0,P|8:287|4:252,1,60.8999981414796,2|0,3:2|0:0,0:0:0:0:
58,182,480031,69,6,3:2:0:0:
170,240,480347,37,2,0:2:0:0:
341,218,480663,69,2,0:0:0:0:
436,350,480979,37,2,0:0:0:0:
512,326,481294,69,2,0:0:0:0:
512,326,482568,70,0,P|484:319|450:305,1,60.8999981414796,2|0,0:0|0:0,0:0:0:0:
210,361,482883,2,0,P|273:349|321:292,1,121.799996282959,2|2,0:0|0:0,0:0:0:0:
366,254,483515,1,2,0:0:0:0:
243,142,483831,6,0,B|184:127|206:105|115:88,1,121.799996282959,2|0,0:0|0:0,0:0:0:0:
133,91,484462,2,0,P|126:123|113:157,1,60.8999981414796,2|0,0:0|0:0,0:0:0:0:
0,262,484778,2,0,P|26:249|64:240,1,60.8999981414796,2|0,0:0|0:0,0:0:0:0:
232,332,485094,102,0,P|206:283|135:230,2,121.799996282959,2|0|0,0:0|0:0|0:0,0:0:0:0:
232,332,486041,1,0,0:0:0:0:
411,207,486357,6,0,P|421:177|446:143,1,60.8999981414796,2|0,0:0|0:0,0:0:0:0:
330,197,486673,1,2,0:0:0:0:
464,292,486831,1,2,3:2:0:0:
338,358,486989,21,10,0:0:0:0:
334,352,487068,1,2,0:0:0:0:
330,345,487147,2,0,L|345:286,1,52.1999984069825,2|0,3:2|3:2,0:0:0:0:
484,138,487304,38,0,B|461:154|461:154|421:151,1,52.1999984069825,10|0,0:0|0:0,0:0:0:0:
207,234,487462,70,0,B|232:232|232:232|256:254,1,52.1999984069825,10|0,0:0|0:0,0:0:0:0:
424,379,487620,37,6,3:2:0:0:
299,92,487778,1,2,0:0:0:0:
436,152,487936,70,0,P|418:191|404:233,1,87,10|0,0:0|3:2,0:0:0:0:
180,360,488252,1,10,0:0:0:0:
270,253,488410,37,0,3:2:0:0:
326,359,488568,1,10,0:0:0:0:
134,231,488725,69,0,3:2:0:0:
124,204,488804,1,0,3:2:0:0:
149,163,488883,1,6,3:2:0:0:
295,106,489515,85,10,0:0:0:0:
377,170,489989,101,0,3:2:0:0:
377,170,490147,1,0,3:2:0:0:
453,159,490462,5,10,0:0:0:0:
321,223,490620,1,10,0:0:0:0:
477,273,490778,102,0,P|443:255|394:241,1,60.8999981414796,0|0,3:2|3:2,0:0:0:0:
292,117,491094,1,10,0:0:0:0:
89,231,491252,37,8,0:0:0:0:
89,231,491331,1,8,0:0:0:0:
89,231,491400,2,0,P|154:218|201:146,1,139.2,6|2,3:2|0:2,0:0:0:0:
275,371,491914,1,2,0:0:0:0:
263,280,492085,2,0,P|299:295|342:306,1,78.2999976104737,10|0,0:0|0:0,0:0:0:0:
193,334,492428,1,2,3:2:0:0:
373,215,492600,86,0,P|414:256|432:350,1,156.599995220947,10|8,0:0|0:0,0:0:0:0:
285,150,493114,2,0,P|294:114|301:64,1,78.2999976104737,2|0,3:2|0:0,0:0:0:0:
381,129,493457,1,10,0:0:0:0:
220,209,493628,1,2,0:0:0:0:
290,60,493800,21,10,0:0:0:0:
373,215,493971,1,10,0:0:0:0:
198,123,494142,86,0,B|118:111|124:166|30:150,1,156.599995220947,6|0,3:2|3:2,0:0:0:0:
194,225,494657,1,2,0:0:0:0:
91,343,494828,22,0,B|75:311|75:311|82:258,1,78.2999976104737,10|0,0:0|0:0,0:0:0:0:
194,225,495171,1,2,3:2:0:0:
41,80,495342,86,0,P|76:94|126:103,1,78.2999976104737,10|0,0:0|0:0,0:0:0:0:
1,221,495685,1,10,0:0:0:0:
205,140,495857,22,0,P|243:131|285:124,1,78.2999976104737,2|0,3:2|0:0,0:0:0:0:
405,262,496200,2,0,P|335:255|259:199,1,156.599995220947,10|8,0:0|0:0,0:0:0:0:
489,73,496714,1,10,0:0:0:0:
362,18,496885,86,0,B|382:97|411:62|434:160,1,156.599995220947,6|0,3:2|0:0,0:0:0:0:
482,211,497400,1,2,0:0:0:0:
244,278,497571,2,0,P|244:240|272:200,1,78.2999976104737,10|0,0:0|0:0,0:0:0:0:
398,259,497914,2,0,P|398:297|370:337,1,78.2999976104737,2|8,3:2|0:0,0:0:0:0:
202,140,498257,22,0,P|241:130|291:111,1,78.2999976104737,2|8,0:0|0:0,0:0:0:0:
321,269,498600,1,2,3:2:0:0:
474,201,498771,86,0,P|437:190|380:163,1,78.2999976104737,2|8,0:0|0:0,0:0:0:0:
286,362,499114,1,2,0:0:0:0:
216,269,499285,21,10,0:0:0:0:
391,341,499457,1,10,0:0:0:0:
216,269,499628,86,0,P|179:280|133:295,1,78.2999976104737,6|0,3:2|0:0,0:0:0:0:
400,174,499971,2,0,P|438:162|491:142,1,78.2999976104737,2|0,3:2|0:0,0:0:0:0:
224,36,500314,22,0,P|235:75|254:116,1,78.2999976104737,10|0,0:0|0:0,0:0:0:0:
391,341,500657,1,2,3:2:0:0:
347,274,500828,2,0,P|333:237|314:198,1,78.2999976104737,10|0,0:0|0:0,0:0:0:0:
224,36,501171,1,10,0:0:0:0:
403,88,501342,86,0,P|371:110|319:118,1,78.2999976104737,2|0,3:2|0:0,0:0:0:0:
100,236,501685,1,10,0:0:0:0:
165,132,501857,1,2,3:2:0:0:
78,90,502028,21,10,0:0:0:0:
192,287,502200,1,10,0:0:0:0:
192,287,502285,1,8,0:0:0:0:
192,287,502371,2,0,P|121:279|58:337,1,156.599995220947,6|2,3:2|0:0,0:0:0:0:
248,204,502885,1,2,0:0:0:0:
156,169,503057,86,0,P|192:182|238:192,1,78.2999976104737,10|0,0:0|0:0,0:0:0:0:
348,348,503400,1,2,3:2:0:0:
424,232,503571,22,0,P|435:272|449:310,1,78.2999976104737,10|0,0:0|0:0,0:0:0:0:
336,215,503914,1,10,0:0:0:0:
254,372,504085,2,0,P|264:334|271:292,1,78.2999976104737,2|0,3:2|0:0,0:0:0:0:
482,152,504428,85,10,0:0:0:0:
482,152,504771,21,10,0:0:0:0:
295,61,504942,1,10,0:0:0:0:
501,69,505114,86,0,B|462:65|462:65|425:83,1,78.2999976104737,6|0,3:2|0:0,0:0:0:0:
240,124,505457,2,0,B|273:143|273:143|321:141,1,78.2999976104737,2|0,3:2|0:0,0:0:0:0:
447,306,505800,22,0,B|439:282|439:282|437:252|437:252|422:217,1,78.2999976104737,10|0,0:0|0:0,0:0:0:0:
351,10,506142,1,2,3:2:0:0:
149,196,506314,86,0,B|155:173|165:155|165:155|157:108|157:108|172:79|186:40,1,156.599995220947,10|8,0:0|0:0,0:0:0:0:
313,141,506828,2,0,L|406:170,1,78.2999976104737,2|0,3:2|0:0,0:0:0:0:
257,276,507171,21,10,0:0:0:0:
242,204,507342,1,2,0:0:0:0:
347,279,507514,85,10,0:0:0:0:
155,346,507685,1,10,0:0:0:0:
0,213,507857,22,0,P|48:247|154:268,1,156.599995220947,6|0,3:2|0:0,0:0:0:0:
259,378,508371,1,2,0:0:0:0:
259,378,508542,86,0,P|281:323|278:283,1,78.2999976104737,10|0,0:0|0:0,0:0:0:0:
401,134,508885,2,0,P|424:168|436:215,1,78.2999976104737,2|8,3:2|0:0,0:0:0:0:
509,269,509228,21,2,0:0:0:0:
315,182,509400,1,10,0:0:0:0:
509,269,509571,2,0,P|471:281|436:297,1,78.2999976104737,2|0,3:2|0:0,0:0:0:0:
501,77,509914,85,14,0:0:0:0:
434,203,510085,1,2,3:2:0:0:
508,167,510257,21,10,0:0:0:0:
328,58,510428,1,8,0:0:0:0:
328,58,510514,1,8,0:0:0:0:
328,58,510600,38,0,P|281:94|170:98,1,174,6|0,3:2|3:2,0:0:0:0:
125,37,511114,1,2,0:0:0:0:
1,168,511285,2,0,P|14:129|23:82,1,87,10|0,0:0|0:0,0:0:0:0:
157,220,511628,1,2,3:2:0:0:
249,136,511800,2,0,P|255:185|268:247,1,87,10|0,0:0|0:0,0:0:0:0:
66,378,512142,69,10,0:0:0:0:
0,293,512314,2,0,P|38:271|101:271,1,87,2|0,3:2|0:0,0:0:0:0:
261,357,512657,37,10,0:0:0:0:
334,325,512828,1,2,0:0:0:0:
204,293,513000,69,10,0:0:0:0:
391,383,513171,1,10,0:0:0:0:
450,197,513342,38,0,B|354:177|360:248|277:228,1,174,4|2,3:2|3:2,0:0:0:0:
423,303,513857,1,2,0:0:0:0:
279,140,514028,70,0,P|320:156|365:171,1,87,10|0,0:0|0:0,0:0:0:0:
189,210,514371,1,2,3:2:0:0:
297,45,514542,38,0,P|253:56|210:74,1,87,10|0,0:0|0:0,0:0:0:0:
360,169,514885,1,10,0:0:0:0:
131,272,515057,70,0,P|107:240|112:181,1,87,2|0,3:2|0:0,0:0:0:0:
297,45,515400,2,0,P|280:91|270:140,1,87,10|0,0:0|0:0,0:0:0:0:
294,249,515742,37,10,0:0:0:0:
183,87,515914,1,10,0:0:0:0:
354,182,516085,70,0,P|397:197|444:208,1,87,6|0,3:2|0:0,0:0:0:0:
131,272,516428,2,0,P|88:257|41:246,1,87,2|0,3:2|0:0,0:0:0:0:
152,6,516771,38,0,P|165:49|187:94,1,87,10|0,0:0|0:0,0:0:0:0:
330,344,517114,2,0,P|317:301|295:256,1,87,2|8,3:2|0:0,0:0:0:0:
192,222,517457,69,2,0:0:0:0:
308,145,517628,1,10,0:0:0:0:
182,86,517800,1,2,3:2:0:0:
225,155,517971,1,2,0:0:0:0:
361,30,518142,38,0,P|317:38|267:59,1,87,10|0,0:0|0:0,0:0:0:0:
118,156,518485,1,10,0:0:0:0:
303,249,518657,1,10,0:0:0:0:
180,382,518828,70,0,P|162:344|167:290,1,87,6|0,3:2|0:0,0:0:0:0:
304,151,519171,2,0,P|343:167|392:182,1,87,2|0,3:2|0:0,0:0:0:0:
153,6,519514,2,0,P|176:46|181:98,1,87,10|0,0:0|0:0,0:0:0:0:
27,225,519857,37,2,3:2:0:0:
131,207,520028,2,0,P|87:219|25:242,1,87,10|0,0:0|0:0,0:0:0:0:
220,157,520371,69,10,0:0:0:0:
0,83,520542,2,0,P|41:102|85:117,1,87,2|0,3:2|0:0,0:0:0:0:
220,260,520885,37,10,0:0:0:0:
368,181,521057,1,2,3:2:0:0:
432,247,521228,69,10,0:0:0:0:
221,153,521400,1,10,0:0:0:0:
284,101,521571,38,0,B|370:80|325:34|434:11,1,174,6|2,3:2|3:2,0:0:0:0:
368,181,522085,1,2,0:0:0:0:
512,140,522257,70,0,P|474:125|413:108,1,87,10|0,0:0|0:0,0:0:0:0:
274,16,522600,1,2,3:2:0:0:
138,174,522771,38,0,P|184:169|229:147,1,87,10|0,0:0|0:0,0:0:0:0:
428,12,523114,1,10,0:0:0:0:
332,97,523285,70,0,P|318:142|311:190,1,87,2|0,3:2|0:0,0:0:0:0:
391,348,523628,1,10,0:0:0:0:
318,288,523800,1,2,0:0:0:0:
440,254,523971,37,10,0:0:0:0:
290,366,524142,1,10,0:0:0:0:
167,280,524314,70,0,P|149:240|145:191,1,87,6|0,3:2|0:0,0:0:0:0:
391,348,524657,2,0,P|356:369|307:377,1,87,2|0,3:2|0:0,0:0:0:0:
423,169,525000,38,0,P|464:184|510:196,1,87,10|0,0:0|0:0,0:0:0:0:
325,283,525342,1,2,3:2:0:0:
302,100,525514,70,0,P|318:141|329:191,1,87,10|0,0:0|0:0,0:0:0:0:
472,335,525857,1,10,0:0:0:0:
410,261,526028,38,0,P|428:174|467:88,1,174,2|10,3:2|0:0,0:0:0:0:
327,182,526542,1,2,0:0:0:0:
402,136,526714,69,10,0:0:0:0:
222,24,526885,1,10,0:0:0:0:
317,59,527057,38,0,P|276:93|150:95,1,174,6|2,3:2|3:2,0:0:0:0:
159,99,527742,70,0,P|169:141|175:188,1,87,10|0,0:0|0:0,0:0:0:0:
185,374,528085,2,0,P|177:333|176:280,1,87,2|8,3:2|0:0,0:0:0:0:
103,224,528428,37,2,0:0:0:0:
255,280,528600,1,10,0:0:0:0:
0,343,528771,70,0,P|40:329|89:317,1,87,2|0,3:2|0:0,0:0:0:0:
343,171,529114,2,0,P|303:185|254:197,1,87,10|0,0:2|3:2,0:0:0:0:
76,213,529457,37,10,0:0:0:0:
276,289,529628,1,10,0:0:0:0:
83,318,529800,21,14,0:0:0:0:
167,181,529971,5,0,3:2:0:0:
171,168,530142,1,0,3:2:0:0:
276,289,530314,101,14,0:0:0:0:
165,154,530485,5,0,3:2:0:0:
162,143,530657,1,0,3:2:0:0:
0,234,530828,101,14,0:0:0:0:
168,129,531000,5,0,3:2:0:0:
170,115,531171,1,0,3:2:0:0:
330,194,531342,101,14,0:0:0:0:
165,104,531514,5,0,3:2:0:0:
163,92,531685,1,0,3:2:0:0:
222,237,531857,101,10,0:0:0:0:
174,264,531942,1,10,0:0:0:0:
127,245,532028,1,10,0:0:0:0:
274,112,532200,1,2,3:2:0:0:
358,305,532371,1,10,0:0:0:0:
432,260,532542,70,0,P|447:188|467:118,1,139.2,6|0,3:2|0:0,0:0:0:0:
330,194,533071,1,2,0:0:0:0:
352,48,533247,2,0,P|367:79|379:119,1,69.6,10|0,0:0|0:0,0:0:0:0:
487,321,533600,2,0,P|503:288|512:256,1,69.6,2|0,0:0|0:0,0:0:0:0:
330,194,533953,22,0,L|168:231,1,139.2,2|2,3:2|3:2,0:0:0:0:
140,280,534483,1,0,0:0:0:0:
43,176,534659,2,0,B|25:209|25:209|26:248,1,69.6,10|0,0:0|0:0,0:0:0:0:
191,383,535012,2,0,B|206:352|206:352|206:312,1,69.6,2|0,0:0|0:0,0:0:0:0:
284,111,535365,86,0,P|334:149|410:165,1,139.2,2|2,3:2|0:0,0:0:0:0:
408,166,536071,22,0,P|397:132|387:77,1,69.6,10|0,0:0|0:0,0:0:0:0:
210,157,536424,2,0,P|204:192|192:230,1,69.6,2|0,0:0|0:0,0:0:0:0:
386,303,536777,86,0,P|447:259|529:253,1,139.2,2|2,3:2|3:2,0:0:0:0:
407,165,537306,1,2,0:0:0:0:
470,81,537483,2,0,P|485:114|486:154,1,69.6,10|0,0:0|0:0,0:0:0:0:
261,243,537836,2,0,P|228:232|189:223,1,69.6,2|0,0:0|0:0,0:0:0:0:
82,102,538189,22,0,P|33:147|31:226,1,139.2,2|2,3:2|0:0,0:0:0:0:
184,122,538718,1,2,0:0:0:0:
263,133,538894,2,0,P|255:102|245:38,1,69.6,10|0,0:0|0:0,0:0:0:0:
194,223,539247,2,0,P|229:230|268:245,1,69.6,2|0,0:0|0:0,0:0:0:0:
398,322,539600,86,0,P|336:353|251:356,1,139.2,2|2,3:2|3:2,0:0:0:0:
376,229,540130,1,2,0:0:0:0:
481,342,540306,22,0,P|451:329|410:317,1,69.6,10|0,0:0|0:0,0:0:0:0:
278,97,540659,2,0,P|288:134|304:172,1,69.6,2|0,0:0|0:0,0:0:0:0:
376,229,541012,85,2,3:2:0:0:
224,198,541365,21,2,0:0:0:0:
137,247,541718,85,10,0:0:0:0:
123,318,542071,21,2,0:0:0:0:
137,337,542424,85,10,0:0:0:0:
206,315,542777,21,2,0:0:0:0:
231,207,543130,85,2,0:0:0:0:
125,64,543483,21,2,3:2:0:0:
0,136,543836,86,0,P|69:192|204:206,1,208.8,6|0,3:2|0:0,0:0:0:0:
431,54,544542,2,0,P|368:88|286:97,1,139.2,10|0,0:0|0:0,0:0:0:0:
240,49,545071,1,0,0:0:0:0:
383,126,545247,22,0,P|398:157|404:197,1,69.6,2|0,3:2|0:0,0:0:0:0:
255,267,545600,2,0,P|262:231|280:195,1,69.6,2|0,3:2|0:0,0:0:0:0:
464,257,545953,86,0,P|427:267|393:279,1,69.6,10|0,0:0|0:0,0:0:0:0:
255,159,546306,2,0,P|284:172|324:185,1,69.6,2|0,0:0|0:0,0:0:0:0:
172,352,546659,21,6,3:2:0:0:
172,352,547012,2,0,P|164:318|148:275,1,69.6,2|0,0:0|0:0,0:0:0:0:
339,199,547365,2,0,P|327:267|309:343,1,139.2,10|0,0:0|0:0,0:0:0:0:
161,192,547894,1,2,0:0:0:0:
218,87,548071,86,0,P|230:120|238:162,1,69.6,2|0,3:2|0:0,0:0:0:0:
53,241,548424,2,0,P|43:212|35:168,1,69.6,2|0,3:2|0:0,0:0:0:0:
32,60,548777,22,0,P|67:70|101:85,1,69.6,10|0,0:0|0:0,0:0:0:0:
257,244,549130,1,0,3:2:0:0:
161,192,549306,1,10,0:0:0:0:
338,95,549483,86,0,P|397:154|412:281,1,208.8,2|0,3:2|0:0,0:0:0:0:
496,312,550189,2,0,P|417:319|366:364,1,139.2,10|2,0:0|0:0,0:0:0:0:
502,226,550718,1,2,0:0:0:0:
343,100,550894,22,0,P|375:113|421:127,1,69.6,2|0,3:2|0:0,0:0:0:0:
250,234,551247,2,0,P|262:202|269:166,1,69.6,2|0,3:2|0:0,0:0:0:0:
436,381,551600,86,0,P|403:365|364:353,1,69.6,10|0,0:0|0:0,0:0:0:0:
119,201,551953,2,0,P|150:188|193:178,1,69.6,2|0,0:0|0:0,0:0:0:0:
336,273,552306,21,6,3:2:0:0:
282,323,552483,1,2,0:0:0:0:
207,307,552659,1,2,0:0:0:0:
250,234,552836,85,2,0:0:0:0:
120,295,553012,21,10,0:0:0:0:
77,231,553189,1,2,0:0:0:0:
112,163,553365,1,2,0:0:0:0:
250,234,553542,85,2,0:0:0:0:
140,85,553718,21,6,3:2:0:0:
203,36,553894,1,10,0:0:0:0:
278,57,554071,1,2,0:0:0:0:
250,234,554247,85,2,3:2:0:0:
365,68,554424,21,10,0:0:0:0:
433,108,554600,1,2,0:0:0:0:
445,187,554777,1,2,3:2:0:0:
445,187,555130,86,0,B|400:196|400:196|375:209|375:209|299:226,1,139.2,6|0,3:2|0:0,0:0:0:0:
35,260,555836,22,0,B|113:279|88:316|181:340,1,139.2,10|0,0:0|0:0,0:0:0:0:
256,384,556542,86,0,L|220:223,1,139.2,10|0,0:0|0:0,0:0:0:0:
155,147,557071,117,2,0:0:0:0:
155,147,557247,2,0,L|184:-5,1,139.2,2|0,0:0|3:2,0:0:0:0:
50,170,557953,37,6,3:2:0:0:
50,170,559718,5,2,0:0:0:0:
123,179,560071,1,2,0:0:0:0:
184,130,560424,1,2,0:0:0:0:
102,105,560777,101,2,0:0:0:0:
102,105,561483,6,0,P|117:142|126:185,2,69.6,2|2|2,0:0|0:0|0:0,0:0:0:0:
89,96,562894,1,2,0:0:0:0:
244,211,563600,102,0,L|407:259,1,139.2,2|0,0:0|0:0,0:0:0:0:
170,372,564659,1,2,0:0:0:0:
243,350,564836,1,2,0:0:0:0:
139,249,565012,2,0,B|122:281|122:281|122:321,1,69.6,2|2,0:0|0:0,0:0:0:0:
317,196,565718,2,0,L|301:109,1,69.6,2|2,0:0|0:0,0:0:0:0:
148,16,566424,5,2,0:0:0:0:
148,16,567130,101,2,0:0:0:0:
244,51,567483,1,2,0:0:0:0:
66,93,567836,1,2,0:0:0:0:
317,196,568542,5,2,0:0:0:0:
81,336,569247,102,0,P|81:290|154:221,1,139.2,2|0,0:0|0:0,0:0:0:0:
277,99,570306,6,0,L|294:155,1,34.8,2|2,0:0|0:0,0:0:0:0:
492,330,570659,102,0,P|424:319|370:264,1,139.2,2|0,0:0|0:0,0:0:0:0:
268,158,571718,6,0,L|280:110,1,34.8,2|2,0:0|0:0,0:0:0:0:
189,231,572071,102,0,B|214:263|218:305|218:305|281:236|356:237|325:305|429:219|430:133|341:70|275:115|275:115|256:73|191:51|115:85|114:181|163:218,1,728.625,2|0,0:0|0:0,0:0:0:0:
