osu file format v14

[General]
AudioFilename: audio.mp3
AudioLeadIn: 0
PreviewTime: 148972
Countdown: 0
SampleSet: Soft
StackLeniency: 0.7
Mode: 0
LetterboxInBreaks: 0
WidescreenStoryboard: 1

[Editor]
Bookmarks: 33121,61717,87249,102568,118909,149547,173036
DistanceSpacing: 1
BeatDivisor: 4
GridSize: 4
TimelineZoom: 4.799997

[Metadata]
Title:Shuuten no Saki ga Aru to Suru naraba.
TitleUnicode:終点の先が在るとするならば。
Artist:TUYU
ArtistUnicode:ツユ
Creator:YaMaDarknesss
Version:Raijodo's Expert
Source:
Tags:a_blue raijodo wring silky fuyuyu- mamayu kanau iljaaz if there was an endpoint. 貴方を不幸に誘いますね 2nd album ぷす pusu 礼衣 reii おむたつ omutatsu japanese pop jpop j-pop rock jrock j-rock
BeatmapID:4071666
BeatmapSetID:1818626

[Difficulty]
HPDrainRate:6
CircleSize:4
OverallDifficulty:9
ApproachRate:9.2
SliderMultiplier:2
SliderTickRate:1

[Events]
//Background and Video events
0,0,"BG.jpg",0,0
//Break Periods
//Storyboard Layer 0 (Background)
//Storyboard Layer 1 (Fail)
//Storyboard Layer 2 (Pass)
//Storyboard Layer 3 (Foreground)
//Storyboard Layer 4 (Overlay)
//Storyboard Sound Samples

[TimingPoints]
441,255.31914893617,4,2,4,70,1,0
7079,-100,4,2,4,70,0,0
31717,-400,4,2,4,70,0,0
32100,-400,4,2,4,5,0,0
33121,-400,4,2,4,60,0,0
33249,-133.333333333333,4,2,4,60,0,0
36568,-400,4,2,4,60,0,0
37079,-400,4,2,4,5,0,0
37206,-400,4,2,4,40,0,0
52015,-133.333333333333,4,2,4,40,0,0
53547,-100,4,2,4,60,0,0
61717,-100,4,2,4,70,0,0
85845,-666.666666666667,4,2,4,70,0,0
86228,-666.666666666667,4,2,4,5,0,0
86355,-666.666666666667,4,2,4,5,0,0
86738,-666.666666666667,4,2,4,50,0,0
87249,-100,4,2,4,70,0,0
92547,-100,4,2,4,5,0,0
92611,-100,4,2,4,70,0,0
94398,-83.3333333333333,4,2,4,70,0,0
100526,-666.666666666667,4,2,4,70,0,0
102568,-399.999999999997,4,2,4,50,0,0
106398,-399.999999999997,4,2,4,70,0,0
106653,-66.6666666666667,4,2,4,70,0,0
107079,-500,4,2,4,70,0,0
107419,-66.6666666666667,4,2,4,70,0,0
108100,-500,4,2,4,70,0,0
108440,-66.6666666666667,4,2,4,70,0,0
108951,-133.333333333333,4,2,4,70,0,0
109206,-66.6666666666667,4,2,4,70,0,0
109462,-133.333333333333,4,2,4,70,0,0
109717,-66.6666666666667,4,2,4,70,0,0
109972,-133.333333333333,4,2,4,70,0,0
110228,-100,4,2,4,70,0,0
110653,-100,4,2,4,5,0,0
110738,-100,4,2,4,50,0,0
114568,-400,4,2,4,50,0,0
114823,-66.6666666666667,4,2,4,70,0,0
115845,-100,4,2,4,70,0,0
116866,-66.6666666666667,4,2,4,70,0,0
117887,-100,4,2,4,70,0,0
118909,-100,4,2,4,50,0,0
119164,-83.3333333333333,4,2,4,75,0,0
120951,-100,4,2,4,75,0,0
127079,-83.3333333333333,4,2,4,75,0,0
135249,-100,4,2,4,75,0,0
147121,-500,4,2,4,75,0,0
148015,-500,4,2,4,5,0,0
148526,-500,4,2,4,5,0,0
149036,-500,4,2,4,50,0,0
149547,-83.3333333333333,4,2,4,80,0,0
149802,-100,4,2,4,80,0,0
150058,-83.3333333333333,4,2,4,80,0,0
150313,-100,4,2,4,80,0,0
156185,-71.4285714285714,4,2,4,80,0,0
157717,-83.3333333333333,4,2,4,70,0,0
157972,-100,4,2,4,70,0,0
158738,-83.3333333333333,4,2,4,70,0,0
158994,-100,4,2,4,70,0,0
161802,-100,4,2,4,80,0,0
168887,-100,4,2,4,5,0,0
168951,-100,4,2,4,70,0,0
172781,-200,4,2,4,70,0,0
173292,-200,4,2,4,5,0,0

[Colours]
Combo1 : 206,145,202
Combo2 : 254,101,197
Combo3 : 255,88,100
Combo4 : 139,0,215

[HitObjects]
250,181,7079,6,0,P|259:192|277:219,14,25,2|0|2|0|2|0|2|0|2|0|2|0|2|0|2,0:0|0:0|0:0|0:0|0:0|0:0|0:0|0:0|0:0|0:0|0:0|0:0|0:0|0:0|0:0,0:0:0:0:
301,173,7589,6,0,P|256:190|185:239,1,100,4|0,3:2|0:0,0:0:0:0:
170,147,7845,2,0,B|280:140|239:244|349:266,1,200,8|0,0:0|3:2,0:0:0:0:
406,363,8228,1,0,3:2:0:0:
470,314,8355,2,0,P|479:268|467:186,1,100,8|2,0:0|0:0,0:0:0:0:
511,138,8611,5,2,3:2:0:0:
398,28,8738,1,0,0:0:0:0:
284,138,8866,1,10,0:0:0:0:
398,112,8994,1,2,0:0:0:0:
294,48,9121,5,2,3:2:0:0:
274,228,9249,1,2,0:0:0:0:
358,190,9377,1,10,0:0:0:0:
210,86,9504,1,2,0:0:0:0:
316,306,9632,6,0,P|423:283|526:267,1,200,4|8,3:2|0:0,0:0:0:0:
416,363,10015,1,2,0:0:0:0:
302,299,10143,1,0,3:2:0:0:
188,360,10270,1,0,3:2:0:0:
69,304,10398,2,0,B|49:260|49:260|80:205,1,100,8|2,0:0|0:0,0:0:0:0:
306,57,10653,6,0,B|344:124|344:124|307:205,1,150,4|0,3:2|0:0,0:0:0:0:
303,197,10909,1,8,0:0:0:0:
199,274,11036,1,2,0:0:0:0:
86,207,11164,1,0,0:0:0:0:
197,139,11292,1,0,3:2:0:0:
392,266,11419,6,0,P|408:317|417:375,1,100,8|2,0:0|0:0,0:0:0:0:
414,176,11675,6,0,P|453:212|490:257,1,100,4|0,3:2|0:0,0:0:0:0:
388,87,11930,6,0,P|440:98|494:119,1,100,8|0,3:2|0:0,0:0:0:0:
256,31,12185,5,0,3:2:0:0:
260,52,12313,1,0,3:2:0:0:
124,87,12440,6,0,P|75:97|28:114,1,100,8|0,0:0|0:0,0:0:0:0:
98,175,12695,6,0,P|61:209|28:247,1,100,0|0,3:2|0:0,0:0:0:0:
120,265,12951,6,0,P|104:313|96:362,1,100,8|2,0:0|0:0,0:0:0:0:
257,359,13206,5,2,3:2:0:0:
278,271,13334,1,2,0:0:0:0:
238,189,13462,1,8,0:0:0:0:
270,105,13589,1,0,0:0:0:0:
258,3,13717,2,0,P|252:51|251:108,1,100,0|0,3:2|0:0,0:0:0:0:
361,217,13972,5,10,0:0:0:0:
458,241,14100,1,2,0:0:0:0:
482,144,14228,1,2,3:2:0:0:
385,120,14355,1,0,3:2:0:0:
416,292,14483,6,0,P|463:272|511:260,1,100,8|2,0:0|0:0,0:0:0:0:
345,141,14738,2,0,P|338:190|325:238,1,100,2|0,3:2|0:0,0:0:0:0:
511,154,14994,2,0,P|471:124|436:89,1,100,8|2,0:0|0:0,0:0:0:0:
418,8,15249,5,0,3:2:0:0:
323,41,15377,1,0,3:2:0:0:
228,10,15504,1,8,0:0:0:0:
132,41,15632,1,8,0:0:0:0:
36,15,15760,6,0,B|-14:100|-14:100|40:195,1,200,4|8,3:2|0:0,0:0:0:0:
36,188,16270,1,0,3:2:0:0:
157,145,16398,1,0,3:2:0:0:
268,212,16526,1,8,0:0:0:0:
381,149,16653,1,2,0:0:0:0:
493,213,16781,2,0,B|519:260|519:260|482:325,1,100,2|2,3:2|0:0,0:0:0:0:
256,204,17036,2,0,B|235:161|235:161|270:101,1,100,10|2,0:0|0:0,0:0:0:0:
339,70,17292,5,2,3:2:0:0:
476,118,17419,1,2,0:0:0:0:
416,345,17547,1,8,0:0:0:0:
279,297,17674,1,2,0:0:0:0:
185,265,17802,6,0,B|95:233|103:349|14:369,1,200,4|8,3:2|0:0,0:0:0:0:
4,291,18185,1,2,0:0:0:0:
230,361,18313,2,0,P|265:356|278:274,1,100,4|0,3:2|0:0,0:0:0:0:
402,307,18568,2,0,P|415:274|350:221,1,100,8|2,0:0|0:0,0:0:0:0:
260,196,18823,5,4,3:2:0:0:
260,196,19079,1,8,0:0:0:0:
260,196,19206,1,2,0:0:0:0:
311,137,19334,5,4,3:2:0:0:
201,137,19462,1,0,0:0:0:0:
201,247,19589,1,8,0:0:0:0:
311,247,19717,1,0,0:0:0:0:
203,63,19845,6,0,P|170:97|110:147,1,100,4|0,3:2|0:0,0:0:0:0:
309,321,20100,2,0,P|342:287|402:237,1,100,8|0,0:2|0:0,0:0:0:0:
44,103,20355,6,0,P|56:148|70:225,1,100,0|0,3:2|3:2,0:0:0:0:
468,281,20611,2,0,P|455:235|441:158,1,100,8|0,0:0|0:0,0:0:0:0:
0,260,20866,6,0,P|45:271|119:298,1,100,0|0,3:2|0:0,0:0:0:0:
512,124,21121,2,0,P|466:112|392:85,1,100,8|0,0:0|0:0,0:0:0:0:
206,22,21377,5,0,3:2:0:0:
180,112,21504,1,0,3:2:0:0:
332,112,21632,5,8,0:0:0:0:
306,22,21759,1,0,0:0:0:0:
164,116,21887,5,0,3:2:0:0:
138,206,22014,1,0,3:2:0:0:
374,206,22143,5,8,0:0:0:0:
348,116,22270,1,0,0:0:0:0:
253,286,22398,5,0,3:2:0:0:
377,351,22526,1,0,3:2:0:0:
494,276,22653,2,0,B|516:231|516:231|485:167,1,100,8|0,0:0|0:0,0:0:0:0:
284,83,22909,5,2,3:2:0:0:
168,114,23036,1,0,0:0:0:0:
335,274,23164,1,10,0:2:0:0:
366,158,23291,1,0,0:0:0:0:
144,222,23419,1,2,3:2:0:0:
229,307,23546,1,0,3:2:0:0:
256,191,23675,1,8,0:0:0:0:
90,280,23802,5,8,0:0:0:0:
90,280,23866,1,8,0:0:0:0:
90,280,23930,2,0,B|24:279|45:318|-35:324,1,100,4|0,3:2|0:0,0:0:0:0:
92,361,24185,2,0,L|213:375,1,100,8|0,0:0|0:0,0:0:0:0:
254,303,24440,5,0,3:2:0:0:
332,352,24568,1,0,0:0:0:0:
480,286,24696,2,0,P|495:245|469:184,1,100,8|0,0:2|0:2,0:0:0:0:
264,213,24951,5,2,3:2:0:0:
186,262,25079,1,0,0:0:0:0:
38,196,25207,2,0,P|23:155|49:94,1,100,8|0,0:0|0:0,0:0:0:0:
254,123,25461,5,0,3:2:0:0:
332,172,25589,1,0,3:2:0:0:
480,106,25717,2,0,P|495:65|469:4,1,100,8|0,0:0|0:0,0:0:0:0:
264,33,25972,5,2,3:2:0:0:
254,123,26100,5,2,0:0:0:0:
264,213,26228,5,8,0:0:0:0:
254,303,26355,5,0,0:0:0:0:
403,322,26483,1,0,3:2:0:0:
418,172,26611,1,0,0:0:0:0:
480,106,26738,6,0,P|439:82|375:95,1,100,10|0,0:0|0:0,0:0:0:0:
123,296,26994,2,0,P|74:302|32:278,1,100,2|2,3:2|0:0,0:0:0:0:
4,184,27249,5,8,0:0:0:0:
62,102,27377,1,2,0:0:0:0:
115,184,27504,1,0,3:2:0:0:
174,102,27632,1,0,3:2:0:0:
228,184,27759,1,8,0:0:0:0:
286,102,27887,1,2,0:0:0:0:
507,199,28015,6,0,B|532:246|532:246|506:302,1,100,4|0,3:2|0:0,0:0:0:0:
227,287,28270,2,0,B|206:245|206:245|232:189,1,100,8|0,0:0|0:0,0:0:0:0:
372,168,28526,5,2,3:2:0:0:
444,241,28653,1,0,0:0:0:0:
372,315,28781,1,8,0:0:0:0:
298,241,28909,1,2,0:0:0:0:
387,154,29036,5,2,3:2:0:0:
457,256,29163,1,0,0:0:0:0:
356,328,29291,1,8,0:0:0:0:
284,225,29419,1,2,0:0:0:0:
402,140,29547,5,0,3:2:0:0:
470,271,29675,1,0,3:2:0:0:
340,341,29802,1,8,0:0:0:0:
269,207,29930,1,0,0:0:0:0:
48,358,30058,6,0,P|126:354|241:350,1,150,2|0,3:2|0:0,0:0:0:0:
210,359,30313,2,0,P|223:325|194:258,1,100,8|2,0:0|0:0,0:0:0:0:
12,162,30568,1,2,3:2:0:0:
29,264,30696,1,2,0:0:0:0:
181,176,30823,1,8,0:0:0:0:
164,74,30951,1,2,0:0:0:0:
368,20,31079,6,0,P|357:103|347:186,1,150,4|0,3:2|0:0,0:0:0:0:
385,241,31334,1,8,0:0:0:0:
499,373,31462,1,4,3:2:0:0:
492,359,31717,6,0,B|437:345|449:383|388:370,1,100,4|0,3:2|0:0,0:0:0:0:
395,371,33121,5,4,3:2:0:0:
302,324,33249,2,0,L|329:240,1,75.0000028610231,10|2,0:0|0:0,0:0:0:0:
116,245,33504,5,0,3:2:0:0:
209,198,33632,2,0,L|182:114,1,75.0000028610231,8|0,0:0|3:2,0:0:0:0:
253,54,33887,5,8,0:0:0:0:
253,54,34015,1,0,3:2:0:0:
297,27,34143,6,0,L|287:132,1,75.0000028610231,12|0,3:2|0:0,0:0:0:0:
213,93,34398,2,0,L|223:-12,1,75.0000028610231,12|2,0:0|0:0,0:0:0:0:
381,82,34653,5,0,0:0:0:0:
381,82,34909,1,2,0:0:0:0:
381,156,35036,1,2,0:0:0:0:
316,193,35164,1,4,3:2:0:0:
241,185,35292,1,8,0:0:0:0:
180,228,35419,1,2,0:0:0:0:
178,303,35547,1,2,0:0:0:0:
235,351,35675,1,8,0:2:0:0:
407,238,35802,5,0,3:2:0:0:
320,291,35930,1,8,0:0:0:0:
409,339,36058,1,0,3:2:0:0:
413,225,36185,1,8,0:0:0:0:
305,291,36313,1,0,0:0:0:0:
416,351,36441,1,12,3:2:0:0:
305,187,36568,6,0,B|250:173|262:211|201:198,1,100,2|0,0:2|0:0,0:0:0:0:
144,157,37206,6,0,P|131:187|132:209,1,50,6|0,3:2|0:0,0:0:0:0:
131,150,37717,2,0,P|118:180|119:202,1,50,2|0,3:2|0:0,0:0:0:0:
351,76,38228,6,0,P|364:106|363:128,1,50,2|0,3:2|0:0,0:0:0:0:
364,69,38739,2,0,P|377:99|376:121,1,50,2|2,3:2|0:0,0:0:0:0:
255,22,39249,6,0,L|247:75,1,50,2|0,3:2|0:0,0:0:0:0:
260,151,39760,2,0,L|268:204,1,50,0|0,3:2|0:0,0:0:0:0:
255,280,40270,2,0,L|247:333,1,50,0|2,3:2|0:0,0:0:0:0:
156,354,40781,5,2,3:2:0:0:
71,322,41036,1,2,0:0:0:0:
103,237,41292,1,2,3:2:0:0:
51,167,41547,5,0,0:0:0:0:
51,167,41802,2,0,L|40:113,1,50,2|0,3:2|0:0,0:0:0:0:
105,53,42313,5,2,3:2:0:0:
130,45,42568,1,2,0:0:0:0:
243,52,42823,5,2,3:2:0:0:
268,60,43078,1,2,0:0:0:0:
381,53,43334,5,2,3:2:0:0:
406,45,43589,1,2,0:0:0:0:
420,126,43845,5,2,3:2:0:0:
505,158,44100,1,2,0:0:0:0:
473,243,44356,1,2,3:2:0:0:
388,211,44611,1,2,0:0:0:0:
380,215,44739,1,0,0:0:0:0:
354,291,44866,6,0,L|298:299,1,50,2|2,3:2|0:0,0:0:0:0:
245,347,45377,2,0,P|229:325|227:296,1,50,2|2,3:2|0:0,0:0:0:0:
155,170,45887,6,0,L|211:178,1,50,2|2,3:2|0:0,0:0:0:0:
269,230,46398,1,0,3:2:0:0:
269,230,46653,2,0,P|285:208|287:179,2,50,2|2|2,0:0|3:2|0:0,0:0:0:0:
208,281,47419,1,0,3:2:0:0:
137,245,47675,1,0,0:0:0:0:
76,96,47930,6,0,P|85:73|87:39,1,50,2|0,3:2|0:0,0:0:0:0:
178,138,48440,2,0,P|154:142|123:157,1,50,2|0,3:2|0:0,0:0:0:0:
163,28,48823,1,2,0:0:0:0:
163,28,48951,2,0,P|178:47|207:66,1,50,2|2,3:2|0:0,0:0:0:0:
380,95,49462,5,2,3:2:0:0:
380,95,49717,1,2,0:0:0:0:
444,157,49972,1,2,3:2:0:0:
400,236,50228,2,0,P|379:248|351:244,1,50,2|0,0:0|3:2,0:0:0:0:
132,289,50738,5,2,0:0:0:0:
68,227,50993,1,2,3:2:0:0:
112,148,51249,2,0,P|133:136|161:140,1,50,2|2,0:0|3:2,0:0:0:0:
255,28,51760,5,2,0:0:0:0:
254,120,52015,2,0,L|263:11,1,75.0000028610231,2|0,3:2|0:0,0:0:0:0:
256,247,52270,5,2,0:0:0:0:
257,339,52525,2,0,L|248:230,1,75.0000028610231,2|0,3:2|0:0,0:0:0:0:
370,196,52781,5,0,0:0:0:0:
356,182,52909,1,2,0:0:0:0:
370,169,53036,1,2,3:2:0:0:
383,182,53164,1,0,0:0:0:0:
468,208,53292,5,2,0:0:0:0:
468,208,53547,2,0,P|372:185|264:170,1,200,4|0,3:2|0:0,0:0:0:0:
251,76,53930,1,0,0:0:0:0:
188,117,54058,2,0,P|121:123|69:146,1,100,8|0,0:0|0:0,0:0:0:0:
12,122,54313,2,0,P|18:189|41:241,1,100,2|0,0:0|0:0,0:0:0:0:
182,295,54568,6,0,B|271:289|237:336|335:330,1,150,2|0,3:2|0:0,0:0:0:0:
337,340,54823,1,0,3:2:0:0:
400,291,54951,1,0,0:0:0:0:
332,247,55079,5,8,0:0:0:0:
197,377,55334,1,2,0:0:0:0:
129,333,55462,1,0,0:0:0:0:
192,284,55589,6,0,B|211:240|211:240|184:189,1,100,2|0,3:2|0:0,0:0:0:0:
209,122,55845,1,2,0:0:0:0:
188,118,55972,1,2,0:0:0:0:
16,157,56100,2,0,B|-11:201|-11:201|15:255,1,100,8|0,0:0|0:0,0:0:0:0:
0,322,56355,2,0,L|134:332,1,100,2|0,0:0|0:0,0:0:0:0:
305,350,56611,5,4,3:2:0:0:
305,350,56866,1,8,0:0:0:0:
344,268,56994,1,0,0:0:0:0:
164,278,57121,1,8,0:0:0:0:
214,353,57249,1,0,0:0:0:0:
295,194,57377,1,8,0:0:0:0:
206,198,57504,1,2,0:0:0:0:
411,352,57632,6,0,L|424:295,1,50,4|0,3:2|0:0,0:0:0:0:
426,292,57887,2,0,L|439:235,1,50,2|0,3:2|0:0,0:0:0:0:
81,263,58143,6,0,L|68:206,1,50,2|0,3:2|0:0,0:0:0:0:
66,203,58398,2,0,L|53:146,1,50,2|0,3:2|0:0,0:0:0:0:
456,170,58653,6,0,L|469:113,1,50,2|0,3:2|0:0,0:0:0:0:
471,110,58908,2,0,L|484:53,1,50,2|0,3:2|0:0,0:0:0:0:
256,5,59164,5,2,3:2:0:0:
189,49,59292,1,0,0:0:0:0:
192,128,59419,1,2,3:2:0:0:
261,167,59547,1,2,0:0:0:0:
329,216,59675,5,4,3:2:0:0:
327,306,59802,1,0,0:0:0:0:
252,357,59930,5,8,0:0:0:0:
99,384,60058,1,0,3:2:0:0:
251,272,60185,5,8,0:0:0:0:
404,358,60313,1,0,3:2:0:0:
172,309,60440,5,8,0:0:0:0:
120,250,60568,1,0,3:2:0:0:
121,224,60632,1,0,3:2:0:0:
121,198,60696,6,0,B|125:167|125:167|218:149,1,100,4|0,3:2|0:0,0:0:0:0:
318,72,60951,6,0,B|343:91|343:91|312:180,1,100,4|0,3:2|0:0,0:0:0:0:
328,305,61206,6,0,B|299:317|299:317|237:246,1,100,4|0,3:2|0:0,0:0:0:0:
258,194,61462,5,2,0:0:0:0:
258,194,61589,1,0,0:0:0:0:
486,123,61717,6,0,B|521:191|521:191|487:269,1,150,4|0,3:2|0:0,0:0:0:0:
491,258,61972,2,0,P|446:261|382:266,1,100,8|2,0:0|0:0,0:0:0:0:
261,358,62228,2,0,P|216:361|152:366,1,100,0|0,3:2|3:2,0:0:0:0:
75,293,62483,1,8,0:0:0:0:
7,369,62611,1,2,0:0:0:0:
165,281,62738,5,2,3:2:0:0:
17,212,62866,1,0,0:0:0:0:
147,118,62994,1,8,0:0:0:0:
112,207,63121,1,0,0:0:0:0:
58,83,63249,1,2,3:2:0:0:
182,29,63377,1,0,3:2:0:0:
236,153,63505,1,10,0:0:0:0:
147,118,63632,1,2,0:0:0:0:
279,74,63760,6,0,P|265:161|252:290,1,200,2|8,3:2|0:0,0:0:0:0:
326,368,64143,1,2,0:0:0:0:
427,305,64270,1,0,3:2:0:0:
340,292,64398,5,0,3:2:0:0:
168,365,64526,2,0,P|163:319|147:256,1,100,8|2,0:0|0:0,0:0:0:0:
36,194,64781,5,2,3:2:0:0:
38,37,64909,1,2,0:0:0:0:
194,39,65036,1,10,0:0:0:0:
192,194,65164,1,2,0:0:0:0:
192,194,65419,1,0,3:2:0:0:
114,194,65547,1,8,0:0:0:0:
114,117,65675,1,2,0:0:0:0:
422,136,65802,6,0,P|415:191|410:266,1,100,4|0,3:2|0:0,0:0:0:0:
437,151,66058,2,0,P|430:206|425:281,1,100,10|0,0:0|0:0,0:0:0:0:
484,339,66313,5,2,3:2:0:0:
404,345,66440,1,2,3:2:0:0:
324,351,66568,1,8,0:0:0:0:
244,357,66696,1,2,0:0:0:0:
90,248,66823,6,0,P|97:193|102:118,1,100,2|0,3:2|0:0,0:0:0:0:
75,233,67079,2,0,P|82:178|87:103,1,100,10|0,0:2|0:0,0:0:0:0:
28,45,67334,5,2,3:2:0:0:
108,39,67461,1,2,3:2:0:0:
188,33,67589,1,8,0:0:0:0:
268,27,67717,1,0,0:0:0:0:
439,16,67845,6,0,B|464:61|464:61|437:117,1,100,2|0,3:2|0:0,0:0:0:0:
477,177,68100,1,10,0:0:0:0:
399,192,68228,1,2,0:0:0:0:
295,289,68355,1,0,3:2:0:0:
217,289,68483,1,0,3:2:0:0:
113,192,68611,1,8,0:0:0:0:
35,177,68739,1,2,0:0:0:0:
158,116,68866,6,0,P|195:161|192:224,1,100,2|0,3:2|0:0,0:0:0:0:
313,200,69121,2,0,P|320:152|354:116,1,100,8|0,0:0|0:0,0:0:0:0:
295,61,69377,1,0,3:2:0:0:
217,61,69505,1,0,3:2:0:0:
256,124,69632,1,8,0:0:0:0:
256,0,69760,1,8,0:0:0:0:
55,107,69887,6,0,B|11:193|11:193|53:289,1,200,4|8,3:2|0:0,0:0:0:0:
52,287,70398,1,0,3:2:0:0:
136,358,70526,1,0,3:2:0:0:
241,328,70653,1,8,0:0:0:0:
251,218,70781,1,2,0:0:0:0:
155,163,70909,5,2,3:2:0:0:
152,256,71036,1,0,0:0:0:0:
345,158,71164,1,8,0:0:0:0:
265,108,71291,1,2,0:0:0:0:
254,325,71419,1,2,3:2:0:0:
337,280,71546,1,2,3:2:0:0:
251,218,71675,2,0,L|239:335,1,100,10|2,0:0|3:2,0:0:0:0:
26,142,71930,6,0,P|59:93|197:81,1,200,4|8,3:2|0:0,0:0:0:0:
100,275,72313,5,2,0:0:0:0:
39,231,72440,2,0,P|34:155|126:76,1,200,4|8,3:2|0:0,0:0:0:0:
326,21,72823,5,2,0:0:0:0:
382,76,72951,2,0,P|391:130|375:204,1,100,4|0,3:2|0:0,0:0:0:0:
130,308,73206,2,0,P|121:254|137:180,1,100,8|2,0:0|0:0,0:0:0:0:
247,127,73462,1,4,3:2:0:0:
265,257,73589,1,2,0:0:0:0:
483,195,73717,1,8,0:0:0:0:
483,195,73972,6,0,L|496:74,1,100,4|0,3:2|0:0,0:0:0:0:
379,188,74228,2,0,L|392:309,1,100,8|0,0:0|0:0,0:0:0:0:
275,195,74483,2,0,L|288:74,1,100,0|0,3:2|3:2,0:0:0:0:
171,188,74738,2,0,L|184:309,1,100,8|0,0:0|0:0,0:0:0:0:
67,195,74994,2,0,L|80:74,1,100,2|0,3:2|0:0,0:0:0:0:
256,35,75249,5,10,0:0:0:0:
256,35,75504,1,2,3:2:0:0:
256,135,75632,1,0,3:2:0:0:
257,235,75760,1,10,0:0:0:0:
257,334,75887,1,0,0:0:0:0:
408,332,76015,6,0,P|422:284|409:237,1,100,2|0,3:2|0:0,0:0:0:0:
104,52,76270,2,0,P|89:99|102:146,1,100,8|0,0:0|0:0,0:0:0:0:
210,314,76526,5,0,3:2:0:0:
306,308,76653,1,0,3:2:0:0:
300,210,76781,1,10,0:0:0:0:
202,216,76909,1,0,0:0:0:0:
265,370,77036,5,2,3:2:0:0:
245,149,77164,1,0,0:0:0:0:
163,322,77292,5,10,0:0:0:0:
344,195,77419,1,0,0:0:0:0:
154,212,77547,5,0,3:2:0:0:
354,305,77675,1,0,3:2:0:0:
48,162,77802,5,8,0:0:0:0:
54,55,77930,1,8,0:0:0:0:
54,55,77994,1,8,0:0:0:0:
54,55,78058,2,0,P|151:42|285:43,1,200,4|8,3:2|0:0,0:0:0:0:
271,39,78568,1,0,3:2:0:0:
340,0,78696,1,0,3:2:0:0:
471,33,78823,2,0,B|498:76|498:76|462:135,1,100,8|0,0:0|0:0,0:0:0:0:
235,123,79079,5,2,3:2:0:0:
166,84,79207,1,0,0:0:0:0:
35,117,79334,2,0,B|8:160|8:160|44:219,1,100,8|0,0:0|0:0,0:0:0:0:
271,207,79589,5,2,3:2:0:0:
340,168,79717,1,0,0:0:0:0:
471,201,79844,2,0,B|498:244|498:244|462:303,1,100,10|0,0:2|0:0,0:0:0:0:
235,291,80100,5,2,3:2:0:0:
166,252,80228,1,0,0:0:0:0:
35,285,80355,2,0,B|8:328|8:328|44:387,1,100,8|0,0:2|0:0,0:0:0:0:
271,375,80611,5,0,3:2:0:0:
235,291,80738,5,0,3:2:0:0:
271,207,80866,5,8,0:0:0:0:
235,123,80994,5,0,0:0:0:0:
271,39,81121,5,2,3:2:0:0:
357,11,81249,1,2,0:0:0:0:
437,52,81377,1,8,0:0:0:0:
512,8,81504,1,2,0:0:0:0:
241,345,81632,5,2,3:2:0:0:
155,373,81760,1,0,3:2:0:0:
75,332,81888,1,8,0:0:0:0:
0,376,82015,1,0,0:0:0:0:
167,186,82143,6,0,P|173:234|176:288,1,100,4|0,3:2|0:0,0:0:0:0:
175,180,82398,2,0,P|181:228|184:282,1,100,8|0,0:0|0:0,0:0:0:0:
344,139,82653,6,0,P|338:187|335:241,1,100,2|2,3:2|3:2,0:0:0:0:
336,133,82908,2,0,P|330:181|327:235,1,100,8|2,0:0|0:0,0:0:0:0:
62,63,83164,6,0,P|68:111|71:165,1,100,2|2,3:2|0:0,0:0:0:0:
70,57,83419,2,0,P|76:105|79:159,1,100,8|2,0:0|0:0,0:0:0:0:
464,36,83675,6,0,P|458:84|455:138,1,100,0|0,3:2|0:0,0:0:0:0:
456,30,83930,2,0,P|450:78|447:132,1,100,8|0,0:0|0:0,0:0:0:0:
256,192,84185,5,2,3:2:0:0:
150,147,84440,1,10,0:0:0:0:
204,97,84568,1,2,0:0:0:0:
271,306,84696,1,2,3:2:0:0:
200,284,84824,1,2,3:2:0:0:
348,122,84951,1,10,0:0:0:0:
365,194,85079,1,2,0:0:0:0:
443,203,85206,6,0,B|336:190|376:306|266:321,1,200,4|8,3:2|0:0,0:0:0:0:
256,192,85589,1,4,3:2:0:0:
424,30,85845,2,0,P|432:57|434:91,1,59.9999981689454,4|0,3:2|0:0,0:0:0:0:
448,89,86738,5,2,0:1:0:0:
437,102,86866,1,2,0:1:0:0:
424,91,86994,1,2,0:1:0:0:
436,78,87121,1,2,0:1:0:0:
512,115,87249,6,0,P|441:124|356:146,1,150,4|0,3:2|0:0,0:0:0:0:
350,138,87504,2,0,P|334:185|349:236,1,100,8|0,0:0|0:0,0:0:0:0:
77,224,87760,6,0,P|148:233|233:255,1,150,0|0,3:2|0:0,0:0:0:0:
239,247,88015,2,0,P|255:294|240:345,1,100,8|0,0:0|0:0,0:0:0:0:
12,150,88270,5,2,3:2:0:0:
12,150,88526,1,8,0:0:0:0:
106,113,88653,1,2,3:2:0:0:
106,113,88909,1,2,3:2:0:0:
196,155,89037,1,8,0:0:0:0:
288,119,89164,1,2,0:0:0:0:
379,160,89292,2,0,B|423:247|423:247|373:355,1,200,2|8,3:2|0:0,0:0:0:0:
193,340,89675,2,0,B|170:296|170:296|202:231,1,100,2|2,3:2|0:0,0:0:0:0:
281,205,89930,1,0,3:2:0:0:
313,244,90058,1,8,0:0:0:0:
294,283,90185,1,2,0:0:0:0:
53,220,90313,6,0,P|84:151|209:171,1,200,2|8,3:2|0:0,0:0:0:0:
416,128,90696,2,0,P|397:87|323:98,1,100,0|2,0:0|3:2,0:0:0:0:
376,199,90951,1,2,0:0:0:0:
446,236,91079,1,8,0:0:0:0:
489,169,91206,1,2,0:0:0:0:
261,21,91334,5,4,3:2:0:0:
254,50,91462,1,2,0:0:0:0:
253,170,91589,5,8,0:0:0:0:
257,205,91717,1,2,0:0:0:0:
258,334,91845,5,2,3:2:0:0:
253,373,91972,1,2,0:0:0:0:
236,351,92100,1,8,0:0:0:0:
275,356,92227,1,2,0:0:0:0:
90,374,92355,6,0,P|73:339|112:242,1,150,2|0,3:2|0:0,0:0:0:0:
120,167,92611,1,8,0:0:0:0:
120,167,92738,2,0,B|179:170|162:210|217:215,1,100,2|0,3:2|0:0,0:0:0:0:
437,248,92994,5,2,3:2:0:0:
494,192,93121,1,8,0:0:0:0:
437,140,93249,1,2,0:0:0:0:
18,192,93377,5,4,3:2:0:0:
255,366,93632,5,8,0:0:0:0:
494,192,93887,5,4,3:2:0:0:
255,18,94143,5,8,0:0:0:0:
255,18,94270,1,0,0:0:0:0:
181,42,94398,2,0,B|164:42|108:83|241:233|347:169|256:44|493:4|507:226|345:269|386:54,1,479.999985351563,4|2,3:2|3:2,0:0:0:0:
390,59,95036,1,2,0:0:0:0:
457,23,95164,1,8,0:0:0:0:
512,75,95292,1,8,0:0:0:0:
507,188,95419,5,4,3:2:0:0:
507,188,95675,1,8,0:0:0:0:
470,257,95802,1,2,0:0:0:0:
395,274,95930,1,0,3:2:0:0:
331,228,96058,1,0,0:0:0:0:
259,204,96185,1,8,0:0:0:0:
189,239,96313,1,0,0:0:0:0:
191,318,96440,1,2,3:2:0:0:
191,318,96696,1,8,0:0:0:0:
266,355,96823,1,2,3:2:0:0:
266,355,97079,1,2,3:2:0:0:
331,308,97206,1,8,0:0:0:0:
331,228,97334,1,2,0:0:0:0:
259,204,97462,1,2,3:2:0:0:
259,204,97717,1,8,0:0:0:0:
187,172,97845,1,2,0:0:0:0:
187,172,98100,1,2,3:2:0:0:
174,94,98228,1,8,0:0:0:0:
233,40,98355,1,2,0:0:0:0:
447,29,98483,5,2,3:2:0:0:
447,29,98738,1,8,0:0:0:0:
491,94,98866,1,2,0:0:0:0:
324,94,98994,1,2,3:2:0:0:
365,28,99121,1,2,3:2:0:0:
447,162,99249,1,8,0:0:0:0:
368,161,99377,1,2,0:0:0:0:
250,44,99504,5,4,3:2:0:0:
254,21,99632,1,2,0:0:0:0:
258,199,99760,5,8,0:0:0:0:
251,120,99887,1,2,0:0:0:0:
251,374,100015,5,2,3:2:0:0:
257,279,100143,1,2,3:2:0:0:
317,330,100270,1,8,0:0:0:0:
190,322,100398,1,2,0:0:0:0:
27,351,100526,5,2,3:2:0:0:
16,361,100653,1,0,0:0:0:0:
26,372,100781,1,8,0:0:0:0:
36,362,100909,1,2,0:0:0:0:
115,366,101036,5,0,3:2:0:0:
256,276,101164,1,0,3:2:0:0:
397,366,101292,1,8,0:0:0:0:
478,191,101547,5,0,3:2:0:0:
34,191,101802,5,8,0:0:0:0:
115,285,102058,5,2,3:2:0:0:
256,375,102186,1,0,3:2:0:0:
397,285,102314,1,10,0:0:0:0:
499,23,102568,5,4,3:2:0:0:
496,42,102823,1,0,0:0:0:0:
382,53,103079,5,2,3:2:0:0:
376,13,103334,1,2,0:0:0:0:
249,0,103589,5,2,3:2:0:0:
255,80,103845,1,2,0:0:0:0:
255,80,103972,1,2,0:0:0:0:
130,53,104100,5,2,3:2:0:0:
136,13,104355,1,2,0:0:0:0:
13,23,104611,5,2,3:2:0:0:
16,42,104866,1,2,0:0:0:0:
100,153,105121,5,2,3:2:0:0:
114,231,105377,1,2,0:0:0:0:
256,291,105632,5,2,3:2:0:0:
255,107,105887,1,2,0:0:0:0:
255,107,106015,1,2,0:0:0:0:
412,153,106143,5,2,3:2:0:0:
400,232,106398,2,0,L|394:278,1,37.5,2|2,0:0|0:0,0:0:0:0:
403,345,106653,6,0,B|461:342|438:309|494:309,2,100.000003814697,14|2|2,3:2|0:1|0:1,0:0:0:0:
331,310,106909,2,0,P|270:302|193:307,1,100.000003814697,8|2,0:0|0:1,0:0:0:0:
15,361,107079,2,0,P|32:351|52:347,1,40,2|2,0:1|0:1,0:0:0:0:
63,269,107419,5,10,0:1:0:0:
77,258,107504,5,2,0:1:0:0:
92,263,107589,5,2,0:1:0:0:
97,254,107675,6,0,B|99:312|132:289|132:345,2,100.000003814697,2|0|2,3:1|0:0|0:1,0:0:0:0:
22,205,107931,2,0,P|57:181|142:192,1,100.000003814697,8|0,0:0|0:0,0:0:0:0:
326,211,108101,2,0,P|309:201|290:197,1,40,2|0,0:1|0:0,0:0:0:0:
246,104,108440,6,0,B|245:162|212:139|212:197,2,100.000003814697,8|0|0,0:0|0:0|0:0,0:0:0:0:
328,33,108696,6,0,P|369:11|431:30,1,100.000003814697,6|2,3:1|0:1,0:0:0:0:
512,118,108866,1,2,0:1:0:0:
512,118,108951,2,0,P|476:113|458:91,1,50.0000019073487,10|2,0:1|0:1,0:0:0:0:
352,108,109121,5,2,0:1:0:0:
352,108,109206,2,0,P|391:132|406:195,1,100.000003814697,6|2,3:1|0:1,0:0:0:0:
370,309,109376,1,2,0:1:0:0:
370,309,109462,2,0,P|356:275|366:248,1,50.0000019073487,10|2,0:1|0:1,0:0:0:0:
299,166,109632,5,2,0:1:0:0:
299,166,109717,2,0,P|297:212|250:256,1,100.000003814697,6|0,3:1|0:1,0:0:0:0:
133,282,109887,1,2,0:1:0:0:
133,282,109972,2,0,P|155:253|183:248,1,50.0000019073487,10|0,0:1|0:1,0:0:0:0:
215,311,110143,5,2,0:1:0:0:
130,359,110228,2,0,B|90:416|-83:268|94:114|129:180,1,333.333333333333,6|0,3:1|0:0,0:0:0:0:
167,248,110738,5,4,3:2:0:0:
215,311,110994,1,0,0:0:0:0:
297,311,111249,5,2,3:2:0:0:
345,248,111505,1,0,0:0:0:0:
426,248,111760,5,2,3:2:0:0:
478,315,112016,1,2,0:0:0:0:
478,315,112143,1,2,0:0:0:0:
512,195,112270,5,2,0:0:0:0:
386,180,112526,1,2,0:0:0:0:
126,180,112780,5,2,3:2:0:0:
0,195,113036,1,2,0:0:0:0:
258,166,113292,5,0,3:2:0:0:
259,248,113547,1,2,0:0:0:0:
259,248,113675,1,2,0:0:0:0:
255,11,113802,5,2,3:2:0:0:
257,91,114058,1,2,0:0:0:0:
257,91,114185,1,2,0:0:0:0:
184,47,114313,5,0,3:2:0:0:
324,50,114568,2,0,L|368:50,1,37.5,2|0,0:0|0:0,0:0:0:0:
433,84,114823,6,0,P|444:48|432:14,2,75.0000028610231,4|0|0,3:2|0:0|3:2,0:0:0:0:
351,198,115079,5,8,0:0:0:0:
370,324,115206,1,2,3:2:0:0:
142,324,115334,5,10,0:0:0:0:
161,198,115461,1,2,0:0:0:0:
301,275,115589,5,8,0:0:0:0:
210,276,115717,1,2,0:0:0:0:
210,276,115781,1,2,0:0:0:0:
210,276,115845,2,0,P|191:307|225:375,1,100,4|0,3:2|3:2,0:0:0:0:
303,364,116100,2,0,P|322:319|302:276,1,100,12|0,0:0|0:0,0:0:0:0:
256,192,116355,5,0,3:2:0:0:
227,159,116440,5,0,3:2:0:0:
235,116,116526,5,0,3:2:0:0:
271,99,116611,5,8,3:0:0:0:
292,55,116696,5,8,3:0:0:0:
281,23,116781,5,8,3:0:0:0:
265,27,116866,6,0,P|262:75|269:219,1,150.000005722046,4|2,3:2|0:0,0:0:0:0:
392,139,117121,5,8,0:0:0:0:
415,63,117249,1,2,0:0:0:0:
97,142,117377,5,8,0:0:0:0:
122,238,117504,1,2,0:0:0:0:
390,370,117632,5,8,0:0:0:0:
427,255,117760,1,2,0:0:0:0:
427,255,117823,1,0,0:0:0:0:
427,255,117887,2,0,P|378:245|305:237,1,100,4|0,3:2|0:0,0:0:0:0:
85,129,118143,2,0,P|134:139|207:147,1,100,12|0,3:2|0:0,0:0:0:0:
268,175,118398,6,0,L|241:213,9,33.3333333333333,2|0|0|0|0|0|0|0|0|0,0:0|0:0|0:0|0:0|0:0|0:0|0:0|0:0|0:0|0:0,0:0:0:0:
320,118,118909,1,0,0:0:0:0:
320,118,119036,1,0,3:2:0:0:
399,77,119164,6,0,P|329:74|210:67,1,179.999994506836,12|0,0:0|0:0,0:0:0:0:
208,57,119419,2,0,P|166:110|192:160,1,119.999996337891,2|0,3:2|0:0,0:0:0:0:
320,231,119675,1,8,0:0:0:0:
320,118,119802,1,2,0:0:0:0:
241,283,119930,5,2,3:2:0:0:
324,329,120057,1,0,0:0:0:0:
405,278,120185,1,8,0:0:0:0:
480,328,120313,1,2,0:0:0:0:
237,368,120440,5,2,3:2:0:0:
320,231,120568,1,2,3:2:0:0:
412,364,120696,1,10,0:0:0:0:
324,316,120823,1,2,0:0:0:0:
416,95,120951,6,0,B|464:181|464:181|417:283,1,200,2|8,3:2|0:0,0:0:0:0:
237,368,121334,5,2,0:0:0:0:
152,320,121462,2,0,B|128:277|128:277|151:226,1,100,0|0,3:2|3:2,0:0:0:0:
318,141,121717,2,0,B|342:184|342:184|318:235,1,100,8|2,0:0|0:0,0:0:0:0:
104,51,121972,1,2,3:2:0:0:
114,64,122228,5,8,0:0:0:0:
207,30,122355,1,2,0:0:0:0:
300,66,122483,1,2,3:2:0:0:
392,29,122611,1,2,3:2:0:0:
482,73,122738,2,0,P|499:125|463:187,1,100,8|2,0:0|0:0,0:0:0:0:
256,192,122994,5,4,3:2:0:0:
256,192,123121,1,0,0:0:0:0:
310,136,123249,5,8,0:0:0:0:
332,210,123377,1,0,0:0:0:0:
181,172,123504,5,0,3:2:0:0:
233,116,123632,1,0,3:2:0:0:
277,266,123760,5,8,0:0:0:0:
202,249,123888,1,0,0:0:0:0:
316,129,124015,5,0,3:2:0:0:
342,212,124143,1,0,0:0:0:0:
171,170,124270,5,10,0:0:0:0:
230,107,124398,1,2,0:0:0:0:
279,275,124526,5,0,3:2:0:0:
195,256,124654,1,0,3:2:0:0:
376,357,124781,6,0,P|388:315|413:243,1,100,8|0,0:0|0:0,0:0:0:0:
396,353,125036,2,0,P|408:311|433:239,1,100,0|0,3:2|0:0,0:0:0:0:
117,270,125292,6,0,P|105:228|80:156,1,100,8|0,0:0|0:0,0:0:0:0:
97,266,125547,2,0,P|85:224|60:152,1,100,0|0,3:2|3:2,0:0:0:0:
394,155,125802,6,0,P|406:113|431:41,1,100,8|2,0:0|0:0,0:0:0:0:
414,151,126057,2,0,P|426:109|451:37,1,100,0|0,3:2|0:0,0:0:0:0:
201,76,126313,5,8,0:0:0:0:
239,235,126440,1,0,0:0:0:0:
302,85,126568,1,0,3:2:0:0:
162,168,126696,1,0,3:2:0:0:
324,183,126823,1,8,0:0:0:0:
245,147,126951,1,8,0:0:0:0:
336,266,127079,6,0,B|425:240|393:340|492:366,1,179.999994506836,4|0,3:2|0:0,0:0:0:0:
484,365,127334,2,0,P|513:333|465:243,1,119.999996337891,8|2,0:0|0:0,0:0:0:0:
512,188,127589,1,0,3:2:0:0:
422,107,127717,1,0,3:2:0:0:
333,188,127845,1,8,0:0:0:0:
422,181,127972,1,2,0:0:0:0:
294,105,128100,5,2,3:2:0:0:
202,133,128228,1,0,0:0:0:0:
227,225,128355,1,8,0:0:0:0:
319,197,128483,1,2,0:0:0:0:
178,320,128611,5,2,3:2:0:0:
69,267,128739,1,2,3:2:0:0:
118,158,128866,1,10,0:0:0:0:
227,211,128994,1,2,0:0:0:0:
419,318,129121,6,0,P|314:320|178:334,1,239.999992675781,4|8,3:2|0:0,0:0:0:0:
346,362,129504,5,2,0:0:0:0:
431,328,129632,2,0,P|480:274|426:130,1,239.999992675781,4|8,3:2|0:0,0:0:0:0:
448,53,130015,5,2,0:0:0:0:
448,53,130079,1,0,0:0:0:0:
448,53,130143,2,0,B|374:41|399:83|334:77,1,119.999996337891,4|0,3:2|0:0,0:0:0:0:
72,46,130398,5,8,0:0:0:0:
125,120,130526,1,2,3:2:0:0:
75,202,130653,2,0,P|52:251|79:315,1,119.999996337891,2|0,3:2|3:2,0:0:0:0:
366,345,130909,2,0,P|387:290|364:237,1,119.999996337891,8|0,0:0|3:2,0:0:0:0:
210,85,131164,5,4,3:2:0:0:
150,234,131292,1,0,0:0:0:0:
298,293,131419,1,8,0:0:0:0:
358,145,131547,1,0,0:0:0:0:
194,86,131675,5,0,3:2:0:0:
150,250,131803,1,0,3:2:0:0:
314,293,131930,1,8,0:0:0:0:
357,130,132058,1,0,0:0:0:0:
177,86,132185,5,2,3:2:0:0:
150,265,132313,1,0,0:0:0:0:
329,292,132440,1,10,0:0:0:0:
356,113,132568,1,0,0:0:0:0:
158,85,132696,5,0,3:2:0:0:
148,282,132823,1,0,3:2:0:0:
345,291,132951,1,8,0:0:0:0:
355,95,133079,1,0,0:0:0:0:
83,197,133206,6,0,P|72:264|58:329,1,119.999996337891,4|2,3:2|3:2,0:0:0:0:
426,185,133462,2,0,P|437:118|451:53,1,119.999996337891,8|0,0:0|0:0,0:0:0:0:
234,130,133717,5,0,3:2:0:0:
278,254,133845,1,0,3:2:0:0:
234,130,133972,1,8,0:0:0:0:
278,254,134100,1,0,0:0:0:0:
291,69,134228,5,2,3:2:0:0:
221,315,134355,1,0,0:0:0:0:
291,69,134483,1,8,0:0:0:0:
221,315,134610,1,0,0:0:0:0:
88,143,134738,5,0,3:2:0:0:
256,192,134866,1,0,3:2:0:0:
424,241,134994,1,8,0:0:0:0:
512,256,135121,5,8,0:0:0:0:
512,256,135185,1,8,0:0:0:0:
512,256,135249,2,0,P|410:277|306:313,1,200,4|8,3:2|0:0,0:0:0:0:
117,361,135632,5,0,0:0:0:0:
50,302,135760,2,0,P|51:255|51:185,1,100,0|0,3:2|0:0,0:0:0:0:
114,88,136015,5,8,0:0:0:0:
185,34,136143,1,0,0:0:0:0:
253,92,136270,2,0,P|252:144|253:209,1,100,2|0,3:2|0:0,0:0:0:0:
177,322,136526,5,8,0:0:0:0:
256,370,136653,1,2,0:0:0:0:
335,322,136781,1,2,3:2:0:0:
256,274,136909,1,0,3:2:0:0:
165,307,137036,6,0,P|122:335|71:360,1,100,8|0,0:0|0:0,0:0:0:0:
347,337,137292,2,0,P|390:309|441:284,1,100,2|2,3:2|0:0,0:0:0:0:
180,146,137547,6,0,P|160:207|181:238,1,100,8|0,0:0|0:0,0:0:0:0:
335,234,137802,2,0,P|353:189|331:145,1,100,0|0,3:2|0:0,0:0:0:0:
413,64,138058,5,8,0:0:0:0:
413,64,138313,1,2,3:2:0:0:
308,30,138440,1,2,0:0:0:0:
202,61,138568,1,10,0:0:0:0:
97,25,138696,1,2,0:0:0:0:
137,178,138823,5,2,3:2:0:0:
199,79,138951,1,2,3:2:0:0:
9,117,139079,5,10,0:0:0:0:
66,270,139206,1,2,0:0:0:0:
324,362,139334,6,0,P|332:319|353:239,1,100,4|0,3:2|0:0,0:0:0:0:
188,362,139589,2,0,P|180:319|159:239,1,100,8|0,0:0|0:0,0:0:0:0:
341,353,139845,2,0,P|349:310|370:230,1,100,2|2,3:2|3:2,0:0:0:0:
171,353,140100,2,0,P|163:310|142:230,1,100,8|2,0:0|0:0,0:0:0:0:
426,207,140355,6,0,P|440:159|460:101,1,100,0|0,3:2|0:0,0:0:0:0:
86,207,140611,2,0,P|72:159|52:101,1,100,8|0,0:0|0:0,0:0:0:0:
445,201,140866,2,0,P|459:153|479:95,1,100,2|2,3:2|3:2,0:0:0:0:
67,201,141121,2,0,P|53:153|33:95,1,100,10|2,0:0|0:0,0:0:0:0:
256,73,141377,5,2,3:2:0:0:
256,73,141504,1,0,0:0:0:0:
312,16,141632,1,10,0:0:0:0:
382,57,141760,1,2,0:0:0:0:
199,129,141888,1,2,3:2:0:0:
129,88,142016,1,0,3:2:0:0:
199,16,142143,1,8,0:0:0:0:
312,129,142271,1,2,0:0:0:0:
158,335,142398,6,0,P|174:235|189:137,1,200,2|8,3:2|0:0,0:0:0:0:
271,207,142781,1,2,3:2:0:0:
87,240,142909,5,0,0:0:0:0:
57,150,143036,1,2,3:2:0:0:
271,207,143164,2,0,P|263:268|256:333,1,100,8|0,0:0|0:0,0:0:0:0:
384,98,143419,6,0,P|302:109|150:149,2,200,4|8|0,3:2|0:0|3:2,0:0:0:0:
458,130,144058,1,0,0:0:0:0:
429,204,144185,1,8,0:0:0:0:
355,179,144313,1,2,3:2:0:0:
505,188,144440,5,0,3:2:0:0:
462,278,144568,1,0,0:0:0:0:
365,249,144696,1,8,0:0:0:0:
408,159,144823,1,2,0:0:0:0:
397,318,144951,5,0,3:2:0:0:
254,367,145079,1,2,3:2:0:0:
210,224,145206,1,8,0:0:0:0:
355,179,145334,1,0,0:0:0:0:
186,328,145462,5,4,3:2:0:0:
107,381,145589,1,2,0:0:0:0:
33,322,145717,2,0,L|17:195,1,100,10|2,0:0|0:0,0:0:0:0:
85,134,145972,1,2,3:2:0:0:
0,72,146100,1,2,0:0:0:0:
12,147,146228,2,0,P|91:149|193:158,1,150,8|0,0:0|0:0,0:0:0:0:
161,154,146483,6,0,P|172:109|136:41,1,100,4|0,3:2|0:0,0:0:0:0:
20,222,146738,1,8,0:0:0:0:
171,312,146866,1,4,3:2:0:0:
180,300,147121,6,0,B|299:282|253:369|375:384,1,220,6|0,3:2|0:0,0:0:0:0:
372,383,149036,5,2,0:1:0:0:
446,359,149164,5,2,0:1:0:0:
462,282,149292,5,2,0:1:0:0:
410,223,149419,5,2,0:1:0:0:
405,140,149547,6,0,P|320:148|183:169,1,179.999994506836,4|0,3:2|0:0,0:0:0:0:
226,161,149802,2,0,P|220:217|257:252,1,100,8|0,0:0|0:0,0:0:0:0:
156,262,150058,6,0,P|241:270|378:291,1,179.999994506836,0|0,3:2|0:0,0:0:0:0:
334,283,150313,2,0,P|340:338|303:373,1,100,8|0,0:0|0:0,0:0:0:0:
14,379,150568,5,2,3:2:0:0:
14,379,150823,1,8,0:0:0:0:
57,301,150951,1,2,3:2:0:0:
57,301,151206,1,2,3:2:0:0:
1,229,151334,1,8,0:0:0:0:
52,155,151462,1,2,0:0:0:0:
5,84,151589,5,2,3:2:0:0:
5,84,151845,1,8,0:0:0:0:
97,36,151972,2,0,B|194:20|151:147|255:147,1,200,2|0,3:2|3:0,0:0:0:0:
327,61,152355,2,0,P|301:12|258:-1,1,100,8|2,0:0|0:0,0:0:0:0:
252,72,152611,6,0,P|256:166|258:303,1,200,2|10,3:2|0:2,0:0:0:0:
259,354,152994,5,0,0:0:0:0:
259,354,153121,1,2,3:2:0:0:
178,384,153249,5,2,0:0:0:0:
79,376,153377,5,8,0:0:0:0:
26,286,153504,5,2,0:0:0:0:
89,175,153632,5,4,3:2:0:0:
160,139,153760,1,2,0:0:0:0:
158,299,153887,5,8,0:0:0:0:
92,254,154015,1,2,0:0:0:0:
231,176,154142,5,2,3:2:0:0:
226,255,154270,1,2,0:0:0:0:
161,217,154398,1,8,0:0:0:0:
351,263,154526,5,2,0:0:0:0:
351,263,154589,1,0,0:0:0:0:
351,263,154653,2,0,P|352:315|354:393,1,100,2|0,3:2|0:0,0:0:0:0:
458,255,154909,1,8,0:0:0:0:
342,165,155036,1,2,3:2:0:0:
342,165,155292,1,2,3:2:0:0:
226,255,155419,1,8,0:0:0:0:
340,343,155547,1,2,0:0:0:0:
341,270,155675,5,4,3:2:0:0:
341,240,155802,1,0,0:0:0:0:
171,114,155930,5,8,0:0:0:0:
171,144,156057,1,0,0:0:0:0:
422,218,156185,6,0,P|419:150|420:56,1,139.999995727539,4|0,3:2|0:0,0:0:0:0:
90,166,156440,2,0,P|93:234|92:328,1,139.999995727539,8|0,0:0|0:0,0:0:0:0:
207,347,156696,5,6,3:2:0:0:
302,368,156823,1,2,0:0:0:0:
323,278,156951,5,10,0:0:0:0:
201,325,157079,1,2,0:0:0:0:
181,203,157206,5,2,3:2:0:0:
329,256,157334,1,2,0:0:0:0:
364,126,157462,5,10,0:0:0:0:
175,181,157589,1,10,0:0:0:0:
315,80,157717,6,0,L|521:103,1,179.999994506836,4|0,3:2|0:0,0:0:0:0:
493,99,157972,2,0,B|510:147|510:147|473:201,1,100,8|2,0:0|0:0,0:0:0:0:
442,297,158228,5,0,3:2:0:0:
365,333,158355,1,0,3:2:0:0:
329,256,158483,1,8,0:0:0:0:
406,220,158611,1,2,0:0:0:0:
261,129,158738,6,0,L|54:152,1,179.999994506836,2|0,3:2|0:0,0:0:0:0:
83,150,158994,2,0,B|60:197|60:197|92:254,1,100,8|0,0:0|0:0,0:0:0:0:
137,330,159249,5,2,3:2:0:0:
214,366,159376,1,0,3:2:0:0:
250,289,159504,1,8,0:0:0:0:
173,253,159632,1,0,0:0:0:0:
301,380,159760,6,0,L|506:380,1,200,2|8,3:2|0:0,0:0:0:0:
211,4,160270,6,0,L|6:4,1,200,2|8,3:2|0:0,0:0:0:0:
159,175,160781,6,0,B|279:155|234:229|390:201,1,200,2|8,3:2|0:0,0:0:0:0:
414,256,161164,1,2,0:0:0:0:
472,200,161292,1,2,3:2:0:0:
409,151,161419,1,0,3:2:0:0:
203,251,161547,2,0,P|187:301|206:352,1,100,8|0,0:0|3:0,0:0:0:0:
79,360,161802,6,0,P|81:280|79:126,1,200,4|8,3:2|0:0,0:0:0:0:
433,24,162313,6,0,P|431:104|433:258,1,200,2|8,3:2|0:0,0:0:0:0:
208,351,162823,5,4,3:2:0:0:
299,330,162951,1,0,0:0:0:0:
208,351,163079,1,8,0:0:0:0:
299,330,163207,1,0,0:0:0:0:
142,304,163334,5,2,3:2:0:0:
365,377,163462,1,0,0:0:0:0:
142,304,163589,1,10,0:0:0:0:
365,377,163717,1,0,0:0:0:0:
228,249,163845,6,0,P|218:199|202:132,1,100,4|0,3:2|0:0,0:0:0:0:
284,135,164100,2,0,P|294:185|310:252,1,100,8|2,0:0|0:2,0:0:0:0:
122,167,164355,6,0,P|138:118|157:52,1,100,2|0,3:2|0:0,0:0:0:0:
390,217,164611,2,0,P|373:265|354:331,1,100,10|2,0:0|0:0,0:0:0:0:
491,182,164866,5,4,3:2:0:0:
329,118,164994,1,0,0:0:0:0:
183,266,165121,1,10,0:2:0:0:
21,202,165249,1,0,0:2:0:0:
256,163,165377,5,2,3:2:0:0:
284,192,165504,1,0,0:0:0:0:
256,220,165632,1,8,0:0:0:0:
227,192,165760,1,0,0:0:0:0:
329,118,165887,5,4,3:2:0:0:
182,265,166014,1,0,0:0:0:0:
182,118,166142,1,10,0:0:0:0:
329,265,166270,1,2,0:0:0:0:
181,287,166398,5,2,3:2:0:0:
160,117,166525,1,0,0:0:0:0:
330,96,166653,1,8,0:0:0:0:
351,266,166781,1,2,0:2:0:0:
91,180,166909,5,4,3:2:0:0:
91,180,167164,1,10,0:0:0:0:
256,192,167292,1,2,0:0:0:0:
421,204,167419,2,0,P|425:159|433:81,1,100,0|0,3:2|0:0,0:0:0:0:
91,180,167675,2,0,P|87:225|79:303,1,100,8|0,0:0|0:0,0:0:0:0:
313,357,167930,5,4,3:2:0:0:
341,283,168058,1,0,0:0:0:0:
171,283,168185,5,10,0:0:0:0:
199,357,168313,1,2,0:0:0:0:
325,276,168440,5,2,3:2:0:0:
353,202,168568,1,0,0:0:0:0:
159,202,168695,5,8,0:0:0:0:
187,276,168823,1,2,0:0:0:0:
201,113,168951,6,0,P|151:112|75:101,1,100,12|0,0:0|0:0,0:0:0:0:
311,271,169206,2,0,P|361:272|437:283,1,100,4|0,3:2|0:0,0:0:0:0:
393,153,169462,5,8,3:0:0:0:
340,124,169547,5,8,3:0:0:0:
281,138,169632,5,8,3:0:0:0:
256,192,169717,5,0,3:2:0:0:
227,244,169802,5,0,3:0:0:0:
167,248,169887,5,0,3:0:0:0:
113,224,169972,6,0,P|97:178|122:135,1,100,12|0,0:0|0:0,0:0:0:0:
393,153,170228,2,0,P|409:199|384:242,1,100,12|0,0:0|0:0,0:0:0:0:
121,136,170483,5,8,3:0:0:0:
178,118,170568,5,0,3:2:0:0:
230,145,170653,5,0,3:2:0:0:
256,192,170738,5,8,3:0:0:0:
279,247,170823,5,8,3:0:0:0:
338,256,170908,5,8,3:0:0:0:
385,241,170994,6,0,P|409:198|393:153,1,100,12|0,0:0|0:0,0:0:0:0:
121,136,171249,2,0,P|97:178|113:224,1,100,12|0,3:2|0:0,0:0:0:0:
393,153,171504,5,8,3:0:0:0:
340,124,171589,5,8,3:0:0:0:
281,138,171674,5,8,3:0:0:0:
256,192,171759,5,8,3:0:0:0:
227,244,171844,5,8,3:0:0:0:
167,248,171929,5,8,3:0:0:0:
113,224,172015,6,0,P|97:178|122:135,1,100,12|0,0:0|0:0,0:0:0:0:
393,153,172270,5,12,3:2:0:0:
462,212,172398,2,0,P|478:258|453:301,1,100,2|0,0:0|0:0,0:0:0:0:
269,380,172653,5,2,0:0:0:0:
248,294,172781,2,0,P|255:190|261:72,1,200,2|0,0:0|0:0,0:0:0:0:
