osu file format v14

[General]
AudioFilename: audio.mp3
AudioLeadIn: 0
PreviewTime: 148972
Countdown: 0
SampleSet: Soft
StackLeniency: 0.7
Mode: 0
LetterboxInBreaks: 0
WidescreenStoryboard: 0

[Editor]
DistanceSpacing: 2.7
BeatDivisor: 4
GridSize: 4
TimelineZoom: 4.199998

[Metadata]
Title:Shuuten no Saki ga Aru to Suru naraba.
TitleUnicode:終点の先が在るとするならば。
Artist:TUYU
ArtistUnicode:ツユ
Creator:YaMaDarknesss
Version:Lamentation
Source:
Tags:a_blue raijodo wring silky fuyuyu- mamayu kanau iljaaz if there was an endpoint. 貴方を不幸に誘いますね 2nd album ぷす pusu 礼衣 reii おむたつ omutatsu japanese pop jpop j-pop rock jrock j-rock
BeatmapID:3731317
BeatmapSetID:1818626

[Difficulty]
HPDrainRate:6
CircleSize:4
OverallDifficulty:9
ApproachRate:9.5
SliderMultiplier:2
SliderTickRate:1

[Events]
//Background and Video events
0,0,"BG.jpg",0,0
//Break Periods
//Storyboard Layer 0 (Background)
//Storyboard Layer 1 (Fail)
//Storyboard Layer 2 (Pass)
//Storyboard Layer 3 (Foreground)
//Storyboard Layer 4 (Overlay)
//Storyboard Sound Samples

[TimingPoints]
441,255.31914893617,4,2,4,70,1,0
7079,-66.6666666666667,4,2,4,70,0,0
7334,-40,4,2,4,70,0,0
7589,-83.3333333333333,4,2,4,70,0,0
23930,-100,4,2,4,70,0,0
26994,-90.9090909090909,4,2,4,70,0,0
27249,-83.3333333333333,4,2,4,70,0,0
27504,-76.9230769230769,4,2,4,70,0,0
27760,-71.4285714285714,4,2,4,70,0,0
28015,-83.3333333333333,4,2,4,70,0,0
31717,-133.333333333333,4,2,4,70,0,0
32100,-200,4,2,4,5,0,0
33121,-100,4,2,4,60,0,0
36568,-200,4,2,4,60,0,0
37079,-200,4,2,4,5,0,0
37206,-200,4,2,4,40,0,0
52015,-133.333333333333,4,2,4,40,0,0
53547,-111.111111111111,4,2,4,60,0,0
61462,-100,4,2,4,60,0,0
61717,-83.3333333333333,4,2,4,70,0,0
78058,-100,4,2,4,70,0,0
81121,-90.9090909090909,4,2,4,70,0,0
81377,-83.3333333333333,4,2,4,70,0,0
81632,-76.9230769230769,4,2,4,70,0,0
81887,-71.4285714285714,4,2,4,70,0,0
82143,-83.3333333333333,4,2,4,70,0,0
85845,-133.333333333333,4,2,4,70,0,0
86228,-133.333333333333,4,2,4,5,0,0
86738,-133.333333333333,4,2,4,50,0,0
87249,-83.3333333333333,4,2,4,70,0,0
94398,-66.6666666666667,4,2,4,70,0,0
94909,-83.3333333333333,4,2,4,70,0,0
102568,-133.333333333333,4,2,4,50,0,0
106398,-133.333333333333,4,2,4,70,0,0
108185,-80,4,2,4,70,0,0
110228,-100,4,2,4,70,0,0
110653,-100,4,2,4,5,0,0
110738,-133.333333333333,4,2,4,50,0,0
114823,-83.3333333333333,4,2,4,70,0,0
116100,-76.9230769230769,4,2,4,70,0,0
117887,-83.3333333333333,4,2,4,70,0,0
118143,-68.9655172413793,4,2,4,70,0,0
118972,-68.9655172413793,4,2,4,5,0,0
119036,-200,4,2,4,50,0,0
119164,-71.4285714285714,4,2,4,75,0,0
135249,-83.3333333333333,4,2,4,75,0,0
138313,-76.9230769230769,4,2,4,75,0,0
138568,-71.4285714285714,4,2,4,75,0,0
138823,-66.6666666666667,4,2,4,75,0,0
139079,-62.5,4,2,4,75,0,0
139334,-71.4285714285714,4,2,4,75,0,0
147121,-200,4,2,4,75,0,0
148015,-200,4,2,4,5,0,0
149036,-100,4,2,4,50,0,0
149547,-66.6666666666667,4,2,4,80,0,0
156696,-80,4,2,4,80,0,0
156728,-80,4,2,4,5,0,0
156760,-80,4,2,4,80,0,0
156792,-80,4,2,4,5,0,0
156823,-80,4,2,4,80,0,0
156855,-80,4,2,4,5,0,0
156887,-80,4,2,4,80,0,0
156919,-80,4,2,4,5,0,0
156951,-80,4,2,4,80,0,0
156983,-80,4,2,4,5,0,0
157015,-80,4,2,4,80,0,0
157047,-80,4,2,4,5,0,0
157079,-80,4,2,4,80,0,0
157111,-80,4,2,4,5,0,0
157143,-80,4,2,4,80,0,0
157175,-80,4,2,4,5,0,0
157206,-80,4,2,4,80,0,0
157717,-83.3333333333333,4,2,4,70,0,0
161292,-88.4955752212389,4,2,4,70,0,0
161802,-66.6666666666667,4,2,4,90,0,1
161994,-66.6666666666667,4,2,4,5,0,1
162058,-66.6666666666667,4,2,4,90,0,1
162121,-66.6666666666667,4,2,4,5,0,1
162185,-66.6666666666667,4,2,4,90,0,1
162249,-66.6666666666667,4,2,4,5,0,1
162313,-57.1428571428571,4,2,4,90,0,1
162504,-57.1428571428571,4,2,4,5,0,1
162568,-57.1428571428571,4,2,4,90,0,1
162632,-57.1428571428571,4,2,4,5,0,1
162696,-57.1428571428571,4,2,4,90,0,1
162760,-57.1428571428571,4,2,4,5,0,1
162823,-50,4,2,4,90,0,1
163015,-50,4,2,4,5,0,1
163079,-50,4,2,4,90,0,1
163143,-50,4,2,4,5,0,1
163206,-50,4,2,4,90,0,1
163270,-50,4,2,4,5,0,1
163334,-44.4444444444445,4,2,4,90,0,1
163526,-44.4444444444445,4,2,4,5,0,1
163589,-100,4,2,4,90,0,1
163781,-100,4,2,4,5,0,1
163845,-66.6666666666667,4,2,4,90,0,1
164036,-66.6666666666667,4,2,4,5,0,1
164100,-66.6666666666667,4,2,4,90,0,1
164164,-66.6666666666667,4,2,4,5,0,1
164228,-66.6666666666667,4,2,4,90,0,1
164292,-66.6666666666667,4,2,4,5,0,1
164355,-57.1428571428571,4,2,4,90,0,1
164547,-57.1428571428571,4,2,4,5,0,1
164611,-57.1428571428571,4,2,4,90,0,1
164675,-57.1428571428571,4,2,4,5,0,1
164738,-57.1428571428571,4,2,4,90,0,1
164802,-57.1428571428571,4,2,4,5,0,1
164866,-50,4,2,4,90,0,1
165058,-50,4,2,4,5,0,1
165121,-50,4,2,4,90,0,1
165185,-50,4,2,4,5,0,1
165249,-50,4,2,4,90,0,1
165313,-50,4,2,4,5,0,1
165377,-44.4444444444445,4,2,4,90,0,1
165568,-44.4444444444445,4,2,4,5,0,1
165632,-100,4,2,4,90,0,1
165823,-100,4,2,4,5,0,1
165887,-66.6666666666667,4,2,4,90,0,1
166079,-66.6666666666667,4,2,4,5,0,1
166143,-66.6666666666667,4,2,4,90,0,1
166206,-66.6666666666667,4,2,4,5,0,1
166270,-66.6666666666667,4,2,4,90,0,1
166334,-66.6666666666667,4,2,4,5,0,1
166398,-57.1428571428571,4,2,4,90,0,1
166589,-57.1428571428571,4,2,4,5,0,1
166653,-57.1428571428571,4,2,4,90,0,1
166717,-57.1428571428571,4,2,4,5,0,1
166781,-57.1428571428571,4,2,4,90,0,1
166845,-57.1428571428571,4,2,4,5,0,1
166909,-50,4,2,4,90,0,1
167100,-50,4,2,4,5,0,1
167164,-50,4,2,4,90,0,1
167228,-50,4,2,4,5,0,1
167292,-50,4,2,4,90,0,1
167355,-50,4,2,4,5,0,1
167419,-44.4444444444445,4,2,4,90,0,1
167611,-44.4444444444445,4,2,4,5,0,1
167675,-100,4,2,4,90,0,1
167866,-100,4,2,4,5,0,1
167930,-50,4,2,4,90,0,1
168121,-50,4,2,4,5,0,1
168185,-50,4,2,4,90,0,1
168249,-50,4,2,4,5,0,1
168313,-50,4,2,4,90,0,1
168377,-50,4,2,4,5,0,1
168440,-50,4,2,4,90,0,1
168632,-50,4,2,4,5,0,1
168696,-50,4,2,4,90,0,1
168760,-50,4,2,4,5,0,1
168823,-50,4,2,4,90,0,1
168887,-50,4,2,4,5,0,1
168951,-83.3333333333333,4,2,4,70,0,0

[Colours]
Combo1 : 206,145,202
Combo2 : 254,101,197
Combo3 : 255,88,100
Combo4 : 139,0,215

[HitObjects]
117,218,7079,6,0,P|96:223|73:220,1,37.5000014305115,2|0,0:0|0:0,0:0:0:0:
136,177,7143,2,0,P|115:170|96:156,1,37.5000014305115,2|0,0:0|0:0,0:0:0:0:
171,163,7206,2,0,P|156:147|147:125,1,37.5000014305115,2|0,0:0|0:0,0:0:0:0:
194,169,7270,2,0,P|189:148|192:125,1,37.5000014305115,2|0,0:0|0:0,0:0:0:0:
200,177,7334,6,0,B|242:130|242:130|353:191,1,125,2|2,0:0|0:0,0:0:0:0:
309,239,7462,2,0,B|351:286|351:286|462:225,1,125,2|2,0:0|0:0,0:0:0:0:
488,201,7589,5,4,3:2:0:0:
488,201,7845,1,8,0:0:0:0:
450,89,7972,1,2,0:0:0:0:
294,264,8099,1,0,3:2:0:0:
409,289,8228,1,0,3:2:0:0:
336,65,8355,1,8,0:0:0:0:
258,152,8483,1,2,0:0:0:0:
375,178,8611,6,0,P|372:276|372:367,1,179.999994506836,2|0,3:2|0:0,0:0:0:0:
350,377,8866,1,10,0:0:0:0:
143,265,8994,1,2,0:0:0:0:
169,344,9121,1,2,3:2:0:0:
117,186,9249,1,2,0:0:0:0:
87,326,9377,1,10,0:0:0:0:
198,202,9504,1,2,0:0:0:0:
62,246,9632,6,0,P|64:152|64:65,1,179.999994506836,4|0,3:2|0:0,0:0:0:0:
134,34,9887,1,8,0:0:0:0:
255,145,10015,1,2,0:0:0:0:
143,264,10143,1,0,3:2:0:0:
23,155,10270,1,0,3:2:0:0:
104,181,10398,1,8,0:0:0:0:
0,348,10526,5,2,0:0:0:0:
224,279,10653,1,4,3:2:0:0:
224,279,10909,1,8,0:0:0:0:
45,237,11036,1,2,0:0:0:0:
45,237,11292,1,0,3:2:0:0:
93,309,11419,1,8,0:0:0:0:
94,165,11547,1,2,0:0:0:0:
138,237,11675,2,0,P|232:256|348:273,1,179.999994506836,4|0,3:2|0:0,0:0:0:0:
332,295,11930,5,8,3:2:0:0:
332,295,12058,1,0,0:0:0:0:
471,167,12185,1,0,3:2:0:0:
471,167,12313,1,0,3:2:0:0:
325,56,12440,1,8,0:0:0:0:
325,56,12568,1,0,0:0:0:0:
192,170,12696,1,0,3:2:0:0:
338,204,12823,1,0,0:0:0:0:
276,146,12951,1,8,0:0:0:0:
255,229,13079,1,2,0:0:0:0:
176,155,13206,5,2,3:2:0:0:
331,85,13334,1,2,0:0:0:0:
404,246,13462,1,8,0:0:0:0:
251,311,13589,1,0,0:0:0:0:
78,201,13717,6,0,L|101:9,1,179.999994506836,0|0,3:2|0:0,0:0:0:0:
84,2,13972,1,10,0:0:0:0:
260,158,14100,1,2,0:0:0:0:
286,2,14228,1,2,3:2:0:0:
211,30,14355,1,0,3:2:0:0:
335,128,14483,1,8,0:0:0:0:
353,48,14611,5,2,0:0:0:0:
196,109,14738,1,2,3:2:0:0:
208,223,14866,1,0,0:0:0:0:
271,174,14994,1,8,0:0:0:0:
144,173,15121,5,2,0:0:0:0:
108,324,15249,1,0,3:2:0:0:
259,361,15377,1,0,3:2:0:0:
203,304,15504,1,8,0:0:0:0:
187,317,15632,1,8,0:0:0:0:
24,370,15760,6,0,P|30:273|33:190,1,179.999994506836,4|0,3:2|0:0,0:0:0:0:
12,166,16015,2,0,P|64:130|106:91,1,119.999996337891,8|2,0:0|0:0,0:0:0:0:
117,13,16270,1,0,3:2:0:0:
298,60,16398,1,0,3:2:0:0:
193,213,16526,1,8,0:0:0:0:
187,132,16653,5,2,0:0:0:0:
337,169,16781,1,2,3:2:0:0:
300,319,16909,1,2,0:0:0:0:
265,249,17036,1,10,0:0:0:0:
150,282,17164,5,2,0:0:0:0:
116,94,17292,1,2,3:2:0:0:
259,166,17419,1,2,0:0:0:0:
7,207,17547,2,0,P|-2:150|39:105,1,119.999996337891,8|2,0:0|0:0,0:0:0:0:
17,24,17802,6,0,P|103:48|194:72,1,179.999994506836,4|0,3:2|0:0,0:0:0:0:
205,98,18058,5,8,0:0:0:0:
345,23,18185,1,2,0:0:0:0:
480,108,18313,5,4,3:2:0:0:
474,267,18440,1,0,0:0:0:0:
335,343,18568,5,8,0:0:0:0:
199,257,18696,1,2,0:0:0:0:
340,183,18823,6,0,P|341:278|336:380,1,179.999994506836,4|0,3:2|0:0,0:0:0:0:
291,260,19079,5,8,0:0:0:0:
387,105,19206,1,2,0:0:0:0:
429,185,19334,5,4,3:2:0:0:
249,179,19461,1,0,0:0:0:0:
298,103,19589,5,8,0:0:0:0:
381,262,19717,1,0,0:0:0:0:
165,177,19845,6,0,P|105:178|33:175,1,119.999996337891,4|0,3:2|0:0,0:0:0:0:
292,284,20100,2,0,P|374:282|474:286,1,179.999994506836,8|0,0:2|0:0,0:0:0:0:
500,268,20355,5,0,3:2:0:0:
500,268,20483,1,0,3:2:0:0:
344,187,20611,1,8,0:0:0:0:
344,187,20738,1,0,0:0:0:0:
177,256,20866,1,0,3:2:0:0:
177,256,20994,1,0,0:0:0:0:
20,175,21121,1,8,0:0:0:0:
20,175,21249,1,0,0:0:0:0:
94,137,21377,6,0,P|104:81|110:19,1,119.999996337891,0|0,3:2|3:2,0:0:0:0:
166,172,21632,2,0,P|155:230|149:290,1,119.999996337891,8|0,0:0|0:0,0:0:0:0:
0,336,21887,1,0,3:2:0:0:
68,245,22015,1,0,3:2:0:0:
271,345,22143,6,0,L|296:137,1,179.999994506836,8|0,0:0|0:0,0:0:0:0:
278,136,22398,1,0,3:2:0:0:
439,209,22526,1,0,3:2:0:0:
486,43,22653,1,8,0:0:0:0:
357,105,22781,1,0,0:0:0:0:
260,49,22909,1,2,3:2:0:0:
199,113,23036,1,0,0:0:0:0:
86,8,23164,1,10,0:2:0:0:
108,157,23292,1,0,0:0:0:0:
175,28,23419,1,2,3:2:0:0:
13,113,23547,1,0,3:2:0:0:
130,249,23675,1,8,0:0:0:0:
291,166,23802,1,8,0:0:0:0:
326,161,23866,1,8,0:0:0:0:
364,157,23930,6,0,P|371:217|386:293,1,100,4|0,3:2|0:0,0:0:0:0:
450,191,24185,2,0,P|434:75|426:1,1,150,8|0,0:0|0:0,0:0:0:0:
409,19,24440,5,0,3:2:0:0:
266,67,24568,1,0,0:0:0:0:
351,82,24696,1,8,0:2:0:0:
319,3,24823,1,0,0:2:0:0:
195,25,24951,1,2,3:2:0:0:
242,144,25079,1,0,0:0:0:0:
170,104,25206,1,8,0:0:0:0:
156,121,25334,1,0,0:0:0:0:
250,259,25462,5,0,3:2:0:0:
110,345,25589,1,0,3:2:0:0:
20,217,25717,1,8,0:0:0:0:
111,254,25845,1,0,0:0:0:0:
91,174,25972,6,0,P|93:122|91:41,1,100,2|2,3:2|0:0,0:0:0:0:
302,86,26228,2,0,P|264:85|185:225,1,200,8|0,0:0|3:2,0:0:0:0:
396,188,26611,1,0,0:0:0:0:
384,108,26738,2,0,P|382:56|384:-25,1,100,10|0,0:0|0:0,0:0:0:0:
318,164,26994,6,0,P|313:216|292:310,1,110.000003356934,2|2,3:2|0:0,0:0:0:0:
287,72,27249,6,0,P|338:39|413:5,1,119.999996337891,8|2,0:0|0:0,0:0:0:0:
304,295,27504,6,0,P|242:274|182:248,1,129.999994049073,0|0,3:2|3:2,0:0:0:0:
478,166,27760,6,0,P|496:233|507:302,1,139.999995727539,8|2,0:0|0:0,0:0:0:0:
238,192,28015,5,4,3:2:0:0:
117,297,28143,1,0,0:0:0:0:
13,176,28270,1,8,0:0:0:0:
107,214,28398,1,0,0:0:0:0:
226,360,28526,5,2,3:2:0:0:
370,251,28653,1,0,0:0:0:0:
256,112,28781,1,8,0:0:0:0:
107,214,28909,1,2,0:0:0:0:
287,261,29036,5,2,3:2:0:0:
453,384,29164,1,0,0:0:0:0:
471,175,29292,1,8,0:0:0:0:
400,272,29419,1,2,0:0:0:0:
216,187,29547,5,0,3:2:0:0:
172,40,29675,1,0,3:2:0:0:
325,0,29802,1,8,0:0:0:0:
375,152,29930,1,0,0:0:0:0:
86,123,30058,6,0,P|79:187|66:279,1,119.999996337891,2|0,3:2|0:0,0:0:0:0:
367,165,30313,1,8,0:0:0:0:
253,58,30440,1,2,0:0:0:0:
188,355,30568,1,2,3:2:0:0:
321,310,30696,1,2,0:0:0:0:
68,115,30823,1,8,0:0:0:0:
49,253,30951,1,2,0:0:0:0:
320,184,31079,6,0,P|396:135|510:52,1,179.999994506836,4|0,3:2|0:0,0:0:0:0:
501,86,31334,1,8,0:0:0:0:
305,323,31462,6,0,P|269:279|204:279,1,119.999996337891,4|0,3:2|0:0,0:0:0:0:
49,108,31717,6,0,P|34:219|14:330,1,225.000008583069,4|0,3:2|0:0,0:0:0:0:
99,332,33121,5,4,3:2:0:0:
111,354,33249,1,10,0:0:0:0:
148,273,33377,1,2,0:0:0:0:
213,366,33504,1,0,3:2:0:0:
302,288,33632,1,8,0:0:0:0:
224,291,33759,1,0,3:2:0:0:
312,368,33887,1,8,0:0:0:0:
374,253,34015,5,0,3:2:0:0:
358,219,34079,1,0,3:2:0:0:
390,180,34143,1,12,3:2:0:0:
278,213,34270,1,0,0:0:0:0:
387,334,34398,1,12,0:0:0:0:
489,247,34526,6,0,L|472:47,1,200,2|0,0:0|0:0,0:0:0:0:
458,133,34909,5,2,0:0:0:0:
379,96,35036,1,2,0:0:0:0:
397,84,35164,1,4,3:2:0:0:
347,22,35292,1,8,0:0:0:0:
283,155,35420,1,2,0:0:0:0:
408,203,35547,1,2,0:0:0:0:
264,16,35675,1,8,0:2:0:0:
150,113,35802,1,0,3:2:0:0:
231,91,35930,1,8,0:0:0:0:
82,0,36058,5,0,3:2:0:0:
75,42,36122,1,0,3:2:0:0:
67,87,36186,1,8,0:0:0:0:
209,211,36313,1,0,0:0:0:0:
168,28,36440,1,12,3:2:0:0:
0,131,36568,6,0,P|19:229|35:327,1,200,2|0,0:2|0:0,0:0:0:0:
241,331,37206,5,6,3:2:0:0:
315,303,37717,1,2,3:2:0:0:
389,275,38228,1,2,3:2:0:0:
357,306,38483,5,0,0:0:0:0:
369,230,38611,1,0,0:0:0:0:
379,150,38738,1,2,3:2:0:0:
176,262,38994,1,2,0:0:0:0:
245,326,39249,1,2,3:2:0:0:
275,94,39760,1,0,3:2:0:0:
188,138,40270,1,0,3:2:0:0:
260,173,40526,5,2,0:0:0:0:
200,58,40653,1,0,0:0:0:0:
205,38,40781,1,2,3:2:0:0:
124,81,40909,1,0,0:0:0:0:
154,154,41036,1,2,0:0:0:0:
81,180,41164,1,0,0:0:0:0:
213,265,41292,5,2,3:2:0:0:
260,173,41802,1,2,3:2:0:0:
355,217,42313,1,2,3:2:0:0:
287,248,42568,5,2,0:0:0:0:
291,172,42696,1,0,0:0:0:0:
295,96,42823,1,2,3:2:0:0:
245,37,43079,5,2,0:0:0:0:
120,83,43206,1,0,0:0:0:0:
166,208,43334,1,2,3:2:0:0:
217,151,43589,5,2,0:0:0:0:
212,269,43717,1,0,0:0:0:0:
100,246,43845,1,2,3:2:0:0:
106,158,44100,5,2,0:0:0:0:
0,190,44355,1,2,3:2:0:0:
308,296,44611,5,2,0:0:0:0:
440,253,44738,1,0,0:0:0:0:
280,222,44866,2,0,P|291:181|306:106,1,100,2|2,3:2|0:0,0:0:0:0:
360,234,45377,5,2,3:2:0:0:
388,316,45632,1,2,0:0:0:0:
456,247,45887,1,2,3:2:0:0:
292,304,46143,1,2,0:0:0:0:
292,304,46653,5,2,0:0:0:0:
240,243,46781,1,0,0:0:0:0:
246,225,46909,1,2,3:2:0:0:
166,262,47036,1,0,0:0:0:0:
139,188,47164,1,2,0:0:0:0:
117,328,47292,1,0,0:0:0:0:
87,250,47419,5,0,3:2:0:0:
106,175,47930,1,2,3:2:0:0:
125,100,48440,1,2,3:2:0:0:
90,32,48696,5,0,0:0:0:0:
109,107,48823,1,2,0:0:0:0:
128,182,48951,1,2,3:2:0:0:
304,280,49206,5,2,0:0:0:0:
313,242,49334,1,0,0:0:0:0:
323,205,49461,1,2,3:2:0:0:
227,256,49717,1,2,0:0:0:0:
317,352,49972,1,2,3:2:0:0:
385,270,50228,6,0,P|377:217|372:166,1,100,2|0,0:0|3:2,0:0:0:0:
364,95,50738,1,2,0:0:0:0:
370,17,50994,1,2,3:2:0:0:
348,92,51249,1,2,0:0:0:0:
342,167,51504,1,2,3:2:0:0:
7,105,51760,5,2,0:0:0:0:
146,21,52015,2,0,B|210:59|210:59|283:38,1,150.000005722046,2|2,3:2|0:0,0:0:0:0:
94,145,52526,2,0,L|80:51,1,75.0000028610231,2|0,3:2|0:0,0:0:0:0:
214,137,52781,1,2,0:0:0:0:
166,201,52909,1,2,0:0:0:0:
234,243,53036,1,2,3:2:0:0:
238,259,53164,1,0,0:0:0:0:
214,293,53292,1,2,0:0:0:0:
237,367,53419,1,0,0:0:0:0:
426,340,53547,6,0,B|445:298|445:298|396:223|396:223|416:182,1,179.999994506836,4|0,3:2|0:0,0:0:0:0:
316,229,53930,1,0,0:0:0:0:
487,150,54058,2,0,L|473:60,1,89.9999972534181,8|0,0:0|0:0,0:0:0:0:
325,11,54313,2,0,P|237:36|133:58,1,179.999994506836,2|2,0:0|3:2,0:0:0:0:
75,38,54696,1,0,0:0:0:0:
14,234,54823,2,0,P|57:224|101:212,1,89.9999972534181,0|0,3:2|0:0,0:0:0:0:
155,73,55079,6,0,P|242:53|329:29,1,179.999994506836,8|2,0:0|0:0,0:0:0:0:
405,157,55462,1,0,0:0:0:0:
331,128,55589,1,2,3:2:0:0:
339,107,55717,1,0,0:0:0:0:
343,204,55845,1,2,0:0:0:0:
269,183,55972,1,2,0:0:0:0:
431,285,56100,5,8,0:0:0:0:
91,343,56355,1,2,0:0:0:0:
266,380,56611,2,0,P|310:353|292:302,1,89.9999972534181,4|0,3:2|0:0,0:0:0:0:
244,277,56866,6,0,P|249:187|260:98,2,179.999994506836,8|8|8,0:0|0:0|0:0,0:0:0:0:
242,24,57504,5,2,0:0:0:0:
146,82,57632,1,4,3:2:0:0:
210,175,57759,1,0,0:0:0:0:
223,100,57887,1,2,3:2:0:0:
297,120,58015,5,0,0:0:0:0:
199,26,58143,1,2,3:2:0:0:
135,154,58270,1,2,0:0:0:0:
252,259,58398,1,2,3:2:0:0:
305,204,58526,5,2,0:0:0:0:
176,274,58653,1,2,3:2:0:0:
323,290,58781,1,0,0:0:0:0:
214,193,58909,1,2,3:2:0:0:
245,337,59036,1,2,0:0:0:0:
252,259,59164,2,0,P|255:191|256:124,1,134.999995880127,2|0,3:2|0:0,0:0:0:0:
176,264,59419,5,2,3:2:0:0:
182,279,59547,1,2,0:0:0:0:
168,356,59675,5,4,3:2:0:0:
382,231,59802,1,0,0:0:0:0:
137,202,59930,1,8,0:0:0:0:
319,371,60058,1,0,3:2:0:0:
274,130,60185,1,8,0:0:0:0:
235,200,60313,5,0,3:2:0:0:
422,134,60440,1,8,0:0:0:0:
86,69,60568,2,0,P|117:61|155:43,1,44.999998626709,0|0,3:2|3:2,0:0:0:0:
273,0,60696,5,4,3:2:0:0:
208,45,60951,1,4,3:2:0:0:
281,78,61206,1,4,3:2:0:0:
343,31,61462,1,2,0:0:0:0:
218,307,61717,5,4,3:2:0:0:
218,307,61972,1,8,0:0:0:0:
40,261,62100,1,2,0:0:0:0:
86,83,62228,1,0,3:2:0:0:
168,239,62355,1,0,3:2:0:0:
96,202,62483,1,8,0:0:0:0:
260,109,62611,5,2,0:0:0:0:
435,65,62739,1,2,3:2:0:0:
481,243,62866,1,0,0:0:0:0:
416,191,62994,1,8,0:0:0:0:
206,172,63121,5,0,0:0:0:0:
229,36,63249,1,2,3:2:0:0:
312,259,63377,1,0,3:2:0:0:
338,122,63504,1,10,0:0:0:0:
285,185,63632,5,2,0:0:0:0:
240,367,63760,2,0,P|236:308|231:248,1,119.999996337891,2|0,3:2|0:0,0:0:0:0:
421,33,64015,2,0,P|425:92|430:152,1,119.999996337891,8|2,0:0|0:0,0:0:0:0:
260,108,64270,5,0,3:2:0:0:
143,13,64398,1,0,3:2:0:0:
51,88,64526,1,8,0:0:0:0:
0,23,64653,5,2,0:0:0:0:
38,170,64781,1,2,3:2:0:0:
76,317,64909,1,2,0:0:0:0:
223,279,65036,5,10,0:0:0:0:
288,231,65164,2,0,B|387:242|332:328|435:338,1,179.999994506836,2|0,0:0|0:0,0:0:0:0:
443,321,65419,1,0,3:2:0:0:
467,141,65547,1,8,0:0:0:0:
280,152,65675,5,2,0:0:0:0:
215,196,65802,2,0,B|116:207|171:293|68:303,1,179.999994506836,4|0,3:2|0:0,0:0:0:0:
64,224,66058,5,10,0:0:0:0:
2,58,66185,1,0,0:0:0:0:
175,26,66313,1,2,3:2:0:0:
309,65,66440,5,2,3:2:0:0:
446,96,66568,1,8,0:0:0:0:
386,42,66696,1,2,0:0:0:0:
231,86,66823,5,2,3:2:0:0:
341,244,66951,1,0,0:0:0:0:
506,150,67079,1,10,0:2:0:0:
436,118,67206,1,0,0:0:0:0:
267,213,67334,5,2,3:2:0:0:
197,245,67461,1,2,3:2:0:0:
16,143,67589,5,8,0:0:0:0:
94,145,67717,1,0,0:0:0:0:
27,105,67845,1,2,3:2:0:0:
105,69,67972,5,0,0:0:0:0:
66,216,68100,1,10,0:0:0:0:
27,363,68228,5,2,0:0:0:0:
285,341,68355,1,0,3:2:0:0:
225,169,68483,5,0,3:2:0:0:
396,213,68611,1,8,0:0:0:0:
352,384,68738,1,2,0:0:0:0:
344,150,68866,5,2,3:2:0:0:
387,38,68994,5,0,0:0:0:0:
267,56,69121,1,8,0:0:0:0:
420,244,69249,5,0,0:0:0:0:
463,131,69377,1,0,3:2:0:0:
225,169,69504,5,0,3:2:0:0:
301,263,69632,1,8,0:0:0:0:
296,131,69760,1,8,0:0:0:0:
194,355,69887,6,0,P|118:343|104:256,1,119.999996337891,4|0,3:2|0:0,0:0:0:0:
30,247,70143,2,0,P|50:132|68:-15,1,239.999992675781,8|0,0:0|3:2,0:0:0:0:
135,50,70526,1,0,3:2:0:0:
222,115,70653,1,8,0:0:0:0:
212,38,70781,1,2,0:0:0:0:
146,126,70909,5,2,3:2:0:0:
13,233,71036,1,0,0:0:0:0:
120,366,71164,1,8,0:0:0:0:
253,259,71292,1,2,0:0:0:0:
181,222,71419,5,2,3:2:0:0:
85,270,71547,1,2,3:2:0:0:
36,156,71675,1,10,0:0:0:0:
106,195,71802,1,2,3:2:0:0:
329,286,71930,6,0,P|449:191|476:165,1,179.999994506836,4|0,3:2|0:0,0:0:0:0:
504,172,72185,1,8,0:0:0:0:
462,11,72313,1,2,0:0:0:0:
183,98,72440,6,0,P|63:193|36:219,1,179.999994506836,4|0,3:2|0:0,0:0:0:0:
8,212,72696,1,8,0:0:0:0:
50,373,72824,1,2,0:0:0:0:
256,192,72951,5,4,3:2:0:0:
262,111,73079,1,0,0:0:0:0:
185,230,73206,1,8,0:0:0:0:
250,273,73334,1,2,0:0:0:0:
328,155,73462,1,4,3:2:0:0:
203,54,73589,5,2,0:0:0:0:
107,211,73717,1,8,0:0:0:0:
228,351,73844,1,2,0:0:0:0:
397,278,73972,1,4,3:2:0:0:
381,94,74100,1,0,0:0:0:0:
116,9,74228,6,0,P|110:88|110:139,1,119.999996337891,8|0,0:0|0:0,0:0:0:0:
401,199,74483,2,0,P|407:278|407:329,1,119.999996337891,0|0,3:2|3:2,0:0:0:0:
87,350,74738,2,0,P|82:216|86:91,2,239.999992675781,8|2|10,0:0|3:2|0:0,0:0:0:0:
417,375,75377,1,0,0:0:0:0:
418,295,75504,5,2,3:2:0:0:
261,340,75632,1,0,3:2:0:0:
216,183,75760,1,10,0:0:0:0:
338,360,75887,1,0,0:0:0:0:
341,281,76015,5,2,3:2:0:0:
512,144,76143,1,0,0:0:0:0:
323,37,76270,2,0,P|310:126|295:214,1,179.999994506836,8|0,0:0|0:0,0:0:0:0:
278,232,76526,5,0,3:2:0:0:
393,162,76653,1,0,3:2:0:0:
242,37,76781,1,10,0:0:0:0:
127,107,76909,1,0,0:0:0:0:
215,122,77036,1,2,3:2:0:0:
152,21,77164,1,0,0:0:0:0:
326,67,77292,1,10,0:0:0:0:
210,203,77419,1,0,0:0:0:0:
35,158,77547,1,0,3:2:0:0:
229,44,77675,1,0,3:2:0:0:
74,378,77802,1,8,0:0:0:0:
268,264,77930,1,8,0:0:0:0:
300,255,77994,1,8,0:0:0:0:
339,279,78058,6,0,L|326:179,1,100,4|0,3:2|0:0,0:0:0:0:
121,164,78313,2,0,L|141:15,1,150,8|0,0:0|0:0,0:0:0:0:
112,0,78568,5,0,3:2:0:0:
40,137,78696,1,0,3:2:0:0:
157,246,78824,1,8,0:0:0:0:
293,164,78951,1,0,0:0:0:0:
263,16,79079,1,2,3:2:0:0:
240,104,79206,1,0,0:0:0:0:
316,77,79334,1,8,0:0:0:0:
186,43,79462,1,0,0:0:0:0:
295,246,79589,5,2,3:2:0:0:
389,39,79717,1,0,0:0:0:0:
162,25,79845,1,10,0:2:0:0:
218,82,79972,1,0,0:0:0:0:
159,135,80100,6,0,P|161:195|156:267,1,100,2|0,3:2|0:0,0:0:0:0:
305,264,80355,2,0,P|213:290|190:383,1,200,8|0,0:2|3:2,0:0:0:0:
457,354,80738,1,0,3:2:0:0:
388,212,80866,2,0,P|386:262|388:312,1,100,8|0,0:0|0:0,0:0:0:0:
313,185,81122,6,0,P|308:133|287:38,1,110.000003356934,2|2,3:2|0:0,0:0:0:0:
283,276,81377,6,0,P|334:309|409:343,1,119.999996337891,8|2,0:0|0:0,0:0:0:0:
300,54,81632,6,0,P|238:75|178:101,1,129.999994049073,2|0,3:2|3:2,0:0:0:0:
476,189,81888,6,0,P|494:122|505:53,1,139.999995727539,8|0,0:0|0:0,0:0:0:0:
230,168,82143,5,4,3:2:0:0:
104,65,82270,1,0,0:0:0:0:
0,193,82398,1,8,0:0:0:0:
93,147,82526,1,0,0:0:0:0:
199,0,82653,5,2,3:2:0:0:
346,106,82781,1,2,3:2:0:0:
240,253,82909,1,8,0:0:0:0:
93,147,83036,1,2,0:0:0:0:
265,94,83164,5,2,3:2:0:0:
437,174,83292,1,2,0:0:0:0:
509,0,83419,1,8,0:0:0:0:
428,92,83547,1,2,0:0:0:0:
168,209,83675,5,0,3:2:0:0:
207,375,83802,1,0,0:0:0:0:
373,336,83930,1,8,0:0:0:0:
334,170,84058,1,0,0:0:0:0:
51,214,84185,6,0,P|48:152|38:83,1,119.999996337891,2|0,3:2|0:0,0:0:0:0:
310,246,84440,1,10,0:0:0:0:
171,311,84568,1,2,0:0:0:0:
166,8,84696,1,2,3:2:0:0:
297,86,84823,1,2,3:2:0:0:
29,226,84951,1,10,0:0:0:0:
17,88,85079,1,2,0:0:0:0:
275,195,85206,6,0,P|366:227|452:253,1,179.999994506836,4|0,3:2|0:0,0:0:0:0:
464,281,85462,1,8,0:0:0:0:
247,19,85589,6,0,P|193:33|185:99,1,119.999996337891,4|0,3:2|0:0,0:0:0:0:
230,298,85845,6,0,P|123:335|15:364,1,225.000008583069,4|0,3:2|0:0,0:0:0:0:
33,271,86738,5,2,0:1:0:0:
33,271,86866,5,2,0:1:0:0:
33,271,86994,5,2,0:1:0:0:
33,271,87121,5,2,0:1:0:0:
229,321,87249,6,0,P|330:280|415:236,1,179.999994506836,4|0,3:2|0:0,0:0:0:0:
421,255,87504,1,8,0:0:0:0:
494,77,87632,1,0,0:0:0:0:
316,4,87760,1,0,3:2:0:0:
344,76,87887,1,0,3:2:0:0:
394,15,88015,2,0,P|340:41|284:63,1,119.999996337891,8|0,0:0|0:0,0:0:0:0:
100,183,88270,6,0,P|93:268|85:369,1,179.999994506836,2|0,3:2|0:0,0:0:0:0:
9,361,88526,1,8,0:0:0:0:
26,162,88653,2,0,P|33:72|35:37,1,119.999996337891,2|0,3:2|0:0,0:0:0:0:
167,356,88909,1,2,3:2:0:0:
178,219,89036,1,8,0:0:0:0:
215,291,89164,1,2,0:0:0:0:
449,257,89292,6,0,P|441:167|435:77,1,179.999994506836,2|0,3:2|0:0,0:0:0:0:
431,2,89547,1,8,0:0:0:0:
290,100,89675,1,2,3:2:0:0:
370,252,89802,1,2,0:0:0:0:
414,186,89930,5,0,3:2:0:0:
215,291,90057,1,8,0:0:0:0:
110,92,90185,1,2,0:0:0:0:
335,181,90313,6,0,P|446:207|476:322,1,239.999992675781,2|8,3:2|0:0,0:0:0:0:
164,353,90696,1,0,0:0:0:0:
135,278,90823,1,2,3:2:0:0:
296,306,90951,1,2,0:0:0:0:
244,367,91079,1,8,0:0:0:0:
186,214,91206,1,2,0:0:0:0:
268,230,91334,5,4,3:2:0:0:
425,172,91462,1,2,0:0:0:0:
367,15,91589,1,8,0:0:0:0:
342,173,91717,1,2,0:0:0:0:
315,329,91845,5,2,3:2:0:0:
244,367,91972,1,2,0:0:0:0:
396,335,92100,1,8,0:0:0:0:
324,371,92228,1,2,0:0:0:0:
449,130,92355,6,0,P|457:219|469:309,1,179.999994506836,2|0,3:2|0:0,0:0:0:0:
474,330,92611,1,8,0:0:0:0:
163,367,92738,2,0,P|174:277|182:188,1,179.999994506836,2|0,3:2|0:0,0:0:0:0:
185,166,92994,1,2,3:2:0:0:
58,224,93121,1,8,0:0:0:0:
0,98,93249,1,2,0:0:0:0:
126,39,93377,5,4,3:2:0:0:
136,61,93504,1,0,0:0:0:0:
91,295,93632,5,8,0:0:0:0:
162,262,93760,1,0,0:0:0:0:
386,39,93887,5,4,3:2:0:0:
376,61,94014,1,0,0:0:0:0:
421,295,94142,5,8,0:0:0:0:
350,262,94270,1,0,0:0:0:0:
240,40,94398,6,0,B|170:42|138:148|255:192|255:192|374:236|339:344|269:344,1,450.000017166138,4|0,3:2|0:0,0:0:0:0:
243,271,94909,5,2,3:2:0:0:
267,111,95036,5,2,0:0:0:0:
112,165,95164,5,8,0:0:0:0:
396,214,95292,5,8,0:0:0:0:
461,269,95419,5,4,3:2:0:0:
481,138,95547,1,0,0:0:0:0:
501,7,95675,5,8,0:0:0:0:
281,29,95802,1,2,0:0:0:0:
441,64,95930,5,0,3:2:0:0:
422,196,96058,1,0,0:0:0:0:
361,46,96185,5,8,0:0:0:0:
358,65,96313,1,0,0:0:0:0:
344,144,96440,5,2,3:2:0:0:
195,246,96568,1,0,0:0:0:0:
93,97,96696,1,8,0:0:0:0:
45,303,96823,5,2,3:2:0:0:
113,260,96951,1,0,0:0:0:0:
165,321,97079,5,2,3:2:0:0:
308,357,97206,1,8,0:0:0:0:
244,310,97334,1,2,0:0:0:0:
43,223,97462,6,0,P|32:103|26:0,1,179.999994506836,2|0,3:2|0:0,0:0:0:0:
27,17,97717,1,8,0:0:0:0:
175,71,97845,1,2,0:0:0:0:
337,17,97972,1,2,0:0:0:0:
488,85,98100,1,2,3:2:0:0:
474,240,98228,1,8,0:0:0:0:
324,177,98355,1,2,0:0:0:0:
163,235,98483,2,0,P|154:144|146:53,1,179.999994506836,2|0,3:2|0:0,0:0:0:0:
69,85,98738,5,8,0:0:0:0:
10,256,98866,1,2,0:0:0:0:
182,315,98994,1,2,3:2:0:0:
240,259,99121,1,2,3:2:0:0:
105,290,99249,1,8,0:0:0:0:
221,384,99377,1,2,0:0:0:0:
320,271,99504,5,4,3:2:0:0:
492,213,99632,1,2,0:0:0:0:
433,42,99760,1,8,0:0:0:0:
407,198,99887,1,2,0:0:0:0:
244,167,100015,5,2,3:2:0:0:
197,39,100143,1,2,3:2:0:0:
316,139,100270,1,8,0:0:0:0:
270,11,100398,1,2,0:0:0:0:
30,154,100526,6,0,P|31:94|28:34,1,119.999996337891,2|0,3:2|0:0,0:0:0:0:
181,117,100781,1,8,0:0:0:0:
31,234,100909,1,2,0:0:0:0:
112,75,101036,1,0,3:2:0:0:
100,276,101164,1,0,3:2:0:0:
308,384,101292,6,0,P|282:272|172:240,1,239.999992675781,8|0,0:0|3:2,0:0:0:0:
172,240,101802,1,8,0:0:0:0:
172,240,102058,1,2,3:2:0:0:
105,198,102185,1,0,3:2:0:0:
285,161,102313,1,10,0:0:0:0:
362,330,102440,1,2,0:0:0:0:
190,366,102568,5,4,3:2:0:0:
236,301,102823,1,0,0:0:0:0:
110,356,103079,1,2,3:2:0:0:
158,292,103334,1,2,0:0:0:0:
101,238,103589,6,0,P|109:195|116:151,1,75.0000028610231,2|0,3:2|0:0,0:0:0:0:
198,124,103845,1,2,0:0:0:0:
133,167,103972,2,0,P|120:246|101:341,1,150.000005722046,2|2,0:0|0:0,0:0:0:0:
253,258,104355,5,2,0:0:0:0:
354,201,104483,1,2,0:0:0:0:
277,184,104611,2,0,L|268:91,1,75.0000028610231,2|0,3:2|0:0,0:0:0:0:
177,85,104866,5,0,0:0:0:0:
278,28,104994,1,2,0:0:0:0:
255,102,105121,2,0,L|262:176,1,75.0000028610231,2|2,3:2|0:0,0:0:0:0:
330,274,105377,1,2,0:0:0:0:
408,146,105504,1,2,0:0:0:0:
201,10,105632,6,0,P|60:26|13:160,1,300.000011444092,2|2,3:2|3:2,0:0:0:0:
256,384,106398,6,0,B|208:323|293:340|241:276,1,112.500004291535,2|2,0:0|0:0,0:0:0:0:
263,262,106653,5,14,3:2:0:0:
211,208,106738,1,2,0:1:0:0:
270,164,106823,1,2,0:1:0:0:
219,112,106909,1,8,0:0:0:0:
245,92,106994,1,2,0:1:0:0:
230,73,107079,1,2,0:1:0:0:
239,62,107164,6,0,L|232:6,2,50.0000019073487,2|2|2,3:2|0:1|0:1,0:0:0:0:
178,133,107419,2,0,L|122:140,2,50.0000019073487,10|2|2,0:1|0:1|0:1,0:0:0:0:
266,150,107675,2,0,L|273:206,2,50.0000019073487,2|0|2,3:1|0:0|0:1,0:0:0:0:
326,84,107930,2,0,L|382:77,2,50.0000019073487,8|0|2,0:0|0:0|0:1,0:0:0:0:
51,110,108185,6,0,P|92:313|294:357,1,437.5,2|0,3:1|0:0,0:0:0:0:
370,354,108696,5,6,3:1:0:0:
419,298,108781,1,2,0:1:0:0:
429,224,108866,1,2,0:1:0:0:
387,160,108951,1,10,0:1:0:0:
369,84,109036,1,2,0:1:0:0:
402,16,109121,1,2,0:1:0:0:
477,19,109206,5,6,3:1:0:0:
487,27,109292,1,2,0:1:0:0:
487,37,109377,1,2,0:1:0:0:
482,43,109462,1,10,0:1:0:0:
478,43,109547,1,2,0:1:0:0:
473,43,109632,1,2,0:1:0:0:
415,90,109717,5,6,3:1:0:0:
352,40,109802,5,0,0:1:0:0:
250,56,109887,5,2,0:1:0:0:
208,150,109972,5,10,0:1:0:0:
230,246,110058,5,0,0:1:0:0:
165,320,110143,5,2,0:1:0:0:
80,317,110228,6,0,B|20:245|131:207|191:224|129:313|170:380|300:351|326:302,1,333.333333333333,6|0,3:1|0:0,0:0:0:0:
308,246,110738,5,4,3:2:0:0:
372,294,110994,1,0,0:0:0:0:
378,216,111249,1,2,3:2:0:0:
441,256,111504,1,0,0:0:0:0:
356,313,111760,5,2,3:2:0:0:
362,235,111888,1,0,0:0:0:0:
285,342,112016,1,2,0:0:0:0:
292,265,112143,2,0,P|294:206|288:102,1,150.000005722046,2|2,0:0|0:0,0:0:0:0:
294,41,112526,5,2,0:0:0:0:
392,84,112653,1,2,0:0:0:0:
270,114,112781,2,0,P|273:151|273:189,1,75.0000028610231,2|0,3:2|0:0,0:0:0:0:
368,157,113036,5,2,0:0:0:0:
217,241,113163,1,2,0:0:0:0:
347,306,113292,2,0,P|344:268|344:231,1,75.0000028610231,0|2,3:2|0:0,0:0:0:0:
211,321,113547,1,0,0:0:0:0:
284,355,113675,1,2,0:0:0:0:
6,312,113802,6,0,P|40:174|180:145,1,300.000011444092,2|0,3:2|3:2,0:0:0:0:
246,192,114823,5,4,3:2:0:0:
387,14,114951,2,0,P|395:67|415:146,1,119.999996337891,0|8,3:2|0:0,0:0:0:0:
195,340,115206,2,0,P|187:287|167:208,1,119.999996337891,2|10,3:2|0:0,0:0:0:0:
312,96,115462,5,2,0:0:0:0:
495,235,115589,1,8,0:0:0:0:
294,349,115717,1,2,0:0:0:0:
254,342,115781,1,2,0:0:0:0:
214,337,115845,2,0,P|206:284|186:205,1,119.999996337891,4|0,3:2|3:2,0:0:0:0:
67,52,116100,6,0,B|60:29|42:14|42:14|168:29|73:128|202:137,1,259.999988098145,12|0,0:0|3:2,0:0:0:0:
256,187,116440,1,0,3:2:0:0:
333,167,116526,1,0,3:2:0:0:
360,95,116611,1,8,3:0:0:0:
334,21,116696,1,8,3:0:0:0:
256,7,116781,1,8,3:0:0:0:
197,57,116866,5,4,3:2:0:0:
28,114,116994,1,2,0:0:0:0:
85,283,117121,1,8,0:0:0:0:
99,155,117249,1,2,0:0:0:0:
315,57,117377,5,8,0:0:0:0:
484,114,117505,1,2,0:0:0:0:
427,283,117632,1,8,0:0:0:0:
413,155,117760,1,2,0:0:0:0:
255,265,117887,6,0,P|258:324|257:384,1,119.999996337891,4|0,3:2|0:0,0:0:0:0:
148,332,118143,6,0,B|110:376|22:348|19:251|100:219|141:252|141:252|172:277|239:281|320:237|286:103|225:90|132:87|109:169|109:169|102:136|68:106|20:108|20:108|70:80|107:94|113:126|182:102|189:54,1,942.500028762818,12|0,3:2|0:0,0:0:0:0:
187,43,119036,6,0,P|185:25|175:5,1,25,0|0,3:2|3:2,0:0:0:0:
371,96,119164,6,0,P|275:140|182:189,1,209.999993591309,12|0,0:0|0:0,0:0:0:0:
183,189,119419,1,2,3:2:0:0:
320,345,119547,1,0,0:0:0:0:
508,251,119675,1,8,0:0:0:0:
346,221,119802,1,2,0:0:0:0:
200,272,119930,6,0,P|100:246|76:138,1,209.999993591309,2|0,3:2|0:0,0:0:0:0:
73,74,120185,1,8,0:0:0:0:
271,102,120312,1,2,0:0:0:0:
469,130,120440,1,2,3:2:0:0:
243,179,120568,1,2,3:2:0:0:
205,5,120695,1,10,0:0:0:0:
388,118,120823,5,2,0:0:0:0:
425,322,120951,2,0,P|383:236|362:179,1,139.999995727539,2|0,3:2|0:0,0:0:0:0:
107,69,121206,2,0,P|138:132|164:197,1,139.999995727539,8|2,0:0|0:0,0:0:0:0:
292,94,121462,5,0,3:2:0:0:
452,204,121589,1,0,3:2:0:0:
512,67,121717,1,8,0:0:0:0:
416,132,121845,5,2,0:0:0:0:
350,384,121972,2,0,P|342:279|330:159,1,209.999993591309,2|0,3:2|0:0,0:0:0:0:
340,157,122228,1,8,0:0:0:0:
99,9,122355,5,2,0:0:0:0:
1,99,122483,1,2,3:2:0:0:
253,181,122611,1,2,3:2:0:0:
226,50,122738,1,8,0:0:0:0:
27,228,122866,1,2,0:0:0:0:
156,272,122994,2,0,B|282:283|201:363|335:375,1,209.999993591309,4|0,3:2|0:0,0:0:0:0:
350,384,123249,5,8,0:0:0:0:
447,279,123377,1,0,0:0:0:0:
236,180,123504,5,0,3:2:0:0:
371,305,123632,1,0,3:2:0:0:
496,170,123760,1,8,0:0:0:0:
361,45,123887,1,0,0:0:0:0:
326,114,124015,5,0,3:2:0:0:
430,80,124143,1,0,0:0:0:0:
188,44,124270,1,10,0:0:0:0:
292,10,124398,1,2,0:0:0:0:
257,79,124526,5,0,3:2:0:0:
100,177,124653,1,0,3:2:0:0:
2,20,124781,1,8,0:0:0:0:
86,76,124909,1,0,0:0:0:0:
152,120,125036,5,0,3:2:0:0:
0,181,125164,1,0,0:0:0:0:
66,341,125292,1,8,0:0:0:0:
217,281,125419,1,0,0:0:0:0:
256,212,125547,5,0,3:2:0:0:
295,281,125675,5,0,3:2:0:0:
446,341,125802,1,8,0:0:0:0:
512,181,125930,1,2,0:0:0:0:
360,120,126058,1,0,3:2:0:0:
256,0,126185,5,0,0:0:0:0:
229,138,126313,5,8,0:0:0:0:
208,62,126440,1,0,0:0:0:0:
283,138,126568,5,0,3:2:0:0:
304,62,126696,1,0,3:2:0:0:
152,120,126823,6,0,P|93:82|31:52,1,139.999995727539,8|8,0:0|0:0,0:0:0:0:
360,120,127079,6,0,P|419:82|482:52,1,139.999995727539,4|0,3:2|0:0,0:0:0:0:
256,212,127334,5,8,0:0:0:0:
105,246,127462,1,2,0:0:0:0:
116,356,127589,1,0,3:2:0:0:
257,380,127717,1,0,3:2:0:0:
396,356,127845,1,8,0:0:0:0:
407,246,127972,5,2,0:0:0:0:
320,334,128100,1,2,3:2:0:0:
256,288,128228,5,0,0:0:0:0:
192,334,128355,5,8,0:0:0:0:
105,246,128483,1,2,0:0:0:0:
256,212,128611,5,2,3:2:0:0:
343,124,128739,1,2,3:2:0:0:
169,124,128866,1,10,0:0:0:0:
256,36,128994,1,2,0:0:0:0:
16,126,129121,6,0,P|71:42|172:42,1,209.999993591309,4|0,3:2|0:0,0:0:0:0:
173,43,129377,1,8,0:0:0:0:
247,12,129504,2,0,L|261:80,1,69.9999978637696,2|0,0:0|0:0,0:0:0:0:
492,126,129632,6,0,P|437:42|336:42,1,209.999993591309,4|0,3:2|0:0,0:0:0:0:
335,42,129888,1,8,0:0:0:0:
265,12,130015,2,0,L|251:80,1,69.9999978637696,2|0,0:0|0:0,0:0:0:0:
273,340,130143,5,4,3:2:0:0:
161,284,130270,1,0,0:0:0:0:
178,160,130398,1,8,0:0:0:0:
302,138,130526,1,2,3:2:0:0:
361,248,130653,1,2,3:2:0:0:
195,357,130781,5,0,3:2:0:0:
120,215,130908,1,8,0:0:0:0:
232,100,131036,1,0,3:2:0:0:
375,170,131164,1,4,3:2:0:0:
354,328,131291,1,0,0:0:0:0:
256,232,131419,5,8,0:0:0:0:
256,232,131547,1,0,0:0:0:0:
269,384,131675,5,0,3:2:0:0:
260,308,131802,1,0,3:2:0:0:
251,149,131930,5,8,0:0:0:0:
242,308,132058,1,0,0:0:0:0:
270,150,132185,5,2,3:2:0:0:
272,230,132313,1,0,0:0:0:0:
264,75,132440,5,10,0:0:0:0:
256,232,132568,1,0,0:0:0:0:
55,138,132696,6,0,P|117:171|183:195,1,139.999995727539,0|0,3:2|3:2,0:0:0:0:
436,64,132951,2,0,P|374:31|308:7,1,139.999995727539,8|0,0:0|0:0,0:0:0:0:
112,83,133206,1,4,3:2:0:0:
184,115,133334,1,2,3:2:0:0:
342,349,133462,6,0,P|338:246|342:80,1,209.999993591309,8|0,0:0|0:0,0:0:0:0:
340,106,133717,1,0,3:2:0:0:
219,188,133845,1,0,3:2:0:0:
108,96,133972,1,8,0:0:0:0:
229,14,134100,1,0,0:0:0:0:
261,85,134228,5,2,3:2:0:0:
414,178,134355,1,0,0:0:0:0:
263,277,134483,1,8,0:0:0:0:
113,187,134611,5,0,0:0:0:0:
37,198,134738,1,0,3:2:0:0:
166,243,134866,1,0,3:2:0:0:
289,384,134994,5,8,0:0:0:0:
488,150,135121,1,8,0:0:0:0:
482,109,135185,1,8,0:0:0:0:
459,116,135249,2,0,P|375:87|312:63,1,119.999996337891,4|0,3:2|0:0,0:0:0:0:
226,32,135504,2,0,P|147:61|30:100,1,179.999994506836,8|0,0:0|0:0,0:0:0:0:
87,116,135760,5,0,3:2:0:0:
134,291,135887,1,0,0:0:0:0:
105,218,136015,1,8,0:0:0:0:
109,193,136143,1,0,0:0:0:0:
186,174,136270,5,2,3:2:0:0:
24,242,136398,1,0,0:0:0:0:
150,368,136526,1,8,0:0:0:0:
211,279,136653,1,2,0:0:0:0:
310,98,136781,5,2,3:2:0:0:
486,194,136909,1,0,3:2:0:0:
392,378,137036,1,8,0:0:0:0:
211,279,137164,1,0,0:0:0:0:
256,215,137292,6,0,P|240:157|229:97,1,119.999996337891,2|2,3:2|0:0,0:0:0:0:
72,231,137547,2,0,P|186:252|221:361,1,239.999992675781,8|0,0:0|3:2,0:0:0:0:
293,384,137930,1,0,0:0:0:0:
22,332,138058,2,0,P|41:271|59:189,1,119.999996337891,8|0,0:0|0:0,0:0:0:0:
351,145,138313,6,0,P|333:87|317:8,1,129.999994049073,2|2,3:2|0:0,0:0:0:0:
194,10,138568,6,0,P|180:68|155:151,1,139.999995727539,10|2,0:0|0:0,0:0:0:0:
463,198,138823,6,0,P|489:278|515:345,1,150.000005722046,2|2,3:2|3:2,0:0:0:0:
0,341,139079,6,0,P|24:263|44:175,1,160,10|2,0:0|0:0,0:0:0:0:
48,111,139334,5,4,3:2:0:0:
256,192,139462,1,0,0:0:0:0:
464,273,139589,5,8,0:0:0:0:
256,192,139717,1,0,0:0:0:0:
324,154,139845,5,2,3:2:0:0:
171,15,139972,5,2,3:2:0:0:
0,47,140100,1,8,0:0:0:0:
32,218,140228,1,2,0:0:0:0:
75,153,140355,1,0,3:2:0:0:
93,271,140483,1,0,0:0:0:0:
135,204,140611,5,8,0:0:0:0:
220,118,140738,1,0,0:0:0:0:
284,348,140866,1,2,3:2:0:0:
168,317,140994,1,2,3:2:0:0:
336,148,141121,1,10,0:0:0:0:
368,263,141249,5,2,0:0:0:0:
213,224,141377,1,2,3:2:0:0:
404,192,141504,1,0,0:0:0:0:
372,1,141632,1,10,0:0:0:0:
181,33,141760,5,2,0:0:0:0:
64,4,141887,1,2,3:2:0:0:
110,69,142015,1,0,3:2:0:0:
61,262,142143,5,8,0:0:0:0:
107,327,142270,1,2,0:0:0:0:
178,291,142398,5,2,3:2:0:0:
358,348,142526,1,0,0:0:0:0:
415,168,142653,1,8,0:0:0:0:
256,276,142781,5,2,3:2:0:0:
436,333,142909,1,0,0:0:0:0:
493,153,143036,1,2,3:2:0:0:
313,96,143164,2,0,L|337:233,1,139.999995727539,8|0,0:0|0:0,0:0:0:0:
231,351,143419,5,4,3:2:0:0:
106,134,143547,1,0,3:2:0:0:
81,386,143674,1,8,0:0:0:0:
248,197,143802,1,0,0:0:0:0:
1,250,143930,1,0,3:2:0:0:
213,271,144058,5,0,0:0:0:0:
68,204,144185,1,8,0:0:0:0:
149,336,144313,1,2,3:2:0:0:
165,186,144440,1,0,3:2:0:0:
60,306,144568,1,0,0:0:0:0:
307,372,144696,5,8,0:0:0:0:
410,234,144823,1,2,0:0:0:0:
305,258,144951,1,0,3:2:0:0:
445,365,145079,1,2,3:2:0:0:
474,190,145206,1,8,0:0:0:0:
503,15,145334,1,0,0:0:0:0:
344,189,145462,5,4,3:2:0:0:
185,264,145589,1,2,0:0:0:0:
124,0,145717,5,10,0:0:0:0:
375,77,145845,1,2,0:0:0:0:
233,136,145972,5,2,3:2:0:0:
249,346,146100,1,2,0:0:0:0:
49,159,146228,1,8,0:0:0:0:
414,292,146355,1,2,0:0:0:0:
42,25,146483,6,0,P|25:130|7:233,1,209.999993591309,4|0,3:2|0:0,0:0:0:0:
0,310,146738,1,8,0:0:0:0:
470,359,146866,6,0,P|482:289|494:220,1,139.999995727539,4|0,3:2|0:0,0:0:0:0:
243,17,147121,6,0,P|260:191|272:365,1,350,6|0,3:2|0:0,0:0:0:0:
272,365,149036,5,2,0:1:0:0:
272,365,149164,5,2,0:1:0:0:
272,365,149292,5,2,0:1:0:0:
272,365,149419,5,2,0:1:0:0:
407,256,149547,6,0,P|398:173|392:95,1,150.000005722046,4|0,3:2|0:0,0:0:0:0:
129,23,149802,2,0,P|122:97|114:172,1,150.000005722046,8|0,0:0|0:0,0:0:0:0:
234,169,150058,5,0,3:2:0:0:
320,20,150185,1,0,3:2:0:0:
475,98,150313,2,0,P|484:191|505:344,1,225.000008583069,8|0,0:0|0:0,0:0:0:0:
483,345,150568,5,2,3:2:0:0:
327,306,150696,1,0,0:0:0:0:
183,360,150823,1,8,0:0:0:0:
29,325,150951,2,0,P|22:247|12:173,1,150.000005722046,2|0,3:2|0:0,0:0:0:0:
25,33,151206,5,2,3:2:0:0:
181,63,151334,1,8,0:0:0:0:
333,7,151462,1,2,0:0:0:0:
483,59,151589,2,0,P|490:137|500:211,1,150.000005722046,2|0,3:2|0:0,0:0:0:0:
256,192,151845,5,8,0:0:0:0:
265,67,151972,2,0,P|358:98|430:116,1,150.000005722046,2|2,3:2|0:0,0:0:0:0:
143,246,152228,2,0,P|123:149|102:78,1,150.000005722046,0|8,3:0|0:0,0:0:0:0:
359,262,152483,2,0,P|285:327|234:380,1,150.000005722046,2|2,0:0|3:2,0:0:0:0:
489,128,152738,5,0,0:0:0:0:
482,347,152866,1,10,0:2:0:0:
279,265,152994,1,0,0:0:0:0:
359,246,153121,5,2,3:2:0:0:
247,68,153249,5,2,0:0:0:0:
59,70,153377,5,8,0:0:0:0:
0,0,153504,5,2,0:0:0:0:
0,0,153632,5,4,3:2:0:0:
9,39,153760,5,2,0:0:0:0:
90,45,153887,5,8,0:0:0:0:
59,152,154015,5,2,0:0:0:0:
205,130,154143,5,2,3:2:0:0:
220,292,154270,5,2,0:0:0:0:
393,182,154398,5,8,0:0:0:0:
473,372,154526,5,2,0:0:0:0:
473,372,154653,6,0,P|485:282|496:211,1,150.000005722046,2|0,3:2|0:0,0:0:0:0:
512,147,154909,1,8,0:0:0:0:
293,8,155036,2,0,P|281:98|270:169,1,150.000005722046,2|0,3:2|0:2,0:0:0:0:
272,156,155292,1,2,3:2:0:0:
135,193,155419,1,8,0:0:0:0:
86,56,155547,1,2,0:0:0:0:
0,193,155675,5,4,3:2:0:0:
21,185,155802,1,0,0:0:0:0:
82,135,155930,5,8,0:0:0:0:
135,193,156058,1,0,0:0:0:0:
512,191,156185,5,4,3:2:0:0:
491,199,156312,1,0,0:0:0:0:
430,249,156440,5,8,0:0:0:0:
377,191,156568,1,0,0:0:0:0:
255,288,156696,6,0,L|260:325,1,31.25,6|0,3:2|0:0,0:0:0:0:
257,295,156760,6,0,L|252:332,1,31.25,2|0,0:0|0:0,0:0:0:0:
255,302,156823,6,0,L|260:339,1,31.25,2|0,0:0|0:0,0:0:0:0:
257,309,156887,6,0,L|252:346,1,31.25,2|0,0:0|0:0,0:0:0:0:
255,316,156951,6,0,L|260:353,1,31.25,10|0,0:0|0:0,0:0:0:0:
255,323,157015,6,0,L|260:360,1,31.25,2|0,0:0|0:0,0:0:0:0:
255,330,157079,6,0,L|260:367,1,31.25,2|0,0:0|0:0,0:0:0:0:
257,337,157143,6,0,L|252:374,1,31.25,2|0,0:0|0:0,0:0:0:0:
256,384,157206,5,2,3:2:0:0:
210,351,157270,1,0,0:0:0:0:
200,295,157334,1,2,0:0:0:0:
227,245,157398,1,0,0:0:0:0:
279,223,157462,1,10,0:0:0:0:
306,174,157526,1,0,0:0:0:0:
300,118,157589,1,10,0:0:0:0:
263,76,157653,1,0,0:0:0:0:
251,2,157717,6,0,P|141:45|6:95,1,239.999992675781,4|8,3:2|0:0,0:0:0:0:
4,159,158100,1,2,0:0:0:0:
152,232,158228,2,0,P|202:175|175:127,1,119.999996337891,0|0,3:2|3:2,0:0:0:0:
321,29,158483,5,8,0:0:0:0:
446,98,158611,1,2,0:0:0:0:
508,11,158738,2,0,P|499:90|481:297,2,239.999992675781,2|8|2,3:2|0:0|3:2,0:0:0:0:
428,20,159377,1,0,3:2:0:0:
313,124,159504,2,0,P|339:206|352:259,1,119.999996337891,8|0,0:0|0:0,0:0:0:0:
410,335,159760,6,0,P|296:360|216:244,1,239.999992675781,2|8,3:2|0:0,0:0:0:0:
225,197,160143,1,2,0:0:0:0:
188,40,160270,2,0,B|131:61|131:61|100:158|-7:190,1,239.999992675781,2|8,3:2|0:0,0:0:0:0:
40,258,160653,1,2,0:0:0:0:
393,325,160781,2,0,P|459:253|426:76,1,239.999992675781,2|8,3:2|0:0,0:0:0:0:
385,84,161164,1,2,0:0:0:0:
250,249,161292,6,0,P|240:304|227:358,1,113.000000344849,2|0,3:2|3:2,0:0:0:0:
148,342,161547,2,0,P|160:274|175:223,1,113.000000344849,8|0,0:0|3:0,0:0:0:0:
114,177,161738,1,0,0:0:0:0:
85,251,161802,6,0,B|55:296|-13:274|-24:216|-3:168|70:182|39:97,1,225.000008583069,4|0,3:2|0:0,0:0:0:0:
90,53,162058,2,0,P|68:73|110:153,1,75.0000028610231,8|0,0:0|0:0,0:0:0:0:
167,213,162185,2,0,P|136:184|167:116,1,75.0000028610231,2|0,0:0|0:0,0:0:0:0:
156,290,162313,6,0,B|136:354|213:377|286:350|303:208|202:171,1,262.500002503395,2|0,3:2|0:0,0:0:0:0:
210,133,162568,2,0,P|232:95|314:114,1,87.500000834465,8|0,0:0|0:0,0:0:0:0:
339,125,162696,2,0,P|379:115|444:94,1,87.500000834465,2|0,0:0|0:0,0:0:0:0:
499,261,162823,6,0,B|561:250|551:103|339:166|304:241|405:359,1,300,4|0,3:2|0:0,0:0:0:0:
409,341,163079,2,0,P|455:328|487:364,1,100,8|0,0:0|0:0,0:0:0:0:
331,354,163206,2,0,P|285:341|253:376,1,100,0|0,0:0|0:0,0:0:0:0:
377,269,163334,6,0,B|297:248|319:91|434:207|423:48|378:-17|250:29,1,337.500012874604,2|0,3:2|0:0,0:0:0:0:
226,1,163589,6,0,P|238:75|270:143,1,150,10|0,0:0|0:0,0:0:0:0:
120,33,163845,6,0,B|65:34|44:108|106:176|152:71|210:202,1,225.000008583069,4|0,3:2|0:0,0:0:0:0:
127,211,164100,2,0,P|147:241|184:244,1,75.0000028610231,8|0,0:0|0:0,0:0:0:0:
201,77,164228,2,0,P|237:80|257:110,1,75.0000028610231,2|0,0:2|0:0,0:0:0:0:
70,286,164355,6,0,B|6:293|45:434|214:356|262:273,1,262.500002503395,2|0,3:2|0:0,0:0:0:0:
293,365,164611,2,0,P|308:314|312:265,1,87.500000834465,10|0,0:0|0:0,0:0:0:0:
382,244,164738,2,0,P|433:259|481:265,1,87.500000834465,2|0,0:0|0:0,0:0:0:0:
484,14,164866,6,0,B|469:-34|386:-36|290:51|431:106|449:217,1,300,4|0,3:2|0:0,0:0:0:0:
343,173,165121,2,0,P|296:172|276:129,1,100,10|0,0:2|0:0,0:0:0:0:
202,101,165249,2,0,P|190:55|227:24,1,100,0|0,0:2|0:0,0:0:0:0:
203,180,165377,6,0,B|107:204|114:101|-33:137|-53:283|64:310,1,337.500012874604,2|0,3:2|0:0,0:0:0:0:
122,308,165632,6,0,P|192:272|293:237,1,150,8|0,0:0|0:0,0:0:0:0:
339,314,165887,6,0,B|321:272|331:213|424:185|475:225|459:268,1,225.000008583069,4|0,3:2|0:0,0:0:0:0:
418,329,166143,2,0,P|412:364|381:384,1,75.0000028610231,10|0,0:0|0:0,0:0:0:0:
280,203,166270,2,0,P|282:149|278:102,1,75.0000028610231,2|0,0:0|0:0,0:0:0:0:
482,91,166398,6,0,B|477:139|413:160|378:139|372:-7|232:41,1,262.500002503395,2|0,3:2|0:0,0:0:0:0:
263,111,166653,2,0,P|218:98|202:55,1,87.500000834465,8|0,0:0|0:0,0:0:0:0:
62,21,166781,2,0,P|107:34|123:77,1,87.500000834465,2|0,0:2|0:0,0:0:0:0:
304,282,166909,6,0,B|240:367|67:289|263:232|132:121,1,300,4|0,3:2|0:0,0:0:0:0:
76,134,167164,2,0,P|29:145|13:190,1,100,10|0,0:0|0:0,0:0:0:0:
3,273,167292,2,0,P|52:264|99:247,1,100,2|0,0:0|0:0,0:0:0:0:
142,61,167419,6,0,B|152:15|251:-52|330:68|314:190|227:241,1,337.500012874604,0|0,3:2|0:0,0:0:0:0:
350,216,167675,6,0,B|404:154|427:217|492:144,1,150,8|0,0:0|0:0,0:0:0:0:
487,73,167930,6,0,B|441:55|313:49|395:183|381:310,1,300,4|0,3:2|0:0,0:0:0:0:
352,350,168185,2,0,P|305:323|308:274,1,100,10|0,0:0|0:0,0:0:0:0:
264,212,168313,2,0,P|216:203|180:235,1,100,2|0,0:0|0:0,0:0:0:0:
212,308,168440,6,0,B|166:326|38:332|120:198|106:71,1,300,2|0,3:2|0:0,0:0:0:0:
158,44,168696,2,0,P|223:32|256:15,1,100,8|0,0:0|0:0,0:0:0:0:
299,80,168823,2,0,P|364:92|397:109,1,100,2|0,0:0|0:0,0:0:0:0:
407,26,168951,5,12,0:0:0:0:
483,46,169206,6,0,P|472:152|464:310,1,239.999992675781,4|8,3:2|3:0,0:0:0:0:
457,306,169547,5,8,3:0:0:0:
469,326,169632,5,8,3:0:0:0:
457,340,169717,5,0,3:2:0:0:
390,372,169802,5,0,3:0:0:0:
317,320,169887,5,0,3:0:0:0:
212,359,169972,6,0,P|223:253|225:197,1,119.999996337891,12|0,0:0|0:0,0:0:0:0:
303,242,170228,6,0,P|310:122|313:2,1,239.999992675781,12|8,0:0|3:0,0:0:0:0:
291,1,170568,5,0,3:2:0:0:
273,12,170653,5,0,3:2:0:0:
257,2,170738,5,8,3:0:0:0:
195,48,170823,5,8,3:0:0:0:
108,10,170909,5,8,3:0:0:0:
12,74,170994,6,0,P|68:87|91:143,1,119.999996337891,12|0,0:0|0:0,0:0:0:0:
173,124,171249,6,0,P|165:243|162:363,1,239.999992675781,12|8,3:2|3:0,0:0:0:0:
143,355,171589,5,8,3:0:0:0:
123,357,171675,5,8,3:0:0:0:
90,375,171760,5,8,3:0:0:0:
38,321,171845,5,8,3:0:0:0:
79,258,171930,5,8,3:0:0:0:
153,277,172015,6,0,P|223:257|289:231,1,119.999996337891,12|0,0:0|0:0,0:0:0:0:
331,290,172270,5,12,3:2:0:0:
477,168,172398,2,0,B|327:174|409:65|277:31,1,239.999992675781,2|2,0:0|0:0,0:0:0:0:
344,209,172781,5,2,0:0:0:0:
