osu file format v14

[General]
AudioFilename: audio.mp3
AudioLeadIn: 0
PreviewTime: 148972
Countdown: 0
SampleSet: Soft
StackLeniency: 0.7
Mode: 0
LetterboxInBreaks: 0
WidescreenStoryboard: 1

[Editor]
Bookmarks: 33121,86228
DistanceSpacing: 1.3
BeatDivisor: 4
GridSize: 32
TimelineZoom: 4.199998

[Metadata]
Title:Shuuten no Saki ga Aru to Suru naraba.
TitleUnicode:終点の先が在るとするならば。
Artist:TUYU
ArtistUnicode:ツユ
Creator:YaMaDarknesss
Version:Silky's Hard
Source:
Tags:a_blue raijodo wring silky fuyuyu- mamayu kanau iljaaz if there was an endpoint. 貴方を不幸に誘いますね 2nd album ぷす pusu 礼衣 reii おむたつ omutatsu japanese pop jpop j-pop rock jrock j-rock
BeatmapID:4272188
BeatmapSetID:1818626

[Difficulty]
HPDrainRate:5
CircleSize:3
OverallDifficulty:6.2
ApproachRate:8.3
SliderMultiplier:1.5
SliderTickRate:1

[Events]
//Background and Video events
0,0,"BG.jpg",0,0
//Break Periods
//Storyboard Layer 0 (Background)
//Storyboard Layer 1 (Fail)
//Storyboard Layer 2 (Pass)
//Storyboard Layer 3 (Foreground)
//Storyboard Layer 4 (Overlay)
//Storyboard Sound Samples

[TimingPoints]
441,255.31914893617,4,2,4,70,1,0
31717,-133.333333333333,4,2,4,70,0,0
32100,-133.333333333333,4,2,4,5,0,0
33121,-100,4,2,4,60,0,0
36568,-133.333333333333,4,2,4,60,0,0
37206,-200,4,2,4,40,0,0
53547,-133.333333333333,4,2,4,60,0,0
56611,-100,4,2,4,60,0,0
57632,-133.333333333333,4,2,4,60,0,0
59419,-100,4,2,4,60,0,0
60696,-333.333333333333,4,2,4,60,0,0
61717,-100,4,2,4,70,0,0
85845,-133.333333333333,4,2,4,70,0,0
86738,-133.333333333333,4,2,4,50,0,0
87249,-100,4,2,4,70,0,0
102568,-133.333333333333,4,2,4,50,0,0
106653,-100,4,2,4,70,0,0
110738,-133.333333333333,4,2,4,50,0,0
114823,-100,4,2,4,70,0,0
114951,-100,4,2,4,70,0,0
118909,-100,4,2,4,5,0,0
119036,-100,4,2,4,50,0,0
119164,-100,4,2,4,75,0,0
148653,-100,4,2,4,5,0,0
149036,-133.333333333333,4,2,4,50,0,0
149547,-100,4,2,4,80,0,0
157717,-100,4,2,4,70,0,0
161802,-100,4,2,4,80,0,0
168951,-100,4,2,4,70,0,0

[Colours]
Combo1 : 206,145,202
Combo2 : 254,101,197
Combo3 : 255,88,100
Combo4 : 139,0,215

[HitObjects]
407,336,7079,6,0,L|399:299,7,37.5,2|2|2|2|2|2|2|2,0:0|0:0|0:0|0:0|0:0|0:0|0:0|0:0,0:0:0:0:
382,266,7589,5,4,3:2:0:0:
382,266,7845,2,0,P|436:218|508:231,2,150,8|0|8,0:0|3:2|0:0,0:0:0:0:
321,343,8483,2,0,P|249:355|194:308,1,150,2|0,0:0|0:0,0:0:0:0:
254,241,8866,1,10,0:0:0:0:
192,166,8994,2,0,P|228:160|263:146,2,75,2|2|2,0:0|3:2|0:0,0:0:0:0:
114,225,9377,2,0,P|79:211|42:205,1,75,10|2,0:0|0:0,0:0:0:0:
0,117,9632,6,0,B|55:84|48:11|48:11|72:67|126:74,1,225,4|2,3:2|0:0,0:0:0:0:
212,38,10143,2,0,P|222:106|236:189,1,150,0|8,3:2|0:0,0:0:0:0:
291,262,10526,1,2,0:0:0:0:
202,301,10653,2,0,P|268:295|338:349,1,150,4|8,3:2|0:0,0:0:0:0:
431,344,11036,2,0,P|477:296|457:210,1,150,2|0,0:0|3:2,0:0:0:0:
372,207,11419,2,0,P|383:169|390:121,1,75,8|2,0:0|0:0,0:0:0:0:
337,49,11675,5,4,3:2:0:0:
337,49,11930,2,0,P|409:94|480:80,2,150,8|0|8,3:2|3:2|0:0,0:0:0:0:
176,160,12696,2,0,P|116:202|42:196,1,150,0|8,3:2|0:0,0:0:0:0:
0,108,13079,1,2,0:0:0:0:
56,29,13206,2,0,P|91:36|143:48,1,75,2|2,3:2|0:0,0:0:0:0:
201,111,13462,2,0,B|287:98|265:141|348:125,1,150,8|0,0:0|3:2,0:0:0:0:
426,67,13845,5,0,0:0:0:0:
505,122,13972,2,0,P|496:158|489:204,1,75,10|2,0:0|0:0,0:0:0:0:
401,239,14228,2,0,P|395:201|385:165,2,75,2|0|8,3:2|3:2|0:0,0:0:0:0:
449,323,14611,2,0,P|401:281|313:292,1,150,2|0,0:0|0:0,0:0:0:0:
262,367,14994,2,0,P|227:355|181:350,1,75,8|2,0:0|0:0,0:0:0:0:
97,383,15249,1,0,3:2:0:0:
32,309,15377,1,0,3:2:0:0:
85,228,15504,2,0,P|74:193|71:155,1,75,8|8,0:0|0:0,0:0:0:0:
153,101,15760,5,4,3:2:0:0:
153,101,16015,2,0,P|78:114|25:63,2,150,8|0|8,0:0|3:2|0:0,0:0:0:0:
224,34,16653,2,0,P|295:19|350:67,1,150,2|2,0:0|0:0,0:0:0:0:
268,120,17036,1,10,0:0:0:0:
340,185,17164,2,0,P|372:173|416:167,2,75,2|2|2,0:0|3:2|0:0,0:0:0:0:
262,244,17547,2,0,P|226:231|189:226,1,75,8|2,0:0|0:0,0:0:0:0:
107,172,17802,6,0,P|65:207|83:303,1,150,4|8,3:2|0:0,0:0:0:0:
0,357,18185,1,2,0:0:0:0:
0,357,18313,2,0,B|130:331|83:403|229:372,1,225,4|2,3:2|0:0,0:0:0:0:
305,326,18823,2,0,P|365:373|437:351,1,150,4|8,3:2|0:0,0:0:0:0:
492,279,19206,2,0,P|486:236|477:206,1,75,2|4,0:0|3:2,0:0:0:0:
393,154,19462,2,0,P|355:161|306:172,1,75,0|8,0:0|0:0,0:0:0:0:
255,242,19717,6,0,P|191:230|88:214,1,150,0|0,0:0|0:0,0:0:0:0:
28,159,20100,2,0,P|10:120|87:28,2,150,8|0|8,0:2|3:2|0:0,0:0:0:0:
47,353,20866,2,0,P|81:341|128:336,1,75,0|0,3:2|0:0,0:0:0:0:
130,238,21121,2,0,P|94:250|57:255,1,75,8|0,0:0|0:0,0:0:0:0:
47,353,21377,2,0,B|166:388|137:283|276:338,1,225,0|0,3:2|0:0,0:0:0:0:
340,272,21887,5,0,3:2:0:0:
387,357,22015,1,0,3:2:0:0:
480,327,22143,2,0,P|487:274|515:175,1,150,8|0,0:0|3:2,0:0:0:0:
343,84,22653,2,0,P|399:38|474:59,2,150,8|2|10,0:0|3:2|0:2,0:0:0:0:
164,163,23419,6,0,P|152:121|147:76,1,75,2|0,3:2|3:2,0:0:0:0:
230,36,23675,2,0,P|242:78|247:123,1,75,8|8,0:0|0:0,0:0:0:0:
316,176,23930,1,4,3:2:0:0:
409,149,24058,1,0,0:0:0:0:
468,225,24185,2,0,P|461:265|447:299,1,75,8|0,0:0|0:0,0:0:0:0:
491,384,24440,2,0,P|439:338|361:343,1,150,0|8,3:2|0:2,0:0:0:0:
172,294,24951,6,0,P|180:328|187:378,1,75,2|0,3:2|0:0,0:0:0:0:
274,325,25206,2,0,P|266:291|259:241,1,75,8|0,0:0|0:0,0:0:0:0:
358,248,25462,2,0,P|266:274|169:175,1,225,0|0,3:2|0:0,0:0:0:0:
227,114,25972,1,2,3:2:0:0:
165,37,26100,1,2,0:0:0:0:
104,113,26228,2,0,P|180:97|263:81,1,150,8|0,0:0|3:2,0:0:0:0:
441,43,26738,6,0,P|426:78|421:127,1,75,10|0,0:0|0:0,0:0:0:0:
468,200,26994,2,0,P|405:155|333:171,2,150,2|8|0,3:2|0:0|3:2,0:0:0:0:
386,254,27632,1,0,3:2:0:0:
440,335,27760,2,0,P|401:341|364:353,1,75,8|2,0:0|0:0,0:0:0:0:
275,384,28015,6,0,P|239:372|202:367,1,75,4|0,3:2|0:0,0:0:0:0:
129,302,28270,2,0,P|75:348|-8:317,1,150,8|2,0:0|3:2,0:0:0:0:
52,245,28653,1,0,0:0:0:0:
2,160,28781,1,8,0:0:0:0:
76,96,28909,2,0,P|144:108|235:129,1,150,2|0,0:0|0:0,0:0:0:0:
275,43,29292,2,0,P|314:38|353:24,1,75,8|2,0:0|0:0,0:0:0:0:
435,69,29547,1,0,3:2:0:0:
387,154,29675,1,0,3:2:0:0:
460,217,29802,2,0,P|448:253|441:297,1,75,8|0,0:0|0:0,0:0:0:0:
486,377,30058,6,0,P|430:330|359:344,1,150,2|8,3:2|0:0,0:0:0:0:
274,384,30440,2,0,P|268:340|258:303,1,75,2|2,0:0|3:2,0:0:0:0:
177,256,30696,2,0,P|142:269|98:276,2,75,2|8|2,0:0|0:0|0:0,0:0:0:0:
248,189,31079,6,0,B|286:197|308:227|308:227|345:210|383:215,1,150,4|8,3:2|0:0,0:0:0:0:
464,160,31462,6,0,P|453:122|448:75,1,75,4|0,3:2|0:0,0:0:0:0:
497,4,31717,6,0,P|438:60|358:44,1,168.750006437302,4|0,3:2|0:0,0:0:0:0:
358,44,33121,5,4,3:2:0:0:
261,28,33249,2,0,P|266:65|277:100,1,75,10|2,0:0|0:0,0:0:0:0:
208,170,33504,6,0,P|169:160|132:152,1,75,0|8,3:2|0:0,0:0:0:0:
158,248,33760,2,0,P|119:238|82:230,1,75,0|8,3:2|0:0,0:0:0:0:
21,305,34015,1,0,3:2:0:0:
81,381,34143,2,0,P|116:367|163:363,1,75,12|0,3:2|0:0,0:0:0:0:
236,311,34398,6,0,B|300:320|320:382|320:382|360:334|419:346,1,225,12|0,0:0|0:0,0:0:0:0:
486,277,34909,2,0,P|475:240|470:189,1,75,2|2,0:0|0:0,0:0:0:0:
512,117,35164,5,4,3:2:0:0:
512,117,35292,1,8,0:0:0:0:
436,55,35419,2,0,P|400:62|351:73,1,75,2|2,0:0|0:0,0:0:0:0:
306,151,35675,2,0,P|341:158|391:169,1,75,8|0,0:2|3:2,0:0:0:0:
470,204,35930,1,8,0:0:0:0:
393,264,36058,1,0,3:2:0:0:
429,353,36185,2,0,P|376:299|305:300,1,150,8|12,0:0|3:2,0:0:0:0:
242,371,36568,6,0,B|260:297|277:229|277:229|251:195|203:194|176:255|231:289,1,281.250010728836,2|6,0:2|3:2,0:0:0:0:
144,363,37462,6,0,P|106:352|70:348,1,75,0|2,0:0|3:2,0:0:0:0:
11,252,37972,2,0,P|3:180|58:127,1,150,2|2,0:0|0:0,0:0:0:0:
122,218,38738,1,2,3:2:0:0:
232,195,38994,2,0,P|219:111|208:44,1,150,2|2,0:0|0:0,0:0:0:0:
309,0,39760,2,0,P|316:39|323:77,1,75,0|2,3:2|0:0,0:0:0:0:
392,161,40270,1,0,3:2:0:0:
500,148,40526,2,0,P|509:108|518:74,2,75,2|2|2,0:0|3:2|0:0,0:0:0:0:
392,161,41292,5,2,3:2:0:0:
468,243,41547,1,0,0:0:0:0:
359,271,41802,1,2,3:2:0:0:
409,371,42058,2,0,P|347:333|258:340,1,150,2|2,0:0|0:0,0:0:0:0:
167,384,42823,1,2,3:2:0:0:
93,298,43079,2,0,P|101:265|109:224,1,75,2|2,0:0|3:2,0:0:0:0:
197,156,43589,1,2,0:0:0:0:
294,212,43845,1,2,3:2:0:0:
380,140,44100,2,0,P|394:73|341:12,1,150,2|2,0:0|0:0,0:0:0:0:
232,5,44866,2,0,P|195:13|151:22,1,75,2|2,3:2|0:0,0:0:0:0:
69,89,45377,5,2,3:2:0:0:
150,166,45632,2,0,P|141:202|134:253,1,75,2|2,0:0|3:2,0:0:0:0:
38,296,46143,2,0,P|91:352|165:346,1,150,2|2,0:0|0:0,0:0:0:0:
266,383,46909,1,2,3:2:0:0:
320,284,47164,2,0,P|300:213|298:130,1,150,2|2,0:0|0:0,0:0:0:0:
400,90,47930,2,0,P|436:98|480:108,1,75,2|2,3:2|0:0,0:0:0:0:
509,212,48440,1,2,3:2:0:0:
433,295,48696,2,0,P|441:330|451:378,2,75,2|2|2,0:0|3:2|0:0,0:0:0:0:
326,257,49462,5,2,3:2:0:0:
276,357,49717,2,0,P|241:347|198:339,1,75,2|2,0:0|3:2,0:0:0:0:
133,250,50228,2,0,B|95:259|75:295|75:295|41:273|0:278,1,150,2|2,0:0|0:0,0:0:0:0:
52,175,50994,1,2,3:2:0:0:
0,76,51249,1,2,0:0:0:0:
108,28,51504,2,0,P|144:42|191:49,1,75,2|2,3:2|0:0,0:0:0:0:
283,3,52015,6,0,P|234:54|249:138,1,150,2|2,3:2|3:2,0:0:0:0:
305,202,52781,5,2,0:0:0:0:
390,118,53036,5,2,3:2:0:0:
506,187,53292,5,2,0:0:0:0:
439,349,53547,6,0,P|381:357|319:377,1,112.500004291535,4|0,3:2|0:0,0:0:0:0:
153,297,54058,2,0,P|126:287|92:278,1,56.2500021457673,8|0,0:0|0:0,0:0:0:0:
22,336,54313,2,0,P|4:250|64:192,1,168.750006437302,2|0,0:0|0:0,0:0:0:0:
140,151,54823,2,0,P|133:114|123:75,1,56.2500021457673,0|0,3:2|0:0,0:0:0:0:
49,40,55079,1,8,0:0:0:0:
236,1,55334,6,0,P|229:28|224:56,1,56.2500021457673,2|0,0:0|0:0,0:0:0:0:
290,126,55589,2,0,P|338:99|394:107,1,112.500004291535,2|2,3:2|0:0,0:0:0:0:
454,181,55972,1,2,0:0:0:0:
454,181,56100,2,0,P|446:207|440:256,1,56.2500021457673,8|0,0:0|0:0,0:0:0:0:
496,313,56355,1,2,0:0:0:0:
496,313,56611,6,0,P|459:319|423:332,1,75,4|0,3:2|0:0,0:0:0:0:
338,380,56866,2,0,P|302:367|265:360,1,75,8|0,0:0|0:0,0:0:0:0:
189,299,57121,2,0,P|157:335|59:327,1,150,8|8,0:0|0:0,0:0:0:0:
11,245,57504,1,2,0:0:0:0:
82,178,57632,6,0,P|76:146|65:109,1,56.2500021457673,4|0,3:2|0:0,0:0:0:0:
147,67,57887,2,0,P|154:94|159:121,1,56.2500021457673,2|0,3:2|0:0,0:0:0:0:
236,179,58143,6,0,P|228:206|223:233,1,56.2500021457673,2|2,3:2|0:0,0:0:0:0:
302,288,58398,2,0,P|307:260|314:233,1,56.2500021457673,2|2,3:2|0:0,0:0:0:0:
406,208,58653,5,2,3:2:0:0:
457,126,58781,2,0,P|490:118|530:111,2,56.2500021457673,0|2|2,0:0|3:2|0:0,0:0:0:0:
380,68,59164,1,2,3:2:0:0:
380,68,59419,5,2,3:2:0:0:
290,107,59547,1,2,0:0:0:0:
235,26,59675,2,0,P|165:6|102:55,1,150,4|8,3:2|0:0,0:0:0:0:
54,130,60058,1,0,3:2:0:0:
122,199,60185,2,0,P|111:239|106:276,1,75,8|0,0:0|3:2,0:0:0:0:
143,362,60440,2,0,P|193:338|249:335,1,112.5,8|0,0:0|3:2,0:0:0:0:
268,348,60696,5,4,3:2:0:0:
408,384,60951,5,4,3:2:0:0:
504,239,61206,6,0,P|483:233|461:225,1,44.999998626709,4|2,3:2|0:0,0:0:0:0:
402,145,61717,5,4,3:2:0:0:
402,145,61972,2,0,P|419:63|437:0,2,150,8|0|8,0:0|3:2|0:0,0:0:0:0:
315,191,62611,2,0,P|258:143|190:160,1,150,2|0,0:0|0:0,0:0:0:0:
234,246,62994,1,8,0:0:0:0:
161,310,63121,2,0,P|123:323|78:331,2,75,0|2|0,0:0|3:2|3:2,0:0:0:0:
242,363,63504,2,0,P|278:370|314:382,1,75,10|2,0:0|0:0,0:0:0:0:
401,333,63760,6,0,B|454:325|493:353|493:353|508:293|480:227,1,225,2|2,3:2|0:0,0:0:0:0:
509,134,64270,2,0,P|460:183|378:172,1,150,0|8,3:2|0:0,0:0:0:0:
321,101,64653,1,2,0:0:0:0:
237,151,64781,2,0,P|230:114|220:78,2,75,2|2|10,3:2|0:0|0:0,0:0:0:0:
289,233,65164,2,0,P|230:276|159:259,1,150,2|0,0:0|3:2,0:0:0:0:
63,279,65547,2,0,P|69:242|79:206,1,75,8|2,0:0|0:0,0:0:0:0:
28,122,65802,5,4,3:2:0:0:
28,122,66058,2,0,P|101:107|189:90,1,150,10|2,0:0|3:2,0:0:0:0:
215,4,66440,1,2,3:2:0:0:
298,55,66568,2,0,P|334:62|375:71,1,75,8|2,0:0|0:0,0:0:0:0:
456,119,66823,2,0,P|464:78|477:41,2,75,2|0|10,3:2|0:0|0:2,0:0:0:0:
369,164,67206,1,0,0:0:0:0:
395,258,67334,2,0,P|430:248|483:238,1,75,2|2,3:2|3:2,0:0:0:0:
509,328,67589,2,0,P|468:368|377:356,1,150,8|2,0:0|3:2,0:0:0:0:
284,370,67972,6,0,P|291:332|302:290,1,75,0|10,0:0|0:0,0:0:0:0:
237,220,68228,1,2,0:0:0:0:
155,272,68355,2,0,P|148:234|137:192,2,75,0|0|8,3:2|3:2|0:0,0:0:0:0:
132,367,68738,2,0,P|59:377|0:334,1,150,2|0,0:0|0:0,0:0:0:0:
12,238,69121,2,0,P|44:228|96:221,1,75,8|0,0:0|0:0,0:0:0:0:
165,165,69377,1,0,3:2:0:0:
110,84,69504,1,0,3:2:0:0:
196,38,69632,2,0,P|228:48|280:55,1,75,8|8,0:0|0:0,0:0:0:0:
354,101,69887,5,4,3:2:0:0:
354,101,70143,2,0,P|418:59|491:77,2,150,8|0|8,0:0|3:2|0:0,0:0:0:0:
289,174,70781,2,0,P|303:246|317:324,1,150,2|0,0:0|0:0,0:0:0:0:
240,383,71164,1,8,0:0:0:0:
149,345,71292,2,0,P|113:357|67:364,2,75,2|2|2,0:0|3:2|3:2,0:0:0:0:
205,265,71675,2,0,P|168:258|132:246,1,75,10|2,0:0|3:2,0:0:0:0:
37,270,71930,6,0,P|21:196|81:141,1,150,4|8,3:2|0:0,0:0:0:0:
23,57,72313,1,2,0:0:0:0:
23,57,72440,2,0,B|75:73|92:134|92:134|139:89|201:99,1,225,4|2,3:2|0:0,0:0:0:0:
287,54,72951,2,0,P|297:119|312:207,1,150,4|8,3:2|0:0,0:0:0:0:
403,235,73334,2,0,P|396:271|388:317,1,75,2|4,0:0|3:2,0:0:0:0:
321,379,73589,2,0,P|285:368|247:364,1,75,2|8,0:0|0:0,0:0:0:0:
169,305,73845,6,0,P|132:344|39:328,1,150,2|0,0:0|0:0,0:0:0:0:
10,239,74228,2,0,B|22:180|22:180|44:162|44:162|58:100,2,150,8|0|8,0:0|3:2|0:0,0:0:0:0:
168,124,74994,6,0,P|157:81|150:30,1,75,2|0,3:2|0:0,0:0:0:0:
235,2,75249,2,0,P|245:36|250:75,1,75,10|0,0:0|0:0,0:0:0:0:
168,124,75504,2,0,P|251:51|364:79,1,225,2|0,3:2|0:0,0:0:0:0:
427,139,76015,5,2,3:2:0:0:
356,206,76143,1,0,0:0:0:0:
402,290,76270,2,0,P|349:254|264:262,1,150,8|0,0:0|3:2,0:0:0:0:
95,165,76781,2,0,P|88:81|144:28,2,150,10|2|10,0:0|3:2|0:0,0:0:0:0:
130,357,77547,6,0,P|93:361|43:376,1,75,0|0,3:2|3:2,0:0:0:0:
10,285,77802,2,0,P|46:275|83:270,1,75,8|8,0:0|0:0,0:0:0:0:
168,220,78058,1,4,3:2:0:0:
227,296,78185,1,0,0:0:0:0:
316,257,78313,2,0,P|322:218|334:179,1,75,8|0,0:0|0:0,0:0:0:0:
415,131,78568,2,0,P|342:142|285:97,1,150,0|8,3:2|0:0,0:0:0:0:
99,52,79079,6,0,P|136:46|176:36,1,75,2|0,3:2|0:0,0:0:0:0:
189,133,79334,2,0,P|152:139|112:149,1,75,8|0,0:0|0:0,0:0:0:0:
21,121,79589,2,0,B|83:134|83:134|108:228|108:228|172:240,1,225,2|0,3:2|0:0,0:0:0:0:
263,275,80100,1,2,3:2:0:0:
187,336,80228,1,0,0:0:0:0:
276,373,80355,2,0,P|350:349|429:348,1,150,8|0,0:2|3:2,0:0:0:0:
505,170,80866,6,0,P|468:164|419:144,1,75,8|0,0:0|0:0,0:0:0:0:
374,72,81121,2,0,P|391:143|342:206,2,150,2|8|2,3:2|0:0|3:2,0:0:0:0:
289,21,81760,1,0,3:2:0:0:
208,75,81887,2,0,P|216:110|226:169,1,75,8|0,0:0|0:0,0:0:0:0:
171,232,82143,6,0,P|133:222|88:216,1,75,4|0,3:2|0:0,0:0:0:0:
41,136,82398,2,0,P|-1:182|15:271,1,150,8|2,0:0|3:2,0:0:0:0:
19,361,82781,1,2,3:2:0:0:
99,304,82909,1,8,0:0:0:0:
174,363,83036,2,0,B|260:376|238:333|321:349,1,150,2|2,0:0|0:0,0:0:0:0:
415,321,83419,2,0,P|405:284|401:243,1,75,8|2,0:0|0:0,0:0:0:0:
322,187,83675,1,0,3:2:0:0:
250,252,83802,1,0,0:0:0:0:
166,200,83930,2,0,P|175:164|179:127,1,75,8|0,0:0|0:0,0:0:0:0:
93,82,84185,6,0,P|166:90|226:48,1,150,2|10,3:2|0:0,0:0:0:0:
313,4,84568,2,0,L|400:26,1,75,2|2,0:0|3:2,0:0:0:0:
467,76,84823,2,0,P|477:32|495:-11,2,75,2|10|2,3:2|0:0|0:0,0:0:0:0:
382,124,85206,6,0,P|394:192|409:277,1,150,4|8,3:2|0:0,0:0:0:0:
411,368,85589,6,0,P|374:367|345:346,1,75,4|0,3:2|0:0,0:0:0:0:
252,319,85845,6,0,P|333:322|388:257,1,168.750006437302,4|0,3:2|0:0,0:0:0:0:
387,261,86738,6,0,P|379:231|375:194,3,56.2500021457673,2|2|2|2,0:1|0:1|0:1|0:1,0:0:0:0:
459,153,87249,6,0,P|386:161|331:113,1,150,4|8,3:2|0:0,0:0:0:0:
375,26,87632,1,0,0:0:0:0:
280,0,87760,2,0,P|246:12|203:19,1,75,0|0,3:2|3:2,0:0:0:0:
145,93,88015,2,0,P|179:106|222:112,1,75,8|0,0:0|0:0,0:0:0:0:
300,162,88270,6,0,P|224:154|170:205,1,150,2|8,3:2|0:0,0:0:0:0:
74,196,88653,2,0,P|88:228|101:285,1,75,2|0,3:2|0:0,0:0:0:0:
70,361,88909,2,0,P|36:347|-8:337,2,75,2|8|2,3:2|0:0|0:0,0:0:0:0:
165,383,89292,2,0,B|223:370|223:370|249:342|249:342|306:330,1,150,2|8,3:2|0:0,0:0:0:0:
301,233,89675,2,0,B|352:243|352:243|377:272|377:272|436:284,1,150,2|0,3:2|3:2,0:0:0:0:
505,216,90058,2,0,P|494:181|487:136,1,75,8|2,0:0|0:0,0:0:0:0:
512,45,90313,6,0,P|462:98|388:89,1,150,2|8,3:2|0:0,0:0:0:0:
210,15,90823,2,0,P|173:23|136:28,1,75,2|2,3:2|0:0,0:0:0:0:
70,102,91079,1,8,0:0:0:0:
122,183,91206,1,2,0:0:0:0:
35,229,91334,6,0,P|105:220|161:271,1,150,4|8,3:2|0:0,0:0:0:0:
105,350,91717,1,2,0:0:0:0:
197,382,91845,2,0,P|232:370|269:365,1,75,2|2,3:2|0:0,0:0:0:0:
336,293,92100,5,8,0:0:0:0:
411,355,92228,1,2,0:0:0:0:
496,308,92355,2,0,P|511:234|457:182,1,150,2|8,3:2|0:0,0:0:0:0:
374,142,92738,2,0,P|303:157|212:177,1,150,2|2,3:2|3:2,0:0:0:0:
162,247,93121,2,0,P|130:233|79:227,1,75,8|2,0:0|0:0,0:0:0:0:
16,161,93377,6,0,P|16:120|38:88,1,75,4|0,3:2|0:0,0:0:0:0:
102,22,93632,2,0,P|158:38|236:63,1,112.5,8|0,0:0|0:0,0:0:0:0:
223,73,93887,6,0,P|262:58|306:57,1,75,4|0,3:2|0:0,0:0:0:0:
390,33,94143,2,0,P|378:77|361:150,1,112.5,8|0,0:0|0:0,0:0:0:0:
348,161,94398,6,0,P|438:160|477:206,2,150,4|8|2,3:2|0:0|3:2,0:0:0:0:
265,213,95036,1,2,0:0:0:0:
315,296,95164,1,8,0:0:0:0:
315,296,95292,1,8,0:0:0:0:
239,356,95419,6,0,B|156:340|178:383|92:370,1,150,4|8,3:2|0:0,0:0:0:0:
26,297,95802,1,2,0:0:0:0:
96,229,95930,2,0,P|88:179|82:152,1,75,0|0,3:2|0:0,0:0:0:0:
168,108,96185,2,0,P|176:158|182:185,1,75,8|0,0:0|0:0,0:0:0:0:
265,232,96440,2,0,B|320:222|320:222|355:244|355:244|410:234,1,150,2|8,3:2|0:0,0:0:0:0:
492,187,96823,2,0,P|516:114|464:56,1,150,2|2,3:2|3:2,0:0:0:0:
392,8,97206,2,0,P|387:45|378:81,1,75,8|2,0:0|0:0,0:0:0:0:
287,118,97462,6,0,P|209:103|132:88,1,150,2|8,3:2|0:0,0:0:0:0:
50,129,97845,2,0,P|33:163|35:199,1,75,2|2,0:0|0:0,0:0:0:0:
4,292,98100,2,0,P|61:234|136:254,1,150,2|2,3:2|0:0,0:0:0:0:
212,282,98483,2,0,P|200:320|195:367,1,75,2|0,3:2|0:0,0:0:0:0:
289,384,98738,2,0,B|382:387|348:350|435:354,1,150,8|2,0:0|3:2,0:0:0:0:
505,288,99121,1,2,3:2:0:0:
429,225,99249,2,0,P|419:189|414:136,1,75,8|2,0:0|0:0,0:0:0:0:
481,81,99504,5,4,3:2:0:0:
300,6,99760,2,0,P|295:43|285:79,1,75,8|2,0:0|0:0,0:0:0:0:
198,123,100015,2,0,P|158:109|122:105,1,75,2|2,3:2|3:2,0:0:0:0:
41,155,100270,2,0,P|46:192|56:228,1,75,8|2,0:0|0:0,0:0:0:0:
12,316,100526,6,0,P|69:271|145:292,1,150,2|8,3:2|0:0,0:0:0:0:
197,365,100909,2,0,P|234:353|277:349,1,75,2|0,0:0|3:2,0:0:0:0:
364,373,101164,2,0,P|392:322|347:242,1,150,0|0,3:2|0:0,0:0:0:0:
267,199,101547,2,0,P|277:162|282:117,1,75,0|0,3:2|0:0,0:0:0:0:
212,56,101802,1,8,0:0:0:0:
35,140,102058,5,2,3:2:0:0:
35,140,102185,1,0,3:2:0:0:
95,216,102313,2,0,P|132:212|167:199,1,75,10|2,0:0|0:0,0:0:0:0:
245,255,102568,6,0,P|238:284|234:328,1,56.2500021457673,4|0,3:2|0:0,0:0:0:0:
317,358,102823,2,0,P|320:330|327:302,1,56.2500021457673,0|0,0:0|0:0,0:0:0:0:
405,246,103079,2,0,P|432:238|472:232,1,56.2500021457673,2|0,3:2|0:0,0:0:0:0:
471,137,103334,2,0,P|443:141|416:149,1,56.2500021457673,2|0,0:0|0:0,0:0:0:0:
332,104,103589,2,0,P|275:105|230:68,1,112.500004291535,2|2,3:2|0:0,0:0:0:0:
156,13,103972,2,0,P|111:46|56:44,1,112.500004291535,2|2,0:0|0:0,0:0:0:0:
0,122,104355,2,0,P|9:151|14:191,1,56.2500021457673,2|2,0:0|0:0,0:0:0:0:
99,220,104611,5,2,3:2:0:0:
0,384,104866,1,0,0:0:0:0:
0,384,104994,2,0,P|47:357|110:358,1,112.500004291535,2|2,0:0|0:0,0:0:0:0:
185,306,105377,2,0,P|211:313|251:325,1,56.2500021457673,0|2,0:0|0:0,0:0:0:0:
318,374,105632,2,0,P|347:327|345:264,1,112.500004291535,2|2,3:2|0:0,0:0:0:0:
165,210,106143,2,0,P|135:162|135:107,1,112.500004291535,2|2,3:2|0:0,0:0:0:0:
205,41,106526,1,0,0:0:0:0:
295,75,106653,6,0,P|321:69|361:60,2,50,14|2|2,3:2|0:1|0:1,0:0:0:0:
371,35,106909,2,0,P|441:24|498:93,1,150,8|2,0:0|3:2,0:0:0:0:
409,124,107292,1,0,0:0:0:0:
485,183,107419,2,0,P|473:218|465:259,1,75,10|0,0:1|0:0,0:0:0:0:
507,344,107675,2,0,P|427:353|352:382,1,150,2|8,3:1|0:0,0:0:0:0:
271,338,108058,1,0,0:0:0:0:
321,255,108185,2,0,P|310:218|304:175,1,75,2|0,3:1|0:0,0:0:0:0:
233,115,108440,2,0,P|193:113|150:143,1,75,8|0,0:0|0:0,0:0:0:0:
77,78,108696,6,0,P|71:113|64:167,1,75,6|0,3:1|0:0,0:0:0:0:
0,225,108951,2,0,P|56:256|109:242,1,112.5,10|0,0:1|0:0,0:0:0:0:
118,262,109206,6,0,P|153:254|194:247,1,75,6|0,3:1|0:0,0:0:0:0:
253,323,109462,2,0,P|311:336|366:350,1,112.5,10|0,0:1|0:0,0:0:0:0:
376,368,109717,6,0,P|403:358|444:358,2,50,6|0|2,3:1|0:1|0:1,0:0:0:0:
459,365,109972,2,0,P|476:333|475:286,1,75,10|0,0:1|0:0,0:0:0:0:
419,214,110228,2,0,P|379:221|343:231,1,75,6|0,3:1|0:0,0:0:0:0:
268,169,110483,1,0,0:0:0:0:
268,169,110611,1,0,0:0:0:0:
338,105,110738,6,0,P|342:75|350:40,1,56.2500021457673,4|0,3:2|0:0,0:0:0:0:
261,6,110994,2,0,P|255:33|251:61,1,56.2500021457673,0|0,0:0|0:0,0:0:0:0:
178,123,111249,2,0,P|149:128|116:139,1,56.2500021457673,2|0,3:2|0:0,0:0:0:0:
113,231,111504,2,0,P|139:222|167:218,1,56.2500021457673,0|0,0:0|0:0,0:0:0:0:
254,259,111760,2,0,P|311:252|360:290,1,112.500004291535,2|2,3:2|0:0,0:0:0:0:
422,349,112143,2,0,P|365:342|316:380,1,112.500004291535,2|2,0:0|0:0,0:0:0:0:
227,384,112526,2,0,P|197:377|152:367,1,56.2500021457673,2|2,0:0|0:0,0:0:0:0:
85,331,112781,6,0,P|59:343|16:345,2,56.2500021457673,2|0|2,3:2|0:0|0:0,0:0:0:0:
127,245,113164,2,0,P|119:216|115:182,1,56.2500021457673,2|0,0:0|3:2,0:0:0:0:
45,125,113419,2,0,P|94:91|154:103,1,112.500004291535,2|2,0:0|0:0,0:0:0:0:
221,41,113802,2,0,B|282:65|287:126|287:126|327:75|385:83,1,225.000008583069,2|0,3:2|3:2,0:0:0:0:
383,82,114568,1,2,0:0:0:0:
489,182,114823,6,0,P|477:217|468:271,1,75,4|0,3:2|3:2,0:0:0:0:
511,343,115079,1,8,0:0:0:0:
421,380,115206,2,0,P|372:340|279:348,1,150,2|2,3:2|0:0,0:0:0:0:
199,383,115589,1,8,0:0:0:0:
131,312,115717,1,2,0:0:0:0:
191,235,115845,6,0,B|223:244|223:244|229:251|229:251|273:262,1,75,4|0,3:2|3:2,0:0:0:0:
310,174,116100,6,0,B|246:192|246:192|212:338|212:338|124:362,1,300,12|8,0:0|3:0,0:0:0:0:
53,300,116738,1,0,0:0:0:0:
13,210,116866,6,0,P|62:254|145:236,1,150,4|8,3:2|0:0,0:0:0:0:
184,152,117249,1,2,0:0:0:0:
276,120,117377,2,0,P|270:76|263:39,1,75,8|2,0:0|0:0,0:0:0:0:
354,0,117632,2,0,P|360:36|365:74,1,75,8|2,0:0|0:0,0:0:0:0:
362,171,117887,6,0,P|422:167|465:211,1,112.5,4|0,3:2|0:0,0:0:0:0:
480,210,118143,2,0,P|483:253|448:292,1,75,12|0,3:2|0:0,0:0:0:0:
497,372,118398,6,0,B|504:316|426:269|378:305|378:305|371:356|316:383|269:364,1,300,2|0,0:0|0:0,0:0:0:0:
186,378,119036,5,0,3:2:0:0:
186,378,119100,1,0,3:2:0:0:
186,378,119164,2,0,P|150:367|113:361,1,75,12|0,0:0|0:0,0:0:0:0:
19,384,119419,2,0,P|3:306|66:245,1,150,2|8,3:2|0:0,0:0:0:0:
121,193,119802,2,0,P|188:231|263:221,1,150,2|0,0:0|0:0,0:0:0:0:
328,155,120185,1,8,0:0:0:0:
265,79,120313,2,0,P|231:92|185:98,2,75,2|2|2,0:0|3:2|3:2,0:0:0:0:
335,11,120696,2,0,P|370:24|407:29,1,75,10|2,0:0|0:0,0:0:0:0:
501,55,120951,6,0,B|496:93|466:117|439:125|439:125|464:256,1,225,2|2,3:2|0:0,0:0:0:0:
512,332,121462,2,0,B|477:342|456:378|456:378|422:354|382:360,1,150,0|8,3:2|0:0,0:0:0:0:
310,295,121845,1,2,0:0:0:0:
231,353,121972,2,0,P|259:283|265:208,1,150,2|8,3:2|0:0,0:0:0:0:
190,146,122355,2,0,P|154:156|112:162,1,75,2|2,0:0|3:2,0:0:0:0:
34,215,122611,1,2,3:2:0:0:
61,307,122738,2,0,P|97:314|135:326,1,75,8|2,0:0|0:0,0:0:0:0:
216,376,122994,5,4,3:2:0:0:
216,376,123249,2,0,P|285:334|362:354,1,150,8|0,0:0|3:2,0:0:0:0:
438,384,123632,1,0,3:2:0:0:
503,311,123760,2,0,P|492:275|485:230,1,75,8|0,0:0|0:0,0:0:0:0:
508,143,124015,2,0,P|452:204|391:197,1,150,0|10,3:2|0:0,0:0:0:0:
311,139,124398,2,0,P|305:175|294:211,2,75,2|0|0,0:0|3:2|3:2,0:0:0:0:
401,101,124781,2,0,P|395:64|384:28,1,75,8|0,0:0|0:0,0:0:0:0:
289,2,125036,6,0,P|252:9|198:22,1,75,0|0,3:2|0:0,0:0:0:0:
131,69,125292,1,8,0:0:0:0:
207,128,125419,1,0,0:0:0:0:
118,169,125547,2,0,P|81:160|44:153,2,75,0|0|8,3:2|3:2|0:0,0:0:0:0:
181,243,125930,2,0,P|253:232|332:219,1,150,2|0,0:0|0:0,0:0:0:0:
411,166,126313,2,0,P|429:208|420:251,1,75,8|0,0:0|0:0,0:0:0:0:
457,328,126568,1,0,3:2:0:0:
362,304,126696,1,0,3:2:0:0:
293,372,126823,2,0,P|256:360|213:355,1,75,8|8,0:0|0:0,0:0:0:0:
138,300,127079,5,4,3:2:0:0:
138,300,127334,2,0,P|108:319|61:315,1,75,8|2,0:0|0:0,0:0:0:0:
3,246,127589,2,0,P|30:183|45:98,1,150,0|8,3:2|0:0,0:0:0:0:
5,13,127972,2,0,P|78:2|138:59,1,150,2|0,0:0|0:0,0:0:0:0:
153,143,128355,1,8,0:0:0:0:
71,196,128483,2,0,P|39:184|-10:176,2,75,2|2|2,0:0|3:2|3:2,0:0:0:0:
140,264,128866,2,0,P|175:251|212:244,1,75,10|2,0:0|0:0,0:0:0:0:
256,156,129121,6,0,B|304:184|309:234|309:234|321:242|321:242|337:237|337:237|358:191|412:185,1,225,4|2,3:2|0:0,0:0:0:0:
469,105,129632,2,0,P|513:163|499:234,1,150,4|8,3:2|0:0,0:0:0:0:
423,296,130015,1,2,0:0:0:0:
474,378,130143,2,0,P|411:339|337:341,1,150,4|8,3:2|0:0,0:0:0:0:
251,295,130526,2,0,P|216:313|179:315,1,75,2|2,3:2|3:2,0:0:0:0:
106,251,130781,2,0,P|116:215|121:169,1,75,0|8,3:2|0:0,0:0:0:0:
37,125,131036,6,0,P|107:139|172:91,1,150,0|0,3:2|0:0,0:0:0:0:
247,155,131419,2,0,P|225:75|215:8,2,150,8|0|8,0:0|3:2|0:0,0:0:0:0:
441,134,132185,2,0,P|451:97|459:54,1,75,2|0,3:2|0:0,0:0:0:0:
374,0,132440,2,0,P|364:37|356:80,1,75,10|0,0:0|0:0,0:0:0:0:
457,61,132696,2,0,P|367:38|268:137,1,225,0|0,3:2|0:0,0:0:0:0:
321,202,133206,5,4,3:2:0:0:
254,273,133334,1,2,3:2:0:0:
313,350,133462,2,0,P|240:326|166:318,1,150,8|0,0:0|3:2,0:0:0:0:
12,199,133972,2,0,P|63:148|136:155,2,150,8|2|8,0:0|3:2|0:0,0:0:0:0:
155,352,134738,6,0,P|118:359|82:371,1,75,0|0,3:2|3:2,0:0:0:0:
6,297,134994,2,0,P|42:290|78:277,1,75,8|8,0:0|0:0,0:0:0:0:
145,196,135249,1,4,3:2:0:0:
219,270,135377,1,0,0:0:0:0:
308,215,135504,2,0,P|298:180|292:137,1,75,8|0,0:0|0:0,0:0:0:0:
351,53,135760,2,0,P|426:40|480:97,1,150,0|8,3:2|0:0,0:0:0:0:
484,296,136270,6,0,P|446:285|410:279,1,75,2|0,3:2|0:0,0:0:0:0:
393,174,136526,2,0,P|429:180|465:190,1,75,8|2,0:0|0:0,0:0:0:0:
484,296,136781,2,0,B|351:268|410:358|268:331,1,225,2|0,3:2|0:0,0:0:0:0:
180,276,137292,1,2,3:2:0:0:
108,351,137419,1,2,0:0:0:0:
11,309,137547,2,0,P|-1:226|50:179,1,150,8|0,0:0|3:2,0:0:0:0:
247,139,138058,6,0,P|206:132|170:122,1,75,8|0,0:0|0:0,0:0:0:0:
130,207,138313,2,0,P|114:133|98:53,2,150,2|10|2,3:2|0:0|3:2,0:0:0:0:
207,277,138951,1,2,3:2:0:0:
146,363,139079,2,0,P|184:369|228:383,1,75,10|2,0:0|0:0,0:0:0:0:
310,328,139334,6,0,P|345:317|382:311,1,75,4|0,3:2|0:0,0:0:0:0:
462,381,139589,2,0,P|494:337|462:244,1,150,8|2,0:0|3:2,0:0:0:0:
371,214,139972,1,2,3:2:0:0:
454,149,140100,1,8,0:0:0:0:
396,60,140228,2,0,P|326:73|249:87,1,150,2|0,0:0|0:0,0:0:0:0:
179,166,140611,2,0,P|143:157|105:149,1,75,8|0,0:0|0:0,0:0:0:0:
17,207,140866,1,2,3:2:0:0:
91,280,140994,1,2,3:2:0:0:
74,383,141121,2,0,P|108:372|148:366,1,75,10|2,0:0|0:0,0:0:0:0:
239,314,141377,6,0,P|300:358|380:343,1,150,2|10,3:2|0:0,0:0:0:0:
461,295,141760,2,0,P|469:333|480:370,2,75,2|2|0,0:0|3:2|3:2,0:0:0:0:
369,242,142143,2,0,P|379:206|387:169,1,75,8|2,0:0|0:0,0:0:0:0:
429,72,142398,2,0,P|368:116|288:101,1,150,2|8,3:2|0:0,0:0:0:0:
221,33,142781,2,0,P|184:43|142:49,1,75,2|0,3:2|0:0,0:0:0:0:
51,29,143036,1,2,3:2:0:0:
0,112,143164,1,8,0:0:0:0:
0,112,143292,1,0,0:0:0:0:
67,181,143419,6,0,P|75:210|82:256,1,75,4|0,3:2|3:2,0:0:0:0:
32,339,143675,2,0,P|88:304|167:319,1,150,8|0,0:0|3:2,0:0:0:0:
246,375,144058,1,0,0:0:0:0:
330,327,144185,1,8,0:0:0:0:
276,245,144313,2,0,P|254:168|249:96,1,150,2|0,3:2|0:0,0:0:0:0:
316,27,144696,2,0,P|352:35|408:50,1,75,8|2,0:0|0:0,0:0:0:0:
473,92,144951,1,0,3:2:0:0:
388,141,145079,1,2,3:2:0:0:
471,191,145206,2,0,P|461:225|453:266,1,75,8|0,0:0|0:0,0:0:0:0:
503,348,145462,5,4,3:2:0:0:
503,348,145589,1,2,0:0:0:0:
411,383,145717,2,0,P|374:367|332:360,1,75,10|2,0:0|0:0,0:0:0:0:
270,292,145972,1,2,3:2:0:0:
204,364,146100,1,2,0:0:0:0:
122,309,146228,2,0,P|133:275|141:222,1,75,8|2,0:0|0:0,0:0:0:0:
53,191,146483,6,0,P|141:196|185:132,1,150,4|8,3:2|0:0,0:0:0:0:
272,127,146866,6,0,P|262:89|257:42,1,75,4|0,3:2|0:0,0:0:0:0:
173,5,147121,5,6,3:2:0:0:
256,192,147185,12,0,148653,0:0:0:0:
173,5,149036,6,0,P|157:29|150:68,1,56.2500021457673,2|2,0:1|0:1,0:0:0:0:
54,65,149292,6,0,P|61:92|76:115,1,56.2500021457673,2|2,0:1|0:1,0:0:0:0:
42,204,149547,6,0,P|89:159|171:169,1,150,4|8,3:2|0:0,0:0:0:0:
238,236,149930,1,0,0:0:0:0:
162,298,150058,2,0,P|165:338|175:372,1,75,0|0,3:2|3:2,0:0:0:0:
270,384,150313,2,0,P|313:373|353:370,1,75,8|0,0:0|0:0,0:0:0:0:
440,378,150568,2,0,P|483:326|455:237,1,150,2|8,3:2|0:0,0:0:0:0:
396,183,150951,2,0,P|361:195|317:203,1,75,2|0,3:2|0:0,0:0:0:0:
242,147,151206,2,0,P|235:183|225:223,2,75,2|8|2,3:2|0:0|0:0,0:0:0:0:
186,66,151589,6,0,P|111:50|53:106,1,150,2|8,3:2|0:0,0:0:0:0:
14,181,151972,2,0,P|57:177|115:215,1,112.5,2|0,3:2|0:0,0:0:0:0:
124,232,152228,2,0,P|115:268|106:310,1,75,0|8,3:0|0:0,0:0:0:0:
169,380,152483,2,0,B|226:373|226:373|250:343|250:343|307:334,1,150,2|0,0:0|0:0,0:0:0:0:
392,376,152866,1,10,0:2:0:0:
509,220,153121,2,0,P|473:210|431:200,1,75,2|2,3:2|0:0,0:0:0:0:
394,112,153377,1,8,0:0:0:0:
394,112,153504,1,2,0:0:0:0:
310,162,153632,6,0,P|319:192|326:243,1,75,4|2,3:2|0:0,0:0:0:0:
242,286,153887,2,0,P|236:248|226:212,1,75,8|2,0:0|0:0,0:0:0:0:
142,160,154143,1,2,3:2:0:0:
56,205,154270,1,2,0:0:0:0:
0,124,154398,2,0,P|10:87|15:50,1,75,8|2,0:0|0:0,0:0:0:0:
101,4,154653,2,0,P|159:46|232:35,1,150,2|8,3:2|0:0,0:0:0:0:
308,96,155036,2,0,P|344:88|386:80,1,75,2|0,3:2|0:2,0:0:0:0:
469,125,155292,1,2,3:2:0:0:
391,183,155419,2,0,P|381:219|375:264,1,75,8|2,0:0|0:0,0:0:0:0:
438,331,155675,6,0,P|404:352|353:349,1,75,4|0,3:2|0:0,0:0:0:0:
276,383,155930,6,0,P|267:327|257:265,1,112.5,8|0,0:0|0:0,0:0:0:0:
244,259,156185,6,0,P|206:265|165:273,1,75,4|0,3:2|0:0,0:0:0:0:
96,208,156440,6,0,P|85:152|129:99,1,112.5,8|0,0:0|0:0,0:0:0:0:
133,112,156696,6,0,P|46:121|-4:69,2,150,6|10|2,3:2|0:0|3:2,0:0:0:0:
206,47,157334,1,2,0:0:0:0:
295,85,157462,1,10,0:0:0:0:
295,85,157589,1,10,0:0:0:0:
275,180,157717,6,0,P|283:216|290:266,1,75,4|0,3:2|0:0,0:0:0:0:
215,318,157972,1,8,0:0:0:0:
301,363,158100,2,0,B|362:351|362:351|390:368|390:368|451:358,1,150,2|0,0:0|3:2,0:0:0:0:
504,282,158483,2,0,P|468:278|428:257,1,75,8|2,0:0|0:0,0:0:0:0:
380,179,158738,2,0,P|424:110|398:40,1,150,2|8,3:2|0:0,0:0:0:0:
320,2,159121,1,0,0:0:0:0:
230,41,159249,2,0,P|240:77|245:132,1,75,2|0,3:2|3:2,0:0:0:0:
181,189,159504,2,0,L|95:172,1,75,8|0,0:0|0:0,0:0:0:0:
49,94,159760,6,0,P|0:160|19:226,1,150,2|8,3:2|0:0,0:0:0:0:
98,271,160143,1,2,0:0:0:0:
31,341,160270,2,0,B|69:305|120:320|120:320|133:352|165:367,1,150,2|8,3:2|0:0,0:0:0:0:
329,274,160781,2,0,P|320:192|302:118,1,150,2|8,3:2|0:0,0:0:0:0:
371,54,161164,1,2,0:0:0:0:
467,35,161292,2,0,P|461:74|449:113,1,75,2|0,3:2|3:2,0:0:0:0:
416,199,161547,2,0,P|452:208|506:224,1,75,8|0,0:0|3:0,0:0:0:0:
512,316,161802,6,0,B|452:326|452:326|438:353|438:353|365:366,1,150,4|8,3:2|0:0,0:0:0:0:
289,327,162185,1,2,0:0:0:0:
324,235,162313,2,0,P|314:197|307:147,1,75,2|0,3:2|0:0,0:0:0:0:
213,137,162568,2,0,P|223:99|230:49,1,75,8|2,0:0|0:0,0:0:0:0:
146,11,162823,6,0,P|67:4|19:60,1,150,4|8,3:2|0:0,0:0:0:0:
108,95,163206,1,0,0:0:0:0:
27,150,163334,2,0,P|36:182|44:228,1,75,2|0,3:2|0:0,0:0:0:0:
23,318,163589,2,0,P|58:308|103:303,1,75,10|0,0:0|0:0,0:0:0:0:
182,336,163845,6,0,P|263:343|326:367,1,150,4|8,3:2|0:0,0:0:0:0:
414,345,164228,1,2,0:2:0:0:
493,290,164355,2,0,P|421:301|368:250,1,150,2|10,3:2|0:0,0:0:0:0:
421,169,164738,1,2,0:0:0:0:
347,104,164866,6,0,P|353:67|364:27,1,75,4|0,3:2|0:0,0:0:0:0:
269,3,165121,2,0,P|259:39|253:76,1,75,10|0,0:2|0:2,0:0:0:0:
165,120,165377,1,2,3:2:0:0:
165,120,165504,1,0,0:0:0:0:
241,181,165632,2,0,P|250:217|256:254,1,75,8|0,0:0|0:0,0:0:0:0:
335,312,165887,6,0,P|286:352|202:336,1,150,4|10,3:2|0:0,0:0:0:0:
132,273,166270,1,2,0:0:0:0:
52,329,166398,2,0,P|40:292|37:246,1,75,2|0,3:2|0:0,0:0:0:0:
66,163,166653,2,0,P|103:156|150:150,1,75,8|2,0:0|0:2,0:0:0:0:
221,95,166909,6,0,P|271:137|332:127,1,112.5,4|0,3:2|0:0,0:0:0:0:
332,126,167164,2,0,P|342:88|355:44,1,75,10|2,0:0|0:0,0:0:0:0:
446,27,167419,2,0,P|502:84|471:163,1,150,0|8,3:2|0:0,0:0:0:0:
405,198,167802,1,0,0:0:0:0:
462,276,167930,6,0,P|470:309|477:353,1,75,4|0,3:2|0:0,0:0:0:0:
384,381,168185,2,0,P|378:343|369:307,1,75,10|2,0:0|0:0,0:0:0:0:
288,252,168440,2,0,B|201:242|247:308|135:290,1,150,2|8,3:2|0:0,0:0:0:0:
74,230,168823,1,2,0:0:0:0:
130,150,168951,6,0,P|119:113|112:67,1,75,12|0,0:0|0:0,0:0:0:0:
195,24,169206,2,0,P|201:60|212:96,1,75,4|0,3:2|0:0,0:0:0:0:
304,132,169462,2,0,P|295:161|289:200,5,50,8|8|8|0|0|0,3:0|3:0|3:0|3:2|3:0|3:0,0:0:0:0:
303,197,169972,6,0,P|339:210|387:220,1,75,12|0,0:0|0:0,0:0:0:0:
432,297,170228,2,0,P|396:309|360:318,1,75,12|0,0:0|0:0,0:0:0:0:
276,368,170483,2,0,P|251:363|219:354,5,50,8|0|0|8|8|8,3:0|3:2|3:2|3:0|3:0|3:0,0:0:0:0:
211,342,170994,6,0,P|176:355|116:367,1,75,12|0,0:0|0:0,0:0:0:0:
58,309,171249,2,0,P|70:272|81:216,1,75,12|0,3:2|0:0,0:0:0:0:
21,156,171504,2,0,P|16:126|11:101,5,50,8|8|8|8|8|8,3:0|3:0|3:0|3:0|3:0|3:0,0:0:0:0:
27,89,172015,5,12,0:0:0:0:
122,52,172270,5,12,3:2:0:0:
128,31,172398,1,2,0:0:0:0:
192,122,172653,5,2,0:0:0:0:
247,41,172781,1,2,0:0:0:0:
