osu file format v14

[General]
AudioFilename: audio.mp3
AudioLeadIn: 0
PreviewTime: 114568
Countdown: 0
SampleSet: Soft
StackLeniency: 0.7
Mode: 2
LetterboxInBreaks: 0
WidescreenStoryboard: 1

[Editor]
DistanceSpacing: 1.3
BeatDivisor: 3
GridSize: 32
TimelineZoom: 2.6

[Metadata]
Title:Shuuten no Saki ga Aru to Suru naraba.
TitleUnicode:終点の先が在るとするならば。
Artist:TUYU
ArtistUnicode:ツユ
Creator:Mochi -
Version:Platter
Source:
Tags:if there was an endpoint. endpoint naraba 貴方を不幸に誘いますね 2nd album ぷす pusu 礼衣 reii おむたつ omutatsu japanese pop jpop j-pop rock jrock j-rock souvenir -hex- -isla- -rustyy keqing iljaaz
BeatmapID:4431747
BeatmapSetID:2111139

[Difficulty]
HPDrainRate:4
CircleSize:3.5
OverallDifficulty:8
ApproachRate:8
SliderMultiplier:1.3
SliderTickRate:0.5

[Events]
//Background and Video events
0,0,"shuuten3.jpg",0,0
Video,-381,"shuuten.mp4"
//Break Periods
2,102756,105891
2,110926,114061
//Storyboard Layer 0 (Background)
//Storyboard Layer 1 (Fail)
//Storyboard Layer 2 (Pass)
//Storyboard Layer 3 (Foreground)
//Storyboard Layer 4 (Overlay)
//Storyboard Sound Samples

[TimingPoints]
429,255.31914893617,4,2,4,50,1,0
429,-100,4,2,4,50,0,0
6811,-100,4,2,4,60,0,0
7577,-100,4,2,4,90,0,1
23918,-100,4,2,4,70,0,0
28003,-100,4,2,4,90,0,1
31705,-100,4,2,4,90,0,1
32088,-100,4,2,4,5,0,0
33109,-100,4,2,4,80,0,0
35152,-100,4,2,4,80,0,0
35663,-100,4,2,4,80,0,0
36428,-100,4,2,4,80,0,0
37067,-100,4,2,4,5,0,0
37194,-100,4,2,4,60,0,0
53535,-100,4,2,4,70,0,0
56599,-100,4,2,4,70,0,0
59663,-100,4,2,4,80,0,0
61705,-100,4,2,4,90,0,1
78046,-100,4,2,4,70,0,0
81109,-100,4,2,4,70,0,0
82131,-100,4,2,4,90,0,1
86216,-100,4,2,4,5,0,0
86726,-100,4,2,4,90,0,0
87237,-100,4,2,4,95,0,0
95407,-100,4,2,4,95,0,0
99492,-100,4,2,4,80,0,0
102556,-100,4,2,4,70,0,0
106641,-100,4,2,4,95,0,0
110726,-100,4,2,4,70,0,0
114811,-100,4,2,4,80,0,0
118131,-100,4,2,4,90,0,0
119152,-100,4,2,4,90,0,1
135237,-100,4,2,4,70,0,0
139322,-100,4,2,4,90,0,1
147109,-100,4,2,4,90,0,0
148833,-100,4,2,4,5,0,0
148960,-100,4,2,4,85,0,0
149535,-100,4,2,4,95,0,0
157705,-100,4,2,4,90,0,0
173024,-100,4,2,4,75,0,0
173088,-100,4,2,4,50,0,0
173152,-100,4,2,4,35,0,0
173216,-100,4,2,4,20,0,0
173248,-100,4,2,4,5,0,0

[Colours]
Combo1 : 114,80,169
Combo2 : 248,216,86
Combo3 : 139,134,166
Combo4 : 252,105,189

[HitObjects]
304,257,429,6,0,L|305:115,1,130,2|0,0:0|0:0,0:0:0:0:
175,251,939,2,0,L|175:109,1,130,2|2,0:0|0:0,0:0:0:0:
305,248,1450,2,0,L|448:248,1,130,2|2,0:0|0:0,0:0:0:0:
305,248,1960,2,0,L|165:248,1,130,2|2,0:0|0:0,0:0:0:0:
370,337,2471,6,0,P|450:245|364:167,1,260,2|2,0:0|0:0,0:0:0:0:
134,83,3492,2,0,P|54:175|140:253,1,260,2|2,0:0|0:0,0:0:0:0:
370,325,4514,6,0,L|136:192,1,260,2|2,0:0|0:0,0:0:0:0:
274,84,5280,2,0,P|345:172|267:281,1,260,2|2,0:0|0:0,0:0:0:0:
142,142,6046,1,2,0:0:0:0:
421,300,6811,6,0,L|277:300,2,130
82,193,7577,6,0,L|77:59,1,130,4|8,3:2|0:0,0:0:0:0:
273,146,8088,2,0,L|342:146,1,65,0|0,3:2|3:2,0:0:0:0:
273,146,8343,1,8,0:0:0:0:
129,330,8471,6,0,B|124:197,1,130
268,92,8854,1,10,0:0:0:0:
268,92,9109,2,0,L|198:92,1,65,2|2,3:2|0:0,0:0:0:0:
137,245,9365,2,0,L|137:176,1,65,10|2,0:0|0:0,0:0:0:0:
346,322,9620,6,0,L|353:178,1,130,4|8,3:2|0:0,0:0:0:0:
287,190,10003,1,2,0:0:0:0:
222,143,10131,2,0,L|367:143,1,130,0|8,3:2|0:0,0:0:0:0:
157,329,10641,6,0,B|152:197,1,130,4|8,3:2|0:0,0:0:0:0:
348,156,11152,2,0,L|421:156,1,65,0|0,3:2|3:2,0:0:0:0:
413,156,11407,2,0,L|344:156,1,65,8|2,0:0|0:0,0:0:0:0:
137,142,11663,6,0,L|128:-23,1,130,4|8,3:2|0:0,3:2:0:0:
325,179,12173,2,0,L|255:179,1,65,0|0,3:2|3:2,0:0:0:0:
195,181,12428,1,8,0:0:0:0:
390,256,12684,5,0,3:2:0:0:
195,318,12939,2,0,L|195:250,1,65,8|2,0:0|0:0,0:0:0:0:
260,250,13194,2,0,L|331:250,1,65,2|2,3:2|3:2,0:0:0:0:
325,250,13450,1,8,0:0:0:0:
130,199,13705,6,0,L|121:33,1,130,0|10,3:2|0:0,0:0:0:0:
318,154,14215,2,0,L|388:154,1,65,2|0,3:2|3:2,0:0:0:0:
383,154,14471,1,8,0:0:0:0:
188,80,14726,6,0,L|22:80,1,130,2|8,3:2|0:0,0:0:0:0:
253,335,15236,2,0,L|253:250,1,65,0|0,3:2|3:2,0:0:0:0:
187,270,15492,2,0,L|119:270,1,65,8|10,0:0|0:0,0:0:0:0:
332,152,15748,6,0,P|374:106|330:91,1,130,4|8,3:2|0:0,0:0:0:0:
137,172,16258,2,0,L|137:101,1,65,0|0,3:2|3:2,0:0:0:0:
203,109,16514,1,8,0:0:0:0:
345,205,16641,6,0,P|401:266|383:314,1,130,2|2,0:0|0:0,0:0:0:0:
325,314,17024,1,10,0:0:0:0:
129,127,17280,2,0,L|129:53,1,65,2|2,3:2|3:2,0:0:0:0:
194,68,17535,2,0,L|260:68,1,65,8|2,0:0|0:0,0:0:0:0:
50,345,17790,6,0,B|41:207,1,130,4|8,3:2|0:0,0:0:0:0:
107,222,18173,1,2,0:0:0:0:
251,117,18301,2,0,B|115:118,1,130,4|8,3:2|0:0,0:0:0:0:
121,117,18684,1,2,0:0:0:0:
263,348,18811,6,0,B|269:212,1,130,4|8,3:2|0:0,0:0:0:0:
204,245,19194,1,2,0:0:0:0:
60,139,19322,2,0,L|60:65,1,65,4|0,3:2|3:2,0:0:0:0:
125,76,19577,2,0,L|194:76,1,65,8|2,0:0|0:0,0:0:0:0:
413,329,19833,6,0,P|459:295|411:271,1,130,4|8,3:2|0:2,0:0:0:0:
218,131,20343,2,0,L|148:131,1,65,0|0,3:2|3:2,0:0:0:0:
218,131,20599,2,0,L|288:131,1,65,8|0,0:0|0:0,0:0:0:0:
139,167,20854,6,0,B|133:31,1,130,0|8,3:2|0:0,0:0:0:0:
328,251,21364,2,0,L|328:321,1,65,0|0,3:2|3:2,0:0:0:0:
262,245,21620,2,0,L|192:245,1,65,8|0,0:0|0:0,0:0:0:0:
406,192,21875,6,0,B|412:56,1,130,0|8,3:2|0:0,0:0:0:0:
217,338,22385,2,0,L|147:338,1,65,0|0,3:2|3:2,0:0:0:0:
152,338,22641,2,0,L|222:338,1,65,8|0,0:0|0:0,0:0:0:0:
362,357,22897,6,0,L|366:208,1,130,2|10,3:2|0:2,0:0:0:0:
170,123,23407,1,2,3:2:0:0:
170,123,23663,2,0,L|240:123,1,65,8|8,0:0|0:0,0:0:0:0:
456,144,23918,6,0,L|456:71,1,65,4|0,3:2|0:0,0:0:0:0:
391,78,24173,1,8,0:0:0:0:
196,326,24428,2,0,L|345:326,1,130,0|8,3:2|0:2,0:0:0:0:
326,326,24811,1,0,0:2:0:0:
182,330,24939,6,0,L|174:194,1,130,2|8,3:2|0:0,0:0:0:0:
371,151,25450,2,0,L|440:151,1,65,0|0,3:2|3:2,0:0:0:0:
436,151,25705,1,8,0:0:0:0:
111,114,25960,6,0,L|41:113,1,65,2|2,3:2|0:0,0:0:0:0:
111,114,26216,2,0,L|279:114,1,130,8|0,0:0|3:2,0:0:0:0:
241,114,26726,1,10,0:0:0:0:
436,200,26982,6,0,L|436:128,1,65,2|2,3:2|0:0,0:0:0:0:
292,203,27237,2,0,L|221:203,1,65,8|2,0:0|0:0,0:0:0:0:
371,134,27493,2,0,L|443:134,1,65,0|0,3:2|3:2,0:0:0:0:
436,134,27748,1,8,0:0:0:0:
99,345,28003,6,0,L|93:197,1,130,4|8,3:2|0:0,0:0:0:0:
289,165,28514,2,0,L|357:165,1,65,2|2,3:2|0:0,0:0:0:0:
289,165,28769,2,0,L|289:92,1,65,8|2,0:0|0:0,0:0:0:0:
433,277,29024,6,0,L|437:140,1,130,2|8,3:2|0:0,0:0:0:0:
241,340,29535,2,0,L|167:340,1,65,0|0,3:2|3:2,0:0:0:0:
176,340,29790,2,0,L|247:340,1,65,8|0,0:0|0:0,0:0:0:0:
451,332,30046,6,0,B|458:192,1,130,2|8,3:2|0:0,0:0:0:0:
263,215,30556,2,0,L|263:150,1,65,2|2,3:2|0:0,0:0:0:0:
341,224,30811,2,0,L|341:153,1,65,8|2,0:0|0:0,0:0:0:0:
104,295,31067,6,0,L|100:157,1,130,4|8,3:2|0:0,0:0:0:0:
309,108,31450,1,4,3:2:0:0:
309,108,31705,1,4,3:2:0:0:
106,194,33109,5,4,3:2:0:0:
41,193,33237,2,0,L|181:192,1,130,10|0,0:0|3:2,0:0:0:0:
315,349,33620,2,0,L|315:274,1,65,8|0,0:0|3:2,0:0:0:0:
250,287,33875,2,0,L|178:287,1,65,8|2,0:0|3:2,0:0:0:0:
408,100,34131,5,12,3:2:0:0:
408,100,34386,1,12,0:0:0:0:
148,200,34897,2,0,L|148:133,1,65,2|2,0:0|0:0,0:0:0:0:
292,138,35152,5,4,3:2:0:0:
357,137,35280,2,0,L|217:138,1,130,8|2,0:0|3:2,0:0:0:0:
371,299,35663,2,0,L|446:299,1,65,8|0,0:2|3:2,0:2:0:0:
436,299,35918,2,0,L|364:299,1,65,8|0,0:0|3:2,0:0:0:0:
149,52,36173,5,8,0:0:0:0:
149,52,36428,1,12,0:0:0:0:
422,78,37194,5,4,3:2:0:0:
292,84,37450,1,0,0:0:0:0:
422,78,37705,1,2,3:2:0:0:
292,343,37960,2,0,P|238:295|324:145,1,260,2|0,0:0|0:0,0:0:0:0:
174,113,38726,1,2,3:2:0:0:
369,160,38982,6,0,P|406:225|291:342,1,260,2|2,0:0|0:0,0:0:0:0:
428,335,39748,1,0,3:2:0:0:
233,287,40003,2,0,P|140:247|186:103,1,260,2|2,0:0|0:0,0:0:0:0:
298,101,40769,1,2,3:2:0:0:
298,101,41024,1,2,0:0:0:0:
102,266,41280,5,2,3:2:0:0:
232,267,41535,1,2,0:0:0:0:
102,266,41790,1,2,3:2:0:0:
232,326,42046,2,0,L|242:56,1,260,0|2,0:0|0:0,0:0:0:0:
372,76,42811,1,2,3:2:0:0:
242,333,43067,6,0,L|226:67,1,260,2|2,0:0|0:0,0:0:0:0:
357,75,43833,1,2,3:2:0:0:
162,293,44088,2,0,P|80:212|166:112,1,260,2|2,0:0|0:0,0:0:0:0:
284,109,44854,1,2,3:2:0:0:
414,112,45109,1,2,0:0:0:0:
219,343,45365,5,2,3:2:0:0:
219,343,45620,1,2,0:0:0:0:
89,338,45875,1,2,3:2:0:0:
219,20,46131,2,0,L|223:310,1,260,2|2,0:0|0:0,0:0:0:0:
92,275,46897,1,2,3:2:0:0:
287,329,47152,6,0,P|366:305|393:131,1,260,2|2,0:0|0:0,0:0:0:0:
273,159,47918,1,2,3:2:0:0:
143,197,48173,2,0,P|125:131|274:37,1,260,2|2,0:0|0:0,0:0:0:0:
390,34,48939,1,2,3:2:0:0:
390,34,49194,1,2,0:0:0:0:
194,308,49450,5,2,3:2:0:0:
324,315,49705,1,2,0:0:0:0:
454,314,49960,1,2,3:2:0:0:
324,219,50216,2,0,L|319:81,1,130,2|0,0:0|3:2,0:0:0:0:
189,87,50726,1,2,0:0:0:0:
318,84,50982,1,2,3:2:0:0:
318,84,51237,1,2,0:0:0:0:
123,316,51492,6,0,L|120:176,1,130,2|2,3:2|0:0,0:0:0:0:
316,177,52003,1,2,3:2:0:0:
208,137,52216,1,0,0:0:0:0:
165,138,52301,1,0,0:0:0:0:
165,138,52386,1,2,0:0:0:0:
381,339,52514,6,0,L|384:205,1,130,2|2,3:2|0:0,0:0:0:0:
189,259,53024,2,0,L|28:259,1,130,2|2,3:2|0:0,0:0:0:0:
401,183,53535,6,0,L|406:36,1,130,4|0,3:2|0:0,0:0:0:0:
210,128,54046,2,0,L|143:128,1,65,8|0,0:0|0:0,0:0:0:0:
210,128,54301,2,0,L|347:128,1,130,2|2,0:0|3:2,0:0:0:0:
340,128,54811,5,0,3:2:0:0:
144,291,55067,2,0,L|209:292,1,65,8|0,0:0|0:0,0:0:0:0:
274,232,55322,2,0,L|275:298,1,65,2|0,0:0|0:0,0:0:0:0:
66,168,55577,6,0,L|61:30,1,130,2|2,3:2|0:0,0:0:0:0:
257,285,56088,2,0,L|186:285,1,65,8|0,0:0|0:0,0:0:0:0:
127,283,56343,1,2,0:0:0:0:
466,211,56599,6,0,L|478:65,1,130,4|8,3:2|0:0,0:0:0:0:
411,84,56982,1,0,3:2:0:0:
269,337,57109,2,0,L|269:269,1,65,8|0,0:0|3:2,0:0:0:0:
335,270,57365,2,0,L|401:270,1,65,8|2,0:0|0:0,0:0:0:0:
178,222,57620,5,4,3:2:0:0:
113,227,57748,1,0,0:0:0:0:
113,121,57875,1,2,3:2:0:0:
178,126,58003,1,0,0:0:0:0:
243,219,58131,1,2,3:2:0:0:
308,224,58259,1,2,0:0:0:0:
308,118,58386,1,2,3:2:0:0:
243,123,58514,1,2,0:0:0:0:
178,164,58641,5,2,3:2:0:0:
113,169,58769,1,0,0:0:0:0:
113,63,58896,1,2,3:2:0:0:
178,68,59024,1,2,0:0:0:0:
387,67,59152,1,2,3:2:0:0:
387,67,59407,1,2,3:2:0:0:
322,64,59535,1,2,0:0:0:0:
100,338,59663,5,4,3:2:0:0:
100,338,59918,2,0,L|166:338,1,65,8|0,0:0|3:2,0:0:0:0:
309,332,60173,2,0,L|310:265,1,65,8|0,0:0|3:2,0:0:0:0:
166,174,60428,2,0,L|85:174,1,65,8|0,0:0|3:2,0:0:0:0:
338,105,60684,5,4,3:2:0:0:
240,110,60939,1,4,3:2:0:0:
338,105,61194,1,4,3:2:0:0:
78,65,61705,6,0,L|78:199,1,130,4|8,3:2|0:0,0:0:0:0:
273,76,62216,2,0,L|342:76,1,65,0|0,3:2|3:2,0:0:0:0:
338,76,62471,1,8,0:0:0:0:
194,326,62599,6,0,B|189:193,1,130
332,239,62982,1,10,0:0:0:0:
332,239,63237,2,0,L|262:239,1,65,2|2,3:2|0:0,0:0:0:0:
201,155,63493,2,0,L|270:155,1,65,10|2,0:0|0:0,0:0:0:0:
475,298,63748,6,0,L|487:154,1,130,4|8,3:2|0:0,0:0:0:0:
421,170,64131,1,2,0:0:0:0:
356,173,64259,2,0,L|345:29,1,130,0|8,3:2|0:0,0:0:0:0:
151,333,64769,6,0,B|145:181,1,130,4|8,3:2|0:0,0:0:0:0:
342,143,65280,2,0,L|269:143,1,65,0|0,3:2|3:2,0:0:0:0:
212,140,65535,2,0,L|212:71,1,65,8|2,0:0|0:0,0:0:0:0:
422,330,65791,6,0,L|427:164,1,130,4|8,3:2|0:0,3:2:0:0:
231,291,66301,2,0,L|231:221,1,65,0|0,3:2|3:2,0:0:0:0:
296,226,66556,1,8,0:0:0:0:
100,126,66812,6,0,L|100:61,1,65,0|0,3:2|0:0,0:0:0:0:
165,69,67067,2,0,L|232:69,1,65,8|2,0:0|0:0,0:0:0:0:
230,69,67322,2,0,L|160:69,1,65,2|2,3:2|3:2,0:0:0:0:
165,69,67577,1,8,0:0:0:0:
360,316,67833,6,0,L|194:316,1,130,0|10,3:2|0:0,0:0:0:0:
425,177,68343,2,0,L|495:177,1,65,2|0,3:2|3:2,0:0:0:0:
425,177,68598,1,8,0:0:0:0:
229,275,68854,6,0,L|223:109,1,130,2|8,3:2|0:0,0:0:0:0:
419,328,69364,2,0,L|485:328,1,65,0|0,3:2|3:2,0:0:0:0:
484,328,69620,2,0,L|418:328,1,65,8|10,0:0|0:0,0:0:0:0:
191,202,69876,6,0,L|57:202,1,130,4|8,3:2|0:0,0:0:0:0:
256,132,70386,2,0,L|256:63,1,65,0|0,3:2|3:2,0:0:0:0:
190,71,70641,1,8,0:0:0:0:
48,325,70769,6,0,P|5:278|56:226,1,130,2|2,0:0|0:0,0:0:0:0:
101,210,71152,1,10,0:0:0:0:
296,165,71408,2,0,L|296:92,1,65,2|2,3:2|3:2,0:0:0:0:
231,104,71663,2,0,L|163:104,1,65,8|2,0:0|0:0,0:0:0:0:
375,343,71918,6,0,P|431:307|374:270,1,130,4|8,3:2|0:0,0:0:0:0:
337,270,72301,1,2,0:0:0:0:
195,218,72428,2,0,P|139:254|196:291,1,130,4|8,3:2|0:0,0:0:0:0:
233,291,72811,1,2,0:0:0:0:
377,108,72939,6,0,B|241:109,1,130,4|8,3:2|0:0,0:0:0:0:
247,108,73322,1,2,0:0:0:0:
391,332,73450,2,0,L|460:333,1,65,4|0,3:2|3:2,0:0:0:0:
455,332,73705,2,0,L|388:332,1,65,8|2,0:0|0:0,0:0:0:0:
166,335,73961,6,0,B|160:199,1,130,4|8,3:2|0:2,0:0:0:0:
355,33,74471,2,0,L|355:103,1,65,0|0,3:2|3:2,0:0:0:0:
276,99,74727,2,0,L|276:29,1,65,8|0,0:0|0:0,0:0:0:0:
420,313,74982,6,0,B|426:177,1,130,0|8,3:2|0:0,0:0:0:0:
231,82,75492,2,0,L|301:82,1,65,0|0,3:2|3:2,0:0:0:0:
362,79,75748,2,0,L|362:9,1,65,8|0,0:0|0:0,0:0:0:0:
153,335,76003,6,0,B|17:336,1,130,0|8,3:2|0:0,0:0:0:0:
218,30,76513,2,0,L|218:100,1,65,0|0,3:2|3:2,0:0:0:0:
139,260,76769,2,0,L|139:190,1,65,8|0,0:0|0:0,0:0:0:0:
284,214,77025,6,0,L|424:214,1,130,2|10,3:2|0:2,0:0:0:0:
284,214,77535,1,2,3:2:0:0:
414,334,77791,2,0,L|414:264,1,65,8|8,0:0|0:0,0:0:0:0:
192,128,78046,6,0,L|127:128,2,65,4|0|8,3:2|0:0|0:0,0:0:0:0:
387,40,78556,2,0,P|437:106|387:138,1,130,0|8,3:2|0:0,0:0:0:0:
352,132,78939,1,0,0:0:0:0:
208,323,79067,6,0,L|203:187,1,130,2|8,3:2|0:0,0:0:0:0:
398,158,79577,2,0,L|466:158,1,65,2|0,3:2|3:0,0:0:0:0:
463,158,79833,1,10,0:2:0:0:
138,310,80088,6,0,L|137:235,1,65,2|0,3:2|0:0,0:0:0:0:
203,312,80344,2,0,L|371:312,1,130,8|0,0:2|3:2,0:0:0:0:
333,312,80854,1,8,0:0:0:0:
138,160,81110,6,0,L|57:160,1,65,2|2,3:2|0:0,0:0:0:0:
217,160,81365,2,0,L|288:160,1,65,8|0,0:0|0:0,0:0:0:0:
137,104,81621,2,0,L|65:104,1,65,2|0,3:2|3:2,0:0:0:0:
137,104,81875,1,8,0:0:0:0:
476,233,82131,6,0,L|481:89,1,130,4|8,3:2|0:0,0:0:0:0:
285,349,82642,2,0,L|285:282,1,65,2|2,3:2|0:0,0:0:0:0:
350,280,82897,2,0,L|423:280,1,65,8|2,0:0|0:0,0:0:0:0:
271,199,83152,6,0,L|134:199,1,130,2|8,3:2|0:0,0:0:0:0:
337,121,83663,2,0,L|411:121,1,65,0|0,3:2|3:2,0:0:0:0:
402,121,83918,2,0,L|331:121,1,65,8|0,0:0|0:0,0:0:0:0:
127,336,84174,6,0,B|122:196,1,130,2|8,3:2|0:0,0:0:0:0:
317,163,84684,2,0,L|252:163,1,65,2|2,3:2|0:0,0:0:0:0:
187,162,84939,2,0,L|187:91,1,65,8|2,0:0|0:0,0:0:0:0:
422,109,85194,6,0,L|426:247,1,130,4|8,3:2|0:0,0:0:0:0:
217,296,85577,1,4,3:2:0:0:
217,296,85832,1,4,3:2:0:0:
403,144,86726,5,2,0:1:0:0:
468,147,86854,1,2,0:1:0:0:
468,147,86982,1,2,0:1:0:0:
403,144,87109,1,2,0:1:0:0:
143,328,87237,6,0,L|138:170,1,130,4|8,3:2|0:0,0:0:0:0:
334,120,87748,2,0,B|200:118,1,130,2|8,0:0|0:0,0:0:0:0:
399,310,88258,6,0,L|468:309,2,65,2|0|8,3:2|0:0|0:0,0:0:0:0:
335,310,88641,2,0,L|334:246,1,65,2|0,3:2|0:0,0:0:0:0:
479,193,88897,2,0,L|484:121,1,65,2|8,3:2|0:0,0:0:0:0:
419,125,89152,1,2,0:0:0:0:
197,146,89280,6,0,L|192:5,1,130,2|8,3:2|0:0,0:0:0:0:
336,321,89663,2,0,L|488:321,1,130,2|0,3:2|3:2,0:0:0:0:
466,321,90046,2,0,L|395:321,1,65,8|2,0:0|0:0,0:0:0:0:
257,208,90301,6,0,L|252:68,1,130,2|8,3:2|0:0,0:0:0:0:
382,141,90811,2,0,L|455:141,1,65,2|2,0:2|3:2,0:0:0:0:
447,141,91067,2,0,L|376:142,1,65,8|2,0:0|0:0,0:0:0:0:
160,326,91322,6,0,L|160:253,1,65,4|2,3:2|0:0,0:0:0:0:
225,260,91577,2,0,L|296:260,1,65,8|2,0:0|3:2,0:0:0:0:
145,158,91833,2,0,L|81:158,1,65,2|2,0:2|3:2,0:0:0:0:
80,158,92088,2,0,L|151:158,1,65,8|2,0:0|0:0,0:0:0:0:
366,350,92343,6,0,L|370:201,1,130,2|8,3:2|0:0,0:0:0:0:
226,303,92726,2,0,L|63:303,1,130,2|2,3:2|3:2,0:2:0:0:
96,303,93109,2,0,L|162:305,1,65,8|2,0:0|0:0,0:0:0:0:
385,179,93365,6,0,L|391:113,1,65,4|0,3:2|0:0,0:0:0:0:
326,111,93620,1,8,0:0:0:0:
131,336,93875,6,0,L|197:336,1,65,4|0,3:2|0:0,0:0:0:0:
262,339,94131,1,8,0:0:0:0:
67,209,94386,6,0,L|63:62,1,130,4|8,3:2|0:0,0:0:0:0:
129,75,94769,1,0,0:0:0:0:
273,342,94897,6,0,L|274:268,1,65,6|2,3:2|0:0,0:0:0:0:
195,281,95152,2,0,L|195:356,1,65,8|8,0:0|0:0,0:0:0:0:
430,180,95407,6,0,L|435:19,1,130,4|8,3:2|0:0,0:0:0:0:
239,133,95918,2,0,B|102:133,1,130,2|8,0:2|0:0,0:0:0:0:
304,284,96428,6,0,L|374:285,2,65,2|0|8,3:2|0:0|0:0,0:0:0:0:
239,282,96811,2,0,L|239:214,1,65,2|0,3:2|0:0,0:0:0:0:
384,91,97067,2,0,L|456:91,2,65,2|8|2,3:2|0:0|0:0,0:0:0:0:
149,338,97450,6,0,L|141:200,1,130,2|8,3:2|0:0,0:0:0:0:
286,267,97833,2,0,L|437:267,1,130,2|2,3:2|3:2,0:0:0:0:
416,267,98216,2,0,L|345:267,1,65,8|2,0:0|0:0,0:0:0:0:
142,39,98471,6,0,L|139:194,1,130,2|8,3:2|0:0,0:0:0:0:
335,138,98982,2,0,L|399:138,1,65,2|2,0:2|3:2,0:0:0:0:
400,138,99237,2,0,L|332:138,1,65,8|2,0:0|0:0,0:0:0:0:
113,302,99492,6,0,L|112:238,1,65,4|2,3:2|0:0,0:0:0:0:
178,237,99748,2,0,L|245:237,1,65,8|2,0:0|0:0,0:0:0:0:
99,247,100003,2,0,L|28:247,1,65,2|2,3:2|3:2,0:0:0:0:
34,247,100259,2,0,L|102:247,1,65,8|2,0:0|0:0,0:0:0:0:
321,341,100514,6,0,L|329:189,1,130,2|8,3:2|0:0,0:0:0:0:
262,214,100897,2,0,L|193:214,1,65,2|0,0:0|3:2,0:0:0:0:
262,130,101152,1,0,3:2:0:0:
327,130,101280,2,0,L|327:-26,1,130,8|0,0:0|3:2,0:0:0:0:
197,297,101790,1,8,0:0:0:0:
327,232,102046,5,2,3:2:0:0:
327,232,102174,1,0,3:2:0:0:
262,232,102302,1,10,0:0:0:0:
197,232,102429,1,2,0:0:0:0:
417,82,102556,5,4,3:2:0:0:
271,217,106641,6,0,L|325:217,1,43.3333333333333,14|2,3:2|0:2,0:2:0:0:
314,217,106811,1,2,0:2:0:0:
270,337,106897,2,0,L|216:337,1,43.3333333333333,8|2,0:2|0:2,0:2:0:0:
226,337,107067,1,2,0:2:0:0:
269,123,107152,6,0,L|269:69,1,43.3333333333333,2|2,3:2|0:2,0:2:0:0:
226,81,107322,1,2,0:2:0:0:
183,83,107407,2,0,L|183:29,1,43.3333333333333,10|2,0:2|0:2,0:2:0:0:
427,274,107663,6,0,L|481:274,1,43.3333333333333,2|0,3:2|0:2,0:2:0:0:
470,274,107833,1,2,0:2:0:0:
427,211,107918,2,0,L|373:211,1,43.3333333333333,8|0,0:2|0:2,0:2:0:0:
383,211,108088,1,2,0:2:0:0:
435,207,108173,6,0,P|480:172|426:152,1,130,2|8,3:2|0:2,0:2:0:0:
75,120,108684,6,0,L|21:120,1,43.3333333333333,6|2,3:2|0:2,0:2:0:0:
18,120,108854,1,2,0:2:0:0:
31,120,108940,2,0,L|85:120,1,43.3333333333333,10|2,0:2|0:2,0:2:0:0:
307,321,109194,6,0,L|307:267,1,43.3333333333333,6|2,3:2|0:2,0:2:0:0:
254,277,109365,1,2,0:2:0:0:
202,278,109450,2,0,L|202:224,1,43.3333333333333,10|2,0:2|0:2,0:2:0:0:
436,127,109705,6,0,L|490:127,1,43.3333333333333,6|2,3:2|0:2,0:2:0:0:
492,127,109875,1,2,0:2:0:0:
479,127,109960,2,0,L|425:127,1,43.3333333333333,10|2,0:2|0:2,0:2:0:0:
172,236,110216,5,2,3:2:0:0:
108,239,110343,1,0,3:2:0:0:
108,239,110472,1,10,0:2:0:0:
172,236,110599,1,2,0:2:0:0:
405,229,110726,5,4,3:2:0:0:
268,182,114811,5,4,3:2:0:0:
333,182,114939,2,0,L|333:108,1,65,0|8,3:2|0:0,0:0:0:0:
189,254,115194,2,0,L|189:322,1,65,2|10,3:2|0:0,0:0:0:0:
255,320,115450,2,0,L|341:320,2,65,2|8|2,0:0|0:0|0:0,0:0:0:0:
33,77,115833,6,0,L|28:214,1,130,4|12,3:2|0:0,0:0:0:0:
223,230,116343,2,0,L|223:177,1,43.3333333333333,0|0,3:2|3:2,0:0:0:0:
179,180,116514,1,0,3:2:0:0:
136,183,116599,2,0,L|136:129,1,43.3333333333333,8|8,3:0|3:0,0:0:0:0:
370,106,116854,5,4,3:2:0:0:
370,106,116982,1,2,0:0:0:0:
292,106,117109,1,8,0:0:0:0:
292,106,117237,1,2,0:0:0:0:
436,321,117365,2,0,L|509:321,1,65,8|2,0:0|0:0,0:0:0:0:
501,321,117620,2,0,L|432:321,1,65,8|2,0:0|0:0,0:0:0:0:
203,74,117875,6,0,L|197:222,1,130,4|12,3:2|3:2,0:0:0:0:
393,74,118386,1,0,0:0:0:0:
263,78,118641,1,0,0:0:0:0:
133,360,118897,2,0,L|133:282,1,65,0|0,0:0|3:2,0:0:0:0:
368,79,119152,5,8,0:0:0:0:
368,79,119408,2,0,L|299:79,1,65,0|0,3:2|3:2,0:0:0:0:
303,79,119663,1,8,0:0:0:0:
447,325,119791,6,0,B|451:192,1,130
307,43,120174,1,10,0:0:0:0:
177,147,120429,2,0,L|177:77,1,65,2|2,3:2|0:0,0:0:0:0:
243,86,120685,2,0,L|312:86,1,65,10|2,0:0|0:0,0:0:0:0:
99,284,120940,6,0,L|91:140,1,130,4|8,3:2|0:0,0:0:0:0:
157,357,121323,1,2,0:0:0:0:
222,353,121451,2,0,L|75:353,1,130,0|8,3:2|0:0,0:0:0:0:
430,242,121960,6,0,B|437:94,1,130,4|8,3:2|0:0,0:0:0:0:
372,109,122343,1,2,0:0:0:0:
227,222,122472,2,0,L|162:222,1,65,0|0,3:2|3:2,0:0:0:0:
162,222,122727,2,0,L|231:222,1,65,8|2,0:0|0:0,0:0:0:0:
457,356,122983,6,0,L|465:190,1,130,4|8,3:2|0:0,3:2:0:0:
269,67,123493,2,0,L|188:67,1,65,0|0,3:2|3:2,0:0:0:0:
269,67,123748,1,8,0:0:0:0:
75,290,124004,6,0,L|75:222,1,65,0|0,3:2|0:0,0:0:0:0:
140,221,124259,2,0,L|210:221,1,65,8|2,0:0|0:0,0:0:0:0:
205,221,124514,2,0,L|139:221,1,65,2|2,3:2|3:2,0:0:0:0:
140,221,124769,1,8,0:0:0:0:
336,351,125025,6,0,L|170:351,1,130,0|10,3:2|0:0,0:0:0:0:
401,223,125535,2,0,L|407:153,1,65,2|0,3:2|3:2,0:0:0:0:
341,157,125790,1,8,0:0:0:0:
145,282,126046,6,0,L|311:282,1,130,2|8,3:2|0:0,0:0:0:0:
80,183,126556,2,0,L|12:183,1,65,0|0,3:2|3:2,0:0:0:0:
15,183,126812,2,0,L|82:183,1,65,8|10,0:0|0:0,0:0:0:0:
317,350,127068,6,0,L|321:216,1,130,4|8,3:2|0:0,0:0:0:0:
126,129,127578,2,0,L|56:129,1,65,0|0,3:2|3:2,0:0:0:0:
126,129,127834,1,8,0:0:0:0:
268,168,127960,6,0,L|402:168,1,130,2|2,0:0|0:0,0:0:0:0:
398,168,128343,1,10,0:0:0:0:
201,341,128600,2,0,L|201:270,1,65,2|2,3:2|3:2,0:0:0:0:
266,274,128855,2,0,L|334:274,1,65,8|2,0:0|0:0,0:0:0:0:
109,223,129110,6,0,P|89:162|152:130,1,130,4|8,3:2|0:0,0:0:0:0:
201,133,129493,1,2,0:0:0:0:
345,70,129621,2,0,B|209:71,1,130,4|8,3:2|0:0,0:0:0:0:
215,70,130004,1,2,0:0:0:0:
358,311,130131,6,0,P|409:288|390:219,1,130,4|8,3:2|0:0,0:0:0:0:
332,225,130514,1,2,0:0:0:0:
188,153,130642,2,0,L|107:153,1,65,4|0,3:2|3:2,0:0:0:0:
58,153,130897,2,0,L|128:152,1,65,8|2,0:0|0:0,0:0:0:0:
360,172,131153,6,0,B|363:36,1,130,4|8,3:2|0:2,0:0:0:0:
168,338,131663,2,0,L|98:338,1,65,0|0,3:2|3:2,0:0:0:0:
168,338,131919,2,0,L|258:338,1,65,8|0,0:0|0:0,0:0:0:0:
89,221,132174,6,0,B|83:85,1,130,0|8,3:2|0:0,0:0:0:0:
278,55,132684,2,0,L|208:55,1,65,0|0,3:2|3:2,0:0:0:0:
147,84,132940,2,0,L|147:14,1,65,8|0,0:0|0:0,0:0:0:0:
356,181,133195,6,0,B|492:180,1,130,0|8,3:2|0:0,0:0:0:0:
291,341,133705,2,0,L|221:341,1,65,0|0,3:2|3:2,0:0:0:0:
226,341,133961,2,0,L|296:341,1,65,8|0,0:0|0:0,0:0:0:0:
436,155,134217,6,0,L|440:6,1,130,2|10,3:2|0:2,0:0:0:0:
245,275,134727,1,2,3:2:0:0:
375,279,134983,2,0,L|375:208,1,65,8|8,0:0|0:0,0:0:0:0:
153,111,135237,6,0,L|83:111,1,65,4|0,3:2|0:0,0:0:0:0:
88,111,135492,1,8,0:0:0:0:
283,348,135748,2,0,L|283:199,1,130,0|8,3:2|0:0,0:0:0:0:
218,216,136131,1,0,0:0:0:0:
153,218,136259,6,0,L|289:218,1,130,2|8,3:2|0:0,0:0:0:0:
86,149,136769,2,0,L|16:149,1,65,2|0,3:2|3:0,0:0:0:0:
86,149,137024,1,10,0:2:0:0:
425,128,137280,6,0,L|425:51,1,65,2|0,3:2|0:0,0:0:0:0:
359,59,137535,2,0,L|191:59,1,130,8|0,0:2|3:2,0:0:0:0:
359,304,138046,1,8,0:0:0:0:
163,298,138302,6,0,L|163:226,1,65,2|0,3:2|0:0,0:0:0:0:
307,235,138557,2,0,L|307:306,1,65,8|0,0:0|0:0,0:0:0:0:
165,165,138811,2,0,L|93:165,1,65,2|0,3:2|3:2,0:0:0:0:
100,165,139068,1,8,0:0:0:0:
449,352,139322,6,0,L|454:217,1,130,4|8,3:2|0:0,0:0:0:0:
258,210,139833,2,0,L|187:210,1,65,2|2,3:2|3:2,0:0:0:0:
258,210,140088,2,0,L|328:210,1,65,8|2,0:0|0:0,0:0:0:0:
179,158,140343,6,0,L|173:22,1,130,0|8,3:2|0:0,0:0:0:0:
369,326,140854,2,0,L|455:327,1,65,2|2,3:2|3:2,0:0:0:0:
433,326,141109,2,0,L|358:326,1,65,10|2,0:0|0:0,0:0:0:0:
145,249,141365,6,0,L|15:249,1,130,2|10,3:2|0:0,0:0:0:0:
15,249,141748,1,2,0:0:0:0:
157,154,141875,2,0,L|227:154,1,65,2|0,3:2|3:2,0:0:0:0:
157,154,142131,2,0,L|88:154,1,65,8|2,0:0|0:0,0:0:0:0:
320,320,142386,6,0,L|323:180,1,130,2|8,3:2|0:0,0:0:0:0:
257,194,142769,2,0,L|182:194,1,65,2|0,3:2|0:0,0:0:0:0:
257,194,143024,1,2,3:2:0:0:
322,190,143152,2,0,L|322:117,1,65,10|0,0:0|0:0,0:0:0:0:
94,149,143407,6,0,L|87:14,1,130,4|8,3:2|0:0,0:0:0:0:
283,309,143918,1,0,3:2:0:0:
348,313,144046,2,0,L|348:237,1,65,0|8,3:2|0:0,0:0:0:0:
283,249,144301,2,0,L|150:249,1,130,2|0,3:2|0:0,0:0:0:0:
362,159,144684,6,0,L|362:88,1,65,8|2,0:0|0:0,0:0:0:0:
297,99,144939,2,0,L|297:30,1,65,0|2,3:2|3:2,0:0:0:0:
362,94,145194,2,0,L|438:94,1,65,8|0,0:0|0:0,0:0:0:0:
197,315,145450,5,4,3:2:0:0:
197,315,145577,1,2,0:0:0:0:
262,315,145705,2,0,L|328:315,1,65,10|2,0:0|0:0,0:0:0:0:
327,315,145960,2,0,L|258:315,1,65,2|2,3:2|0:0,0:0:0:0:
197,315,146216,2,0,L|196:246,1,65,8|2,0:0|0:0,0:0:0:0:
424,296,146471,6,0,B|430:151,1,130,4|8,3:2|0:0,0:0:0:0:
195,82,146854,1,4,3:2:0:0:
195,82,147109,1,4,3:2:0:0:
256,192,147365,12,0,148769,0:0:0:0:
178,102,149024,5,2,0:1:0:0:
243,105,149152,1,2,0:1:0:0:
308,109,149280,1,2,0:1:0:0:
373,106,149407,1,2,0:1:0:0:
144,309,149535,22,0,L|138:160,1,130,4|8,3:2|0:0,0:0:0:0:
334,96,150046,2,0,L|415:96,1,65,2|0,0:2|3:2,0:0:0:0:
399,96,150301,1,8,0:0:0:0:
204,330,150556,6,0,L|52:330,1,130,2|8,3:2|0:0,0:0:0:0:
139,328,150939,2,0,L|280:327,1,130,2|2,3:2|3:2,0:0:0:0:
204,327,151322,1,8,0:0:0:0:
139,328,151450,1,2,0:0:0:0:
359,223,151577,70,0,L|362:73,1,130,2|8,3:2|0:0,0:0:0:0:
296,93,151960,2,0,L|221:93,1,65,2|0,3:2|0:0,0:0:0:0:
296,93,152216,2,0,L|373:93,1,65,0|8,3:2|0:0,0:0:0:0:
166,216,152599,6,0,L|160:367,1,130,2|10,3:2|0:2,0:0:0:0:
355,250,153109,2,0,L|436:250,1,65,2|2,0:2|3:2,0:0:0:0:
420,250,153365,2,0,L|356:250,1,65,8|2,0:0|0:0,0:0:0:0:
133,133,153620,70,0,L|133:59,1,65,4|2,3:2|0:0,0:0:0:0:
198,317,153875,2,0,L|270:318,1,65,8|2,0:0|3:2,0:0:0:0:
262,317,154131,2,0,L|191:317,1,65,2|2,0:2|3:2,0:0:0:0:
132,318,154386,2,0,L|131:248,1,65,8|2,0:0|0:0,0:0:0:0:
353,178,154641,70,0,L|493:178,1,130,2|8,3:2|0:0,0:0:0:0:
418,176,155024,2,0,L|267:176,1,130,2|2,3:2|3:2,0:2:0:0:
353,175,155407,2,0,L|435:175,1,65,8|2,0:0|0:0,0:0:0:0:
181,120,155663,5,4,3:2:0:0:
181,120,155918,1,8,0:0:0:0:
376,325,156173,69,4,3:2:0:0:
376,325,156428,1,8,0:0:0:0:
181,234,156684,5,4,3:2:0:0:
51,239,156939,1,8,0:0:0:0:
246,158,157194,69,6,3:2:0:0:
116,163,157449,1,8,0:0:0:0:
116,163,157577,1,8,0:0:0:0:
345,343,157705,6,0,L|352:197,1,130,4|8,3:2|0:0,0:0:0:0:
216,128,158216,2,0,L|149:128,1,65,0|0,0:2|3:2,0:0:0:0:
216,128,158471,2,0,L|294:128,1,65,8|2,0:0|0:0,0:0:0:0:
137,337,158726,70,0,L|133:186,1,130,2|8,3:2|0:0,0:0:0:0:
329,160,159237,2,0,L|329:91,1,65,2|0,0:2|3:2,0:0:0:0:
264,94,159492,2,0,L|193:94,1,65,8|2,0:0|0:0,0:0:0:0:
422,326,159748,6,0,L|426:188,1,130,2|8,3:2|0:0,0:0:0:0:
231,158,160258,2,0,L|314:158,1,65,2|2,0:0|3:2,0:0:0:0:
362,157,160514,2,0,L|362:76,1,65,8|2,0:0|0:0,0:0:0:0:
218,327,160769,6,0,L|213:196,1,130,2|8,3:2|0:0,0:0:0:0:
408,219,161280,2,0,L|487:219,2,65,2|0|8,0:2|3:2|0:0,0:0:0:0:
70,183,161790,54,0,L|66:33,1,130,4|8,3:2|0:0,0:0:0:0:
262,340,162301,2,0,L|262:270,1,65,2|2,3:2|3:2,0:0:0:0:
197,278,162556,2,0,L|128:277,1,65,8|2,0:0|0:0,0:0:0:0:
347,171,162811,54,0,L|487:171,1,130,4|8,3:2|0:0,0:0:0:0:
282,346,163322,2,0,L|282:278,1,65,4|0,3:2|0:0,0:0:0:0:
360,324,163577,2,0,L|361:255,1,65,8|2,0:0|0:0,0:0:0:0:
150,105,163833,54,0,L|14:105,1,130,4|8,3:2|0:0,0:0:0:0:
215,340,164344,2,0,L|215:269,1,65,2|2,3:2|3:2,0:0:0:0:
150,272,164599,2,0,L|150:201,1,65,10|2,0:0|0:0,0:0:0:0:
365,179,164854,54,0,L|368:30,1,130,4|10,3:2|0:2,0:0:0:0:
172,336,165365,2,0,L|245:336,1,65,4|0,3:2|0:0,0:0:0:0:
302,342,165620,2,0,L|303:273,1,65,8|2,0:0|0:0,0:0:0:0:
82,162,165875,54,0,L|77:10,1,130,4|10,3:2|0:0,0:0:0:0:
273,341,166386,2,0,L|342:341,1,65,2|2,3:2|3:2,0:0:0:0:
273,341,166641,2,0,L|202:341,1,65,8|2,0:0|0:0,0:0:0:0:
431,204,166897,54,0,L|434:54,1,130,4|10,3:2|0:0,0:0:0:0:
238,173,167408,2,0,L|307:173,1,65,4|0,3:2|0:0,0:0:0:0:
368,174,167663,2,0,L|369:105,1,65,8|2,0:0|0:0,0:0:0:0:
147,347,167918,22,0,L|141:201,1,130,4|10,3:2|0:0,0:0:0:0:
337,231,168428,2,0,L|495:231,1,130,2|8,3:2|0:0,0:0:0:0:
467,231,168811,1,2,0:0:0:0:
232,133,168939,21,12,0:0:0:0:
102,138,169194,2,0,P|40:266|110:348,1,260,12|0,3:2|3:2,0:0:0:0:
301,132,169960,21,12,0:0:0:0:
431,258,170216,2,0,P|493:130|423:48,1,260,12|0,3:2|3:2,0:0:0:0:
232,62,170982,53,12,0:0:0:0:
102,63,171237,2,0,L|360:172,1,260,12|0,3:2|3:2,0:0:0:0:
146,352,172003,21,12,0:0:0:0:
341,349,172258,2,0,L|341:279,1,65,12|8,3:2|3:0,0:0:0:0:
145,227,172641,2,0,L|75:227,1,65
