osu file format v14

[General]
AudioFilename: audio.mp3
AudioLeadIn: 0
PreviewTime: 114568
Countdown: 0
SampleSet: Soft
StackLeniency: 0.7
Mode: 2
LetterboxInBreaks: 0
WidescreenStoryboard: 1

[Editor]
DistanceSpacing: 1.2
BeatDivisor: 4
GridSize: 32
TimelineZoom: 3.899999

[Metadata]
Title:Shuuten no Saki ga Aru to Suru naraba.
TitleUnicode:終点の先が在るとするならば。
Artist:TUYU
ArtistUnicode:ツユ
Creator:Mochi -
Version:If there's no endpoint, I just want to disappear.
Source:
Tags:if there was an endpoint. endpoint naraba 貴方を不幸に誘いますね 2nd album ぷす pusu 礼衣 reii おむたつ omutatsu japanese pop jpop j-pop rock jrock j-rock souvenir -hex- -isla- -rustyy keqing iljaaz
BeatmapID:4431745
BeatmapSetID:2111139

[Difficulty]
HPDrainRate:6
CircleSize:4.4
OverallDifficulty:9.7
ApproachRate:9.7
SliderMultiplier:1.8
SliderTickRate:2

[Events]
//Background and Video events
0,0,"shuuten6.jpg",0,0
Video,-381,"shuuten.mp4"
//Break Periods
//Storyboard Layer 0 (Background)
//Storyboard Layer 1 (Fail)
//Storyboard Layer 2 (Pass)
//Storyboard Layer 3 (Foreground)
//Storyboard Layer 4 (Overlay)
//Storyboard Sound Samples

[TimingPoints]
429,255.31914893617,4,2,4,50,1,0
429,-111.111111111111,4,2,4,50,0,0
6811,-100,4,2,4,60,0,0
7577,-100,4,2,4,90,0,1
23918,-100,4,2,4,70,0,0
28003,-100,4,2,4,90,0,1
31705,-100,4,2,4,90,0,1
32088,-100,4,2,4,5,0,0
33109,-100,4,2,4,80,0,0
35152,-100,4,2,4,80,0,0
35663,-100,4,2,4,80,0,0
36428,-71.4285714285714,4,2,4,80,0,0
37067,-66.6666666666667,4,2,4,5,0,0
37194,-111.111111111111,4,2,4,60,0,0
49450,-100,4,2,4,60,0,0
49960,-111.111111111111,4,2,4,60,0,0
53535,-100,4,2,4,70,0,0
56599,-100,4,2,4,70,0,0
59663,-100,4,2,4,80,0,0
61705,-100,4,2,4,90,0,1
78046,-100,4,2,4,70,0,0
81109,-100,4,2,4,70,0,0
82131,-100,4,2,4,90,0,1
86216,-100,4,2,4,5,0,0
86726,-100,4,2,4,90,0,0
87237,-100,4,2,4,95,0,0
95407,-100,4,2,4,95,0,0
99492,-100,4,2,4,80,0,0
102556,-111.111111111111,4,2,4,70,0,0
106386,-100,4,2,4,70,0,0
106641,-100,4,2,4,95,0,0
110726,-111.111111111111,4,2,4,70,0,0
114811,-100,4,2,4,80,0,0
118131,-40,4,2,4,90,0,0
119152,-100,4,2,4,90,0,1
135237,-100,4,2,4,70,0,0
139322,-100,4,2,4,90,0,1
147109,-133.333333333333,4,2,4,90,0,0
148833,-100,4,2,4,5,0,0
148960,-100,4,2,4,85,0,0
149535,-100,4,2,4,95,0,0
157705,-100,4,2,4,90,0,0
172769,-40,4,2,4,90,0,0
173024,-40,4,2,4,75,0,0
173088,-40,4,2,4,50,0,0
173152,-40,4,2,4,35,0,0
173216,-40,4,2,4,20,0,0
173248,-100,4,2,4,5,0,0

[Colours]
Combo1 : 114,80,169
Combo2 : 248,216,86
Combo3 : 139,134,166
Combo4 : 252,105,189

[HitObjects]
290,281,429,22,0,L|291:106,1,161.999995056153,2|0,0:0|0:0,0:0:0:0:
129,248,939,1,2,0:0:0:0:
290,256,1194,1,2,0:0:0:0:
79,217,1450,2,0,L|69:45,1,161.999995056153,2|2,0:0|0:0,0:0:0:0:
232,195,1960,2,0,L|398:195,1,161.999995056153,2|2,0:0|0:0,0:0:0:0:
183,306,2471,54,0,P|112:163|204:164,1,323.999990112305,2|2,0:0|0:0,0:0:0:0:
362,218,3237,1,2,0:0:0:0:
200,62,3492,2,0,P|81:105|106:296,1,323.999990112305,2|2,0:0|0:0,0:0:0:0:
249,297,4258,1,2,0:0:0:0:
460,74,4514,54,0,L|469:242,1,161.999995056153,2|0,0:0|0:0,0:0:0:0:
258,258,5024,1,2,0:0:0:0:
95,295,5280,2,0,P|155:167|344:158,1,323.999990112305,2|2,0:0|0:0,0:0:0:0:
112,65,6046,1,2,0:0:0:0:
424,232,6811,5,0,0:0:0:0:
142,229,7035,1,0,0:0:0:0:
122,201,7066,1,0,0:0:0:0:
112,169,7098,1,0,0:0:0:0:
113,135,7130,1,0,0:0:0:0:
123,103,7162,1,0,0:0:0:0:
143,76,7194,1,0,0:0:0:0:
170,56,7226,1,0,0:0:0:0:
202,45,7258,1,0,0:0:0:0:
235,45,7290,1,0,0:0:0:0:
267,54,7322,1,0,0:0:0:0:
295,73,7354,1,0,0:0:0:0:
316,100,7386,1,0,0:0:0:0:
328,131,7417,1,0,0:0:0:0:
329,165,7449,1,0,0:0:0:0:
320,197,7481,1,0,0:0:0:0:
302,225,7513,1,0,0:0:0:0:
67,339,7577,70,0,P|5:275|66:231,1,180,4|8,3:2|0:0,0:0:0:0:
146,156,7960,1,2,0:0:0:0:
365,98,8088,1,0,3:2:0:0:
370,98,8216,1,0,3:2:0:0:
236,341,8343,1,8,0:0:0:0:
326,321,8471,2,0,L|329:262,1,45
136,149,8599,6,0,L|130:51,1,90,0|0,3:2|0:0,0:0:0:0:
347,318,8854,1,10,0:0:0:0:
352,319,8982,1,2,0:0:0:0:
208,173,9109,1,2,3:2:0:0:
343,174,9237,1,2,0:0:0:0:
208,173,9365,1,10,0:0:0:0:
203,147,9492,1,2,0:0:0:0:
420,153,9620,6,0,B|426:37,1,90,4|0,3:2|0:0,0:0:0:0:
334,69,9875,1,8,0:0:0:0:
424,63,10003,1,2,0:0:0:0:
225,342,10131,1,0,3:2:0:0:
220,341,10258,1,0,3:2:0:0:
355,276,10386,1,8,0:0:0:0:
265,281,10514,1,2,0:0:0:0:
59,227,10641,54,0,P|80:145|187:144,1,180,4|8,3:2|0:0,0:0:0:0:
255,176,11024,1,2,0:0:0:0:
66,121,11152,2,0,B|59:-1,1,90,0|0,3:2|3:2,0:0:0:0:
268,308,11407,2,0,L|326:308,1,45,8|0,0:0|0:0,0:0:0:0:
157,282,11535,2,0,L|153:222,1,45,2|0,0:0|0:0,0:0:0:0:
411,184,11663,6,0,L|417:85,1,90,4|0,3:2|0:0,3:2:0:0:
164,155,11918,2,0,B|158:48,1,90,8|0,0:0|0:0,0:0:0:0:
294,314,12173,2,0,L|294:204,1,90,0|0,3:2|3:2,0:0:0:0:
429,196,12428,2,0,B|307:197,1,90,8|0,0:0|0:0,0:0:0:0:
93,124,12684,6,0,L|87:19,1,90,0|0,3:2|0:0,0:0:0:0:
223,213,12939,1,8,0:0:0:0:
228,213,13067,1,2,0:0:0:0:
94,244,13194,1,2,3:2:0:0:
302,144,13322,1,2,3:2:0:0:
167,58,13450,2,0,L|273:58,1,90,8|0,0:0|0:0,0:0:0:0:
474,283,13705,6,0,B|479:169,1,90,0|0,3:2|0:0,0:0:0:0:
343,258,13960,2,0,L|337:154,1,90,10|2,0:0|0:0,0:0:0:0:
100,118,14216,1,2,3:2:0:0:
189,121,14343,1,0,3:2:0:0:
279,133,14471,1,8,0:0:0:0:
144,309,14599,2,0,L|141:371,1,45,2|2,0:0|0:0,0:0:0:0:
304,295,14726,6,0,B|310:179,1,90,2|0,3:2|0:0,0:0:0:0:
172,156,14982,1,8,0:0:0:0:
167,156,15109,1,2,0:0:0:0:
302,362,15237,1,0,3:2:0:0:
167,360,15365,1,0,3:2:0:0:
382,188,15492,1,8,0:0:0:0:
292,161,15620,2,8,L|240:161,1,45,10|0,0:0|0:0,0:0:0:0:
430,340,15748,22,0,P|505:296|452:236,1,180,4|8,3:2|0:0,0:0:0:0:
379,234,16131,1,2,0:0:0:0:
137,140,16258,2,0,L|240:140,2,90,0|0|8,3:2|3:2|0:0,0:0:0:0:
272,298,16641,2,0,L|275:360,1,45,2|2,0:0|0:0,0:0:0:0:
91,281,16769,22,0,L|85:169,1,90,0|2,3:2|0:0,0:0:0:0:
298,129,17024,1,10,0:0:0:0:
388,135,17152,1,2,0:0:0:0:
262,268,17280,1,2,3:2:0:0:
387,271,17407,1,2,3:2:0:0:
179,189,17535,1,8,0:0:0:0:
174,189,17663,1,2,0:0:0:0:
389,77,17790,54,0,B|519:77,1,90,4|0,3:2|0:0,0:0:0:0:
261,356,18046,1,8,0:0:0:0:
256,356,18173,1,2,0:0:0:0:
30,169,18301,6,0,B|147:169,1,90,4|0,3:2|0:0,0:0:0:0:
355,169,18556,1,8,0:0:0:0:
360,169,18684,1,2,0:0:0:0:
154,72,18811,6,0,B|259:72,1,90,4|0,3:2|0:0,0:0:0:0:
154,72,19067,1,8,0:0:0:0:
288,336,19194,2,0,L|291:273,1,45,2|2,0:0|0:0,0:0:0:0:
125,326,19322,6,0,B|32:326,1,90,4|0,3:2|3:2,0:0:0:0:
143,277,19577,2,0,B|257:277,1,90,8|2,0:0|0:0,0:0:0:0:
469,148,19833,6,0,B|474:46,1,90,4|0,3:2|0:0,0:0:0:0:
338,353,20088,2,0,B|332:251,1,90,8|0,0:2|0:0,0:0:0:0:
459,263,20343,1,0,3:2:0:0:
333,263,20471,1,0,3:2:0:0:
423,198,20599,2,0,L|314:198,1,90,8|0,0:0|0:0,0:0:0:0:
108,125,20854,6,0,B|233:125,1,90,0|0,3:2|0:0,0:0:0:0:
297,33,21109,2,0,L|303:147,1,90,8|0,0:0|0:0,0:0:0:0:
56,292,21365,1,0,3:2:0:0:
181,291,21492,1,0,3:2:0:0:
55,237,21620,2,0,B|49:131,1,90,8|0,0:0|0:0,0:0:0:0:
276,354,21875,5,0,3:2:0:0:
186,357,22003,1,0,3:2:0:0:
439,282,22131,2,0,B|461:177,1,90,8|0,0:0|0:0,0:0:0:0:
412,158,22386,2,0,B|289:158,1,90,0|0,3:2|3:2,0:0:0:0:
457,58,22641,2,0,B|328:58,1,90,8|0,0:0|0:0,0:0:0:0:
140,326,22897,6,0,B|143:330|137:211,1,90,2|0,3:2|0:0,0:0:0:0:
337,222,23152,2,0,B|235:222,1,90,10|0,0:2|0:0,0:0:0:0:
455,114,23407,1,2,3:2:0:0:
460,114,23535,1,0,3:2:0:0:
325,71,23663,1,8,0:0:0:0:
415,342,23790,1,8,0:0:0:0:
370,341,23854,1,8,0:0:0:0:
126,324,23918,38,0,P|66:269|137:264,1,180,4|8,3:2|0:0,0:0:0:0:
216,251,24301,1,0,0:0:0:0:
440,171,24428,2,0,L|444:78,1,90,0|0,3:2|3:2,0:0:0:0:
307,89,24684,2,0,L|204:89,1,90,8|0,0:2|0:2,0:2:0:0:
425,152,24939,54,0,P|500:227|447:300,1,180,2|8,3:2|0:0,0:0:0:0:
386,284,25322,1,0,0:0:0:0:
169,164,25450,2,0,L|266:164,1,90,0|0,3:2|3:2,0:0:0:0:
367,53,25705,2,0,L|367:160,1,90,8|0,0:0|0:0,0:0:0:0:
168,60,25960,21,2,3:2:0:0:
294,60,26088,1,2,0:0:0:0:
68,332,26216,2,0,L|48:224,1,90,8|0,0:0|0:0,0:0:0:0:
99,241,26471,2,0,L|222:241,1,90,0|0,3:2|3:2,0:0:0:0:
460,265,26726,2,0,L|467:159,1,90,10|0,0:0|0:0,0:0:0:0:
275,119,26982,5,2,3:2:0:0:
365,113,27109,1,2,0:0:0:0:
166,183,27237,1,8,0:0:0:0:
257,183,27365,1,2,0:0:0:0:
42,124,27492,1,0,3:2:0:0:
37,124,27620,1,0,3:2:0:0:
254,315,27748,1,8,0:0:0:0:
165,264,27875,1,2,0:0:0:0:
310,266,27939,1,2,0:0:0:0:
468,167,28003,38,0,B|473:61,1,90,4|0,3:2|0:0,0:0:0:0:
220,97,28258,2,0,L|110:97,1,90,8|0,0:0|0:0,0:0:0:0:
330,238,28514,1,2,3:2:0:0:
133,180,28641,1,2,0:0:0:0:
259,181,28769,1,8,0:0:0:0:
133,180,28897,1,2,0:0:0:0:
366,23,29024,70,0,B|371:135,1,90,2|0,3:2|0:0,0:0:0:0:
152,329,29280,1,8,0:0:0:0:
147,329,29407,1,2,0:0:0:0:
364,66,29535,1,0,3:2:0:0:
238,66,29663,1,0,3:2:0:0:
364,66,29790,1,8,0:0:0:0:
238,66,29918,1,0,0:0:0:0:
482,323,30046,6,0,B|487:219,1,90,2|0,3:2|0:0,0:0:0:0:
270,197,30301,1,8,0:0:0:0:
265,197,30428,1,2,0:0:0:0:
39,118,30556,1,2,3:2:0:0:
165,118,30684,1,2,0:0:0:0:
39,118,30811,1,8,0:0:0:0:
34,118,30939,1,2,0:0:0:0:
242,334,31067,6,0,B|255:245|255:245|203:245,1,135,4|0,3:2|0:0,0:0:0:0:
52,187,31322,1,8,0:0:0:0:
323,154,31450,2,0,B|186:154,1,135,4|0,3:2|0:0,0:0:0:0:
445,47,31705,6,0,P|493:207|338:293,1,360,4|0,3:2|0:0,0:0:0:0:
141,346,33109,5,4,3:2:0:0:
267,338,33237,1,10,0:0:0:0:
177,301,33365,2,0,L|177:365,1,45,2|0,0:0|0:0,0:0:0:0:
322,246,33492,1,0,3:2:0:0:
115,143,33620,22,0,L|56:143,1,45,8|0,0:0|0:0,0:0:0:0:
217,145,33748,1,0,3:2:0:0:
217,145,33811,1,0,0:0:0:0:
54,313,33875,1,8,0:0:0:0:
45,235,34003,1,2,3:2:0:0:
190,231,34067,1,2,3:2:0:0:
398,167,34131,54,0,L|405:41,1,90,12|2,3:2|3:2,0:0:0:0:
186,320,34386,2,0,P|108:200|196:130,1,270,12|0,0:0|0:0,0:0:0:0:
274,54,34897,1,2,0:0:0:0:
184,73,35024,1,2,0:0:0:0:
482,237,35152,22,0,B|487:343,1,90,4|8,3:2|0:0,0:0:0:0:
360,244,35407,1,2,0:0:0:0:
450,344,35535,1,2,3:2:0:0:
450,344,35599,1,2,3:2:0:0:
251,271,35663,6,0,L|178:271,1,45,8|0,0:2|0:0,0:2:0:0:
369,192,35790,1,0,3:2:0:0:
374,192,35854,1,0,3:2:0:0:
202,96,35918,2,0,L|251:96,1,45,8|0,0:0|0:0,0:0:0:0:
458,53,36046,1,0,3:2:0:0:
316,60,36109,1,0,3:2:0:0:
108,270,36173,6,0,L|101:385,1,90,8|0,0:0|3:2,0:0:0:0:
336,341,36428,1,12,0:0:0:0:
152,304,36556,2,0,P|138:127|277:288,1,503.999984619141,2|4,0:2|0:0,0:0:0:0:
62,330,37194,5,4,3:2:0:0:
53,330,37450,1,0,0:0:0:0:
198,336,37705,1,2,3:2:0:0:
44,330,37960,1,2,0:0:0:0:
255,171,38216,6,0,P|328:141|304:59,1,161.999995056153,2|0,3:2|0:0,0:0:0:0:
189,64,38726,1,2,3:2:0:0:
352,337,38982,1,2,0:0:0:0:
247,334,39109,1,0,0:0:0:0:
141,263,39237,22,0,P|76:199|119:151,1,161.999995056153,2|2,3:2|0:0,0:0:0:0:
270,138,39748,1,0,3:2:0:0:
108,58,40003,2,0,P|61:125|122:144,1,161.999995056153,2|0,0:0|3:2,0:0:0:0:
341,341,40514,54,0,L|346:248,1,80.9999975280763,2|0,0:0|0:0,0:0:0:0:
223,233,40769,2,0,L|223:128,1,80.9999975280763,2|0,3:2|0:0,0:0:0:0:
101,83,41024,2,0,L|204:83,1,80.9999975280763,2|0,0:0|0:0,0:0:0:0:
444,180,41280,6,0,P|453:113|364:106,1,161.999995056153,2|2,3:2|0:0,0:0:0:0:
214,330,41790,2,0,L|395:330,1,161.999995056153,2|0,3:2|0:0,0:0:0:0:
165,273,42301,5,2,3:2:0:0:
376,208,42556,2,0,L|398:106,1,80.9999975280763,2|0,0:0|0:0,0:0:0:0:
354,126,42811,2,0,L|246:126,1,80.9999975280763,2|0,3:2|0:0,0:0:0:0:
396,328,43067,2,0,L|401:225,1,80.9999975280763,2|0,0:0|0:0,0:0:0:0:
140,345,43322,6,0,P|76:300|143:229,1,161.999995056153,2|2,3:2|0:0,0:0:0:0:
268,162,43833,1,2,3:2:0:0:
58,157,44088,2,0,L|53:72,1,80.9999975280763,2|0,0:0|0:0,0:0:0:0:
175,269,44343,22,0,L|351:269,1,161.999995056153,2|2,3:2|0:0,0:0:0:0:
174,61,44854,2,0,L|168:167,1,80.9999975280763,2|0,3:2|0:0,0:0:0:0:
291,55,45109,2,0,L|296:153,1,80.9999975280763,2|0,0:0|0:0,0:0:0:0:
82,331,45365,54,0,P|53:260|119:225,1,161.999995056153,2|2,3:2|0:0,0:0:0:0:
277,190,45875,2,0,L|284:4,1,161.999995056153,2|2,3:2|0:0,0:0:0:0:
121,69,46386,5,0,3:2:0:0:
332,305,46641,2,0,L|338:214,1,80.9999975280763,2|0,0:0|0:0,0:0:0:0:
215,80,46897,2,0,L|209:182,1,80.9999975280763,2|0,3:2|0:0,0:0:0:0:
333,171,47152,2,0,L|425:171,1,80.9999975280763,2|0,0:0|0:0,0:0:0:0:
219,253,47407,6,0,L|39:253,1,161.999995056153,0|2,3:2|0:0,0:0:0:0:
284,150,47918,2,0,L|464:150,1,161.999995056153,2|2,3:2|0:0,0:0:0:0:
218,159,48428,22,0,P|149:117|187:50,1,161.999995056153,2|2,3:2|0:0,0:0:0:0:
257,53,48811,1,0,0:0:0:0:
453,217,48939,2,0,L|477:324,1,80.9999975280763,2|0,3:2|0:0,0:0:0:0:
432,296,49194,2,0,L|342:296,1,80.9999975280763,2|0,0:0|0:0,0:0:0:0:
130,176,49450,54,0,P|225:177|247:90,2,180,2|2|2,3:2|0:0|3:2,0:0:0:0:
292,283,50216,1,2,0:0:0:0:
187,280,50343,1,2,0:0:0:0:
81,188,50471,22,0,P|50:117|114:119,1,161.999995056153,0|2,3:2|0:0,0:0:0:0:
271,192,50982,1,2,3:2:0:0:
45,135,51237,1,2,0:0:0:0:
150,132,51364,1,2,0:0:0:0:
255,177,51492,54,0,L|263:338,1,161.999995056153,2|2,3:2|0:0,0:0:0:0:
377,315,51875,1,0,0:0:0:0:
182,197,52003,2,0,L|175:95,1,80.9999975280763,2|0,3:2|0:0,0:0:0:0:
298,132,52258,2,0,L|304:37,1,80.9999975280763,2|0,0:0|0:0,0:0:0:0:
110,232,52514,54,0,P|41:180|79:109,1,161.999995056153,2|2,3:2|0:0,0:0:0:0:
144,115,52897,1,2,0:0:0:0:
401,146,53024,2,0,L|502:146,1,80.9999975280763,2|0,3:2|0:0,0:0:0:0:
401,146,53280,1,2,0:0:0:0:
71,246,53535,54,0,B|267:246,1,180,4|0,3:2|0:0,0:0:0:0:
251,246,53918,1,0,0:0:0:0:
124,185,54046,2,0,B|118:68,1,90,8|0,0:0|0:0,0:0:0:0:
246,101,54301,2,0,B|138:101,1,90,2|0,0:0|0:0,0:0:0:0:
391,275,54556,22,0,P|466:251|444:149,1,180,2|0,3:2|3:2,0:0:0:0:
371,148,54939,1,0,0:0:0:0:
154,309,55067,2,0,B|264:309,1,90,8|0,0:0|0:0,0:0:0:0:
118,189,55322,2,0,B|113:303,1,90,2|0,0:0|0:0,0:0:0:0:
331,246,55577,54,0,P|349:180|237:150,1,180,2|2,3:2|0:0,0:0:0:0:
173,136,55960,1,2,0:0:0:0:
299,331,56088,2,0,B|305:218,1,90,8|0,0:0|0:0,0:0:0:0:
87,318,56343,2,0,B|82:218,1,90,2|0,0:0|0:0,0:0:0:0:
374,143,56599,54,0,B|380:28,1,90,4|0,3:2|0:0,0:0:0:0:
171,333,56854,1,8,0:0:0:0:
297,333,56982,1,0,3:2:0:0:
91,252,57109,1,8,0:0:0:0:
217,252,57237,1,0,3:2:0:0:
91,252,57365,1,8,0:0:0:0:
86,186,57492,1,2,0:0:0:0:
397,143,57620,22,0,L|403:34,1,90,4|0,3:2|0:0,0:0:0:0:
176,327,57875,2,0,L|169:209,1,90,2|0,3:2|0:0,0:0:0:0:
299,158,58131,1,2,3:2:0:0:
183,163,58258,1,2,0:0:0:0:
66,157,58386,1,2,3:2:0:0:
61,157,58514,1,2,0:0:0:0:
267,288,58641,54,0,L|162:289,1,90,2|0,3:2|0:0,0:0:0:0:
267,288,58897,1,2,3:2:0:0:
357,292,59024,1,2,0:0:0:0:
231,81,59152,2,0,L|225:181,1,90,2|0,3:2|0:0,0:0:0:0:
352,343,59407,1,2,3:2:0:0:
117,328,59535,1,2,0:0:0:0:
370,198,59663,70,0,P|369:111|290:98,1,180,4|8,3:2|0:0,0:0:0:0:
66,119,60046,1,0,3:2:0:0:
66,119,60109,1,0,3:2:0:0:
246,214,60173,2,0,L|317:214,1,45,8|0,0:0|0:0,0:0:0:0:
127,337,60301,1,0,3:2:0:0:
82,337,60365,1,0,3:2:0:0:
251,346,60428,2,0,L|254:272,1,45,8|0,0:0|0:0,0:0:0:0:
79,155,60556,1,0,3:2:0:0:
214,158,60620,1,0,3:2:0:0:
377,328,60684,22,0,L|387:173,1,135,4|0,3:2|0:0,0:0:0:0:
169,150,60939,54,0,B|323:150,1,135,4|0,3:2|0:0,0:2:0:0:
69,327,61194,22,0,P|31:237|94:218,1,180,4|0,3:2|0:0,0:0:0:0:
447,43,61705,70,0,L|455:160,1,90,4|0,3:2|0:0,0:0:0:0:
327,201,61960,1,8,0:0:0:0:
417,293,62088,1,2,0:0:0:0:
173,286,62216,1,0,3:2:0:0:
168,286,62344,1,0,3:2:0:0:
302,43,62471,1,8,0:0:0:0:
212,63,62599,2,0,L|209:122,1,45
375,151,62727,6,0,L|381:249,1,90,0|0,3:2|0:0,0:0:0:0:
163,66,62982,1,10,0:0:0:0:
158,65,63110,1,2,0:0:0:0:
283,211,63237,1,2,3:2:0:0:
157,341,63365,1,2,0:0:0:0:
292,342,63493,1,10,0:0:0:0:
297,342,63620,1,2,0:0:0:0:
81,144,63748,22,0,B|193:144,1,90,4|0,3:2|0:0,0:0:0:0:
45,88,64003,1,8,0:0:0:0:
40,88,64131,1,2,0:0:0:0:
266,54,64258,1,0,3:2:0:0:
355,55,64386,1,0,3:2:0:0:
229,54,64514,1,8,0:0:0:0:
139,53,64642,1,2,0:0:0:0:
390,135,64769,5,4,3:2:0:0:
173,306,64897,2,0,L|285:306,1,90,2|8,0:0|0:0,0:0:0:0:
137,218,65152,1,2,0:0:0:0:
354,102,65280,2,0,B|361:224,1,90,0|0,3:2|3:2,0:0:0:0:
124,104,65535,2,0,L|182:104,1,45,8|0,0:0|0:0,0:0:0:0:
325,109,65663,2,0,L|386:109,1,45,2|0,0:0|0:0,0:0:0:0:
132,248,65791,6,0,L|126:347,1,90,4|0,3:2|0:0,3:2:0:0:
343,306,66046,2,0,B|462:305,1,90,8|0,0:0|0:0,0:0:0:0:
298,87,66301,2,0,L|292:196,1,90,0|0,3:2|3:2,0:0:0:0:
158,168,66556,2,0,B|36:167,1,90,8|0,0:0|0:0,0:0:0:0:
323,336,66812,6,0,L|445:336,1,90,0|0,3:2|0:0,0:0:0:0:
278,171,67067,1,8,0:0:0:0:
273,171,67195,1,2,0:0:0:0:
407,140,67322,1,2,3:2:0:0:
199,240,67450,1,2,3:2:0:0:
334,326,67578,2,0,L|228:326,1,90,8|0,0:0|0:0,0:0:0:0:
36,101,67833,6,0,B|31:215,1,90,0|0,3:2|0:0,0:0:0:0:
249,134,68088,2,0,L|148:135,1,90,10|2,0:0|0:0,0:0:0:0:
423,266,68344,1,2,3:2:0:0:
298,268,68471,1,0,3:2:0:0:
388,270,68599,1,8,0:0:0:0:
262,163,68727,2,0,L|259:101,1,45,2|2,0:0|0:0,0:0:0:0:
458,176,68854,6,0,B|466:59,1,90,2|0,3:2|0:0,0:0:0:0:
257,299,69109,1,8,0:0:0:0:
167,302,69237,1,2,0:0:0:0:
284,223,69365,1,0,3:2:0:0:
401,221,69493,1,0,3:2:0:0:
204,189,69620,1,8,0:0:0:0:
294,111,69748,2,8,L|234:111,1,45,10|0,0:0|0:0,0:0:0:0:
84,44,69876,22,0,P|9:88|62:148,1,180,4|8,3:2|0:0,0:0:0:0:
142,152,70259,1,2,0:0:0:0:
373,244,70386,2,0,L|270:244,2,90,0|0|8,3:2|3:2|0:0,0:0:0:0:
238,86,70769,2,0,L|235:24,1,45,2|2,0:0|0:0,0:0:0:0:
406,97,70897,22,0,L|412:209,1,90,0|2,3:2|0:0,0:0:0:0:
212,255,71152,1,10,0:0:0:0:
122,249,71280,1,2,0:0:0:0:
248,116,71408,1,2,3:2:0:0:
123,113,71535,1,2,3:2:0:0:
331,195,71663,1,8,0:0:0:0:
336,195,71791,1,2,0:0:0:0:
121,307,71918,54,0,B|-9:307,1,90,4|0,3:2|0:0,0:0:0:0:
249,28,72174,1,8,0:0:0:0:
254,28,72301,1,2,0:0:0:0:
480,215,72428,6,0,B|363:215,1,90,4|0,3:2|0:0,0:0:0:0:
173,313,72684,1,8,0:0:0:0:
263,312,72812,1,2,0:0:0:0:
39,191,72939,6,0,B|33:86,1,90,4|0,3:2|0:0,0:0:0:0:
161,312,73195,1,8,0:0:0:0:
36,258,73322,2,0,L|97:257,1,45,2|2,0:0|0:0,0:0:0:0:
274,247,73450,6,0,B|278:154,1,90,4|0,3:2|3:2,0:0:0:0:
152,108,73705,2,0,B|266:108,1,90,8|2,0:0|0:0,0:0:0:0:
460,240,73961,54,0,B|465:342,1,90,4|0,3:2|0:0,0:0:0:0:
338,164,74216,2,0,B|332:266,1,90,8|0,0:2|0:0,0:0:0:0:
80,87,74471,1,0,3:2:0:0:
206,93,74599,1,0,3:2:0:0:
80,249,74727,2,0,L|74:357,1,90,8|0,0:0|0:0,0:0:0:0:
292,237,74982,6,0,B|417:237,1,90,0|0,3:2|0:0,0:0:0:0:
256,168,75237,2,0,L|250:54,1,90,8|0,0:0|0:0,0:0:0:0:
479,166,75492,1,0,3:2:0:0:
354,167,75620,1,0,3:2:0:0:
480,221,75748,2,0,B|486:327,1,90,8|0,0:0|0:0,0:0:0:0:
259,83,76003,5,0,3:2:0:0:
349,80,76131,1,0,3:2:0:0:
96,129,76259,2,0,B|74:234,1,90,8|0,0:0|0:0,0:0:0:0:
123,253,76514,2,0,B|246:253,1,90,0|0,3:2|3:2,0:0:0:0:
87,148,76769,2,0,B|80:19,1,90,8|0,0:0|0:0,0:0:0:0:
337,113,77025,6,0,B|439:113,1,90,2|0,3:2|0:0,0:0:0:0:
219,220,77280,2,0,B|321:220,1,90,10|0,0:2|0:0,0:0:0:0:
83,105,77535,1,2,3:2:0:0:
78,105,77663,1,0,3:2:0:0:
204,336,77791,1,8,0:0:0:0:
114,65,77918,1,8,0:0:0:0:
159,66,77982,1,8,0:0:0:0:
384,314,78046,22,0,P|387:227|310:179,1,180,4|8,3:2|0:0,0:0:0:0:
226,192,78428,1,0,0:0:0:0:
461,144,78556,2,0,L|465:49,1,90,0|0,3:2|3:2,0:0:0:0:
339,357,78811,2,0,L|333:250,1,90,8|0,0:0|0:0,0:0:0:0:
116,124,79067,22,0,L|308:124,1,180,2|8,3:2|0:0,0:0:0:0:
296,124,79450,1,0,0:0:0:0:
45,342,79577,2,0,L|161:342,1,90,2|0,3:2|3:0,0:0:0:0:
353,338,79833,2,0,L|357:233,1,90,10|0,0:2|0:0,0:0:0:0:
149,105,80088,5,2,3:2:0:0:
275,100,80216,1,0,0:0:0:0:
51,337,80343,2,0,L|27:225,1,90,8|0,0:2|0:0,0:0:0:0:
79,247,80599,2,0,L|192:247,1,90,0|0,3:2|3:2,0:0:0:0:
385,169,80854,2,0,L|280:169,1,90,8|0,0:0|0:0,0:0:0:0:
60,113,81109,21,2,3:2:0:0:
55,113,81237,1,2,0:0:0:0:
272,66,81365,1,8,0:0:0:0:
183,68,81492,1,0,0:0:0:0:
400,296,81620,1,2,3:2:0:0:
490,297,81748,1,0,3:2:0:0:
257,128,81875,1,8,0:0:0:0:
347,131,82002,1,2,0:0:0:0:
212,211,82066,1,2,0:0:0:0:
47,217,82131,38,0,B|42:323,1,90,4|0,3:2|0:0,0:0:0:0:
295,287,82386,2,0,L|405:287,1,90,8|0,0:0|0:0,0:0:0:0:
185,146,82642,1,2,3:2:0:0:
382,204,82769,1,2,0:0:0:0:
256,203,82897,1,8,0:0:0:0:
382,204,83025,1,2,0:0:0:0:
149,361,83152,70,0,B|144:249,1,90,2|0,3:2|0:0,0:0:0:0:
363,55,83408,1,8,0:0:0:0:
368,55,83535,1,2,0:0:0:0:
151,318,83663,1,0,3:2:0:0:
277,318,83791,1,0,3:2:0:0:
151,318,83918,1,8,0:0:0:0:
277,318,84046,1,0,0:0:0:0:
33,61,84174,6,0,B|28:165,1,90,2|0,3:2|0:0,0:0:0:0:
245,187,84429,1,8,0:0:0:0:
155,186,84556,1,2,0:0:0:0:
354,318,84684,1,2,3:2:0:0:
480,318,84812,1,2,0:0:0:0:
355,250,84939,1,8,0:0:0:0:
481,266,85067,1,2,0:0:0:0:
271,50,85195,6,0,B|258:139|258:139|310:139,1,135,4|0,3:2|0:0,0:0:0:0:
461,197,85450,1,8,0:0:0:0:
190,230,85578,2,0,B|327:230,1,135,4|0,3:2|0:0,0:0:0:0:
68,337,85833,6,0,P|20:177|175:91,1,360,4|0,3:2|0:0,0:0:0:0:
326,257,86726,6,0,L|452:257,1,90,2|2,0:1|0:1,0:1:0:0:
416,257,86982,2,0,L|290:257,1,90,2|2,0:1|0:1,0:1:0:0:
100,131,87237,70,0,B|215:130,1,90,4|0,3:2|0:0,0:0:0:0:
316,130,87492,2,0,B|320:35,1,90,8|0,0:0|3:2,0:0:0:0:
92,263,87748,1,2,0:0:0:0:
217,270,87875,1,0,3:2:0:0:
91,87,88003,2,0,B|85:204,1,90,8|0,0:0|0:0,0:0:0:0:
303,166,88258,70,0,B|308:69,1,90,2|0,3:2|0:0,0:0:0:0:
180,173,88514,1,8,0:0:0:0:
305,335,88641,2,0,B|317:224,1,90,2|0,3:2|0:0,0:0:0:0:
96,58,88897,1,2,3:2:0:0:
221,60,89024,1,8,0:0:0:0:
96,58,89152,1,2,0:0:0:0:
322,348,89280,70,0,B|328:227,1,90,2|0,3:2|0:0,0:0:0:0:
200,257,89535,1,8,0:0:0:0:
326,182,89663,2,0,B|320:65,1,90,2|0,3:2|0:0,0:0:0:0:
448,98,89918,1,0,3:2:0:0:
204,346,90046,1,8,0:0:0:0:
115,348,90173,1,2,0:0:0:0:
323,151,90301,70,0,B|347:34,1,90,2|0,3:2|0:0,0:0:0:0:
296,64,90556,2,0,B|182:64,1,90,8|0,0:0|3:0,0:0:0:0:
405,347,90811,1,2,0:2:0:0:
306,349,90939,1,2,3:2:0:0:
62,237,91067,1,8,0:0:0:0:
161,240,91194,1,2,0:0:0:0:
395,82,91322,5,4,3:2:0:0:
174,83,91450,1,2,0:0:0:0:
362,81,91577,1,8,0:0:0:0:
218,82,91705,1,2,3:2:0:0:
344,280,91833,1,2,0:2:0:0:
232,280,91960,1,2,3:2:0:0:
331,279,92088,1,8,0:0:0:0:
250,279,92216,1,2,0:0:0:0:
483,47,92343,6,0,P|500:124|410:161,1,180,2|8,3:2|0:0,0:0:0:0:
223,356,92726,2,0,B|213:256,1,90,2|0,3:2|0:0,0:2:0:0:
305,269,92982,1,2,3:2:0:0:
117,141,93109,2,0,B|113:77,1,45,8|0,0:0|0:0,0:0:0:0:
307,132,93237,2,0,B|371:132,1,45,2|0,0:0|0:0,0:0:0:0:
146,320,93365,6,0,B|140:166,1,135,4|0,3:2|0:0,0:0:0:0:
376,219,93620,2,0,B|493:220,1,90,8|0,0:0|0:0,0:0:0:0:
195,90,93875,70,0,B|45:90,1,135,4|0,3:2|0:0,0:0:0:0:
289,123,94131,2,0,B|296:18,1,90,8|0,0:0|0:0,0:0:0:0:
60,326,94386,6,0,B|53:186,1,135,4|0,3:2|0:0,0:0:0:0:
270,311,94641,2,0,B|369:311,1,90,8|0,0:0|0:0,0:0:0:0:
141,72,94897,69,6,3:2:0:0:
136,72,95024,1,2,0:0:0:0:
335,149,95152,1,8,0:0:0:0:
100,152,95280,1,8,0:0:0:0:
387,320,95407,70,0,P|472:298|443:233,1,180,4|8,3:2|0:0,0:0:0:0:
355,227,95790,1,2,3:2:0:0:
120,103,95918,2,0,B|18:103,1,90,2|0,0:2|3:2,0:0:0:0:
229,201,96173,2,0,B|235:84,1,90,8|0,0:0|0:0,0:0:0:0:
433,82,96428,70,0,B|317:82,1,90,2|0,3:2|0:0,0:0:0:0:
134,284,96684,1,8,0:0:0:0:
259,249,96811,2,0,B|265:369,1,90,2|0,3:2|0:0,0:0:0:0:
391,254,97067,1,2,3:2:0:0:
185,150,97194,2,0,B|181:83,1,45,8|0,0:0|0:0,0:0:0:0:
347,70,97322,2,0,B|280:70,1,45,2|0,0:0|0:0,0:0:0:0:
119,314,97450,6,0,B|27:314,1,90,2|0,3:2|0:0,0:0:0:0:
246,233,97705,1,8,0:0:0:0:
157,234,97833,2,0,B|162:131,1,90,2|0,3:2|0:0,0:0:0:0:
35,111,98088,1,2,3:2:0:0:
243,134,98216,2,0,B|298:134,1,45,8|0,0:0|0:0,0:0:0:0:
125,78,98343,2,0,B|121:9,1,45,2|2,0:0|0:0,0:0:0:0:
324,205,98471,6,0,P|346:303|253:316,1,180,2|8,3:2|0:0,0:0:0:0:
198,331,98854,1,2,3:2:0:0:
397,167,98982,1,2,0:2:0:0:
272,162,99109,1,2,3:2:0:0:
398,167,99237,1,8,0:0:0:0:
403,167,99365,1,2,0:0:0:0:
124,347,99492,5,4,3:2:0:0:
341,354,99620,1,2,0:0:0:0:
147,348,99748,1,8,0:0:0:0:
286,351,99875,1,2,0:0:0:0:
159,321,100003,1,2,3:2:0:0:
272,323,100131,1,2,3:2:0:0:
178,306,100258,1,8,0:0:0:0:
246,300,100386,1,2,0:0:0:0:
46,42,100514,6,0,B|26:134|26:134|83:134,1,135,2|0,3:2|0:0,0:0:0:0:
247,75,100769,1,8,0:0:0:0:
157,209,100897,2,0,B|151:92,1,90,2|0,0:0|3:2,0:0:0:0:
279,337,101152,1,0,3:2:0:0:
80,337,101280,2,0,B|74:219,1,90,8|0,0:0|0:0,0:0:0:0:
202,252,101535,69,0,3:2:0:0:
34,124,101790,1,8,0:0:0:0:
260,321,102046,2,0,L|282:214,1,90,2|0,3:2|3:2,3:2:0:0:
233,217,102301,2,0,L|112:217,1,90,10|2,0:0|0:0,0:0:0:0:
427,114,102556,70,0,P|348:114|335:26,2,161.999995056153,4|0|2,3:2|0:0|3:2,0:0:0:0:
264,356,103322,1,0,0:0:0:0:
425,248,103577,22,0,L|243:249,1,161.999995056153,2|2,3:2|0:0,0:0:0:0:
344,97,103960,1,2,0:0:0:0:
344,97,104088,1,2,3:2:0:0:
214,121,104216,1,0,0:0:0:0:
295,124,104343,1,2,0:0:0:0:
214,121,104471,1,0,0:0:0:0:
409,329,104599,22,0,P|476:288|439:212,1,161.999995056153,2|0,3:2|0:0,0:0:0:0:
373,218,104982,1,2,0:0:0:0:
243,146,105110,1,2,3:2:0:0:
243,146,105237,2,0,L|409:146,1,161.999995056153,2|0,0:0|0:0,0:0:0:0:
194,235,105620,6,0,P|127:281|172:363,1,161.999995056153,2|2,3:2|0:0,0:0:0:0:
310,350,106131,1,2,3:2:0:0:
160,110,106386,5,0,0:0:0:0:
128,101,106428,1,0,0:0:0:0:
104,119,106471,1,0,0:0:0:0:
105,150,106513,1,0,0:0:0:0:
131,168,106556,1,0,0:0:0:0:
161,158,106598,1,0,0:0:0:0:
396,120,106641,69,14,3:2:0:0:
458,150,106726,1,2,0:2:0:0:
409,192,106811,1,2,0:2:0:0:
202,345,106897,1,8,0:2:0:0:
133,334,106982,1,2,0:2:0:0:
187,290,107067,1,2,0:2:0:0:
366,97,107152,69,2,3:2:0:0:
321,74,107237,1,2,0:2:0:0:
252,70,107322,1,2,0:2:0:0:
467,338,107407,1,10,0:2:0:0:
480,301,107492,1,2,0:2:0:0:
413,300,107577,1,2,0:2:0:0:
211,349,107663,70,0,L|201:275,1,60,2|0,3:2|0:2,0:2:0:0:
273,289,107833,1,2,0:2:0:0:
82,145,107918,2,0,L|-1:144,1,60,8|0,0:2|0:2,0:2:0:0:
92,118,108088,1,2,0:2:0:0:
296,142,108173,70,0,L|179:127,1,90,2|0,3:2|0:2,0:2:0:0:
324,89,108428,1,8,0:2:0:0:
337,88,108556,1,2,0:2:0:0:
88,326,108684,5,6,3:2:0:0:
144,327,108769,1,2,0:2:0:0:
76,286,108854,1,2,0:2:0:0:
272,312,108939,1,10,0:2:0:0:
292,283,109024,1,2,0:2:0:0:
225,268,109109,1,2,0:2:0:0:
445,210,109194,5,6,3:2:0:0:
487,193,109280,1,2,0:2:0:0:
417,174,109365,1,2,0:2:0:0:
205,127,109450,1,10,0:2:0:0:
242,104,109535,1,2,0:2:0:0:
311,92,109620,1,2,0:2:0:0:
83,355,109705,6,0,L|64:272,1,60,6|2,3:2|0:2,0:2:0:0:
226,303,109875,1,2,0:2:0:0:
458,280,109960,2,0,L|476:200,1,60,10|2,0:2|0:2,0:2:0:0:
277,148,110131,1,2,0:2:0:0:
53,164,110216,6,0,L|31:57,1,90,2|0,3:2|3:2,3:2:0:0:
80,60,110471,2,0,L|201:60,1,90,10|2,0:2|0:2,0:2:0:0:
402,347,110726,54,0,L|417:165,1,161.999995056153,4|0,3:2|0:0,0:0:0:0:
210,146,111237,2,0,L|385:146,1,161.999995056153,2|0,3:2|0:0,0:0:0:0:
210,268,111748,22,0,L|28:269,1,161.999995056153,2|2,3:2|0:0,0:0:0:0:
129,197,112131,1,2,0:0:0:0:
134,197,112258,1,0,3:2:0:0:
264,351,112386,1,0,0:0:0:0:
183,348,112514,2,0,L|185:248,1,80.9999975280763,2|0,0:0|0:0,0:0:0:0:
380,138,112769,54,0,L|291:138,1,80.9999975280763,2|0,3:2|0:0,0:0:0:0:
218,139,113024,1,0,0:0:0:0:
348,329,113152,2,0,L|352:233,1,80.9999975280763,2|0,0:0|3:2,0:0:0:0:
140,205,113407,2,0,L|38:205,1,80.9999975280763,2|0,0:0|0:0,0:0:0:0:
140,205,113663,1,0,0:0:0:0:
366,29,113790,6,0,L|182:29,1,161.999995056153,2|2,3:2|0:0,3:2:0:0:
365,353,114301,2,0,L|366:167,1,161.999995056153,2|2,3:2|0:0,3:2:0:0:
149,291,114811,69,4,3:2:0:0:
348,297,114939,1,0,3:2:0:0:
113,205,115067,1,8,0:0:0:0:
238,192,115194,2,0,L|238:121,1,45,2|0,3:2|0:0,0:0:0:0:
36,165,115322,54,0,L|29:55,1,90,10|2,0:0|0:0,0:0:0:0:
233,105,115577,1,8,0:0:0:0:
152,332,115705,1,2,0:0:0:0:
296,332,115769,1,2,0:0:0:0:
459,262,115833,22,0,L|393:262,1,45,4|0,3:2|0:0,0:0:0:0:
198,204,115960,2,0,L|193:139,1,45,0|0,3:2|0:0,0:0:0:0:
433,150,116088,54,0,P|484:82|420:55,1,180,12|0,0:0|3:2,0:0:0:0:
359,353,116428,2,0,L|431:352,1,60,0|0,3:0|3:0,0:0:0:0:
225,215,116599,1,8,3:0:0:0:
216,212,116684,1,8,3:0:0:0:
285,208,116769,1,8,3:0:0:0:
81,107,116854,53,4,3:2:0:0:
316,103,116982,1,2,0:0:0:0:
200,102,117109,1,8,0:0:0:0:
317,334,117237,2,0,L|322:267,1,45,2|0,0:0|3:2,0:0:0:0:
60,345,117365,6,0,L|39:219,1,90,8|2,0:0|0:0,0:0:0:0:
181,296,117556,1,0,3:2:0:0:
380,169,117620,2,0,L|383:93,1,45,8|0,0:0|0:0,0:0:0:0:
199,134,117748,2,0,L|136:133,1,45,2|2,0:0|0:0,0:0:0:0:
393,187,117875,22,0,L|400:38,1,135,4|0,3:2|0:0,0:0:0:0:
124,126,118131,54,0,B|123:350|123:350|236:155|236:155|240:374|240:374|25:296|25:296|24:67|24:67|219:196,1,1350,12|0,3:2|0:0,0:0:0:0:
143,68,119024,1,0,3:2:0:0:
303,105,119088,1,0,3:2:0:0:
475,237,119152,5,8,0:0:0:0:
480,237,119280,1,2,0:0:0:0:
263,117,119408,1,0,3:2:0:0:
173,118,119536,1,0,3:2:0:0:
298,42,119663,1,8,0:0:0:0:
208,329,119791,2,0,L|205:270,1,45
371,124,119919,6,0,L|484:124,1,90,0|0,3:2|0:0,0:0:0:0:
235,332,120174,1,10,0:0:0:0:
230,333,120302,1,2,0:0:0:0:
105,187,120429,1,2,3:2:0:0:
231,57,120557,1,2,0:0:0:0:
32,55,120685,1,10,0:0:0:0:
27,55,120812,1,2,0:0:0:0:
334,163,120940,22,0,B|222:163,1,90,4|0,3:2|0:0,0:0:0:0:
370,219,121195,1,8,0:0:0:0:
164,332,121322,1,2,0:0:0:0:
400,293,121451,1,0,3:2:0:0:
405,293,121578,1,0,3:2:0:0:
188,333,121706,1,8,0:0:0:0:
98,334,121834,1,2,0:0:0:0:
367,237,121961,5,4,3:2:0:0:
150,66,122088,2,0,L|262:66,1,90,2|8,0:0|0:0,0:0:0:0:
114,154,122344,1,2,0:0:0:0:
331,270,122471,2,0,B|338:148,1,90,0|0,3:2|3:2,0:0:0:0:
101,105,122726,2,0,L|159:105,1,45,8|0,0:0|0:0,0:0:0:0:
357,346,122855,2,0,L|361:285,1,45,2|0,0:0|0:0,0:0:0:0:
149,321,122983,6,0,L|46:321,1,90,4|0,3:2|0:0,3:2:0:0:
313,82,123238,2,0,B|432:81,1,90,8|0,0:0|0:0,0:0:0:0:
168,230,123493,2,0,L|162:121,1,90,0|0,3:2|3:2,0:0:0:0:
298,197,123748,2,0,B|420:198,1,90,8|0,0:0|0:0,0:0:0:0:
142,347,124004,6,0,L|135:225,1,90,0|0,3:2|0:0,0:0:0:0:
372,263,124259,1,8,0:0:0:0:
246,198,124387,1,2,0:0:0:0:
371,85,124514,1,2,3:2:0:0:
136,90,124642,1,2,3:2:0:0:
389,347,124770,2,0,L|411:243,1,90,8|0,0:0|0:0,0:0:0:0:
362,236,125025,6,0,B|250:236,1,90,0|0,3:2|0:0,0:0:0:0:
471,106,125280,2,0,L|370:105,1,90,10|2,0:0|0:0,0:0:0:0:
145,190,125536,1,2,3:2:0:0:
270,188,125663,1,0,3:2:0:0:
145,190,125791,1,8,0:0:0:0:
235,295,125919,2,0,L|238:357,1,45,2|2,0:0|0:0,0:0:0:0:
38,257,126046,6,0,B|30:374,1,90,2|0,3:2|0:0,0:0:0:0:
285,91,126301,1,8,0:0:0:0:
375,88,126429,1,2,0:0:0:0:
137,120,126557,1,0,3:2:0:0:
132,120,126685,1,0,3:2:0:0:
329,184,126812,1,8,0:0:0:0:
203,236,126940,2,8,L|198:295,1,45,10|0,0:0|0:0,0:0:0:0:
428,340,127068,22,0,P|468:288|374:245,1,180,4|8,3:2|0:0,0:0:0:0:
185,214,127451,1,2,0:0:0:0:
310,92,127578,2,0,L|207:92,2,90,0|0|8,3:2|3:2|0:0,0:0:0:0:
184,234,127961,2,0,L|181:296,1,45,2|2,0:0|0:0,0:0:0:0:
356,142,128089,22,0,L|464:142,1,90,0|2,3:2|0:0,0:0:0:0:
193,95,128344,1,10,0:0:0:0:
188,95,128472,1,2,0:0:0:0:
405,305,128600,1,2,3:2:0:0:
280,308,128727,1,2,3:2:0:0:
405,305,128855,1,8,0:0:0:0:
280,308,128983,1,2,0:0:0:0:
47,166,129110,54,0,B|40:36,1,90,4|0,3:2|0:0,0:0:0:0:
295,344,129365,2,0,L|404:344,1,90,8|2,0:0|0:0,0:0:0:0:
148,159,129621,22,0,B|141:42,1,90,4|0,3:2|0:0,0:0:0:0:
376,92,129875,2,0,L|485:92,1,90,8|2,0:0|0:0,0:0:0:0:
229,241,130131,6,0,B|112:242,1,90,4|0,3:2|0:0,0:0:0:0:
376,84,130387,1,8,0:0:0:0:
466,143,130514,2,0,L|405:144,1,45,2|2,0:0|0:0,0:0:0:0:
238,137,130642,6,0,B|234:230,1,90,4|0,3:2|3:2,0:0:0:0:
35,329,130897,2,0,B|149:329,1,90,8|2,0:0|0:0,0:0:0:0:
415,311,131153,54,0,B|420:209,1,90,4|0,3:2|0:0,0:0:0:0:
203,205,131408,2,0,B|195:104,1,90,8|0,0:2|0:0,0:0:0:0:
432,297,131663,1,0,3:2:0:0:
306,291,131791,1,0,3:2:0:0:
432,135,131918,2,0,L|438:27,1,90,8|0,0:0|0:0,0:0:0:0:
220,147,132174,6,0,B|95:147,1,90,0|0,3:2|0:0,0:0:0:0:
347,306,132429,2,0,L|238:306,1,90,8|0,0:0|0:0,0:0:0:0:
39,179,132685,1,0,3:2:0:0:
164,178,132812,1,0,3:2:0:0:
38,124,132939,2,0,B|32:18,1,90,8|0,0:0|0:0,0:0:0:0:
259,309,133195,5,0,3:2:0:0:
133,307,133323,1,0,3:2:0:0:
359,199,133451,2,0,B|381:94,1,90,8|0,0:0|0:0,0:0:0:0:
332,75,133706,2,0,B|209:75,1,90,0|0,3:2|3:2,0:0:0:0:
441,236,133961,2,0,B|319:236,1,90,8|0,0:0|0:0,0:0:0:0:
105,345,134217,6,0,B|97:243,1,90,2|0,3:2|0:0,0:0:0:0:
225,274,134472,2,0,B|230:172,1,90,10|0,0:2|0:0,0:0:0:0:
465,257,134727,1,2,3:2:0:0:
470,257,134855,1,0,3:2:0:0:
344,58,134983,1,8,0:0:0:0:
434,336,135110,1,8,0:0:0:0:
389,335,135174,1,8,0:0:0:0:
128,70,135238,22,0,L|316:70,1,180,4|8,3:2|0:0,0:0:0:0:
218,83,135620,1,0,0:0:0:0:
344,339,135748,1,0,3:2:0:0:
218,327,135876,1,0,3:2:0:0:
453,177,136004,2,0,B|460:67,1,90,8|0,0:0|0:0,0:0:0:0:
214,175,136259,22,0,P|129:154|140:74,1,180,2|8,3:2|0:0,0:0:0:0:
227,65,136642,1,0,0:0:0:0:
467,42,136769,2,0,L|351:42,1,90,2|0,3:2|3:0,0:0:0:0:
159,46,137025,2,0,L|155:151,1,90,10|0,0:2|0:0,0:0:0:0:
363,279,137280,5,2,3:2:0:0:
237,284,137408,1,0,0:0:0:0:
461,47,137535,2,0,L|485:159,1,90,8|0,0:2|0:0,0:0:0:0:
433,137,137791,2,0,L|320:137,1,90,0|0,3:2|3:2,0:0:0:0:
127,215,138046,2,0,L|232:215,1,90,8|0,0:0|0:0,0:0:0:0:
470,266,138301,6,0,L|369:266,1,90,2|0,3:2|0:0,0:0:0:0:
73,155,138556,2,0,L|187:155,1,90,8|0,0:0|0:0,0:0:0:0:
452,160,138811,2,0,L|459:59,1,90,2|0,3:2|3:2,0:0:0:0:
240,258,139067,1,8,0:0:0:0:
330,255,139194,1,2,0:0:0:0:
195,176,139258,1,2,0:0:0:0:
23,165,139322,38,0,B|16:41,1,90,4|0,3:2|0:0,0:0:0:0:
244,92,139577,2,0,B|137:92,1,90,8|0,0:0|0:0,0:0:0:0:
391,148,139833,1,2,3:2:0:0:
266,284,139960,1,2,3:2:0:0:
392,284,140088,1,8,0:0:0:0:
184,167,140216,1,2,0:0:0:0:
417,141,140343,6,0,B|424:26,1,90,0|0,3:2|0:0,0:0:0:0:
150,334,140599,2,0,B|142:241,1,90,8|0,0:0|0:0,0:0:0:0:
359,120,140854,1,2,3:2:0:0:
142,122,140982,1,2,3:2:0:0:
267,179,141109,1,10,0:0:0:0:
50,329,141237,1,2,0:0:0:0:
339,362,141365,70,0,B|343:256,1,90,2|0,3:2|0:0,0:0:0:0:
126,110,141620,2,0,B|245:110,1,90,10|2,0:0|0:0,0:0:0:0:
433,151,141875,1,2,3:2:0:0:
307,150,142003,1,0,3:2:0:0:
433,151,142131,1,8,0:0:0:0:
227,247,142258,1,2,0:0:0:0:
480,342,142386,6,0,B|488:229,1,90,2|0,3:2|0:0,0:0:0:0:
369,230,142641,1,8,0:0:0:0:
134,85,142769,2,0,B|241:85,2,90,2|0|2,3:2|0:0|3:2,0:0:0:0:
387,372,143152,2,0,B|399:222,1,135,10|2,0:0|0:0,0:0:0:0:
145,214,143407,69,4,3:2:0:0:
55,214,143535,1,0,0:0:0:0:
290,339,143663,2,0,B|298:230,1,90,8|0,0:0|0:0,0:0:0:0:
89,134,143918,2,0,B|80:14,1,90,0|0,3:2|3:2,0:0:0:0:
299,95,144173,1,8,0:0:0:0:
173,101,144301,1,2,3:2:0:0:
388,274,144428,70,0,B|489:274,1,90,0|0,3:2|0:0,0:0:0:0:
278,331,144684,1,8,0:0:0:0:
367,333,144811,1,2,0:0:0:0:
168,144,144939,1,0,3:2:0:0:
258,143,145067,1,2,3:2:0:0:
43,328,145194,2,0,B|35:214,1,90,8|0,0:0|0:0,0:0:0:0:
309,193,145450,5,4,3:2:0:0:
184,202,145577,1,2,0:0:0:0:
410,109,145705,1,10,0:0:0:0:
103,102,145833,1,2,0:0:0:0:
228,313,145960,5,2,3:2:0:0:
102,312,146088,1,2,0:0:0:0:
346,163,146216,1,8,0:0:0:0:
121,312,146343,1,2,0:0:0:0:
418,362,146471,6,0,B|438:315|438:315|425:313|425:313|433:222,1,135,4|0,3:2|0:0,0:0:0:0:
206,198,146726,1,8,0:0:0:0:
405,128,146854,2,0,P|444:77|384:69,1,135,4|0,3:2|0:0,0:0:0:0:
110,315,147109,6,0,P|205:7|309:366,1,945.000036048891,4|0,3:2|0:1,0:0:0:0:
118,339,149024,1,2,0:1:0:0:
37,337,149152,1,2,0:1:0:0:
37,337,149280,1,2,0:1:0:0:
118,339,149407,1,2,0:1:0:0:
425,197,149535,70,0,B|434:78,1,90,4|0,3:2|0:0,0:0:0:0:
305,29,149790,2,0,L|410:28,1,90,8|0,0:0|3:2,0:0:0:0:
157,325,150046,2,0,B|151:227,1,90,2|0,0:2|3:2,0:0:0:0:
278,236,150301,1,8,0:0:0:0:
151,235,150428,1,0,0:0:0:0:
359,135,150556,70,0,B|366:27,1,90,2|0,3:2|0:0,0:0:0:0:
275,46,150811,1,8,0:0:0:0:
483,343,150939,2,0,B|488:219,1,90,2|0,3:2|0:0,0:0:0:0:
268,134,151195,1,2,3:2:0:0:
358,130,151322,1,8,0:0:0:0:
268,134,151450,1,2,0:0:0:0:
62,334,151577,70,0,B|181:334,1,90,2|0,3:2|0:0,0:0:0:0:
149,334,151833,1,8,0:0:0:0:
355,146,151960,2,0,B|359:50,1,90,2|0,3:2|0:0,0:0:0:0:
268,249,152216,1,0,3:2:0:0:
476,206,152344,1,8,0:0:0:0:
386,204,152471,1,2,0:0:0:0:
133,179,152599,70,0,B|127:55,1,90,2|0,3:2|0:0,0:0:0:0:
255,265,152854,2,0,L|144:265,1,90,10|0,0:2|3:2,0:0:0:0:
382,178,153109,1,2,0:2:0:0:
472,179,153237,1,2,3:2:0:0:
201,142,153365,2,0,B|197:24,1,90,8|2,0:0|0:0,0:0:0:0:
397,351,153620,5,4,3:2:0:0:
176,350,153748,1,2,0:0:0:0:
373,352,153875,1,8,0:0:0:0:
233,351,154003,1,2,3:2:0:0:
359,153,154131,1,2,0:2:0:0:
247,153,154258,1,2,3:2:0:0:
346,154,154386,1,8,0:0:0:0:
274,154,154514,1,2,0:0:0:0:
485,320,154641,6,0,P|482:227|384:223,1,180,2|8,3:2|0:0,0:0:0:0:
216,346,155024,2,0,B|208:249,1,90,2|0,3:2|0:2,0:2:0:0:
300,262,155280,1,2,3:2:0:0:
112,204,155407,2,0,L|107:139,1,45,8|0,0:0|0:0,0:0:0:0:
292,125,155535,2,0,L|349:126,1,45,2|0,0:0|0:0,0:0:0:0:
136,57,155663,6,0,B|121:210,1,135,4|0,3:2|0:0,0:0:0:0:
356,165,155918,2,0,B|473:164,1,90,8|0,0:0|0:0,0:0:0:0:
175,294,156173,70,0,B|25:294,1,135,4|0,3:2|0:0,0:0:0:0:
278,255,156429,2,0,B|285:360,1,90,8|0,0:0|0:0,0:0:0:0:
40,46,156684,6,0,B|25:185,1,135,4|0,3:2|0:0,0:0:0:0:
250,73,156939,2,0,B|349:73,1,90,8|0,0:0|0:0,0:0:0:0:
123,270,157194,70,0,B|114:376,1,90,6|0,3:2|0:0,0:0:0:0:
352,274,157450,1,8,0:0:0:0:
117,227,157578,1,8,0:0:0:0:
386,202,157705,70,0,P|460:136|414:70,1,180,4|8,3:2|0:0,0:0:0:0:
340,66,158088,1,2,3:2:0:0:
132,341,158216,2,0,B|128:251,1,90,0|0,0:2|3:2,0:0:0:0:
254,264,158471,1,8,0:0:0:0:
128,251,158599,1,2,0:0:0:0:
334,198,158726,70,0,P|336:111|249:72,1,180,2|8,3:2|0:0,0:0:0:0:
171,77,159109,1,0,3:2:0:0:
406,348,159237,2,0,B|408:251,1,90,2|0,0:2|3:2,0:0:0:0:
281,279,159492,2,0,L|384:279,1,90,8|2,0:0|0:0,0:0:0:0:
125,218,159748,6,0,P|86:142|161:105,1,180,2|8,3:2|0:0,0:0:0:0:
243,108,160131,1,2,3:2:0:0:
476,148,160258,1,2,0:0:0:0:
359,153,160386,1,2,3:2:0:0:
476,148,160514,1,8,0:0:0:0:
481,148,160641,1,2,0:0:0:0:
274,344,160769,70,0,B|269:243,1,90,2|0,3:2|0:0,0:0:0:0:
142,177,161024,1,8,0:0:0:0:
268,180,161152,1,2,3:2:0:0:
178,179,161280,1,2,0:2:0:0:
302,118,161407,1,0,3:2:0:0:
50,337,161535,2,0,B|36:196,1,135,8|0,0:0|0:0,0:0:0:0:
253,261,161790,53,4,3:2:0:0:
266,225,161918,1,0,0:0:0:0:
230,176,162046,1,8,0:0:0:0:
129,169,162173,1,2,0:0:0:0:
418,339,162301,53,2,3:2:0:0:
293,344,162428,1,2,3:2:0:0:
383,280,162556,1,8,0:0:0:0:
175,286,162684,1,2,0:0:0:0:
408,92,162811,21,4,3:2:0:0:
413,92,162939,1,0,0:2:0:0:
205,129,163067,1,8,0:0:0:0:
313,128,163194,1,0,0:0:0:0:
42,37,163322,53,4,3:2:0:0:
29,73,163450,1,0,0:0:0:0:
65,122,163578,1,8,0:0:0:0:
166,129,163705,1,2,0:0:0:0:
419,343,163833,21,4,3:2:0:0:
294,340,163960,1,2,0:0:0:0:
384,277,164088,1,8,0:0:0:0:
176,285,164216,1,2,0:2:0:0:
409,89,164343,53,2,3:2:0:0:
319,98,164471,1,2,3:2:0:0:
66,116,164599,1,10,0:0:0:0:
155,112,164726,1,2,0:0:0:0:
354,337,164854,21,4,3:2:0:0:
228,333,164982,1,0,0:0:0:0:
354,337,165109,1,10,0:2:0:0:
228,333,165237,1,0,0:2:0:0:
481,352,165365,53,4,3:2:0:0:
494,316,165493,1,0,0:0:0:0:
458,267,165621,1,8,0:0:0:0:
357,260,165748,1,2,0:0:0:0:
97,86,165875,21,4,3:2:0:0:
223,81,166003,1,0,0:0:0:0:
133,153,166131,1,10,0:0:0:0:
348,149,166258,1,2,0:0:0:0:
140,75,166386,53,2,3:2:0:0:
135,74,166514,1,2,3:2:0:0:
404,336,166641,1,8,0:0:0:0:
314,338,166769,1,2,0:0:0:0:
115,132,166897,21,4,3:2:0:0:
240,135,167024,1,2,0:0:0:0:
115,132,167152,1,10,0:0:0:0:
240,135,167280,1,2,0:0:0:0:
25,42,167407,53,4,3:2:0:0:
12,78,167535,1,0,0:0:0:0:
48,127,167663,1,8,0:0:0:0:
149,134,167790,1,2,0:0:0:0:
420,359,167918,21,4,3:2:0:0:
330,360,168046,1,2,0:0:0:0:
455,244,168173,1,10,0:0:0:0:
365,244,168301,1,2,0:0:0:0:
114,113,168428,53,2,3:2:0:0:
204,117,168556,1,2,3:2:0:0:
439,85,168684,1,8,0:0:0:0:
349,85,168811,1,2,0:0:0:0:
113,335,168939,5,12,0:0:0:0:
339,331,169067,2,0,L|342:278,1,45
107,270,169194,2,0,B|98:155,1,90,4|8,3:2|3:0,0:0:0:0:
310,120,169450,5,8,3:0:0:0:
316,111,169535,1,8,3:0:0:0:
250,106,169620,1,8,3:0:0:0:
430,306,169705,1,0,3:2:0:0:
490,305,169790,1,0,3:0:0:0:
430,306,169875,1,0,3:0:0:0:
106,65,169960,5,12,0:0:0:0:
344,69,170088,2,0,L|347:122,1,45
99,97,170216,2,0,B|90:212,1,90,12|8,3:2|3:0,0:0:0:0:
345,265,170471,5,8,3:0:0:0:
286,270,170556,1,0,3:2:0:0:
345,265,170641,1,0,3:2:0:0:
106,109,170726,1,8,3:0:0:0:
46,110,170811,1,8,3:0:0:0:
106,109,170896,1,8,3:0:0:0:
385,100,170982,5,12,0:0:0:0:
115,84,171110,2,0,L|169:84,1,45
403,244,171237,2,0,B|406:129,1,90,12|8,3:2|3:0,0:0:0:0:
155,156,171493,5,8,3:0:0:0:
215,158,171578,1,8,3:0:0:0:
275,156,171663,1,8,3:0:0:0:
47,335,171748,1,8,3:0:0:0:
41,332,171833,1,8,3:0:0:0:
113,334,171918,1,8,3:0:0:0:
388,82,172003,5,12,0:0:0:0:
118,135,172131,2,0,L|113:81,1,45
358,278,172258,2,0,B|473:277,1,90,12|8,3:2|3:0,0:0:0:0:
122,252,172641,1,0,0:0:0:0:
324,86,172769,6,0,B|356:309|356:309|321:81|321:81|79:58|68:167|70:264|100:359,1,900
